osu file format v14

[General]
AudioFilename: audio.mp3
AudioLeadIn: 0
PreviewTime: 244629
Countdown: 0
SampleSet: Soft
StackLeniency: 0.2
Mode: 0
LetterboxInBreaks: 0
WidescreenStoryboard: 0

[Editor]
Bookmarks: 789,3612,17730,20553,25494,27612,33259,38906,43141,50200,55847,67141,72788,79847,85494,102436,119377,125163,131865,137512,143159,145629,148806,151453,165747,171394,178453,179864,184100,201041,206864,206953,207041,207129,207217,207306,207394,207482,207570,207659,207747,207835,207923,208100,213747,218512,218600,218688,218776,218864,218953,219041,219129,219217,219306,219394,225041,232100,233512,233600,233688,233776,233864,233953,234041,234129,234217,234306,234394,234482,234570,234659,234747,237747,244806,250453,257512,263159,280100,297041,305512,311864
DistanceSpacing: 1.8
BeatDivisor: 4
GridSize: 32
TimelineZoom: 2.5

[Metadata]
Title:Kimiyo
TitleUnicode:君よ
Artist:La priere
ArtistUnicode:La prière
Creator:Shiino
Version:Frail
Source:
Tags:Gemini Syndrome アルバム Album 棗いつき Natsume Itsuki 藍月なくる Aitsuki Nakuru nayuta Japanese full version Idols electronic fa featured artist mappers' guild mpg
BeatmapID:3073230
BeatmapSetID:1499629

[Difficulty]
HPDrainRate:4.8
CircleSize:4
OverallDifficulty:8.4
ApproachRate:9.2
SliderMultiplier:1.72
SliderTickRate:1

[Events]
//Background and Video events
0,0,"bg.jpg",0,0
//Break Periods
2,127763,129387
2,219594,223059
//Storyboard Layer 0 (Background)
//Storyboard Layer 1 (Fail)
//Storyboard Layer 2 (Pass)
//Storyboard Layer 3 (Foreground)
//Storyboard Layer 4 (Overlay)
//Storyboard Sound Samples

[TimingPoints]
789,352.941176470588,4,2,2,70,1,0
1141,-125,4,2,2,70,0,0
3259,-83.3333333333333,4,2,2,70,0,0
3612,-71.4285714285714,4,2,2,75,0,0
4318,-100,4,2,2,75,0,0
5377,-71.4285714285714,4,2,2,75,0,0
5730,-83.3333333333333,4,2,2,75,0,0
7141,-100,4,2,2,75,0,0
8906,-166.666666666667,4,2,2,75,0,0
9612,-83.3333333333333,4,2,2,75,0,0
13494,-100,4,2,2,75,0,0
14906,-71.4285714285714,4,2,2,75,0,0
15612,-100,4,2,2,75,0,0
16671,-71.4285714285714,4,2,2,75,0,0
17024,-83.3333333333333,4,2,2,75,0,0
17730,-76.9230769230769,4,2,4,75,0,0
18788,-76.9230769230769,4,2,2,75,0,0
19318,-100,4,2,2,75,0,0
20553,-100,4,2,2,70,0,0
21083,-83.3333333333333,4,2,2,70,0,0
21436,-125,4,2,2,70,0,0
21788,-76.9230769230769,4,2,2,70,0,0
23200,-62.5,4,2,2,70,0,0
23553,-125,4,2,2,70,0,0
23906,-76.9230769230769,4,2,2,70,0,0
24612,-83.3333333333333,4,2,2,70,0,0
25141,-100,4,2,2,70,0,0
26024,-83.3333333333333,4,2,2,70,0,0
26553,-100,4,2,2,70,0,0
27612,-125,4,2,2,65,0,0
31847,-125,4,2,2,70,0,0
33259,-100,4,2,2,75,0,0
33612,-71.4285714285714,4,2,2,75,0,0
33965,-100,4,2,2,75,0,0
35024,-71.4285714285714,4,2,2,75,0,0
35377,-100,4,2,2,75,0,0
37318,-71.4285714285714,4,2,2,75,0,0
37847,-100,4,2,2,75,0,0
38906,-125,4,2,2,65,0,0
43141,-125,4,2,2,70,0,0
44553,-100,4,2,2,75,0,0
44906,-71.4285714285714,4,2,2,75,0,0
45259,-100,4,2,2,75,0,0
46318,-71.4285714285714,4,2,2,75,0,0
46671,-100,4,2,2,75,0,0
50730,-83.3333333333333,4,2,2,75,0,0
51436,-100,4,2,2,75,0,0
52141,-76.9230769230769,4,2,2,75,0,0
52494,-76.9230769230769,4,2,3,75,0,0
53024,-100,4,2,2,75,0,0
53553,-83.3333333333333,4,2,2,75,0,0
54259,-100,4,2,2,75,0,0
55494,-100,4,2,3,75,0,0
55847,-71.4285714285714,4,2,2,75,0,0
56200,-100,4,2,2,75,0,0
58671,-71.4285714285714,4,2,2,75,0,0
59024,-100,4,2,2,75,0,0
61494,-83.3333333333333,4,2,2,75,0,0
64318,-100,4,2,2,75,0,0
65553,-71.4285714285714,4,2,2,75,0,0
66788,-166.666666666667,4,2,2,75,0,0
67141,-71.4285714285714,4,2,2,85,0,1
67494,-90.9090909090909,4,2,2,85,0,1
70318,-71.4285714285714,4,2,2,85,0,1
70671,-100,4,2,2,85,0,1
70936,-83.3333333333333,4,2,2,85,0,1
71377,-71.4285714285714,4,2,2,85,0,1
71730,-125,4,2,2,85,0,1
72083,-71.4285714285714,4,2,2,85,0,1
72436,-125,4,2,2,85,0,1
72788,-83.3333333333333,4,2,2,80,0,0
74200,-100,4,2,2,80,0,0
74906,-125,4,2,2,80,0,0
75612,-71.4285714285714,4,2,2,80,0,0
75965,-125,4,2,2,80,0,0
76318,-71.4285714285714,4,2,2,80,0,0
76671,-125,4,2,2,80,0,0
77024,-83.3333333333333,4,2,2,80,0,0
77377,-100,4,2,2,80,0,0
77730,-83.3333333333333,4,2,2,80,0,0
78259,-71.4285714285714,4,2,2,80,0,0
79847,-71.4285714285714,4,2,2,85,0,1
80200,-90.9090909090909,4,2,2,85,0,1
83024,-71.4285714285714,4,2,2,85,0,1
83377,-100,4,2,2,85,0,1
83641,-83.3333333333333,4,2,2,85,0,1
84083,-71.4285714285714,4,2,2,85,0,1
84436,-125,4,2,2,85,0,1
84788,-71.4285714285714,4,2,2,85,0,1
85141,-125,4,2,2,85,0,1
85494,-83.3333333333333,4,2,2,75,0,0
85847,-100,4,2,2,75,0,0
88318,-83.3333333333333,4,2,2,75,0,0
88671,-100,4,2,2,75,0,0
93965,-71.4285714285714,4,2,2,75,0,0
94318,-125,4,2,2,75,0,0
94671,-71.4285714285714,4,2,2,75,0,0
95024,-125,4,2,2,75,0,0
95377,-83.3333333333333,4,2,2,75,0,0
95730,-71.4285714285714,4,2,2,75,0,0
96612,-100,4,2,2,75,0,0
102436,-71.4285714285714,4,2,2,75,0,0
103142,-100,4,2,2,75,0,0
104200,-71.4285714285714,4,2,2,75,0,0
104554,-83.3333333333333,4,2,2,75,0,0
105965,-100,4,2,2,75,0,0
107730,-166.666666666667,4,2,2,75,0,0
108436,-83.3333333333333,4,2,2,75,0,0
112318,-100,4,2,2,75,0,0
113730,-71.4285714285714,4,2,2,75,0,0
114436,-100,4,2,2,75,0,0
115495,-71.4285714285714,4,2,2,75,0,0
115847,-83.3333333333333,4,2,2,75,0,0
116553,-76.9230769230769,4,2,4,75,0,0
117611,-76.9230769230769,4,2,2,75,0,0
118141,-100,4,2,2,75,0,0
119377,-100,4,2,2,70,0,0
119906,-83.3333333333333,4,2,2,70,0,0
120259,-125,4,2,2,70,0,0
120612,-76.9230769230769,4,2,2,70,0,0
122024,-62.5,4,2,2,70,0,0
122377,-125,4,2,2,70,0,0
122729,-76.9230769230769,4,2,2,70,0,0
123436,-111.111111111111,4,2,2,70,0,0
124318,-125,4,2,2,70,0,0
125156,-125,4,2,2,65,0,0
125163,400,4,2,2,65,1,0
128757,400,4,2,2,80,1,0
130357,352.941176470588,4,2,2,80,1,0
130709,329.670329670329,4,2,2,80,1,0
131865,352.941176470588,4,2,2,75,1,0
131865,-71.4285714285714,4,2,2,75,0,0
132129,-125,4,2,2,75,0,0
132570,-100,4,2,2,75,0,0
132923,-71.4285714285714,4,2,2,75,0,0
133276,-100,4,2,2,75,0,0
133982,-83.3333333333333,4,2,2,75,0,0
134688,-100,4,2,2,75,0,0
135217,-83.3333333333333,4,2,2,75,0,0
135747,-100,4,2,2,75,0,0
135923,-71.4285714285714,4,2,2,75,0,0
137512,-125,4,2,2,65,0,0
141747,-125,4,2,2,70,0,0
143159,-100,4,2,2,75,0,0
143512,-71.4285714285714,4,2,2,75,0,0
143865,-100,4,2,2,75,0,0
144924,-71.4285714285714,4,2,2,75,0,0
145276,-100,4,2,2,75,0,0
149335,-83.3333333333333,4,2,2,75,0,0
150041,-100,4,2,2,75,0,0
150747,-76.9230769230769,4,2,2,75,0,0
151100,-76.9230769230769,4,2,3,75,0,0
151629,-100,4,2,2,75,0,0
152159,-83.3333333333333,4,2,2,75,0,0
152864,-100,4,2,2,75,0,0
154100,-100,4,2,3,75,0,0
154453,-71.4285714285714,4,2,2,75,0,0
154806,-100,4,2,2,75,0,0
157276,-71.4285714285714,4,2,2,75,0,0
157630,-100,4,2,2,75,0,0
160100,-83.3333333333333,4,2,2,75,0,0
162923,-100,4,2,2,75,0,0
164159,-71.4285714285714,4,2,2,75,0,0
165394,-166.666666666667,4,2,2,75,0,0
165747,-71.4285714285714,4,2,2,85,0,1
166100,-90.9090909090909,4,2,2,85,0,1
168923,-71.4285714285714,4,2,2,85,0,1
169277,-100,4,2,2,85,0,1
169541,-83.3333333333333,4,2,2,85,0,1
169983,-71.4285714285714,4,2,2,85,0,1
170336,-125,4,2,2,85,0,1
170688,-71.4285714285714,4,2,2,85,0,1
171041,-125,4,2,2,85,0,1
171394,-83.3333333333333,4,2,2,80,0,0
172806,-100,4,2,2,80,0,0
173512,-125,4,2,2,80,0,0
174217,-71.4285714285714,4,2,2,80,0,0
174571,-125,4,2,2,80,0,0
174923,-71.4285714285714,4,2,2,80,0,0
175277,-125,4,2,2,80,0,0
175630,-83.3333333333333,4,2,2,80,0,0
175982,-100,4,2,2,80,0,0
176335,-83.3333333333333,4,2,2,80,0,0
176864,-71.4285714285714,4,2,2,80,0,0
178453,-71.4285714285714,4,2,2,85,0,1
178806,-90.9090909090909,4,2,2,85,0,1
181630,-71.4285714285714,4,2,2,85,0,1
181983,-100,4,2,2,85,0,1
182247,-83.3333333333333,4,2,2,85,0,1
182689,-71.4285714285714,4,2,2,85,0,1
183042,-125,4,2,2,85,0,1
183394,-71.4285714285714,4,2,2,85,0,1
183747,-125,4,2,2,85,0,1
184100,-83.3333333333333,4,2,2,75,0,0
184453,-100,4,2,2,75,0,0
186923,-83.3333333333333,4,2,2,75,0,0
187276,-100,4,2,2,75,0,0
192571,-71.4285714285714,4,2,2,75,0,0
192924,-125,4,2,2,75,0,0
193277,-71.4285714285714,4,2,2,75,0,0
193629,-125,4,2,2,75,0,0
193982,-83.3333333333333,4,2,2,75,0,0
194336,-71.4285714285714,4,2,2,75,0,0
195217,-100,4,2,2,75,0,0
201041,-71.4285714285714,4,2,2,70,0,0
202629,-83.3333333333333,4,2,2,70,0,0
203159,-100,4,2,2,70,0,0
205806,-71.4285714285714,4,2,2,70,0,0
206335,-83.3333333333333,4,2,2,70,0,0
206864,-100,4,2,2,70,0,0
213747,-83.3333333333333,4,2,2,70,0,0
214100,-100,4,2,2,70,0,0
214453,-83.3333333333333,4,2,2,70,0,0
214806,-100,4,2,2,70,0,0
215159,-83.3333333333333,4,2,2,70,0,0
215512,-100,4,2,2,70,0,0
216570,-83.3333333333333,4,2,2,70,0,0
217982,-71.4285714285714,4,2,2,70,0,0
218512,-100,4,2,2,70,0,0
219394,-100,4,2,2,65,0,0
225041,-83.3333333333333,4,2,2,70,0,0
225394,-100,4,2,2,70,0,0
225747,-83.3333333333333,4,2,2,70,0,0
226276,-100,4,2,2,70,0,0
230688,-125,4,2,2,70,0,0
232100,-166.666666666667,4,2,2,75,0,0
233512,-100,4,2,2,75,0,0
237041,-125,4,2,2,75,0,0
237747,-100,4,2,2,75,0,0
239688,-125,4,2,2,75,0,0
240570,-100,4,2,2,75,0,0
241100,-83.3333333333333,4,2,2,75,0,0
241806,-71.4285714285714,4,2,2,75,0,0
242335,-100,4,2,2,75,0,0
244806,-71.4285714285714,4,2,2,85,0,1
245159,-90.9090909090909,4,2,2,85,0,1
247982,-71.4285714285714,4,2,2,85,0,1
248336,-100,4,2,2,85,0,1
248600,-83.3333333333333,4,2,2,85,0,1
249042,-71.4285714285714,4,2,2,85,0,1
249395,-125,4,2,2,85,0,1
249747,-71.4285714285714,4,2,2,85,0,1
250100,-125,4,2,2,85,0,1
250453,-83.3333333333333,4,2,2,80,0,0
251864,-100,4,2,2,80,0,0
252571,-125,4,2,2,80,0,0
253277,-71.4285714285714,4,2,2,80,0,0
253630,-125,4,2,2,80,0,0
253982,-71.4285714285714,4,2,2,80,0,0
254335,-125,4,2,2,80,0,0
254688,-83.3333333333333,4,2,2,80,0,0
255041,-100,4,2,2,80,0,0
255394,-83.3333333333333,4,2,2,80,0,0
255923,-71.4285714285714,4,2,2,80,0,0
257512,-71.4285714285714,4,2,2,85,0,1
257865,-90.9090909090909,4,2,2,85,0,1
260688,-71.4285714285714,4,2,2,85,0,1
261042,-100,4,2,2,85,0,1
261306,-83.3333333333333,4,2,2,85,0,1
261747,-71.4285714285714,4,2,2,85,0,1
262101,-125,4,2,2,85,0,1
262453,-71.4285714285714,4,2,2,85,0,1
262807,-125,4,2,2,85,0,1
263159,-83.3333333333333,4,2,2,75,0,0
263512,-100,4,2,2,75,0,0
265982,-83.3333333333333,4,2,2,75,0,0
266336,-100,4,2,2,75,0,0
271630,-71.4285714285714,4,2,2,75,0,0
271983,-125,4,2,2,75,0,0
272335,-71.4285714285714,4,2,2,75,0,0
272688,-125,4,2,2,75,0,0
273041,-83.3333333333333,4,2,2,75,0,0
273395,-71.4285714285714,4,2,2,75,0,0
274276,-100,4,2,2,75,0,0
280100,-71.4285714285714,4,2,2,75,0,0
280807,-100,4,2,2,75,0,0
281864,-71.4285714285714,4,2,2,75,0,0
282217,-83.3333333333333,4,2,2,75,0,0
283630,-100,4,2,2,75,0,0
285394,-166.666666666667,4,2,2,75,0,0
286100,-83.3333333333333,4,2,2,75,0,0
289983,-100,4,2,2,75,0,0
291395,-71.4285714285714,4,2,2,75,0,0
292100,-100,4,2,2,75,0,0
293159,-71.4285714285714,4,2,2,75,0,0
293512,-83.3333333333333,4,2,2,75,0,0
294217,-76.9230769230769,4,2,4,75,0,0
295275,-76.9230769230769,4,2,2,75,0,0
295806,-100,4,2,2,75,0,0
297041,-100,4,2,2,70,0,0
297570,-83.3333333333333,4,2,2,70,0,0
297923,-125,4,2,2,70,0,0
298276,-76.9230769230769,4,2,2,70,0,0
299688,-62.5,4,2,2,70,0,0
300041,-125,4,2,2,70,0,0
300394,-76.9230769230769,4,2,2,70,0,0
301100,-111.111111111111,4,2,2,70,0,0
301982,-111.111111111111,4,2,2,65,0,0
302335,-111.111111111111,4,2,2,60,0,0
302688,-125,4,2,2,70,0,0
303570,-125,4,2,2,60,0,0
303923,-200,4,2,2,55,0,0
305570,-200,4,2,2,65,0,0
311864,-200,4,2,2,5,0,0

[Colours]
Combo1 : 128,128,255
Combo2 : 94,174,255
Combo3 : 255,145,200
Combo4 : 137,137,197

[HitObjects]
14,71,789,5,6,1:2:0:0:
85,33,965,1,2,0:0:0:0:
128,97,1141,2,0,L|104:173,1,68.8,2|2,0:0|0:0,0:0:0:0:
185,229,1494,5,2,0:0:0:0:
197,224,1671,1,2,0:0:0:0:
260,159,1847,5,10,0:0:0:0:
456,47,2024,1,2,0:0:0:0:
378,38,2200,5,10,3:0:0:0:
363,50,2288,1,8,3:0:0:0:
363,74,2377,1,10,3:0:0:0:
384,101,2465,1,8,3:0:0:0:
416,112,2553,5,6,3:0:0:0:
448,123,2641,1,4,3:0:0:0:
469,150,2729,1,6,3:0:0:0:
472,185,2818,1,4,3:0:0:0:
421,248,2906,6,8,L|407:276,1,17.2,10|8,0:0|0:0,0:0:0:0:
387,240,2994,2,8,L|373:268,1,17.2
352,232,3083,2,8,L|338:260,2,17.2,10|8|8,0:0|0:0|0:0,0:0:0:0:
260,159,3259,6,0,B|236:181|211:191|211:191|244:307,1,154.799995275879,14|0,0:0|0:0,0:0:0:0:
60,317,3612,6,0,B|24:312|19:337|19:337|41:253|130:272,1,180.599994488526,6|0,1:2|0:0,0:0:0:0:
171,321,3965,1,10,0:0:0:0:
88,187,4141,1,2,0:0:0:0:
196,113,4318,2,0,L|166:211,1,86,2|0,1:2|0:0,0:0:0:0:
296,333,4671,2,0,P|335:318|352:280,1,86,10|0,0:0|0:0,0:0:0:0:
276,257,5024,5,2,1:2:0:0:
398,138,5200,2,0,P|419:166|420:194,1,43,2|0,0:0|0:0,0:0:0:0:
512,262,5377,6,0,P|412:209|324:191,1,180.599994488526,10|0,0:0|0:0,0:0:0:0:
294,81,5730,2,0,P|345:35|424:65,1,154.799995275879,2|0,1:2|0:0,0:0:0:0:
346,193,6083,5,10,0:0:0:0:
271,162,6259,1,2,0:0:0:0:
271,162,6347,1,2,0:0:0:0:
271,162,6436,5,0,1:2:0:0:
182,235,6612,1,2,0:0:0:0:
189,255,6700,1,2,0:0:0:0:
196,275,6788,5,10,0:0:0:0:
192,157,6965,1,2,0:0:0:0:
84,226,7141,2,0,L|-1:186,1,86,2|0,1:2|0:0,0:0:0:0:
105,108,7494,5,10,0:0:0:0:
176,75,7671,1,2,0:0:0:0:
192,157,7847,5,2,1:2:0:0:
333,209,8024,1,2,0:0:0:0:
359,133,8200,5,10,0:0:0:0:
240,222,8377,1,2,0:0:0:0:
176,75,8553,5,2,1:2:0:0:
245,33,8730,1,2,0:0:0:0:
293,97,8906,6,0,P|336:111|363:139,1,77.3999976379395,10|0,0:0|0:0,0:0:0:0:
431,96,9259,5,6,1:2:0:0:
386,218,9436,1,2,0:0:0:0:
457,281,9612,6,0,P|371:309|302:374,1,154.799995275879,10|0,0:0|0:0,0:0:0:0:
262,302,9965,5,2,1:2:0:0:
163,361,10141,1,2,0:0:0:0:
142,353,10230,1,2,0:0:0:0:
121,345,10318,1,10,0:0:0:0:
79,275,10494,1,2,0:0:0:0:
99,267,10582,1,2,0:0:0:0:
119,259,10671,5,2,1:2:0:0:
198,111,10847,1,2,0:0:0:0:
135,169,11024,6,0,B|216:195|196:109|278:138,1,154.799995275879,10|0,0:0|0:0,0:0:0:0:
335,81,11377,5,2,1:2:0:0:
243,2,11553,1,2,0:0:0:0:
229,18,11641,1,2,0:0:0:0:
233,39,11730,1,10,0:0:0:0:
198,111,11906,1,2,0:0:0:0:
207,120,11994,1,2,0:0:0:0:
221,117,12083,5,2,1:2:0:0:
10,58,12259,1,2,0:0:0:0:
62,2,12436,6,0,L|29:175,1,154.799995275879,10|2,0:0|0:0,0:0:0:0:
83,213,12788,5,2,1:2:0:0:
188,301,12965,1,2,0:0:0:0:
209,293,13053,1,2,0:0:0:0:
230,285,13142,1,10,0:0:0:0:
277,221,13318,5,2,0:0:0:0:
265,215,13406,1,2,0:0:0:0:
251,209,13494,6,0,P|253:187|269:170,1,43,2|8,1:2|3:0,0:0:0:0:
359,225,13671,2,0,P|357:247|340:263,1,43,2|4,1:2|3:0,0:0:0:0:
343,143,13847,5,10,0:0:0:0:
352,131,14024,1,8,3:0:0:0:
164,68,14200,5,4,3:0:0:0:
164,68,14288,1,10,0:0:0:0:
164,68,14377,2,0,L|177:124,1,43,10|0,0:0|1:2,0:0:0:0:
123,181,14553,5,10,0:0:0:0:
56,147,14641,1,10,0:0:0:0:
5,205,14730,1,8,3:0:0:0:
10,217,14818,1,4,3:0:0:0:
82,251,14906,6,0,B|82:280|51:293|51:293|170:244,1,180.599994488526,6|0,1:2|0:0,0:0:0:0:
222,296,15259,1,10,0:0:0:0:
323,184,15435,1,2,0:0:0:0:
413,288,15612,2,0,P|380:260|321:268,1,86,2|0,1:2|0:0,0:0:0:0:
250,47,15965,2,0,L|266:149,1,86,10|0,0:0|0:0,0:0:0:0:
245,208,16318,5,2,1:2:0:0:
386,50,16494,2,0,P|370:66|366:97,1,43,2|0,0:0|0:0,0:0:0:0:
451,106,16671,6,0,B|392:81|340:127|340:127|342:165|309:199,1,180.599994488526,10|0,0:0|0:0,0:0:0:0:
222,296,17024,2,0,P|153:252|46:219,1,154.799995275879,2|0,1:2|0:0,0:0:0:0:
10,81,17377,5,10,0:0:0:0:
135,4,17553,1,2,0:0:0:0:
135,4,17641,1,2,0:0:0:0:
135,4,17730,6,0,B|157:75|157:75|95:85|95:85|105:94|103:108|103:108|160:82|160:82|183:180|183:180|211:169|211:169|172:79|172:79|230:72|230:72|224:63|224:49|224:49|170:71|170:71|147:-4,1,670.799969293214,6|8,1:0|0:0,0:0:0:0:
316,165,18965,5,2,0:0:0:0:
316,165,19053,1,2,0:0:0:0:
316,165,19141,5,2,1:2:0:0:
402,109,19318,2,0,L|390:150,1,43,2|2,0:0|0:0,0:0:0:0:
301,243,19494,5,8,0:0:0:0:
373,224,19583,1,8,0:0:0:0:
411,254,19671,1,0,1:2:0:0:
416,273,19759,1,0,1:2:0:0:
411,286,19847,5,0,1:2:0:0:
242,193,20024,1,0,1:2:0:0:
175,252,20200,5,8,0:0:0:0:
179,268,20288,1,8,0:0:0:0:
183,284,20377,1,8,0:0:0:0:
187,300,20465,1,8,0:0:0:0:
191,316,20553,5,6,1:2:0:0:
165,162,20730,1,2,0:0:0:0:
2,253,20906,5,10,0:0:0:0:
68,318,21083,6,0,B|88:222|88:222|61:214|40:178,1,154.799995275879,2|0,1:2|0:0,0:0:0:0:
48,37,21436,2,0,P|59:59|61:93,1,34.4,2|0,0:0|0:0,0:0:0:0:
3,117,21612,1,10,0:0:0:0:
175,252,21788,6,0,P|267:176|366:141,1,223.599989764405,2|2,1:2|0:0,0:0:0:0:
425,190,22318,1,10,0:0:0:0:
189,6,22494,6,0,B|153:97|284:61|236:187,1,167.699992323304,2|0,1:2|0:0,0:0:0:0:
174,174,22847,1,10,0:0:0:0:
174,174,22936,1,10,0:0:0:0:
441,307,23200,6,0,B|476:270|476:270|423:175|328:243,1,206.4,2|0,1:2|0:0,0:0:0:0:
175,252,23553,2,0,P|160:289|163:308,1,34.4,2|0,0:0|0:0,0:0:0:0:
208,344,23730,1,10,0:0:0:0:
326,131,23906,6,0,L|299:306,1,167.699992323304,2|0,1:2|0:0,0:0:0:0:
390,330,24259,2,0,L|452:302,1,55.8999974411012,2|0,0:0|0:0,0:0:0:0:
488,227,24436,1,8,0:0:0:0:
237,134,24612,6,0,B|228:92|198:80|198:80|332:133,1,206.399993701172,6|0,1:2|0:0,0:0:0:0:
442,135,25141,2,0,P|492:124|509:77,1,86,8|0,0:0|0:0,0:0:0:0:
468,30,25494,2,0,P|418:41|401:88,1,86,2|2,1:2|0:0,0:0:0:0:
282,200,25847,1,10,0:0:0:0:
357,238,26024,6,0,B|283:204|244:276|244:276|239:320|194:331,1,206.399993701172,6|0,1:2|0:0,0:0:0:0:
59,249,26553,2,0,L|26:155,1,86,8|2,0:0|0:0,0:0:0:0:
69,90,26818,1,2,0:0:0:0:
74,104,26906,5,10,0:0:0:0:
146,82,26994,1,10,0:0:0:0:
194,141,27083,5,8,3:0:0:0:
182,168,27171,1,8,3:0:0:0:
193,193,27259,1,4,3:0:0:0:
213,268,27347,5,4,3:0:0:0:
231,276,27435,1,4,3:0:0:0:
249,268,27523,1,4,3:0:0:0:
326,298,27612,6,0,P|381:271|417:258,1,68.8,2|2,0:0|0:0,0:0:0:0:
285,142,28318,6,0,P|258:87|245:51,1,68.8,2|2,0:0|0:0,0:0:0:0:
101,257,29024,6,0,P|46:230|10:217,1,68.8,2|2,0:0|0:0,0:0:0:0:
386,169,29730,6,0,P|441:196|477:209,1,68.8,2|2,0:0|0:0,0:0:0:0:
509,142,30083,1,2,0:0:0:0:
509,142,30259,1,2,0:0:0:0:
387,268,30436,6,0,P|369:290|371:346,1,68.8,2|2,0:0|0:0,0:0:0:0:
342,91,30965,5,2,0:0:0:0:
342,91,31141,2,0,B|375:158|276:139|325:234,1,137.6,2|2,0:0|0:0,0:0:0:0:
387,268,31671,1,2,0:0:0:0:
258,352,31847,6,8,L|253:321,1,17.2,10|8,0:0|0:0,0:0:0:0:
236,344,31936,2,8,L|231:313,1,17.2
214,336,32024,2,8,L|209:305,2,17.2
147,267,32200,5,0,1:2:0:0:
138,219,32288,1,8,0:0:0:0:
175,180,32377,1,10,0:0:0:0:
88,319,32553,5,2,1:2:0:0:
34,123,32730,5,8,0:0:0:0:
66,126,32818,1,8,0:0:0:0:
85,147,32906,1,0,1:2:0:0:
60,228,33083,5,10,3:0:0:0:
219,245,33259,6,0,P|277:210|345:188,1,129,6|0,1:2|0:0,0:0:0:0:
397,96,33612,6,0,B|420:69|420:69|405:12|405:12|365:55|365:55|369:93,1,180.599994488526,10|0,0:0|0:0,0:0:0:0:
282,123,33965,2,0,P|323:168|339:203,1,86,2|2,1:2|0:0,0:0:0:0:
398,287,34318,2,0,P|409:245|409:203,1,86,2|0,1:2|0:0,0:0:0:0:
199,68,34671,2,0,B|216:64|223:38|223:38|197:125,1,129,2|0,1:2|0:0,0:0:0:0:
219,245,35024,6,0,B|242:272|242:272|227:329|227:329|187:286|187:286|191:248,1,180.599994488526,10|0,0:0|0:0,0:0:0:0:
123,183,35377,2,0,L|25:156,1,86,2|2,1:2|0:0,0:0:0:0:
301,222,35730,2,0,L|218:244,1,86,2|0,1:2|0:0,0:0:0:0:
491,225,36083,2,0,L|408:202,1,86,2|0,1:2|0:0,0:0:0:0:
366,266,36436,1,2,1:2:0:0:
248,119,36612,6,0,B|263:76|263:76|349:87|346:168,1,172,2|0,0:0|0:0,0:0:0:0:
273,333,37141,2,0,B|262:351|262:351|269:320,1,43,10|0,0:0|0:0,0:0:0:0:
463,147,37318,6,0,B|370:113|324:216|324:216|361:235|381:312,1,240.799992651367,6|0,1:2|1:2,0:0:0:0:
434,303,37847,2,0,P|434:346|423:366,2,43,0|0|0,1:2|1:2|1:2,0:0:0:0:
301,222,38200,1,0,1:2:0:0:
284,230,38288,1,0,1:2:0:0:
267,238,38377,5,0,1:2:0:0:
175,335,38553,1,0,1:2:0:0:
66,279,38730,1,0,1:2:0:0:
96,207,38906,6,0,L|66:131,1,68.8,2|2,0:0|0:0,0:0:0:0:
242,374,39612,6,0,L|272:298,1,68.8,2|2,0:0|0:0,0:0:0:0:
366,113,40318,6,0,L|442:83,1,68.8,2|2,0:0|0:0,0:0:0:0:
236,205,41024,6,0,L|160:235,1,68.8,2|2,0:0|0:0,0:0:0:0:
301,160,41377,1,2,0:0:0:0:
301,160,41553,1,2,0:0:0:0:
105,19,41730,6,0,L|126:97,1,68.8,2|2,0:0|0:0,0:0:0:0:
0,272,42259,5,2,0:0:0:0:
0,272,42435,2,0,P|59:304|104:356,1,137.6,2|2,0:0|0:0,0:0:0:0:
165,259,42965,1,2,0:0:0:0:
254,352,43141,6,8,L|256:329,1,17.2,10|8,0:0|0:0,0:0:0:0:
276,344,43230,2,8,L|278:321,1,17.2
298,336,43318,2,8,L|300:313,2,17.2
365,267,43494,5,8,0:0:0:0:
374,219,43582,1,8,0:0:0:0:
337,180,43671,1,10,0:0:0:0:
478,123,43848,5,8,0:0:0:0:
446,126,43936,1,8,0:0:0:0:
427,147,44024,1,8,0:0:0:0:
320,61,44200,5,8,0:0:0:0:
327,74,44288,1,8,0:0:0:0:
251,262,44465,5,8,0:0:0:0:
258,248,44553,2,0,L|226:107,1,129,6|0,1:2|0:0,0:0:0:0:
90,102,44906,6,0,B|53:73|91:34|88:18|88:18|102:32|155:16|159:76,1,180.599994488526,10|0,0:0|0:0,0:0:0:0:
157,172,45259,2,0,P|116:217|100:252,1,86,2|2,1:2|0:0,0:0:0:0:
24,247,45612,2,0,P|23:289|33:331,1,86,2|0,1:2|0:0,0:0:0:0:
258,248,45965,2,0,B|344:264|344:264|347:288|366:313,1,129,2|0,1:2|0:0,0:0:0:0:
502,242,46318,6,0,B|539:213|501:174|504:158|504:158|490:172|437:156|433:216,1,180.599994488526,10|0,0:0|0:0,0:0:0:0:
410,361,46671,2,0,P|439:319|429:271,1,86,2|2,1:2|0:0,0:0:0:0:
329,114,47024,2,0,P|329:156|355:189,1,86,2|0,1:2|0:0,0:0:0:0:
256,366,47377,6,0,B|274:333|304:337|304:337|186:311,1,172,2|2,1:2|1:2,0:0:0:0:
140,252,47906,1,2,0:0:0:0:
216,98,48083,6,0,B|163:183|301:173|249:268,1,172,2|10,1:2|0:0,0:0:0:0:
113,339,48612,1,2,0:0:0:0:
19,310,48788,5,2,1:2:0:0:
11,293,48877,1,0,1:2:0:0:
16,274,48965,2,0,P|35:264|51:250,1,43,0|0,1:2|1:2,0:0:0:0:
95,104,49141,1,0,1:2:0:0:
92,47,49230,1,0,1:2:0:0:
38,28,49318,1,0,1:2:0:0:
0,72,49406,1,0,1:2:0:0:
30,120,49494,6,8,P|48:130|60:143,1,21.5,10|8,0:0|0:0,0:0:0:0:
71,116,49583,2,8,P|76:135|75:153,1,21.5
102,142,49671,2,8,P|92:160|79:172,2,21.5
176,248,49847,5,0,1:2:0:0:
225,221,49936,1,0,1:2:0:0:
279,231,50024,1,0,1:2:0:0:
326,202,50112,1,0,1:2:0:0:
381,207,50200,6,0,L|400:111,1,86,6|0,1:2|0:0,0:0:0:0:
265,32,50553,1,10,0:0:0:0:
341,56,50730,6,0,B|293:74|293:74|276:123|276:123|215:150,1,154.799995275879,2|0,1:2|0:0,0:0:0:0:
164,89,51083,1,2,0:0:0:0:
326,202,51259,1,8,0:0:0:0:
197,331,51436,6,0,L|167:214,1,86,2|0,1:2|0:0,0:0:0:0:
228,143,51788,1,2,0:0:0:0:
353,278,51965,1,8,0:0:0:0:
375,177,52141,6,0,B|371:155|346:147|346:147|478:182,1,167.699992323304,2|0,1:2|0:0,0:0:0:0:
465,178,52494,6,0,B|512:225,1,55.8999974411012,2|0,1:2|0:0,0:0:0:0:
421,113,52671,2,0,L|420:50,1,55.8999974411012,10|0,1:2|0:0,0:0:0:0:
375,177,52847,2,0,L|307:211,1,55.8999974411012,0|8,1:0|0:0,0:0:0:0:
231,54,53024,6,0,P|183:60|162:94,1,86,6|0,1:2|0:0,0:0:0:0:
67,210,53377,1,10,0:0:0:0:
17,147,53553,6,0,P|104:180|164:235,1,154.799995275879,2|0,1:2|0:0,0:0:0:0:
221,181,53906,1,2,1:2:0:0:
108,293,54083,1,10,0:0:0:0:
249,362,54259,6,0,L|346:312,1,86,2|0,1:2|0:0,0:0:0:0:
375,177,54612,1,2,1:2:0:0:
221,258,54788,1,10,0:0:0:0:
301,248,54965,6,0,B|331:157|225:183|266:82,1,172,2|2,1:2|1:2,0:0:0:0:
335,60,55406,1,2,1:2:0:0:
335,60,55494,2,0,L|309:8,1,43,10|10,1:2|0:2,0:0:0:0:
242,54,55671,2,0,L|261:92,1,43,10|10,1:2|0:2,0:0:0:0:
454,182,55847,6,0,B|460:148|489:137|489:137|358:182,1,180.599994488526,6|0,1:2|0:0,0:0:0:0:
301,248,56200,2,0,P|343:264|376:312,1,86,10|0,0:0|0:0,0:0:0:0:
436,257,56553,5,2,1:2:0:0:
345,147,56730,1,2,0:0:0:0:
221,218,56906,1,10,0:0:0:0:
247,301,57083,1,2,0:0:0:0:
247,301,57171,1,2,0:0:0:0:
247,301,57259,6,0,L|224:393,1,86,2|2,1:2|0:0,0:0:0:0:
196,144,57612,1,10,0:0:0:0:
77,195,57788,2,0,L|-17:166,1,86,2|0,0:0|1:2,0:0:0:0:
221,218,58141,2,0,L|127:247,1,86,2|10,0:0|0:0,0:0:0:0:
374,176,58494,1,0,0:0:0:0:
217,35,58671,6,0,B|199:-2|199:-2|110:18|124:104,1,180.599994488526,2|0,1:2|0:0,0:0:0:0:
196,144,59024,2,0,P|258:110|285:109,1,86,10|0,0:0|0:0,0:0:0:0:
123,178,59377,5,2,1:2:0:0:
208,295,59554,1,2,0:0:0:0:
336,210,59730,1,10,0:0:0:0:
312,134,59907,1,2,0:0:0:0:
312,134,59995,1,2,0:0:0:0:
312,134,60083,6,0,L|335:42,1,86,2|0,1:2|0:0,0:0:0:0:
271,251,60436,1,10,0:0:0:0:
435,189,60612,2,0,L|529:218,1,86,2|0,0:0|1:2,0:0:0:0:
312,134,60965,2,0,L|406:105,1,86,2|10,0:0|0:0,0:0:0:0:
201,176,61318,1,0,0:0:0:0:
49,19,61494,6,0,B|12:97|130:78|89:177,1,154.799995275879,2|0,1:2|0:0,0:0:0:0:
139,218,61847,2,0,L|111:329,1,103.199996850586,10|0,0:0|0:0,0:0:0:0:
11,177,62200,5,2,1:2:0:0:
41,252,62377,1,2,0:0:0:0:
194,330,62553,5,10,0:0:0:0:
304,275,62730,1,2,0:0:0:0:
357,337,62906,6,0,B|461:299|461:299|468:317|497:338,1,154.799995275879,0|0,1:2|0:0,0:0:0:0:
489,332,63259,2,0,L|505:267,1,51.599998425293,10|0,0:0|0:0,0:0:0:0:
413,166,63436,2,0,B|362:147|362:147|320:200,1,103.199996850586,2|0,0:0|1:2,0:0:0:0:
389,245,63788,5,2,0:0:0:0:
473,63,63965,1,10,0:0:0:0:
288,95,64141,1,2,0:0:0:0:
413,166,64318,6,0,P|424:143|429:102,1,43,2|0,1:2|0:0,0:0:0:0:
385,61,64494,1,0,1:2:0:0:
331,185,64671,6,0,P|308:173|267:168,1,43,8|0,0:0|0:0,0:0:0:0:
224,213,64847,1,0,1:2:0:0:
389,245,65024,5,0,1:2:0:0:
393,257,65112,1,0,1:2:0:0:
399,269,65200,2,0,L|392:330,1,43,0|0,1:2|1:2,0:0:0:0:
457,356,65377,1,8,0:0:0:0:
258,298,65553,6,0,B|252:267|252:267|187:254|187:254|160:297|98:304,1,180.599994488526,6|0,1:2|0:0,0:0:0:0:
231,124,65906,6,0,L|297:80,1,60.1999981628419,10|0,0:0|0:0,0:0:0:0:
117,239,66083,6,0,L|122:318,1,60.1999981628419,10|0,0:0|0:0,0:0:0:0:
53,81,66259,6,0,L|-18:45,1,60.1999981628419,10|0,0:0|0:0,0:0:0:0:
102,22,66436,6,0,P|122:39|123:58,6,30.0999990814209,4|4|4|4|4|4|4,0:3|0:3|0:3|0:3|0:3|0:3|0:3,0:0:0:0:
196,78,66788,6,0,L|178:154,1,77.3999976379395,10|0,0:0|0:0,0:0:0:0:
0,257,67141,6,0,B|75:232|99:316|99:316|75:345|75:390,1,180.599994488526,6|0,1:2|0:0,0:0:0:0:
151,384,67494,2,0,L|242:342,1,94.600002886963,10|0,0:0|0:0,0:0:0:0:
324,161,67847,5,0,1:2:0:0:
260,112,68024,1,2,0:0:0:0:
173,223,68200,5,10,0:0:0:0:
361,90,68377,1,2,0:0:0:0:
389,228,68553,5,0,1:2:0:0:
467,276,68730,1,2,0:0:0:0:
313,311,68906,6,0,B|272:186|272:186|303:177|324:160,1,189.200005773926,10|0,0:0|1:2,0:0:0:0:
387,9,69436,2,0,P|362:17|341:52,1,47.3000014434815,2|0,0:0|0:0,0:0:0:0:
198,78,69612,5,10,0:0:0:0:
323,160,69788,1,2,0:0:0:0:
170,201,69965,5,2,1:2:0:0:
262,28,70141,1,2,0:0:0:0:
94,179,70318,6,0,B|126:89|-15:122|29:16,1,180.599994488526,10|0,0:0|0:0,0:0:0:0:
23,32,70671,6,0,B|70:15|70:15|97:45,1,86,2|0,1:2|0:0,0:0:0:0:
196,70,70936,6,0,B|246:91|246:91|241:156,1,103.199996850586,2|0,0:0|0:0,0:0:0:0:
145,255,71200,1,2,0:0:0:0:
148,268,71288,1,2,0:0:0:0:
151,281,71377,6,0,B|157:251|128:240|128:240|272:288,1,180.599994488526,2|0,1:2|0:0,0:0:0:0:
302,349,71730,2,0,P|320:319|369:298,1,68.8,8|2,0:0|0:0,0:0:0:0:
242,139,72083,6,0,B|236:109|265:98|265:98|121:146,1,180.599994488526,2|0,1:2|0:0,0:0:0:0:
70,184,72436,2,0,P|52:154|3:133,1,68.8,8|0,0:0|0:0,0:0:0:0:
282,18,72788,6,0,B|343:43|343:43|342:118|342:118|407:148,1,206.399993701172,2|8,1:2|0:0,0:0:0:0:
469,104,73318,1,2,0:0:0:0:
336,294,73494,2,0,L|303:185,1,103.199996850586,2|0,1:2|0:0,0:0:0:0:
242,139,73759,1,2,0:0:0:0:
242,139,73847,6,0,P|216:143|196:159,1,51.599998425293,8|0,0:0|0:0,0:0:0:0:
306,195,74024,1,2,0:0:0:0:
204,293,74200,6,0,P|137:243|41:216,1,172,2|8,1:2|0:0,0:0:0:0:
0,278,74730,1,2,0:0:0:0:
104,92,74906,6,0,L|128:204,1,103.2,0|0,1:2|0:0,0:0:0:0:
204,293,75259,5,10,0:2:0:0:
194,322,75436,1,2,0:0:0:0:
306,195,75612,6,0,B|257:285|410:258|341:381,1,180.599994488526,2|0,1:2|0:0,0:0:0:0:
430,365,75965,2,0,P|450:339|492:329,1,68.8,8|2,0:0|0:0,0:0:0:0:
271,65,76318,6,0,B|320:155|167:128|236:251,1,180.599994488526,2|0,1:2|0:0,0:0:0:0:
147,235,76671,2,0,P|127:209|85:199,1,68.8,8|2,0:0|0:0,0:0:0:0:
283,280,77024,6,0,P|351:233|434:198,1,154.799995275879,6|0,1:2|0:0,0:0:0:0:
416,203,77377,6,0,P|422:172|432:158,1,43,0|0,1:2|0:0,0:0:0:0:
412,67,77553,2,0,P|394:82|379:101,1,43,0|0,1:2|0:0,0:0:0:0:
325,212,77730,6,0,P|302:180|299:160,1,51.599998425293,0|0,1:2|0:0,0:0:0:0:
204,99,77906,2,0,P|201:127|205:156,1,51.599998425293,0|0,1:2|0:0,0:0:0:0:
211,321,78083,5,0,1:2:0:0:
171,258,78171,1,8,0:0:0:0:
96,278,78259,6,0,B|70:263|62:233|62:233|90:358,1,180.599994488526,6|0,1:2|0:0,0:0:0:0:
263,292,78612,6,0,L|211:321,1,60.1999981628419,0|0,1:2|0:0,0:0:0:0:
299,168,78788,2,0,L|314:110,1,60.1999981628419,0|0,1:2|0:0,0:0:0:0:
385,252,78965,2,0,L|430:293,1,60.1999981628419,0|8,1:2|0:0,0:0:0:0:
204,99,79141,5,0,1:2:0:0:
174,60,79230,1,0,1:2:0:0:
122,58,79318,1,8,0:0:0:0:
102,78,79406,1,8,0:0:0:0:
17,72,79494,5,8,3:0:0:0:
21,89,79583,1,8,3:0:0:0:
26,106,79671,1,4,3:0:0:0:
31,123,79759,1,4,3:0:0:0:
113,164,79847,6,0,P|200:182|285:253,1,180.599994488526,6|0,1:2|0:0,0:0:0:0:
336,179,80200,6,0,P|349:136|303:110,1,94.600002886963,10|0,0:0|0:0,0:0:0:0:
144,244,80553,5,0,1:2:0:0:
171,317,80730,1,2,0:0:0:0:
313,109,80906,5,10,0:0:0:0:
221,251,81083,1,2,0:0:0:0:
336,179,81259,5,0,1:2:0:0:
409,212,81436,1,2,0:0:0:0:
255,14,81612,6,0,B|376:36|376:36|371:72|396:106,1,189.200005773926,10|0,0:0|1:2,0:0:0:0:
482,244,82141,2,0,P|499:220|500:200,1,47.3000014434815,2|0,0:0|0:0,0:0:0:0:
313,109,82318,5,10,0:0:0:0:
189,160,82494,1,2,0:0:0:0:
395,242,82671,5,2,1:2:0:0:
227,86,82847,1,2,0:0:0:0:
453,50,83024,6,0,B|468:3|468:3|369:-25|344:64,1,180.599994488526,10|0,0:0|0:0,0:0:0:0:
268,14,83377,6,0,P|235:51|227:98,1,86,2|0,1:2|0:0,0:0:0:0:
151,154,83641,6,0,P|154:211|186:257,1,103.199996850586,2|0,0:0|0:0,0:0:0:0:
275,316,83906,1,2,0:0:0:0:
268,334,83994,1,2,0:0:0:0:
260,352,84083,6,0,B|213:256|330:275|282:187,1,180.599994488526,2|0,1:2|0:0,0:0:0:0:
331,119,84436,2,0,L|407:151,1,68.8,8|2,0:0|0:0,0:0:0:0:
84,54,84788,6,0,B|54:42|44:14|44:14|79:141,1,180.599994488526,2|0,1:2|0:0,0:0:0:0:
63,214,85141,2,0,L|-13:246,1,68.8,8|0,0:0|0:0,0:0:0:0:
155,99,85494,6,0,B|219:71|254:135|254:135|235:156|231:205,1,154.799995275879,6|0,1:2|0:0,0:0:0:0:
295,220,85847,2,0,L|273:314,1,86,10|2,0:0|0:0,0:0:0:0:
389,374,86200,2,0,P|449:360|461:323,1,86,0|0,1:2|0:0,0:0:0:0:
392,295,86553,1,10,0:0:0:0:
392,295,86730,1,2,0:0:0:0:
454,99,86906,6,0,L|473:187,1,86,2|2,1:2|0:0,0:0:0:0:
362,82,87259,1,10,0:0:0:0:
307,137,87436,2,0,L|223:102,1,86,2|0,0:0|1:2,0:0:0:0:
62,213,87788,2,0,L|142:180,1,86,2|8,0:0|0:0,0:0:0:0:
140,100,88141,1,2,0:0:0:0:
295,220,88318,6,0,B|297:253|319:267|319:267|226:217,1,154.799995275879,2|0,1:2|0:0,0:0:0:0:
207,133,88671,2,0,P|166:145|141:179,1,86,10|2,0:0|0:0,0:0:0:0:
252,313,89024,2,0,P|292:300|317:266,1,86,0|0,1:2|0:0,0:0:0:0:
383,222,89377,1,10,0:0:0:0:
383,222,89554,1,2,0:0:0:0:
180,354,89730,6,0,L|145:264,1,86,2|2,1:2|0:0,0:0:0:0:
205,130,90083,1,10,0:0:0:0:
300,197,90259,2,0,L|412:231,1,86,2|0,0:0|1:2,0:0:0:0:
123,156,90612,2,0,L|205:131,1,86,2|8,0:0|0:0,0:0:0:0:
258,61,90965,1,2,0:0:0:0:
71,8,91141,6,0,B|27:93|174:73|108:194,1,172,2|10,1:2|0:0,0:0:0:0:
33,252,91671,1,2,0:0:0:0:
33,252,91759,1,2,0:0:0:0:
33,252,91847,2,0,B|68:280|68:280|120:259,1,86,0|0,1:2|0:0,0:0:0:0:
206,132,92200,6,0,L|189:192,1,43,10|2,0:0|0:0,0:0:0:0:
280,152,92377,2,0,L|263:212,1,43,2|2,0:0|0:0,0:0:0:0:
350,296,92553,6,0,B|443:257|443:257|494:312,1,172,2|10,1:2|0:0,0:0:0:0:
421,148,93083,1,2,0:0:0:0:
421,148,93171,1,2,0:0:0:0:
421,148,93259,2,0,L|450:248,1,86,0|0,1:2|0:0,0:0:0:0:
287,358,93612,5,10,0:0:0:0:
287,342,93700,1,2,0:0:0:0:
267,309,93788,1,2,0:0:0:0:
218,294,93877,1,2,0:0:0:0:
142,337,93965,6,0,B|104:300|104:300|102:218|186:213,1,180.599994488526,6|0,1:2|0:0,0:0:0:0:
238,159,94318,2,0,L|206:78,1,68.8,8|0,0:0|0:0,0:0:0:0:
51,126,94671,6,0,B|21:138|9:168|9:168|53:39,1,180.599994488526,2|2,1:2|0:0,0:0:0:0:
111,5,95024,2,0,P|145:7|172:32,1,68.8,10|2,0:0|0:0,0:0:0:0:
326,146,95288,1,2,0:0:0:0:
324,159,95377,6,0,P|252:191|184:244,1,154.799995275879,2|0,1:2|0:0,0:0:0:0:
115,211,95730,6,0,P|115:189|157:160,1,60.1999981628419,10|0,0:0|0:0,0:0:0:0:
24,265,95906,6,0,B|50:240|50:240|106:254|106:254|127:324|207:315,1,180.599994488526,10|0,0:0|0:0,0:0:0:0:
324,159,96259,6,0,B|333:146|351:132|351:132|338:80|338:80|297:115|297:115|303:135|300:153,1,180.599994488526,10|0,0:0|0:0,0:0:0:0:
316,333,96612,6,0,B|349:367|349:367|428:346|428:346|443:286,1,172,6|0,1:2|0:0,0:0:0:0:
225,155,97141,2,0,B|197:189|197:189|215:236,1,86,8|0,0:0|0:0,0:0:0:0:
177,301,97494,2,0,L|90:335,1,86,0|0,1:2|0:0,0:0:0:0:
205,84,97847,6,0,P|271:87|289:125,1,86,8|0,0:0|0:0,0:0:0:0:
300,174,98200,2,0,L|387:208,1,86,0|0,1:2|0:0,0:0:0:0:
491,108,98553,2,0,B|508:64|508:64|470:29,1,86,8|0,0:0|0:0,0:0:0:0:
483,42,98818,1,2,0:0:0:0:
483,42,98906,6,0,P|455:49|423:77,1,43,2|2,1:2|0:0,0:0:0:0:
371,23,99083,2,0,P|355:47|352:89,1,43,2|2,0:0|0:0,0:0:0:0:
403,122,99259,1,10,0:0:0:0:
262,242,99436,6,0,B|244:202|244:202|299:132|299:132|272:82,1,172,6|0,1:2|1:2,0:0:0:0:
169,59,99965,6,0,L|188:119,1,43,0|0,1:2|0:0,0:0:0:0:
137,159,100141,1,0,1:2:0:0:
368,187,100318,6,0,L|349:247,1,43,0|0,1:2|0:0,0:0:0:0:
382,301,100494,1,0,1:2:0:0:
258,374,100671,1,0,1:2:0:0:
167,246,100847,6,0,B|160:199|160:199|251:171|274:271,1,172,6|0,1:2|1:2,0:0:0:0:
164,340,101377,5,0,1:2:0:0:
143,334,101465,1,0,1:2:0:0:
122,329,101553,1,0,1:2:0:0:
101,324,101641,1,0,1:2:0:0:
79,319,101730,5,10,1:2:0:0:
42,282,101818,1,10,1:2:0:0:
60,234,101906,1,10,1:2:0:0:
110,222,101994,1,10,1:2:0:0:
150,188,102083,5,10,1:2:0:0:
187,125,102171,1,10,1:2:0:0:
148,63,102259,1,10,1:2:0:0:
75,64,102347,1,10,1:2:0:0:
21,145,102436,6,0,B|21:171|-8:182|-8:182|111:127,1,180.599994488526,6|0,1:2|0:0,0:0:0:0:
148,63,102789,1,10,0:0:0:0:
237,171,102965,1,2,0:0:0:0:
338,81,103142,2,0,L|308:179,1,86,2|0,1:2|0:0,0:0:0:0:
125,281,103495,2,0,P|96:245|27:239,1,86,10|0,0:0|0:0,0:0:0:0:
43,311,103848,5,2,1:2:0:0:
213,368,104024,2,0,L|196:320,1,43,2|0,0:0|0:0,0:0:0:0:
283,236,104200,6,0,B|311:213|311:213|371:228|371:228|379:276|436:305,1,180.599994488526,10|0,0:0|0:0,0:0:0:0:
482,145,104554,2,0,B|504:123|504:123|489:78|489:78|455:110|455:110|460:143,1,154.799995275879,2|0,1:2|0:0,0:0:0:0:
321,302,104907,5,10,0:0:0:0:
283,236,105083,1,2,0:0:0:0:
283,236,105171,1,2,0:0:0:0:
283,236,105259,5,0,1:2:0:0:
360,105,105436,1,2,0:0:0:0:
367,125,105524,1,2,0:0:0:0:
374,145,105612,5,10,0:0:0:0:
454,224,105789,1,2,0:0:0:0:
271,141,105965,2,0,L|186:181,1,86,2|0,1:2|0:0,0:0:0:0:
120,300,106318,5,10,0:0:0:0:
42,279,106495,1,2,0:0:0:0:
102,221,106671,5,2,1:2:0:0:
296,300,106848,1,2,0:0:0:0:
303,220,107024,5,10,0:0:0:0:
225,261,107201,1,2,0:0:0:0:
218,121,107377,5,2,1:2:0:0:
179,58,107554,1,2,0:0:0:0:
106,77,107730,6,0,L|23:57,1,77.3999976379395,10|0,0:0|0:0,0:0:0:0:
5,129,108083,5,6,1:2:0:0:
180,241,108260,1,2,0:0:0:0:
149,157,108436,6,0,B|176:252|90:210|124:317,1,154.799995275879,10|0,0:0|0:0,0:0:0:0:
193,348,108789,5,2,1:2:0:0:
306,239,108965,1,2,0:0:0:0:
332,240,109054,1,2,0:0:0:0:
352,259,109142,1,10,0:0:0:0:
331,338,109318,1,2,0:0:0:0:
311,346,109407,1,2,0:0:0:0:
291,354,109495,5,2,1:2:0:0:
406,166,109671,1,2,0:0:0:0:
485,183,109847,6,0,P|400:220|350:260,1,154.799995275879,10|0,0:0|0:0,0:0:0:0:
284,219,110201,5,2,1:2:0:0:
302,44,110377,1,2,0:0:0:0:
309,73,110465,1,2,0:0:0:0:
316,101,110553,1,10,0:0:0:0:
251,143,110730,1,2,0:0:0:0:
237,146,110819,1,2,0:0:0:0:
228,137,110907,5,2,1:2:0:0:
427,111,111083,1,2,0:0:0:0:
411,28,111260,6,0,L|378:201,1,154.799995275879,10|2,0:0|0:0,0:0:0:0:
284,219,111612,5,2,1:2:0:0:
226,61,111788,1,2,0:0:0:0:
209,42,111877,1,2,0:0:0:0:
181,43,111965,1,10,0:0:0:0:
77,97,112141,5,2,0:0:0:0:
65,91,112230,1,2,0:0:0:0:
51,85,112318,6,0,L|-8:111,1,43,2|8,1:2|3:0,0:0:0:0:
71,243,112494,2,0,L|110:225,1,43,2|4,1:2|3:0,0:0:0:0:
147,138,112671,5,10,0:0:0:0:
166,131,112848,1,8,3:0:0:0:
284,219,113024,5,4,3:0:0:0:
284,219,113112,1,10,0:0:0:0:
284,219,113201,2,0,P|272:247|271:275,1,43,10|0,0:0|1:2,0:0:0:0:
305,358,113377,5,10,0:0:0:0:
359,309,113465,1,10,0:0:0:0:
425,340,113554,1,8,3:0:0:0:
435,321,113642,1,4,3:0:0:0:
502,283,113730,6,0,B|516:244|516:244|469:165|388:217,1,180.599994488526,6|0,1:2|0:0,0:0:0:0:
339,164,114083,1,10,0:0:0:0:
433,63,114259,1,2,0:0:0:0:
257,8,114436,2,0,L|282:108,1,86,2|0,1:2|0:0,0:0:0:0:
196,168,114788,2,0,L|87:137,1,86,10|0,0:0|0:0,0:0:0:0:
269,185,115142,5,2,1:2:0:0:
33,60,115318,2,0,P|49:76|53:107,1,43,2|0,0:0|0:0,0:0:0:0:
0,150,115495,6,0,B|59:125|111:171|111:171|109:209|142:243,1,180.599994488526,10|0,0:0|0:0,0:0:0:0:
254,291,115847,2,0,B|349:253|349:253|396:291,1,154.799995275879,2|0,1:2|0:0,0:0:0:0:
510,170,116201,5,10,0:0:0:0:
386,80,116377,1,2,0:0:0:0:
386,80,116465,1,2,0:0:0:0:
386,80,116553,6,0,B|363:150|363:150|425:161|425:161|414:170|418:183|418:183|360:157|360:157|336:256|336:256|309:244|309:244|348:154|348:154|289:147|289:147|298:137|296:124|296:124|350:146|350:146|382:26,1,670.799969293214,6|8,1:0|0:0,0:0:0:0:
204,159,117788,5,2,0:0:0:0:
204,159,117876,1,2,0:0:0:0:
204,159,117964,5,2,1:2:0:0:
110,109,118141,2,0,L|122:150,1,43,2|2,0:0|0:0,0:0:0:0:
56,207,118317,5,8,0:0:0:0:
102,268,118406,1,8,0:0:0:0:
71,298,118494,1,0,1:2:0:0:
83,312,118583,1,0,1:2:0:0:
80,324,118670,5,0,1:2:0:0:
219,242,118847,1,0,1:2:0:0:
305,298,119023,5,8,0:0:0:0:
301,314,119111,1,8,0:0:0:0:
297,330,119200,1,8,0:0:0:0:
293,346,119288,1,8,0:0:0:0:
289,362,119376,5,6,1:2:0:0:
375,210,119553,1,2,0:0:0:0:
512,277,119729,5,10,0:0:0:0:
481,348,119906,6,0,B|512:251|423:295|468:193,1,154.799995275879,2|0,1:2|0:0,0:0:0:0:
385,132,120259,2,0,L|444:149,1,34.4,2|0,0:0|0:0,0:0:0:0:
487,91,120436,1,10,0:0:0:0:
291,192,120612,6,0,B|261:226|267:263|267:263|234:92,1,223.599989764405,2|2,1:2|0:0,0:0:0:0:
310,57,121141,1,10,0:0:0:0:
175,199,121318,6,0,B|168:178|168:178|112:168|112:168|90:207|29:210,1,167.699992323304,2|0,1:2|0:0,0:0:0:0:
0,143,121670,1,10,0:0:0:0:
0,143,121759,1,10,0:0:0:0:
242,33,122024,6,0,B|240:6|214:-2|214:-2|323:31|323:31|292:78,1,206.4,2|0,1:2|0:0,0:0:0:0:
159,98,122377,2,0,L|141:41,1,34.4,2|0,0:0|0:0,0:0:0:0:
239,119,122553,1,10,0:0:0:0:
171,231,122729,6,0,P|233:176|312:148,1,167.699992323304,2|0,1:2|0:0,0:0:0:0:
353,237,123082,2,0,P|379:246|401:263,1,55.8999974411012,2|0,0:0|0:0,0:0:0:0:
478,238,123259,1,8,0:0:0:0:
383,117,123436,6,0,B|359:41|538:33|532:221|363:172|404:275,1,309.599990551758,6|0,1:2|0:0,0:0:0:0:
322,264,124230,1,2,0:0:0:0:
322,264,124318,6,0,B|306:176|223:262|167:184|222:81|303:96|316:163,1,275.2,2|0,0:0|0:0,0:0:0:0:
307,158,125163,5,0,0:0:0:0:
256,192,125263,12,0,127563,0:0:0:0:
256,192,129957,12,0,131780,0:0:0:0:
75,366,131865,6,0,P|62:311|15:229,1,120.399996325684,6|0,1:2|0:0,0:0:0:0:
93,179,132129,2,0,P|68:158|31:164,1,68.8,2|0,0:0|0:0,0:0:0:0:
25,176,132394,1,2,0:0:0:0:
172,307,132570,6,0,B|273:330,1,86,2|2,1:2|0:0,0:0:0:0:
394,280,132835,1,2,0:0:0:0:
380,263,132923,6,0,B|387:229|416:218|416:218|296:250,1,180.599994488526,2|0,1:2|0:0,0:0:0:0:
299,248,133276,6,0,P|271:202|291:146,1,86,2|2,1:2|0:0,0:0:0:0:
226,114,133541,1,2,0:0:0:0:
226,114,133629,2,0,P|242:75|278:54,1,86,2|2,1:2|0:0,0:0:0:0:
417,5,133982,6,0,L|381:175,1,154.799995275879,2|2,1:2|0:0,0:0:0:0:
452,218,134335,1,0,1:2:0:0:
458,232,134512,2,0,L|511:249,1,51.599998425293,2|0,0:0|0:0,0:0:0:0:
331,329,134688,6,0,L|294:234,1,86,2|2,1:2|0:0,0:0:0:0:
237,204,134953,1,2,0:0:0:0:
232,211,135041,2,0,L|179:228,1,43,2|0,1:2|0:0,0:0:0:0:
24,161,135217,6,0,B|3:113|3:113|106:73|137:164,1,206.399993701172,2|2,0:0|0:0,0:0:0:0:
232,298,135747,2,0,B|215:315|215:315|228:290,1,43,10|0,0:0|0:0,0:0:0:0:
229,65,135923,6,0,B|210:119|210:119|315:200|315:200|290:279,1,240.799992651367,6|0,1:2|1:2,0:0:0:0:
312,338,136453,1,0,1:2:0:0:
312,338,136541,1,0,1:0:0:0:
312,338,136629,1,0,1:2:0:0:
170,365,136806,5,0,1:2:0:0:
171,345,136894,1,0,1:2:0:0:
143,317,136982,1,0,1:2:0:0:
97,315,137070,1,0,1:2:0:0:
56,350,137159,5,0,1:2:0:0:
0,295,137247,1,0,1:2:0:0:
11,217,137335,1,0,1:2:0:0:
84,193,137423,1,0,1:2:0:0:
94,209,137512,6,0,P|134:222|171:237,1,68.8,2|2,0:0|0:0,0:0:0:0:
338,128,138217,6,0,P|378:115|415:100,1,68.8,2|2,0:0|0:0,0:0:0:0:
312,338,138923,6,0,L|284:247,1,68.8,2|2,0:0|0:0,0:0:0:0:
182,36,139629,6,0,L|202:101,1,68.8,2|2,0:0|0:0,0:0:0:0:
253,182,139982,1,2,0:0:0:0:
253,182,140159,1,2,0:0:0:0:
369,30,140335,6,0,P|406:34|432:67,1,68.8,2|2,0:0|0:0,0:0:0:0:
372,120,140688,1,2,0:0:0:0:
372,120,140776,1,2,0:0:0:0:
372,120,140865,1,2,0:0:0:0:
372,120,140953,1,2,0:0:0:0:
372,120,141041,6,0,P|281:155|249:185,1,137.6,2|2,0:0|0:0,0:0:0:0:
188,134,141570,1,2,0:0:0:0:
202,289,141747,6,0,L|191:313,1,17.2,2|8,1:2|0:0,1:2:0:0:
180,281,141835,2,0,L|169:305,1,17.2,8|8,0:0|0:0,0:0:0:0:
158,273,141923,2,0,L|147:297,2,17.2,8|8|8,0:0|0:0|0:0,0:0:0:0:
68,203,142100,5,8,0:0:0:0:
59,155,142188,1,8,0:0:0:0:
96,116,142277,1,10,0:0:0:0:
162,36,142454,5,10,0:0:0:0:
194,39,142542,1,8,0:0:0:0:
213,60,142630,1,8,0:0:0:0:
76,22,142806,5,8,0:0:0:0:
81,35,142894,1,8,0:0:0:0:
141,182,143071,5,8,0:0:0:0:
149,170,143159,2,0,L|290:138,1,129,6|0,1:2|0:0,0:0:0:0:
405,49,143512,6,0,B|377:24|385:-5|385:-5|347:126,1,180.599994488526,10|0,0:0|0:0,0:0:0:0:
320,213,143865,2,0,P|362:232|403:210,1,86,2|2,1:2|0:0,0:0:0:0:
455,272,144217,2,0,P|494:259|512:221,1,86,2|0,1:2|0:0,0:0:0:0:
274,141,144570,2,0,B|244:216|318:187|282:286,1,129,2|0,1:2|0:0,0:0:0:0:
164,365,144924,6,0,B|135:402|96:364|80:367|80:367|94:353|78:300|138:296,1,180.599994488526,10|0,0:0|0:0,0:0:0:0:
149,170,145276,2,0,L|124:60,1,86,2|2,1:2|0:0,0:0:0:0:
14,25,145629,2,0,B|-14:62|-14:62|11:97,1,86,2|0,1:2|0:0,0:0:0:0:
37,279,145983,6,0,B|19:246|-11:250|-11:250|107:224,1,172,2|2,1:2|1:2,0:0:0:0:
125,297,146512,1,2,0:0:0:0:
223,67,146688,6,0,L|201:240,1,172,2|10,1:2|0:0,0:0:0:0:
59,354,147218,1,2,0:0:0:0:
155,377,147394,5,2,1:2:0:0:
170,359,147483,1,0,1:2:0:0:
192,352,147571,2,0,P|210:361|231:371,1,43,0|0,1:2|1:2,0:0:0:0:
296,301,147747,1,0,1:2:0:0:
343,332,147836,1,0,1:2:0:0:
398,326,147924,1,0,1:2:0:0:
439,287,148012,1,0,1:2:0:0:
379,221,148100,6,8,L|371:181,1,21.5,10|8,0:0|0:0,0:0:0:0:
358,210,148188,2,8,L|350:170,1,21.5
335,199,148276,2,8,L|327:159,2,21.5
233,151,148453,5,0,1:2:0:0:
216,96,148541,1,0,1:2:0:0:
253,55,148629,1,0,1:2:0:0:
309,60,148718,1,0,1:2:0:0:
328,104,148806,6,0,L|306:217,1,86,6|0,1:2|0:0,0:0:0:0:
426,348,149159,1,10,0:0:0:0:
481,296,149335,6,0,B|394:262|420:358|332:329,1,154.799995275879,2|0,1:2|0:0,0:0:0:0:
285,282,149688,1,2,0:0:0:0:
390,166,149865,1,8,0:0:0:0:
227,204,150041,6,0,L|141:176,1,86,2|0,1:2|0:0,0:0:0:0:
89,80,150394,1,2,0:0:0:0:
10,225,150570,1,8,0:0:0:0:
68,276,150747,6,0,P|135:296|220:365,1,167.699992323304,2|0,1:2|0:0,0:0:0:0:
211,354,151100,6,0,P|207:305|169:288,1,55.8999974411012,2|0,1:2|0:0,0:0:0:0:
68,276,151276,2,0,P|113:296|147:272,1,55.8999974411012,10|0,1:2|0:0,0:0:0:0:
213,188,151453,2,0,P|172:217|176:258,1,55.8999974411012,0|8,1:0|0:0,0:0:0:0:
292,337,151629,6,0,L|382:300,1,86,6|0,1:2|0:0,0:0:0:0:
440,162,151982,1,10,0:0:0:0:
387,108,152159,6,0,B|360:200|454:162|423:263,1,154.799995275879,2|0,1:2|0:0,0:0:0:0:
447,320,152511,1,2,1:2:0:0:
315,214,152688,1,10,0:0:0:0:
211,354,152864,6,0,L|195:269,1,86,2|0,1:2|0:0,0:0:0:0:
301,136,153217,1,2,1:2:0:0:
137,178,153393,1,10,0:0:0:0:
90,116,153570,6,0,P|165:148|241:203,1,172,2|2,1:2|1:2,0:0:0:0:
301,136,154012,1,2,1:2:0:0:
301,136,154100,2,0,B|308:112|308:112|310:112|310:112|321:75,1,43,10|10,1:2|0:2,0:0:0:0:
162,21,154276,2,0,B|164:47|164:47|167:49|167:49|171:81,1,43,10|10,1:2|0:2,0:0:0:0:
25,165,154453,6,0,B|-9:171|-20:200|-20:200|25:69,1,180.599994488526,6|0,1:2|0:0,0:0:0:0:
2,10,154806,2,0,P|50:9|86:59,1,86,10|0,0:0|0:0,0:0:0:0:
137,178,155159,5,2,1:2:0:0:
246,46,155336,1,2,0:0:0:0:
340,162,155512,1,10,0:0:0:0:
278,233,155688,1,2,0:0:0:0:
278,233,155777,1,2,0:0:0:0:
278,233,155865,6,0,L|255:141,1,86,2|2,1:2|0:0,0:0:0:0:
360,54,156218,1,10,0:0:0:0:
487,174,156394,2,0,P|446:203|404:199,1,86,2|0,0:0|1:2,0:0:0:0:
277,29,156747,2,0,L|368:56,1,86,2|10,0:0|0:0,0:0:0:0:
480,5,157100,1,0,0:0:0:0:
340,162,157276,6,0,B|282:101|222:153|222:153|225:176|211:204,1,180.599994488526,2|0,1:2|0:0,0:0:0:0:
141,239,157630,2,0,L|172:332,1,86,10|0,0:0|0:0,0:0:0:0:
111,147,157983,5,2,1:2:0:0:
230,270,158160,1,2,0:0:0:0:
84,330,158336,1,10,0:0:0:0:
30,275,158512,1,2,0:0:0:0:
30,275,158600,1,2,0:0:0:0:
30,275,158689,6,0,B|7:236|7:236|27:184,1,86,2|0,1:2|0:0,0:0:0:0:
191,127,159042,1,10,0:0:0:0:
85,64,159218,2,0,L|114:158,1,86,2|0,0:0|1:2,0:0:0:0:
230,270,159570,2,0,L|255:187,1,86,2|10,0:0|0:0,0:0:0:0:
197,42,159924,1,0,0:0:0:0:
332,134,160100,6,0,B|433:162|433:162|432:185|454:217,1,154.799995275879,2|0,1:2|0:0,0:0:0:0:
511,159,160453,2,0,P|516:106|472:66,1,103.199996850586,10|0,0:0|0:0,0:0:0:0:
365,222,160806,5,2,1:2:0:0:
397,294,160983,1,2,0:0:0:0:
332,134,161159,5,10,0:0:0:0:
208,275,161336,1,2,0:0:0:0:
281,309,161512,6,0,P|198:327|133:367,1,154.799995275879,0|0,1:2|0:0,0:0:0:0:
138,362,161865,2,0,P|116:339|122:297,1,51.599998425293,10|0,0:0|0:0,0:0:0:0:
0,170,162041,6,0,L|104:204,1,103.199996850586,2|0,0:0|1:2,0:0:0:0:
197,145,162394,5,2,0:0:0:0:
42,273,162571,1,10,0:0:0:0:
214,351,162747,1,2,0:0:0:0:
112,152,162923,6,0,L|90:226,1,43,2|0,1:2|0:0,0:0:0:0:
155,247,163100,1,0,1:2:0:0:
298,102,163276,6,0,L|320:176,1,43,8|0,0:0|0:0,0:0:0:0:
255,197,163453,1,0,1:2:0:0:
488,50,163629,5,0,1:2:0:0:
481,62,163717,1,0,1:2:0:0:
476,74,163806,2,0,L|522:90,1,43,0|0,1:2|1:2,0:0:0:0:
475,151,163982,1,8,0:0:0:0:
227,69,164159,6,0,B|217:40|181:45|181:45|302:23,1,180.599994488526,6|0,1:2|0:0,0:0:0:0:
206,219,164512,6,0,P|155:246|141:286,1,60.1999981628419,10|0,0:0|0:0,0:0:0:0:
300,82,164688,6,0,P|302:24|274:-7,1,60.1999981628419,10|0,0:0|0:0,0:0:0:0:
371,237,164864,6,0,P|419:267|461:259,1,60.1999981628419,10|0,0:0|0:0,0:0:0:0:
465,332,165041,6,0,L|490:316,6,30.0999990814209,4|4|4|4|4|4|4,0:3|0:3|0:3|0:3|0:3|0:3|0:3,0:0:0:0:
494,225,165394,6,0,B|470:135,1,77.3999976379395,10|0,0:0|0:0,0:0:0:0:
220,71,165747,6,0,B|168:169|297:132|243:251,1,180.599994488526,6|0,1:2|0:0,0:0:0:0:
183,271,166100,2,0,P|143:251|92:229,1,94.600002886963,10|0,0:0|0:0,0:0:0:0:
13,96,166453,5,0,1:2:0:0:
77,45,166630,1,2,0:0:0:0:
184,162,166806,5,10,0:0:0:0:
344,227,166983,1,2,0:0:0:0:
441,129,167159,5,0,1:2:0:0:
399,64,167336,1,2,0:0:0:0:
313,134,167512,6,0,P|424:168|496:216,1,189.200005773926,10|0,0:0|1:2,0:0:0:0:
512,38,168041,2,0,P|470:67|464:98,1,47.3000014434815,2|0,0:0|0:0,0:0:0:0:
421,252,168218,5,10,0:0:0:0:
313,134,168394,1,2,0:0:0:0:
444,127,168570,5,2,1:2:0:0:
316,289,168747,1,2,0:0:0:0:
268,68,168923,6,0,B|268:42|268:42|197:23|197:23|171:64|98:69,1,180.599994488526,10|0,0:0|0:0,0:0:0:0:
129,64,169277,6,0,B|166:73|166:73|185:122,1,86,2|0,1:2|0:0,0:0:0:0:
251,167,169541,6,0,B|276:208|276:208|249:269,1,103.199996850586,2|0,0:0|0:0,0:0:0:0:
107,312,169806,1,2,0:0:0:0:
112,325,169894,1,2,0:0:0:0:
118,338,169983,6,0,B|88:332|77:361|77:361|125:217,1,180.599994488526,2|0,1:2|0:0,0:0:0:0:
84,173,170336,2,0,P|51:159|-6:128,1,68.8,8|2,0:0|0:0,0:0:0:0:
253,258,170688,6,0,B|283:252|294:281|294:281|246:137,1,180.599994488526,2|0,1:2|0:0,0:0:0:0:
287,93,171041,2,0,P|319:79|377:48,1,68.8,8|0,0:0|0:0,0:0:0:0:
198,305,171394,6,0,B|67:257|67:257|50:294|8:300,1,206.399993701172,2|8,1:2|0:0,0:0:0:0:
0,227,171924,1,2,0:0:0:0:
49,75,172100,2,0,L|83:172,1,103.199996850586,2|0,1:2|0:0,0:0:0:0:
156,208,172365,1,2,0:0:0:0:
156,208,172453,6,0,P|190:187|228:176,1,51.599998425293,8|0,0:0|0:0,0:0:0:0:
83,172,172629,1,2,0:0:0:0:
309,66,172806,6,0,B|264:160|387:129|333:245,1,172,2|8,1:2|0:0,0:0:0:0:
274,262,173336,1,2,0:0:0:0:
380,351,173512,6,0,P|428:326|492:296,1,103.2,0|0,1:2|0:0,0:0:0:0:
430,225,173865,5,10,0:2:0:0:
440,196,174042,1,2,0:0:0:0:
300,338,174217,6,0,P|224:291|114:262,1,180.599994488526,2|0,1:2|0:0,0:0:0:0:
63,258,174571,2,0,P|61:296|89:323,1,68.8,8|2,0:0|0:0,0:0:0:0:
234,160,174923,6,0,P|310:113|420:84,1,180.599994488526,2|0,1:2|0:0,0:0:0:0:
471,80,175277,2,0,P|473:118|445:145,1,68.8,8|2,0:0|0:0,0:0:0:0:
199,59,175630,6,0,B|178:39|182:13|182:13|158:119,1,154.799995275879,6|0,1:2|0:0,0:0:0:0:
159,114,175982,6,0,L|80:131,1,43,0|0,1:2|0:0,0:0:0:0:
8,179,176159,2,0,L|58:168,1,43,0|0,1:2|0:0,0:0:0:0:
303,287,176335,6,0,L|247:276,1,51.599998425293,0|0,1:2|0:0,0:0:0:0:
119,206,176512,2,0,L|169:216,1,51.599998425293,0|0,1:2|0:0,0:0:0:0:
18,316,176689,5,0,1:2:0:0:
63,378,176777,1,8,0:0:0:0:
136,360,176864,6,0,B|145:340|172:317|172:317|106:179,1,180.599994488526,6|0,1:2|0:0,0:0:0:0:
273,46,177217,6,0,P|294:24|325:17,1,60.1999981628419,0|0,1:2|0:0,0:0:0:0:
241,151,177394,2,0,P|249:180|240:210,1,60.1999981628419,0|0,1:2|0:0,0:0:0:0:
165,74,177570,2,0,P|135:66|113:43,1,60.1999981628419,0|8,1:2|0:0,0:0:0:0:
260,279,177747,5,0,1:2:0:0:
290,318,177836,1,0,1:2:0:0:
342,320,177924,1,8,0:0:0:0:
362,300,178012,1,8,0:0:0:0:
441,271,178100,5,8,3:0:0:0:
437,254,178189,1,8,3:0:0:0:
432,237,178277,1,4,3:0:0:0:
427,220,178365,1,4,3:0:0:0:
357,181,178453,6,0,B|325:94|446:123|387:6,1,180.599994488526,6|0,1:2|0:0,0:0:0:0:
320,55,178806,2,0,L|199:18,1,94.600002886963,10|0,0:0|0:0,0:0:0:0:
100,147,179159,5,0,1:2:0:0:
73,74,179336,1,2,0:0:0:0:
159,278,179512,5,10,0:0:0:0:
251,136,179689,1,2,0:0:0:0:
287,346,179864,5,0,1:2:0:0:
314,273,180041,1,2,0:0:0:0:
166,195,180217,6,0,B|149:173|149:173|79:191|79:191|71:250|8:278,1,189.200005773926,10|0,0:0|1:2,0:0:0:0:
13,136,180747,2,0,L|1:91,1,47.3000014434815,2|0,0:0|0:0,0:0:0:0:
146,22,180924,5,10,0:0:0:0:
287,107,181100,1,2,0:0:0:0:
127,141,181277,5,2,1:2:0:0:
259,27,181453,1,2,0:0:0:0:
238,226,181630,6,0,B|223:273|223:273|322:301|347:212,1,180.599994488526,10|0,0:0|0:0,0:0:0:0:
410,284,181983,6,0,P|443:247|451:200,1,86,2|0,1:2|0:0,0:0:0:0:
511,130,182247,6,0,P|508:73|476:27,1,103.199996850586,2|0,0:0|0:0,0:0:0:0:
312,34,182512,1,2,0:0:0:0:
319,17,182600,1,2,0:0:0:0:
326,0,182689,6,0,B|373:96|256:77|304:165,1,180.599994488526,2|0,1:2|0:0,0:0:0:0:
247,214,183042,2,0,L|171:182,1,68.8,8|2,0:0|0:0,0:0:0:0:
438,346,183394,6,0,B|468:358|478:386|478:386|443:259,1,180.599994488526,2|0,1:2|0:0,0:0:0:0:
449,192,183747,2,0,L|525:160,1,68.8,8|0,0:0|0:0,0:0:0:0:
374,300,184100,6,0,P|290:321|222:390,1,154.799995275879,6|0,1:2|0:0,0:0:0:0:
164,344,184453,2,0,P|150:305|185:269,1,86,10|2,0:0|0:0,0:0:0:0:
319,189,184806,2,0,P|308:226|289:282,1,86,0|0,1:2|0:0,0:0:0:0:
316,345,185159,1,10,0:0:0:0:
316,345,185336,1,2,0:0:0:0:
175,272,185512,6,0,L|88:243,1,86,2|2,1:2|0:0,0:0:0:0:
21,127,185865,1,10,0:0:0:0:
75,73,186041,2,0,B|106:102|106:102|93:158,1,86,2|0,0:0|1:2,0:0:0:0:
31,304,186394,2,0,L|3:222,1,86,2|8,0:0|0:0,0:0:0:0:
93,244,186747,1,2,0:0:0:0:
209,51,186923,6,0,B|169:140|262:100|220:205,1,154.799995275879,2|0,1:2|0:0,0:0:0:0:
277,246,187276,2,0,P|321:237|343:200,1,86,10|2,0:0|0:0,0:0:0:0:
443,87,187629,2,0,P|487:96|509:133,1,86,0|0,1:2|0:0,0:0:0:0:
442,161,187983,1,10,0:0:0:0:
442,161,188160,1,2,0:0:0:0:
512,317,188335,6,0,L|422:282,1,86,2|2,1:2|0:0,0:0:0:0:
256,348,188689,1,10,0:0:0:0:
337,384,188864,2,0,L|322:281,1,86,2|0,0:0|1:2,0:0:0:0:
211,108,189217,2,0,L|223:193,1,86,2|8,0:0|0:0,0:0:0:0:
167,248,189571,1,2,0:0:0:0:
361,166,189747,6,0,B|356:143|327:131|327:131|462:166,1,172,2|10,1:2|0:0,0:0:0:0:
349,260,190277,1,2,0:0:0:0:
349,260,190365,1,2,0:0:0:0:
349,260,190453,2,0,P|301:269|269:238,1,86,0|0,1:2|0:0,0:0:0:0:
211,108,190806,6,0,L|199:66,1,43,10|2,0:0|0:0,0:0:0:0:
137,128,190982,2,0,L|125:86,1,43,2|2,0:0|0:0,0:0:0:0:
0,160,191159,6,0,B|-38:253|94:217|37:336,1,172,2|10,1:2|0:0,0:0:0:0:
144,212,191689,1,2,0:0:0:0:
144,212,191777,1,2,0:0:0:0:
144,212,191865,2,0,L|244:183,1,86,0|0,1:2|0:0,0:0:0:0:
313,43,192218,5,10,0:0:0:0:
313,59,192306,1,2,0:0:0:0:
333,92,192394,1,2,0:0:0:0:
382,107,192483,1,2,0:0:0:0:
458,64,192571,6,0,B|496:101|496:101|498:183|414:188,1,180.599994488526,6|0,1:2|0:0,0:0:0:0:
362,242,192924,2,0,L|394:323,1,68.8,8|0,0:0|0:0,0:0:0:0:
226,188,193277,6,0,B|196:176|184:146|184:146|228:275,1,180.599994488526,2|2,1:2|0:0,0:0:0:0:
279,310,193629,2,0,L|247:391,1,68.8,10|2,0:0|0:0,0:0:0:0:
130,384,193894,1,2,0:0:0:0:
115,373,193982,6,0,B|61:343|61:343|46:278|101:257,1,154.799995275879,2|0,1:2|0:0,0:0:0:0:
96,182,194336,6,0,L|72:117,1,60.1999981628419,10|0,0:0|0:0,0:0:0:0:
24,213,194512,6,0,P|156:270|190:292,1,180.599994488526,10|0,0:0|0:0,0:0:0:0:
382,291,194865,6,0,B|421:245|469:285|469:285|461:294|461:294|422:283|382:312,1,180.599994488526,10|0,0:0|0:0,0:0:0:0:
292,212,195217,6,0,B|259:125|381:151|312:35,1,172,6|0,1:2|0:0,0:0:0:0:
186,11,195747,2,0,L|96:39,1,86,8|0,0:0|0:0,0:0:0:0:
60,98,196100,2,0,P|50:132|87:170,1,86,0|0,1:2|0:0,0:0:0:0:
301,76,196453,6,0,L|394:105,1,86,8|0,0:0|0:0,0:0:0:0:
423,166,196806,2,0,B|435:201|435:201|396:238,1,86,0|0,1:2|0:0,0:0:0:0:
215,359,197159,2,0,P|206:309|192:254,1,86,8|0,0:0|0:0,0:0:0:0:
201,277,197424,1,2,0:0:0:0:
201,277,197512,6,0,P|239:283|259:302,1,43,2|2,1:2|0:0,0:0:0:0:
309,248,197688,2,0,P|331:277|332:305,1,43,2|2,0:0|0:0,0:0:0:0:
288,343,197865,1,10,0:0:0:0:
512,300,198041,6,0,B|526:245|474:221|474:221|378:240,1,172,6|0,1:2|1:2,0:0:0:0:
290,103,198570,6,0,P|286:80|304:55,1,43,0|0,1:2|0:0,0:0:0:0:
364,26,198747,1,0,1:2:0:0:
230,255,198923,6,0,P|212:269|181:266,1,43,0|0,1:2|0:0,0:0:0:0:
126,229,199100,1,0,1:2:0:0:
368,211,199276,6,0,P|389:218|402:247,1,43,0|0,1:2|0:0,0:0:0:0:
397,314,199453,1,0,1:2:0:0:
211,162,199629,6,0,P|185:158|164:127,1,43,0|0,1:2|0:0,0:0:0:0:
154,52,199806,1,0,1:2:0:0:
311,280,199982,6,0,P|320:304|304:337,1,43,0|0,1:2|1:2,0:0:0:0:
243,383,200159,1,0,1:2:0:0:
355,141,200335,6,0,P|371:120|408:117,1,43,8|8,1:2|1:2,0:0:0:0:
479,143,200512,1,8,1:2:0:0:
492,188,200600,1,8,1:2:0:0:
464,228,200688,6,8,P|447:242|444:254,1,21.5,8|8,0:2|0:2,0:2:0:0:
420,226,200776,2,8,P|417:247|424:258,1,21.5,8|8,0:2|0:2,0:2:0:0:
384,250,200864,2,8,P|398:267|410:269,2,21.5,8|8|8,0:2|0:2|0:2,0:2:0:0:
236,304,201041,6,0,P|168:270|117:257,1,120.399996325684,6|0,1:2|0:0,0:0:0:0:
77,200,201306,1,8,0:0:0:0:
85,188,201394,1,8,0:0:0:0:
9,68,201570,5,6,1:2:0:0:
57,33,201659,1,2,0:0:0:0:
107,53,201747,1,2,0:0:0:0:
124,80,201835,1,2,0:0:0:0:
123,98,201923,1,2,0:0:0:0:
117,105,202012,1,2,0:0:0:0:
165,160,202100,5,6,1:2:0:0:
126,259,202276,1,2,0:0:0:0:
294,373,202453,1,2,0:0:0:0:
444,238,202629,6,0,B|465:191|465:191|380:124|380:124|404:66,1,206.399993701172,6|0,1:2|0:0,0:0:0:0:
342,25,203159,2,0,P|289:34|266:73,1,86,2|2,1:2|0:0,0:0:0:0:
215,117,203512,2,0,L|250:222,1,86,2|2,1:2|0:0,0:0:0:0:
299,251,203864,1,2,1:2:0:0:
299,251,204041,1,2,0:0:0:0:
231,319,204217,1,2,1:2:0:0:
294,366,204394,1,2,0:0:0:0:
148,344,204570,6,0,L|119:252,1,86,2|2,1:2|0:0,0:0:0:0:
82,191,204923,2,0,L|-10:162,1,86,2|2,1:2|0:0,0:0:0:0:
180,54,205276,5,6,1:2:0:0:
137,116,205364,2,8,L|148:140,2,21.5
214,178,205541,1,8,0:0:0:0:
260,116,205629,1,8,0:0:0:0:
511,270,205806,6,0,P|386:307|270:386,1,240.799992651367,6|0,1:2|0:0,0:0:0:0:
161,284,206335,6,0,B|154:267|133:258|133:258|149:190|149:190|194:239|194:239|187:258|194:276,1,206.399993701172,6|0,1:2|0:0,0:0:0:0:
417,143,206864,6,0,B|475:162|521:71|432:6|382:74|382:74|382:-4|283:2|252:41|247:170|371:95|336:195,1,516,6|0,1:2|0:0,0:0:0:0:
261,298,208100,6,0,B|176:261|214:377|106:333,1,172,6|2,1:2|0:0,0:0:0:0:
34,360,208629,1,2,0:0:0:0:
34,360,208806,2,0,B|2:329|2:329|21:269,1,86,2|2,0:0|0:0,0:0:0:0:
91,264,209159,2,0,B|123:295|123:295|104:355,1,86,2|2,0:0|0:0,0:0:0:0:
259,209,209512,6,0,P|342:230|429:288,1,172,2|2,0:0|0:0,0:0:0:0:
478,232,210041,1,2,0:0:0:0:
478,232,210217,2,0,P|500:178|478:147,1,86,2|2,0:0|0:0,0:0:0:0:
489,84,210570,2,0,P|435:62|404:84,1,86,2|2,0:0|0:0,0:0:0:0:
244,16,210923,6,0,L|264:118,1,86,2|2,0:0|0:0,0:0:0:0:
190,127,211188,1,2,0:0:0:0:
198,140,211276,2,0,L|185:185,3,43,2|2|2|2,0:0|0:0|0:0|0:0,0:0:0:0:
249,237,211629,5,8,3:0:0:0:
282,230,211717,1,8,3:0:0:0:
313,244,211806,1,8,3:0:0:0:
338,266,211894,1,8,3:0:0:0:
305,342,211982,5,4,3:0:0:0:
263,359,212070,1,4,3:0:0:0:
203,312,212159,1,4,3:0:0:0:
193,305,212247,1,4,3:0:0:0:
133,351,212335,5,8,0:2:0:0:
44,165,212512,1,8,0:2:0:0:
6,233,212600,1,8,0:2:0:0:
63,285,212688,5,8,0:2:0:0:
132,245,212864,5,8,0:2:0:0:
123,169,213041,5,8,0:2:0:0:
158,126,213129,1,8,0:2:0:0:
213,118,213217,1,8,0:2:0:0:
253,157,213306,1,8,0:2:0:0:
318,203,213394,5,8,3:0:0:0:
333,197,213482,1,8,3:0:0:0:
349,191,213570,1,12,3:0:0:0:
369,184,213659,1,4,3:0:0:0:
409,120,213747,6,0,B|413:85|437:75|437:75|322:118,1,154.799995275879,6|0,1:2|0:0,0:0:0:0:
275,83,214100,2,0,P|254:35|276:0,1,86,8|0,0:2|0:0,0:0:0:0:
484,141,214453,6,0,B|522:218|405:196|472:302,1,154.799995275879,2|0,1:2|0:0,0:0:0:0:
412,339,214806,2,0,P|366:341|321:293,1,86,8|0,0:2|0:0,0:0:0:0:
273,188,215159,6,0,P|198:207|126:276,1,154.799995275879,2|0,1:2|0:0,0:0:0:0:
66,245,215512,2,0,P|30:284|20:327,1,86,8|0,0:2|0:0,0:0:0:0:
233,367,215864,6,0,B|249:325|249:325|206:273,1,86,2|0,1:2|0:0,0:0:0:0:
222,293,216129,2,0,B|206:335|206:335|249:387,1,86,2|0,0:0|0:0,0:0:0:0:
291,319,216394,1,2,0:0:0:0:
97,337,216570,6,0,L|115:174,1,154.799995275879,2|0,1:2|0:0,0:0:0:0:
66,122,216923,5,8,0:2:0:0:
70,108,217041,1,2,0:0:0:0:
81,98,217159,1,2,0:0:0:0:
122,217,217276,5,2,1:2:0:0:
112,201,217394,1,2,0:0:0:0:
113,183,217512,1,2,0:0:0:0:
246,226,217629,5,8,0:2:0:0:
223,220,217747,1,2,0:0:0:0:
208,204,217865,1,2,0:0:0:0:
336,162,217982,6,0,B|343:130|343:130|422:118|422:118|444:170|510:184,1,180.599994488526,2|0,1:2|0:0,0:0:0:0:
492,96,218335,2,0,P|500:77|489:90,1,60.1999981628419,8|0,0:2|0:0,0:0:0:0:
208,204,218512,6,0,B|158:220|119:142|195:87|237:145|237:145|237:79|321:84|348:117|352:226|247:163|276:248,1,430,2|0,1:2|0:0,0:0:0:0:
256,192,223629,12,2,224953,0:0:0:0:
15,251,225041,6,0,P|86:264|167:309,1,154.799995275879,2|0,1:2|0:0,0:0:0:0:
228,264,225394,2,0,B|240:223|240:223|206:180,1,86,10|2,0:2|0:0,0:0:0:0:
71,22,225747,6,0,B|26:98|146:72|92:184,1,154.799995275879,2|0,1:2|0:0,0:0:0:0:
24,140,226100,1,10,0:2:0:0:
160,30,226276,2,0,L|167:90,1,43,2|0,0:2|0:0,0:0:0:0:
233,117,226453,5,2,1:2:0:0:
233,117,226541,1,8,3:0:0:0:
233,117,226629,2,0,P|260:108|291:119,1,43,8|4,3:0|3:0,0:0:0:0:
341,64,226806,5,10,0:2:0:0:
341,64,226894,1,8,3:0:0:0:
341,64,226982,2,0,P|366:76|380:106,1,43,10|4,2:3|3:0,0:0:0:0:
443,217,227159,5,2,1:2:0:0:
443,217,227247,1,8,3:0:0:0:
443,217,227335,2,0,P|416:208|385:219,1,43,8|4,3:0|3:0,0:0:0:0:
337,168,227512,5,10,0:2:0:0:
337,168,227600,1,8,3:0:0:0:
337,168,227688,2,0,P|311:180|297:210,1,43,8|4,3:0|3:0,0:0:0:0:
238,286,227864,5,2,1:2:0:0:
243,305,227953,1,0,1:2:0:0:
249,322,228041,1,2,1:2:0:0:
141,183,228217,6,0,L|130:243,1,43,8|0,0:2|1:2,0:0:0:0:
152,314,228394,1,2,1:2:0:0:
152,314,228482,1,0,1:2:0:0:
152,314,228570,6,0,P|111:328|93:344,1,43,10|0,0:0|1:2,0:0:0:0:
225,161,228747,2,0,P|233:118|228:94,1,43,10|2,1:2|0:0,0:0:0:0:
327,289,228923,2,0,P|359:317|382:325,1,43,2|0,1:2|0:0,0:0:0:0:
225,244,229100,6,0,L|245:312,1,43,10|0,0:0|0:0,0:0:0:0:
320,206,229276,5,2,1:2:0:0:
348,195,229364,1,2,1:2:0:0:
377,200,229453,1,2,1:2:0:0:
402,215,229541,1,2,1:2:0:0:
421,238,229629,5,2,1:2:0:0:
452,208,229717,1,2,1:2:0:0:
451,164,229806,1,2,1:2:0:0:
422,131,229894,1,2,1:2:0:0:
363,71,229982,5,2,1:2:0:0:
313,71,230070,1,2,1:2:0:0:
280,105,230159,1,2,1:2:0:0:
278,153,230247,1,2,1:2:0:0:
230,213,230335,5,10,0:2:0:0:
181,170,230423,1,10,0:2:0:0:
122,197,230512,1,10,0:2:0:0:
73,155,230600,1,10,0:2:0:0:
22,180,230688,6,0,L|34:223,3,34.4,8|8|8|8,3:0|3:0|3:0|3:0,0:0:0:0:
73,155,231041,5,4,3:0:0:0:
110,174,231129,1,4,3:0:0:0:
122,197,231217,1,4,3:0:0:0:
121,217,231306,1,4,3:0:0:0:
176,268,231394,5,6,1:2:0:0:
256,192,231482,12,0,232012,0:0:0:0:
400,263,232100,6,0,B|469:233|425:194|479:178|479:178|367:125|306:227|323:290,1,361.199988977051,6|0,1:2|0:0,0:0:0:0:
45,141,233512,6,0,B|-23:163|-78:55|27:-21|86:59|86:59|86:-33|203:-26|240:20|246:172|99:84|140:202,1,602,6|0,1:2|0:0,0:0:0:0:
133,280,234923,6,0,B|91:352|21:307|11:239|72:179|164:199,1,258,6|0,1:2|0:0,0:0:0:0:
324,119,235629,2,0,B|371:70|349:-12|285:-38|211:0|253:73,1,258,6|2,1:2|0:0,0:0:0:0:
304,305,236335,2,0,B|322:369|404:392|458:350|462:266|379:266,1,258,6|2,1:2|0:0,0:0:0:0:
399,170,237041,6,0,B|442:171|479:115|479:115|465:174|518:229,1,206.4,6|0,1:2|0:0,0:0:0:0:
384,266,237747,6,0,B|313:301|329:223|262:260,1,129,6|0,1:2|0:0,0:0:0:0:
205,309,238100,1,2,0:0:0:0:
205,309,238276,2,0,P|135:258|54:231,1,172,2|0,0:0|0:0,0:0:0:0:
0,62,238806,1,2,0:0:0:0:
53,10,238982,6,0,B|107:37|107:37|131:105|84:136,1,172,2|0,0:0|0:0,0:0:0:0:
249,227,239512,1,2,0:0:0:0:
182,196,239688,2,0,L|329:160,1,137.6,2|0,0:0|0:0,0:0:0:0:
315,163,240217,1,0,0:0:0:0:
422,56,240394,1,2,1:2:0:0:
416,68,240482,1,0,1:2:0:0:
411,79,240570,6,0,B|375:27|375:27|303:52,1,129,6|0,1:2|0:0,0:0:0:0:
237,32,240923,2,0,P|233:58|227:95,1,43,2|0,0:0|0:0,0:0:0:0:
182,196,241100,6,0,B|287:144|258:300|383:241,1,206.399993701172,6|0,1:2|0:0,0:0:0:0:
484,125,241629,2,0,P|489:86|499:41,1,51.599998425293,2|0,0:0|0:0,0:0:0:0:
512,200,241806,6,0,P|424:250|308:374,1,240.799992651367,6|0,1:2|0:0,0:0:0:0:
325,348,242335,6,0,P|285:350|262:332,1,43,0|0,1:2|0:0,0:0:0:0:
251,282,242512,1,0,1:2:0:0:
83,348,242688,6,0,P|101:311|128:300,1,43,0|0,1:2|0:0,0:0:0:0:
177,316,242865,1,0,1:2:0:0:
206,139,243041,6,0,P|228:173|223:202,1,43,0|0,1:2|0:0,0:0:0:0:
186,236,243218,1,0,1:2:0:0:
44,200,243394,5,0,1:2:0:0:
40,183,243482,1,0,1:2:0:0:
36,166,243570,1,0,1:2:0:0:
32,149,243659,1,0,1:2:0:0:
28,132,243747,1,0,1:2:0:0:
24,115,243835,1,0,1:2:0:0:
20,98,243923,1,0,1:2:0:0:
16,81,244012,1,0,1:2:0:0:
39,42,244100,5,0,1:2:0:0:
90,22,244188,1,0,1:2:0:0:
159,43,244276,1,0,1:2:0:0:
184,114,244364,1,8,0:0:0:0:
140,179,244453,5,8,0:0:0:0:
146,190,244541,1,8,3:0:0:0:
157,195,244629,1,8,3:0:0:0:
169,195,244717,1,4,3:0:0:0:
246,165,244806,6,0,B|360:188|360:188|362:225|402:251,1,180.599994488526,6|0,1:2|0:0,0:0:0:0:
460,214,245159,2,0,P|475:179|511:115,1,94.600002886963,10|0,0:0|0:0,0:0:0:0:
376,34,245512,5,0,1:2:0:0:
329,98,245689,1,2,0:0:0:0:
184,114,245865,5,10,0:0:0:0:
295,301,246042,1,2,0:0:0:0:
116,215,246217,5,0,1:2:0:0:
63,292,246394,1,2,0:0:0:0:
155,384,246570,6,0,B|192:291|67:321|121:206,1,189.200005773926,10|0,0:0|1:2,0:0:0:0:
23,47,247101,2,0,L|97:78,1,47.3000014434815,2|0,0:0|0:0,0:0:0:0:
201,192,247277,5,10,0:0:0:0:
320,123,247453,1,2,0:0:0:0:
132,120,247630,5,2,1:2:0:0:
283,240,247806,1,2,0:0:0:0:
444,40,247982,6,0,B|419:18|423:-18|423:-18|389:118,1,180.599994488526,10|0,0:0|0:0,0:0:0:0:
452,165,248336,6,0,B|431:202|431:202|387:203,1,86,2|0,1:2|0:0,0:0:0:0:
286,259,248600,6,0,B|234:275|234:275|195:223,1,103.199996850586,2|0,0:0|0:0,0:0:0:0:
240,56,248864,1,2,0:0:0:0:
233,75,248953,1,2,0:0:0:0:
227,92,249042,6,0,P|150:117|60:176,1,180.599994488526,2|0,1:2|0:0,0:0:0:0:
0,143,249395,2,0,P|-9:171|10:212,1,68.8,8|2,0:0|0:0,0:0:0:0:
231,351,249747,6,0,L|258:162,1,180.599994488526,2|0,1:2|0:0,0:0:0:0:
317,122,250100,2,0,P|357:128|376:161,1,68.8,8|0,0:0|0:0,0:0:0:0:
512,252,250453,6,0,B|451:277|451:277|448:345|448:345|375:385,1,206.399993701172,2|8,1:2|0:0,0:0:0:0:
318,341,250983,1,2,0:0:0:0:
373,149,251159,2,0,P|398:189|376:252,1,103.199996850586,2|0,1:2|0:0,0:0:0:0:
313,262,251424,1,2,0:0:0:0:
313,262,251512,6,0,P|282:245|258:234,1,51.599998425293,8|0,0:0|0:0,0:0:0:0:
386,241,251689,1,2,0:0:0:0:
193,316,251864,6,0,B|144:291|144:291|107:218|186:173,1,172,2|8,1:2|0:0,0:0:0:0:
266,158,252395,1,2,0:0:0:0:
91,21,252571,6,0,L|115:133,1,103.2,0|0,1:2|0:0,0:0:0:0:
10,214,252924,5,10,0:2:0:0:
0,243,253101,1,2,0:0:0:0:
218,82,253277,6,0,B|169:172|322:145|253:268,1,180.599994488526,2|0,1:2|0:0,0:0:0:0:
332,277,253630,2,0,P|352:251|394:241,1,68.8,8|2,0:0|0:0,0:0:0:0:
98,261,253982,6,0,B|120:233|120:233|182:247|182:247|193:298|247:318,1,180.599994488526,2|0,1:2|0:0,0:0:0:0:
285,364,254335,2,0,P|334:378|368:391,1,68.8,8|2,0:0|0:0,0:0:0:0:
484,243,254688,6,0,B|524:197|489:147|489:147|420:125,1,154.799995275879,6|0,1:2|0:0,0:0:0:0:
441,131,255041,6,0,L|420:71,1,43,0|0,1:2|0:0,0:0:0:0:
336,38,255217,2,0,L|350:78,1,43,0|0,1:2|0:0,0:0:0:0:
352,205,255394,6,0,L|376:136,1,51.599998425293,0|0,1:2|0:0,0:0:0:0:
512,3,255570,2,0,L|492:56,1,51.599998425293,0|0,1:2|0:0,0:0:0:0:
289,130,255748,5,0,1:2:0:0:
216,149,255836,1,8,0:0:0:0:
165,94,255923,6,0,B|54:64|54:64|36:96|-1:112,1,180.599994488526,6|0,1:2|0:0,0:0:0:0:
110,255,256276,6,0,P|137:286|177:289,1,60.1999981628419,0|0,1:2|0:0,0:0:0:0:
342,111,256453,2,0,P|301:118|279:152,1,60.1999981628419,0|0,1:2|0:0,0:0:0:0:
342,384,256629,2,0,P|355:345|337:308,1,60.1999981628419,0|8,1:2|0:0,0:0:0:0:
237,47,256806,5,0,1:2:0:0:
198,77,256895,1,0,1:2:0:0:
196,129,256983,1,8,0:0:0:0:
216,149,257071,1,8,0:0:0:0:
210,234,257159,5,8,3:0:0:0:
227,230,257248,1,8,3:0:0:0:
244,225,257336,1,4,3:0:0:0:
261,220,257424,1,4,3:0:0:0:
320,166,257512,6,0,P|407:184|492:255,1,180.599994488526,6|0,1:2|0:0,0:0:0:0:
512,169,257865,2,0,P|511:133|450:124,1,94.600002886963,10|0,0:0|0:0,0:0:0:0:
343,247,258218,5,0,1:2:0:0:
370,320,258395,1,2,0:0:0:0:
386,92,258571,5,10,0:0:0:0:
235,310,258748,1,2,0:0:0:0:
115,108,258924,5,0,1:2:0:0:
159,203,259101,1,2,0:0:0:0:
19,203,259276,6,0,B|85:162|135:228|135:228|112:249|108:306,1,189.200005773926,10|0,0:0|1:2,0:0:0:0:
247,355,259806,2,0,P|240:332|234:309,1,47.3000014434815,2|0,0:0|0:0,0:0:0:0:
305,180,259983,5,10,0:0:0:0:
160,336,260159,1,2,0:0:0:0:
225,170,260336,5,2,1:2:0:0:
338,279,260512,1,2,0:0:0:0:
478,188,260688,6,0,B|517:84|386:128|437:7,1,180.599994488526,10|0,0:0|0:0,0:0:0:0:
353,0,261042,6,0,P|310:17|282:63,1,86,2|0,1:2|0:0,0:0:0:0:
176,71,261306,6,0,P|160:127|180:176,1,103.199996850586,2|0,0:0|0:0,0:0:0:0:
184,305,261570,1,2,0:0:0:0:
189,320,261659,1,2,0:0:0:0:
194,337,261747,6,0,B|214:306|247:309|247:309|132:282,1,180.599994488526,2|0,1:2|0:0,0:0:0:0:
85,341,262101,2,0,P|60:311|66:261,1,68.8,8|2,0:0|0:0,0:0:0:0:
300,233,262453,6,0,B|280:202|247:205|247:205|362:178,1,180.599994488526,2|0,1:2|0:0,0:0:0:0:
409,238,262807,2,0,P|434:208|428:158,1,68.8,8|0,0:0|0:0,0:0:0:0:
416,15,263159,6,0,B|352:-13|317:51|317:51|340:121,1,154.799995275879,6|0,1:2|0:0,0:0:0:0:
276,145,263512,2,0,P|231:154|191:117,1,86,10|2,0:0|0:0,0:0:0:0:
91,32,263864,2,0,L|117:130,1,86,0|0,1:2|0:0,0:0:0:0:
146,186,264218,1,10,0:0:0:0:
146,186,264395,1,2,0:0:0:0:
0,241,264571,6,0,L|88:260,1,86,2|2,1:2|0:0,0:0:0:0:
199,133,264924,1,10,0:0:0:0:
258,180,265101,2,0,L|224:259,1,86,2|0,0:0|1:2,0:0:0:0:
160,384,265453,2,0,P|111:363|93:324,1,86,2|8,0:0|0:0,0:0:0:0:
165,310,265806,1,2,0:0:0:0:
355,368,265982,6,0,B|388:281|298:307|338:215,1,154.799995275879,2|0,1:2|0:0,0:0:0:0:
386,169,266336,2,0,B|427:155|427:155|464:193,1,86,10|2,0:0|0:0,0:0:0:0:
512,292,266689,2,0,L|421:259,1,86,0|0,1:2|0:0,0:0:0:0:
362,295,267042,1,10,0:0:0:0:
362,295,267217,1,2,0:0:0:0:
227,101,267394,6,0,L|250:186,1,86,2|2,1:2|0:0,0:0:0:0:
165,310,267748,1,10,0:0:0:0:
105,261,267923,2,0,L|20:238,1,86,2|0,0:0|1:2,0:0:0:0:
249,184,268276,2,0,L|165:206,1,86,2|8,0:0|0:0,0:0:0:0:
93,146,268629,1,2,0:0:0:0:
243,24,268806,6,0,B|288:-11|343:31|343:31|344:65|381:89,1,172,2|10,1:2|0:0,0:0:0:0:
481,58,269336,1,2,0:0:0:0:
481,58,269424,1,2,0:0:0:0:
481,58,269512,2,0,B|453:152,1,86,0|0,1:2|0:0,0:0:0:0:
310,246,269864,6,0,L|268:257,1,43,10|2,0:0|0:0,0:0:0:0:
326,165,270041,2,0,L|367:153,1,43,2|2,0:0|0:0,0:0:0:0:
227,106,270217,6,0,B|134:67|134:67|83:122,1,172,2|10,1:2|0:0,0:0:0:0:
0,107,270748,1,2,0:0:0:0:
0,107,270835,1,2,0:0:0:0:
0,107,270923,2,0,L|29:207,1,86,0|0,1:2|0:0,0:0:0:0:
6,343,271276,5,10,0:0:0:0:
6,327,271364,1,2,0:0:0:0:
26,294,271453,1,2,0:0:0:0:
75,279,271541,1,2,0:0:0:0:
153,313,271630,6,0,B|191:276|191:276|193:194|109:189,1,180.599994488526,6|0,1:2|0:0,0:0:0:0:
85,119,271983,2,0,P|119:93|155:96,1,68.8,8|0,0:0|0:0,0:0:0:0:
386,23,272335,6,0,P|342:99|313:209,1,180.599994488526,2|2,1:2|0:0,0:0:0:0:
264,249,272688,2,0,P|281:282|311:289,1,68.8,10|2,0:0|0:0,0:0:0:0:
438,355,272953,1,2,0:0:0:0:
448,347,273041,6,0,B|488:268|381:295|418:207,1,154.799995275879,2|0,1:2|0:0,0:0:0:0:
313,75,273395,6,0,P|297:59|247:68,1,60.1999981628419,10|0,0:0|0:0,0:0:0:0:
455,139,273571,6,0,B|429:114|429:114|373:128|373:128|352:198|272:189,1,180.599994488526,10|0,0:0|0:0,0:0:0:0:
149,88,273923,6,0,B|171:49|166:22|166:22|191:165,1,180.599994488526,10|0,0:0|0:0,0:0:0:0:
3,233,274276,6,0,P|83:262|175:337,1,172,6|0,1:2|0:0,0:0:0:0:
267,369,274806,2,0,P|321:331|320:297,1,86,8|0,0:0|0:0,0:0:0:0:
258,273,275159,2,0,L|235:172,1,86,0|0,1:2|0:0,0:0:0:0:
106,188,275512,6,0,P|52:150|53:116,1,86,8|0,0:0|0:0,0:0:0:0:
115,92,275865,2,0,L|138:-9,1,86,0|0,1:2|0:0,0:0:0:0:
263,97,276218,2,0,B|361:59,1,86,8|0,0:0|0:0,0:0:0:0:
346,70,276483,1,2,0:0:0:0:
346,70,276571,6,0,L|363:124,1,43,2|2,1:2|0:0,0:0:0:0:
300,165,276747,2,0,L|283:219,1,43,2|2,0:0|0:0,0:0:0:0:
263,97,276924,1,10,0:0:0:0:
495,197,277100,6,0,B|444:167|393:212|393:212|391:242|366:279,1,172,6|0,1:2|1:2,0:0:0:0:
276,360,277629,6,0,P|223:349|214:335,1,43,0|0,1:2|0:0,0:0:0:0:
229,284,277806,1,0,1:2:0:0:
75,329,277982,6,0,P|111:288|127:287,1,43,0|0,1:2|0:0,0:0:0:0:
164,326,278159,1,0,1:2:0:0:
227,162,278335,1,0,1:2:0:0:
50,193,278512,6,0,B|48:167|21:154|21:154|149:195,1,172,6|0,1:2|1:2,0:0:0:0:
318,345,279042,5,0,1:2:0:0:
337,338,279130,1,0,1:2:0:0:
356,330,279218,1,0,1:2:0:0:
375,322,279306,1,0,1:2:0:0:
394,314,279395,5,10,1:2:0:0:
425,273,279483,1,10,1:2:0:0:
405,225,279571,1,10,1:2:0:0:
354,215,279659,1,10,1:2:0:0:
316,251,279748,5,10,1:2:0:0:
244,237,279836,1,10,1:2:0:0:
219,168,279924,1,10,1:2:0:0:
269,115,280012,1,10,1:2:0:0:
346,134,280100,6,0,B|405:102|405:102|404:28|337:16,1,180.599994488526,6|0,1:2|0:0,0:0:0:0:
272,37,280454,1,10,0:0:0:0:
219,168,280630,1,2,0:0:0:0:
116,106,280807,2,0,L|214:76,1,86,2|0,1:2|0:0,0:0:0:0:
346,134,281159,2,0,B|372:164|372:164|351:229,1,86,10|0,0:0|0:0,0:0:0:0:
289,182,281512,5,2,1:2:0:0:
394,352,281689,2,0,P|417:329|426:304,1,43,2|0,0:0|0:0,0:0:0:0:
304,265,281864,6,0,P|208:297|137:360,1,180.599994488526,10|0,0:0|0:0,0:0:0:0:
27,232,282217,2,0,B|22:195|-13:181|-13:181|37:178|60:245,1,154.799995275879,2|0,1:2|0:0,0:0:0:0:
254,332,282570,5,10,0:0:0:0:
304,265,282748,1,2,0:0:0:0:
304,265,282836,1,2,0:0:0:0:
304,265,282923,5,0,1:2:0:0:
183,183,283101,1,2,0:0:0:0:
176,203,283189,1,2,0:0:0:0:
169,223,283277,5,10,0:0:0:0:
329,340,283454,1,2,0:0:0:0:
430,178,283630,2,0,L|414:94,1,86,2|0,1:2|0:0,0:0:0:0:
163,16,283983,5,10,0:0:0:0:
85,37,284160,1,2,0:0:0:0:
145,95,284336,5,2,1:2:0:0:
256,197,284513,1,2,0:0:0:0:
249,117,284689,5,10,0:0:0:0:
327,158,284864,1,2,0:0:0:0:
229,320,285042,5,2,1:2:0:0:
156,336,285217,1,2,0:0:0:0:
118,271,285394,6,0,L|44:236,1,77.3999976379395,10|0,0:0|0:0,0:0:0:0:
39,161,285748,5,6,1:2:0:0:
208,66,285923,1,2,0:0:0:0:
158,10,286100,6,0,L|183:171,1,154.799995275879,10|0,0:0|0:0,0:0:0:0:
253,216,286454,5,2,1:2:0:0:
337,130,286630,1,2,0:0:0:0:
363,131,286717,1,2,0:0:0:0:
383,150,286807,1,10,0:0:0:0:
376,228,286982,1,2,0:0:0:0:
387,241,287071,1,2,0:0:0:0:
388,259,287159,5,2,1:2:0:0:
251,351,287336,1,2,0:0:0:0:
302,298,287512,6,0,P|235:316|150:375,1,154.799995275879,10|0,0:0|0:0,0:0:0:0:
100,323,287864,5,2,1:2:0:0:
195,219,288042,1,2,0:0:0:0:
188,191,288130,1,2,0:0:0:0:
181,162,288218,1,10,0:0:0:0:
119,110,288395,1,2,0:0:0:0:
105,107,288482,1,2,0:0:0:0:
96,116,288570,5,2,1:2:0:0:
273,195,288748,1,2,0:0:0:0:
320,140,288923,6,0,B|290:227|380:194|343:294,1,154.799995275879,10|2,0:0|0:0,0:0:0:0:
421,318,289277,5,2,1:2:0:0:
491,236,289453,1,2,0:0:0:0:
492,208,289541,1,2,0:0:0:0:
473,191,289630,1,10,0:0:0:0:
471,89,289806,5,2,0:0:0:0:
459,83,289895,1,2,0:0:0:0:
445,77,289983,6,0,L|386:103,1,43,2|8,1:2|3:0,0:0:0:0:
359,158,290159,2,0,L|320:140,1,43,2|4,1:2|3:0,0:0:0:0:
334,59,290336,5,10,0:0:0:0:
329,43,290513,1,8,3:0:0:0:
225,130,290689,5,4,3:0:0:0:
225,130,290777,1,10,0:0:0:0:
225,130,290864,2,0,P|229:151|239:171,1,43,10|0,0:0|1:2,0:0:0:0:
216,306,291042,5,10,0:0:0:0:
152,355,291130,1,10,0:0:0:0:
68,356,291217,1,8,3:0:0:0:
71,338,291307,1,4,3:0:0:0:
20,277,291395,6,0,B|18:242|-9:235|-9:235|120:265,1,180.599994488526,6|0,1:2|0:0,0:0:0:0:
225,130,291748,1,10,0:0:0:0:
318,270,291924,1,2,0:0:0:0:
428,158,292100,6,0,P|390:155|342:193,1,86,2|0,1:2|0:0,0:0:0:0:
258,352,292453,2,0,L|234:269,1,86,10|0,0:0|0:0,0:0:0:0:
314,106,292807,5,2,1:2:0:0:
166,0,292983,2,0,P|150:22|140:52,1,43,2|0,0:0|0:0,0:0:0:0:
69,50,293159,6,0,P|144:66|242:157,1,180.599994488526,10|0,0:0|0:0,0:0:0:0:
385,43,293512,2,0,B|433:125|305:94|363:211,1,154.799995275879,2|0,1:2|0:0,0:0:0:0:
280,306,293864,5,10,0:0:0:0:
125,192,294042,1,2,0:0:0:0:
125,192,294130,1,2,0:0:0:0:
125,192,294217,6,0,B|147:263|147:263|85:273|85:273|95:282|93:296|93:296|150:270|150:270|173:368|173:368|201:357|201:357|162:267|162:267|220:260|220:260|214:251|214:237|214:237|160:259|160:259|137:184,1,670.799969293214,6|8,1:0|0:0,0:0:0:0:
224,129,295453,5,2,0:0:0:0:
224,129,295541,1,2,0:0:0:0:
224,129,295629,5,2,1:2:0:0:
294,255,295806,2,0,L|306:214,1,43,2|2,0:0|0:0,0:0:0:0:
339,92,295982,5,8,0:0:0:0:
411,61,296071,1,8,0:0:0:0:
446,112,296159,1,0,1:2:0:0:
476,95,296248,1,0,1:2:0:0:
484,108,296335,5,0,1:2:0:0:
348,6,296512,1,0,1:2:0:0:
339,92,296688,5,8,0:0:0:0:
335,108,296776,1,8,0:0:0:0:
331,124,296865,1,8,0:0:0:0:
327,140,296953,1,8,0:0:0:0:
323,156,297041,5,6,1:2:0:0:
202,78,297218,1,2,0:0:0:0:
82,195,297394,5,10,0:0:0:0:
26,139,297570,6,0,P|116:167|186:212,1,154.799995275879,2|0,1:2|0:0,0:0:0:0:
260,9,297923,2,0,L|270:57,1,34.4,2|0,0:0|0:0,0:0:0:0:
181,0,298100,1,10,0:0:0:0:
404,141,298276,6,0,B|376:120|376:120|289:145|289:145|293:197|244:241,1,223.599989764405,2|2,1:2|0:0,0:0:0:0:
175,124,298806,1,10,0:0:0:0:
0,225,298982,6,0,L|31:26,1,167.699992323304,2|0,1:2|0:0,0:0:0:0:
102,31,299334,1,10,0:0:0:0:
102,31,299423,1,10,0:0:0:0:
311,295,299688,6,0,B|310:264|336:248|336:248|231:224|210:329,1,206.4,2|0,1:2|0:0,0:0:0:0:
143,274,300041,2,0,L|125:217,1,34.4,2|0,0:0|0:0,0:0:0:0:
102,342,300217,1,10,0:0:0:0:
279,141,300394,6,0,B|239:237|356:189|296:340,1,167.699992323304,2|0,1:2|0:0,0:0:0:0:
396,329,300746,2,0,P|389:360|375:378,1,55.8999974411012,2|0,0:0|0:0,0:0:0:0:
300,372,300923,1,8,0:0:0:0:
454,253,301100,6,0,B|507:223|507:223|515:165|455:146,1,154.799995275879,6|8,1:2|0:0,0:0:0:0:
406,97,301497,2,8,L|385:112,2,19.3499994094849
344,167,301629,5,8,0:0:0:0:
302,131,301717,1,8,0:0:0:0:
247,137,301806,1,8,0:0:0:0:
215,180,301894,1,8,0:0:0:0:
159,233,301982,6,0,L|172:290,1,38.6999988189698,10|8,0:0|3:0,0:0:0:0:
248,292,302159,2,0,L|239:254,1,38.6999988189698,6|4,3:0|3:0,0:0:0:0:
83,185,302335,5,10,3:0:0:0:
73,205,302453,5,6,3:0:0:0:
151,140,302688,6,0,B|165:101|148:65|148:65|220:39|260:0|260:0|261:58|296:120|296:120|258:136|240:175,1,412.8,6|2,1:2|0:0,0:0:0:0:
24,330,303923,6,0,B|-45:304|4:226|106:220|124:374,1,258,2|0,0:0|0:0,0:0:0:0:
265,185,305570,6,0,B|328:142|367:82|323:6|323:6|235:39|233:116|233:116|180:45|110:80|110:80|113:160|183:185|183:185|106:208|100:294|100:294|181:309|235:253|235:253|221:328|303:372|303:372|346:313|322:243|322:243|386:273|458:205|458:205|389:119|309:165,1,1533.66666666667,6|0,1:2|0:0,0:0:0:0:
