osu file format v14

[General]
AudioFilename: audio.mp3
AudioLeadIn: 0
PreviewTime: 29164
Countdown: 0
SampleSet: Soft
StackLeniency: 0.5
Mode: 0
LetterboxInBreaks: 0
WidescreenStoryboard: 0

[Editor]
Bookmarks: 165101,180101,195336,201898
DistanceSpacing: 1
BeatDivisor: 4
GridSize: 4
TimelineZoom: 2.1

[Metadata]
Title:Kimi to Driven Star
TitleUnicode:キミとDriven Star
Artist:La priere
ArtistUnicode:La prière
Creator:UberFazz
Version:Supernova
Source:
Tags:japanese electronic house featured artist galaxy triangle nayuta 棗いつき Natsume Itsuki aran
BeatmapID:3064202
BeatmapSetID:1495067

[Difficulty]
HPDrainRate:5
CircleSize:4
OverallDifficulty:9
ApproachRate:9
SliderMultiplier:2.2
SliderTickRate:1

[Events]
//Background and Video events
0,0,"galaxy triangle.jpg",0,0
//Break Periods
2,60301,72626
2,165301,179501
2,195535,201298
//Storyboard Layer 0 (Background)
//Storyboard Layer 1 (Fail)
//Storyboard Layer 2 (Pass)
//Storyboard Layer 3 (Foreground)
//Storyboard Layer 4 (Overlay)
//Storyboard Sound Samples

[TimingPoints]
102,468.749999999999,4,2,1,60,1,0
15101,-83.3333333333333,4,2,1,60,0,0
22601,-76.9230769230769,4,2,1,60,0,0
29398,-71.4285714285714,4,2,1,60,0,0
30101,-55.5555555555556,4,2,1,70,0,1
31976,-50,4,2,1,70,0,1
32797,-55.5555555555556,4,2,1,70,0,1
35726,-50,4,2,1,70,0,1
36547,-55.5555555555556,4,2,1,70,0,1
39476,-50,4,2,1,70,0,1
40297,-55.5555555555556,4,2,1,70,0,1
43930,-71.4285714285714,4,2,1,70,0,1
44398,-55.5555555555556,4,2,1,70,0,1
46976,-50,4,2,1,70,0,1
47797,-55.5555555555556,4,2,1,70,0,1
50726,-50,4,2,1,70,0,1
51547,-55.5555555555556,4,2,1,70,0,1
54476,-50,4,2,1,70,0,1
55297,-55.5555555555556,4,2,1,70,0,1
58226,-71.4285714285714,4,2,1,60,0,0
73226,-250,4,2,1,60,0,0
74164,-125,4,2,1,60,0,0
75101,-100,4,2,1,60,0,0
96898,-83.3333333333333,4,2,1,60,0,0
103226,-125,4,2,1,60,0,0
105101,-71.4285714285714,4,2,1,60,0,0
116351,-142.857142857143,4,2,1,60,0,0
118461,-71.4285714285714,4,2,1,60,0,0
123851,-153.846153846154,4,2,1,60,0,0
124789,-100,4,2,1,60,0,0
125726,-71.4285714285714,4,2,1,60,0,0
126664,-55.5555555555556,4,2,1,60,0,0
127601,-71.4285714285714,4,2,1,60,0,0
135101,-55.5555555555556,4,2,1,70,0,1
136976,-50,4,2,1,70,0,1
137797,-55.5555555555556,4,2,1,70,0,1
140726,-50,4,2,1,70,0,1
141547,-55.5555555555556,4,2,1,70,0,1
144476,-50,4,2,1,70,0,1
145297,-55.5555555555556,4,2,1,70,0,1
151976,-50,4,2,1,70,0,1
152797,-55.5555555555556,4,2,1,70,0,1
155726,-50,4,2,1,70,0,1
156547,-55.5555555555556,4,2,1,70,0,1
159476,-50,4,2,1,70,0,1
160297,-55.5555555555556,4,2,1,70,0,1
163226,-71.4285714285714,4,2,1,60,0,0
180101,-142.857142857143,4,2,1,60,0,0
194398,-100,4,2,1,60,0,0
209633,-500,4,2,1,60,0,0
210101,-50,4,2,1,80,0,1
211976,-45.4545454545455,4,2,1,80,0,1
213031,-50,4,2,1,80,0,1
215726,-45.4545454545455,4,2,1,80,0,1
216781,-50,4,2,1,80,0,1
219476,-45.4545454545455,4,2,1,80,0,1
220531,-50,4,2,1,80,0,1
226976,-45.4545454545455,4,2,1,80,0,1
228031,-50,4,2,1,80,0,1
230726,-45.4545454545455,4,2,1,80,0,1
231781,-50,4,2,1,80,0,1
234476,-45.4545454545455,4,2,1,80,0,1
235531,-50,4,2,1,80,0,1
240101,-71.4285714285714,4,2,1,60,0,0

[Colours]
Combo1 : 255,243,17
Combo2 : 224,116,216

[HitObjects]
30,20,14398,5,2,0:0:0:0:
24,21,14516,1,2,0:0:0:0:
20,17,14633,1,2,0:0:0:0:
20,12,14750,1,2,0:0:0:0:
24,8,14867,1,2,0:0:0:0:
30,10,14984,1,2,0:0:0:0:
94,66,15101,6,0,P|106:123|109:212,1,131.99999597168,4|0,1:0|0:0,0:0:0:0:
201,220,15570,2,0,P|201:137|187:23,1,197.99999395752,8|0,0:0|0:0,0:0:0:0:
186,22,16156,1,2,0:0:0:0:
186,22,16273,1,2,0:0:0:0:
288,52,16508,2,0,P|300:109|303:198,1,131.99999597168,8|0,0:0|0:0,0:0:0:0:
303,182,16859,1,2,0:0:0:0:
303,182,16976,5,2,0:0:0:0:
274,273,17211,1,2,0:0:0:0:
313,363,17445,2,0,P|374:367|340:259,1,197.99999395752,8|0,0:0|0:0,0:0:0:0:
365,261,18031,1,2,0:0:0:0:
365,261,18148,1,2,0:0:0:0:
228,348,18383,1,8,0:0:0:0:
496,384,18617,1,2,0:0:0:0:
496,384,18734,1,2,0:0:0:0:
496,384,18851,6,0,P|499:318|475:224,1,131.99999597168,2|0,0:0|0:0,0:0:0:0:
486,253,19320,1,8,0:0:0:0:
512,0,19672,1,2,0:0:0:0:
482,83,19906,1,2,0:0:0:0:
482,83,20023,2,0,P|419:88|339:74,1,131.99999597168,2|8,0:0|0:0,0:0:0:0:
347,169,20492,1,2,0:0:0:0:
347,169,20609,1,2,0:0:0:0:
347,169,20726,6,0,P|410:164|490:178,2,131.99999597168,2|0|8,0:0|0:0|0:0,0:0:0:0:
164,215,21430,1,2,0:0:0:0:
164,215,21547,1,2,0:0:0:0:
266,249,21781,1,2,0:0:0:0:
266,249,21898,2,0,P|254:174|213:105,1,131.99999597168,2|8,0:0|0:0,0:0:0:0:
161,59,22367,1,2,0:0:0:0:
161,59,22484,1,2,0:0:0:0:
161,59,22601,5,6,1:2:0:0:
307,82,22836,1,2,0:0:0:0:
161,59,23070,2,0,P|87:65|21:98,1,142.99999345398,8|0,0:0|0:0,0:0:0:0:
1,168,23422,1,2,0:0:0:0:
117,287,23656,1,2,0:0:0:0:
117,287,23773,1,2,0:0:0:0:
117,287,23891,2,0,P|122:193|100:113,1,142.99999345398,2|0,0:0|0:0,0:0:0:0:
112,145,24359,1,2,0:0:0:0:
112,145,24476,5,2,0:0:0:0:
20,258,24711,1,2,0:0:0:0:
104,371,24945,2,0,P|213:348|201:265,1,214.49999018097,8|0,0:0|0:0,0:0:0:0:
306,358,25531,1,2,0:0:0:0:
306,358,25648,1,2,0:0:0:0:
306,358,25766,2,0,P|382:368|462:362,1,142.99999345398,2|0,0:0|0:0,0:0:0:0:
301,269,26234,1,2,0:0:0:0:
301,269,26351,5,2,0:0:0:0:
256,192,26469,12,0,28226,1:0:0:0:
443,30,29398,6,0,P|444:112|374:110,2,153.999995300293,2|2|2,0:0|0:0|0:0,0:0:0:0:
443,30,29984,1,2,0:0:0:0:
340,27,30101,6,0,P|270:83|143:92,1,197.99999395752,4|2,1:0|0:0,0:0:0:0:
342,353,30570,2,0,P|344:294|327:233,1,98.9999969787599,8|0,0:0|0:0,0:0:0:0:
307,167,30805,1,2,0:0:0:0:
165,96,31039,2,0,P|171:199|209:302,2,197.99999395752,2|2|10,1:2|0:0|0:0,0:0:0:0:
267,359,31742,2,0,P|224:376|148:376,1,98.9999969787599,2|0,0:0|0:0,0:0:0:0:
77,377,31976,6,0,P|66:200|-9:38,2,330,2|2|2,1:0|1:0|1:0,0:0:0:0:
77,377,32797,1,2,0:0:0:0:
77,377,32914,1,2,0:0:0:0:
342,353,33148,2,0,P|376:340|340:348,1,98.9999969787599,2|0,0:0|0:0,0:0:0:0:
491,170,33383,2,0,P|457:157|493:165,1,98.9999969787599,10|0,0:0|0:0,0:0:0:0:
463,362,33617,1,2,0:0:0:0:
457,271,33734,2,0,P|381:189|389:89,1,197.99999395752,2|0,0:0|0:0,0:0:0:0:
390,0,34086,2,0,P|356:106|266:149,1,197.99999395752,2|8,0:0|0:0,0:0:0:0:
39,52,34555,6,0,P|56:103|61:159,1,98.9999969787599,2|0,0:0|0:0,0:0:0:0:
63,238,34789,2,0,P|80:187|85:131,1,98.9999969787599,2|0,1:2|0:0,0:0:0:0:
152,51,35023,2,0,P|169:102|174:158,1,98.9999969787599,2|0,0:0|0:0,0:0:0:0:
176,237,35258,2,0,P|193:186|198:130,2,98.9999969787599,10|0|2,0:0|0:0|0:0,0:0:0:0:
123,314,35609,1,0,0:0:0:0:
235,344,35726,6,0,P|288:202|279:17,2,330,2|2|2,1:0|1:0|1:0,0:0:0:0:
235,344,36547,1,2,0:0:0:0:
235,344,36664,1,2,0:0:0:0:
389,256,36898,2,0,P|385:199|412:132,1,98.9999969787599,2|0,0:0|0:0,0:0:0:0:
507,119,37133,2,0,P|459:150|388:161,1,98.9999969787599,10|0,0:0|0:0,0:0:0:0:
314,140,37367,1,2,0:0:0:0:
421,35,37484,2,0,P|472:120|489:217,1,197.99999395752,2|0,0:0|0:0,0:0:0:0:
465,349,37836,2,0,P|414:264|397:167,1,197.99999395752,2|8,0:0|0:0,0:0:0:0:
155,200,38305,5,2,0:0:0:0:
31,67,38539,2,0,P|76:105|84:163,1,98.9999969787599,2|0,1:2|0:0,0:0:0:0:
283,62,38773,2,0,P|238:100|230:158,1,98.9999969787599,2|0,0:0|0:0,0:0:0:0:
31,317,39008,2,0,P|76:279|84:221,1,98.9999969787599,10|0,0:0|0:0,0:0:0:0:
283,322,39242,2,0,P|238:284|230:226,1,98.9999969787599,2|0,0:0|0:0,0:0:0:0:
154,51,39476,6,0,P|204:174|136:376,2,330,2|2|2,1:0|1:0|1:0,0:0:0:0:
154,51,40297,1,2,0:0:0:0:
154,51,40414,1,2,0:0:0:0:
283,322,40648,2,0,P|337:321|380:294,1,98.9999969787599,2|0,0:0|0:0,0:0:0:0:
502,100,40883,2,0,P|448:101|405:128,1,98.9999969787599,10|0,0:0|0:0,0:0:0:0:
443,352,41117,1,2,0:0:0:0:
474,271,41234,2,0,P|409:213|289:208,1,197.99999395752,2|0,0:0|0:0,0:0:0:0:
302,203,41586,5,2,0:0:0:0:
296,23,41820,2,0,P|319:72|320:131,1,98.9999969787599,10|0,0:0|0:0,0:0:0:0:
322,116,42055,1,2,0:0:0:0:
232,102,42172,2,0,P|144:162|138:342,1,296.99999093628,2|2,0:0|0:0,0:0:0:0:
136,339,42758,1,10,0:0:0:0:
136,339,42875,1,2,0:0:0:0:
220,200,43109,1,2,0:0:0:0:
209,285,43226,6,0,P|238:326|304:358,1,98.9999969787599,0|0,1:0|0:0,0:0:0:0:
133,221,43461,1,2,0:0:0:0:
133,221,43578,2,0,P|104:180|38:148,1,98.9999969787599,2|8,0:0|0:0,0:0:0:0:
63,154,43812,1,2,0:0:0:0:
45,61,43930,2,0,P|121:91|221:202,1,230.99999295044,2|0,0:0|0:0,0:0:0:0:
219,199,44398,6,0,P|261:174|297:120,1,98.9999969787599,2|0,0:0|0:0,0:0:0:0:
268,19,44633,2,0,P|269:67|298:125,1,98.9999969787599,10|0,0:0|0:0,0:0:0:0:
289,113,44867,1,2,0:0:0:0:
413,187,44984,2,0,P|411:133|357:-8,1,197.99999395752,2|0,0:0|0:0,0:0:0:0:
324,205,45336,2,0,P|326:259|396:389,1,197.99999395752,2|8,0:0|0:0,0:0:0:0:
504,350,45805,6,0,P|494:294|464:240,1,98.9999969787599,2|0,0:0|0:0,0:0:0:0:
413,187,46039,1,2,1:2:0:0:
343,361,46273,2,0,P|375:314|392:254,1,98.9999969787599,2|0,0:0|0:0,0:0:0:0:
413,187,46508,1,10,0:0:0:0:
222,254,46742,2,0,P|278:243|332:214,1,98.9999969787599,2|0,0:0|0:0,0:0:0:0:
50,79,46976,6,0,P|115:196|106:388,2,330,2|2|2,1:0|1:0|1:0,0:0:0:0:
50,79,47797,1,2,0:0:0:0:
50,79,47914,1,2,0:0:0:0:
331,25,48148,2,0,P|283:49|217:61,1,98.9999969787599,2|0,0:0|0:0,0:0:0:0:
203,280,48383,2,0,P|206:226|228:163,1,98.9999969787599,10|0,0:0|0:0,0:0:0:0:
298,127,48617,1,2,0:0:0:0:
151,105,48734,2,0,P|112:198|102:324,1,197.99999395752,2|0,0:0|0:0,0:0:0:0:
4,263,49086,2,0,P|17:210|14:147,1,98.9999969787599,2|0,0:0|0:0,0:0:0:0:
50,79,49320,1,8,0:0:0:0:
31,354,49555,6,0,P|71:379|123:383,1,98.9999969787599,2|0,0:0|0:0,0:0:0:0:
293,309,49789,2,0,P|253:284|201:280,1,98.9999969787599,2|0,1:2|0:0,0:0:0:0:
100,293,50023,1,2,0:0:0:0:
293,309,50258,2,0,P|322:308|286:293,1,98.9999969787599,10|0,0:0|0:0,0:0:0:0:
225,368,50492,1,2,0:0:0:0:
423,261,50726,6,0,P|358:111|237:0,2,330,2|2|2,1:0|1:0|1:0,0:0:0:0:
423,261,51547,1,2,0:0:0:0:
423,261,51664,1,2,0:0:0:0:
464,6,51898,2,0,P|441:51|396:82,1,98.9999969787599,2|0,0:0|0:0,0:0:0:0:
238,207,52133,2,0,P|277:177|299:133,1,98.9999969787599,10|0,0:0|0:0,0:0:0:0:
328,41,52367,1,2,0:0:0:0:
392,179,52484,2,0,P|299:119|208:96,1,197.99999395752,2|0,0:0|0:0,0:0:0:0:
117,136,52836,2,0,P|129:86|120:33,1,98.9999969787599,2|0,0:0|0:0,0:0:0:0:
202,16,53070,1,8,0:0:0:0:
5,117,53305,6,0,P|30:164|35:228,1,98.9999969787599,2|0,0:0|0:0,0:0:0:0:
70,296,53539,2,0,P|114:273|148:238,1,98.9999969787599,2|0,1:2|0:0,0:0:0:0:
392,179,53773,2,0,P|367:226|362:290,1,98.9999969787599,2|0,0:0|0:0,0:0:0:0:
326,358,54007,2,0,P|282:335|249:300,1,98.9999969787599,10|0,0:0|0:0,0:0:0:0:
203,156,54242,2,0,P|254:181|285:229,1,98.9999969787599,2|0,0:0|0:0,0:0:0:0:
455,373,54476,6,0,P|496:259|477:40,2,330,2|2|2,1:0|1:0|1:0,0:0:0:0:
455,373,55297,1,2,0:0:0:0:
455,373,55414,1,2,0:0:0:0:
396,61,55648,2,0,P|349:72|305:104,1,98.9999969787599,2|0,0:0|0:0,0:0:0:0:
308,100,55883,1,10,0:0:0:0:
241,45,56000,2,0,P|200:73|152:84,1,98.9999969787599,2|0,0:0|0:0,0:0:0:0:
233,335,56234,2,0,P|261:209|205:128,1,197.99999395752,2|0,0:0|0:0,0:0:0:0:
231,152,56586,1,2,0:0:0:0:
72,25,56820,5,10,0:0:0:0:
152,84,56937,2,0,P|149:137|127:186,1,98.9999969787599,2|0,0:0|0:0,0:0:0:0:
37,308,57172,2,0,P|33:190|68:102,1,197.99999395752,2|0,0:0|0:0,0:0:0:0:
59,116,57523,1,2,0:0:0:0:
119,265,57758,1,10,0:0:0:0:
119,265,57875,1,2,0:0:0:0:
256,192,58226,12,2,59164,0:0:0:0:
256,192,59281,12,4,60101,1:0:0:0:
103,54,73226,6,0,P|132:118|139:179,1,132,0|2,1:0|0:0,0:0:0:0:
258,180,74164,2,0,P|224:100|236:5,1,176,2|2,0:0|0:0,0:0:0:0:
232,13,74867,1,2,0:0:0:0:
351,202,75101,6,0,P|318:256|246:273,2,110,4|2|8,1:0|0:0|0:0,0:0:0:0:
351,202,75805,1,2,0:2:0:0:
430,123,76039,1,2,1:2:0:0:
382,32,76273,1,2,0:2:0:0:
322,112,76508,1,10,0:2:0:0:
456,221,76742,6,0,P|431:274|391:312,1,110,2|0,0:0|1:0,0:0:0:0:
319,359,77211,2,0,P|287:308|123:263,1,220,2|0,0:0|0:0,0:0:0:0:
125,339,77914,1,2,1:2:0:0:
58,254,78148,1,2,0:0:0:0:
130,178,78383,1,10,0:0:0:0:
227,363,78617,6,0,P|208:276|238:138,1,220,2|2,0:0|0:0,0:0:0:0:
232,149,79320,1,10,0:0:0:0:
162,101,79555,1,2,0:0:0:0:
313,13,79789,1,2,1:2:0:0:
243,61,80024,1,2,0:0:0:0:
398,150,80258,1,10,0:0:0:0:
328,102,80492,6,0,P|315:198|338:321,1,220,2|0,0:0|0:0,0:0:0:0:
336,318,81195,1,8,0:0:0:0:
411,261,81430,1,2,0:0:0:0:
228,242,81664,2,0,P|161:247|111:265,1,110,2|0,1:2|0:0,0:0:0:0:
36,304,82133,1,10,0:0:0:0:
24,100,82367,2,0,P|41:155|40:244,1,110,2|0,0:0|1:0,0:0:0:0:
36,304,82836,1,2,0:0:0:0:
170,67,83305,5,2,0:0:0:0:
252,24,83539,1,2,1:2:0:0:
334,67,83773,1,2,0:0:0:0:
416,24,84008,1,10,0:0:0:0:
170,67,84242,6,0,P|191:122|196:191,1,110,2|0,0:0|1:0,0:0:0:0:
464,236,84711,2,0,P|440:176|416:18,1,220,2|0,0:0|0:0,0:0:0:0:
499,63,85414,1,2,1:2:0:0:
464,236,85648,1,2,0:0:0:0:
334,67,85883,1,10,0:0:0:0:
204,273,86117,6,0,P|133:279|24:276,1,165,2|0,0:0|0:0,0:0:0:0:
8,198,86586,2,0,P|30:274|-9:360,1,165,2|0,0:0|0:0,0:0:0:0:
135,352,87055,2,0,P|113:276|152:190,1,165,2|0,0:0|0:0,0:0:0:0:
143,198,87523,1,2,0:0:0:0:
294,273,87758,1,10,0:0:0:0:
197,127,87992,2,0,P|186:69|138:132,1,165,2|0,0:0|0:0,0:0:0:0:
211,267,88461,5,2,0:0:0:0:
220,231,88578,1,2,0:0:0:0:
244,204,88695,1,10,0:0:0:0:
277,190,88812,1,2,0:0:0:0:
314,192,88929,1,2,0:2:0:0:
345,210,89046,1,2,1:2:0:0:
366,240,89164,2,0,P|368:274|361:315,3,55,2|0|0|0,0:2|0:0|1:0|0:0,0:0:0:0:
469,279,89633,5,10,0:0:0:0:
466,203,89750,1,2,1:2:0:0:
426,136,89867,1,2,0:0:0:0:
349,97,89984,1,2,0:0:0:0:
349,97,90101,6,0,P|284:94|210:116,1,110,2|0,1:2|0:0,0:0:0:0:
109,177,90570,2,0,P|44:180|-30:158,1,110,8|2,0:0|0:0,0:0:0:0:
0,170,90922,1,2,0:0:0:0:
146,92,91156,1,2,0:0:0:0:
146,92,91273,1,2,0:0:0:0:
229,283,91508,1,10,0:0:0:0:
229,283,91625,2,0,P|210:215|183:156,1,110,2|2,0:0|0:0,0:0:0:0:
146,92,91976,5,2,1:2:0:0:
57,259,92211,1,2,0:0:0:0:
300,193,92445,1,10,0:0:0:0:
146,92,92680,1,2,0:0:0:0:
146,92,92797,1,2,0:0:0:0:
57,259,93031,1,2,0:0:0:0:
57,259,93148,1,2,0:0:0:0:
300,193,93383,1,10,0:0:0:0:
300,193,93500,1,2,0:0:0:0:
57,259,93734,1,2,0:0:0:0:
57,259,93851,6,0,P|72:315|110:370,2,110,2|2|10,1:2|0:0|0:0,0:0:0:0:
4,360,94555,1,2,0:0:0:0:
4,360,94672,1,2,0:0:0:0:
180,337,94906,1,2,0:0:0:0:
180,337,95023,1,2,0:0:0:0:
356,360,95258,1,10,0:0:0:0:
356,360,95375,2,0,P|355:325|349:290,1,55,2|0,0:0|0:0,0:0:0:0:
326,224,95609,1,2,0:0:0:0:
326,224,95726,5,2,1:2:0:0:
15,178,95961,1,2,0:0:0:0:
326,224,96195,1,10,0:0:0:0:
197,47,96430,5,2,0:0:0:0:
197,47,96547,1,2,0:0:0:0:
151,358,96781,1,2,0:0:0:0:
151,358,96898,2,0,P|194:309|248:262,1,131.99999597168,2|8,0:1|0:0,0:0:0:0:
326,224,97250,2,0,P|391:219|462:224,1,131.99999597168,2|0,0:1|0:0,0:0:0:0:
490,309,97601,5,2,1:2:0:0:
411,72,97836,1,2,0:2:0:0:
401,305,98070,1,10,0:2:0:0:
326,122,98305,1,2,0:2:0:0:
326,122,98422,1,2,0:2:0:0:
316,310,98656,1,2,0:2:0:0:
316,310,98773,1,2,0:2:0:0:
250,180,99008,1,10,0:2:0:0:
250,180,99125,2,0,P|235:138|228:110,2,65.9999979858399,2|2|2,0:0|0:0|0:0,0:0:0:0:
275,46,99476,5,2,1:2:0:0:
154,85,99711,1,2,0:2:0:0:
326,122,99945,1,10,0:2:0:0:
154,181,100180,1,2,0:2:0:0:
154,181,100298,1,2,0:2:0:0:
384,199,100531,1,2,0:2:0:0:
384,199,100648,2,0,P|380:244|366:293,1,65.9999979858399,2|0,0:0|0:0,0:0:0:0:
119,265,100883,1,10,0:0:0:0:
119,265,101000,2,0,P|123:220|137:171,1,65.9999979858399,2|0,0:0|0:0,0:0:0:0:
256,192,101234,1,2,0:0:0:0:
256,192,101351,6,0,P|256:266|241:340,2,131.99999597168,2|2|10,1:2|0:0|0:0,0:0:0:0:
74,128,102055,1,2,0:0:0:0:
74,128,102172,1,2,0:0:0:0:
102,350,102406,1,2,0:0:0:0:
102,350,102523,1,2,0:0:0:0:
172,89,102758,1,10,0:0:0:0:
172,89,102875,2,0,P|178:44|178:14,1,65.9999979858399,2|0,0:0|0:0,0:0:0:0:
280,63,103109,1,2,0:0:0:0:
280,63,103226,6,0,P|336:62|393:58,2,88,2|2|10,1:2|0:0|0:0,0:0:0:0:
280,63,103930,1,2,0:0:0:0:
280,63,104047,1,2,0:0:0:0:
502,198,104398,5,2,0:2:0:0:
496,220,104516,1,2,0:2:0:0:
482,249,104633,1,2,0:2:0:0:
462,281,104750,1,2,0:2:0:0:
432,321,104867,1,2,0:2:0:0:
393,358,104984,1,2,0:2:0:0:
336,369,105101,6,2,B|192:293|169:425|1:360|1:360|74:336|92:253|92:253|36:237|9:146|156:82|126:57|126:57|72:67|14:37|14:37|149:-17|175:70|296:10|296:10|256:117|147:184|147:184|256:207|438:14|438:14|459:159|346:280|346:280|285:249|183:269,1,2155.9999342041,4|8,1:0|0:0,0:2:0:0:
206,264,108851,6,0,B|290:253|346:280|346:280|408:217|433:130,2,307.999990600586,2|10|2,1:2|0:2|1:2,0:2:0:0:
206,264,110258,1,8,0:0:0:0:
111,353,110492,2,0,P|118:270|96:202,1,153.999995300293,2|0,1:2|1:2,0:0:0:0:
36,30,110961,1,2,1:2:0:0:
132,38,111195,2,0,P|96:104|-2:118,1,153.999995300293,10|0,0:0|0:0,0:0:0:0:
180,158,111664,2,0,P|216:224|314:238,1,153.999995300293,2|0,1:2|0:0,0:0:0:0:
502,188,112133,1,10,0:0:0:0:
369,4,112367,1,2,0:0:0:0:
394,266,112601,6,2,B|349:217|343:145|343:145|389:80|368:3|368:3|508:19|423:138|502:188|502:188|479:261|497:343|497:343|507:392|417:403|407:360|407:360|307:310|303:400|162:370|162:370|203:287|294:270|294:270|252:220|258:104|258:104|296:65|280:9|280:9|232:14|198:28|198:28|158:62|176:220|176:220|126:249|73:359|73:359|6:321|39:177,1,2155.9999342041,6|8,1:2|0:0,0:2:0:0:
34,198,116117,1,2,0:0:0:0:
34,198,116351,6,0,B|11:319|73:360|73:360|122:255|175:220|175:220|159:63|198:28|198:28|229:13|271:13,1,615.999981201173,2|0,1:2|1:0,0:0:0:0:
261,13,118461,1,2,0:0:0:0:
345,65,118695,2,0,P|387:133|396:222,1,153.999995300293,10|2,0:0|0:0,0:0:0:0:
312,242,119164,2,0,P|270:174|261:85,1,153.999995300293,2|2,1:2|0:0,0:0:0:0:
34,198,119633,1,10,0:0:0:0:
60,12,119867,1,2,0:0:0:0:
96,371,120101,6,2,B|181:306|177:195|177:195|107:224|34:197|34:197|-6:92|60:10|60:10|149:37|264:7|264:7|135:54|104:121|104:121|140:137|226:90|279:82|279:82|292:129|259:161|259:161|291:251|207:382|207:382|285:350|314:369|314:369|365:282|358:178|358:178|391:100|347:24|347:24|379:43|421:39|421:39|401:113|441:198,1,2155.9999342041,6|8,1:2|0:0,0:2:0:0:
435,185,123851,6,0,B|401:107|421:38|421:38|384:44|348:25|348:25,1,214.49999018097,2|0,1:2|0:0,0:0:0:0:
435,185,124789,2,2,B|400:112|420:38|420:38|378:42|346:23|346:23|377:70|372:142,1,330,2|0,1:2|0:0,0:2:0:0:
435,185,125726,2,2,B|400:112|420:38|420:38|378:42|346:23|346:23|390:99|357:177|357:177|363:215|354:262,1,461.999985900879,2|0,1:2|0:0,0:2:0:0:
435,185,126664,2,2,B|400:112|420:38|420:38|378:42|346:23|346:23|390:99|357:177|357:177|371:270|313:378,1,593.999981872559,2|0,1:2|0:0,0:2:0:0:
19,58,127601,6,2,B|150:47|249:79|249:79|296:79|318:46|318:46|412:48|461:60|461:60|381:156|248:171|248:171|131:127|16:147|16:147|84:242|118:306|95:384|95:384|79:296|9:274|9:274|53:195|206:246|240:261|240:261|365:270|494:161|494:161|516:228|484:316|323:349,1,2155.9999342041,6|8,1:2|0:0,0:2:0:0:
256,192,131351,12,2,133226,0:0:0:0:
201,356,134398,6,0,P|120:350|29:315,2,153.999995300293,2|2|2,0:0|0:0|0:0,0:0:0:0:
201,356,134984,1,2,0:0:0:0:
194,270,135101,6,0,P|201:221|227:177,1,98.9999969787599,4|0,1:0|0:0,0:0:0:0:
322,178,135336,2,0,P|325:288|296:377,1,197.99999395752,2|8,0:0|0:0,0:0:0:0:
420,201,135805,2,0,P|417:155|395:98,1,98.9999969787599,2|0,0:0|0:0,0:0:0:0:
332,0,136039,2,0,P|329:46|307:103,1,98.9999969787599,2|0,1:2|0:0,0:0:0:0:
322,178,136273,1,2,0:0:0:0:
240,32,136508,6,0,P|192:30|149:60,1,98.9999969787599,10|0,0:0|0:0,0:0:0:0:
0,265,136742,2,0,P|48:267|91:237,1,98.9999969787599,2|0,0:0|0:0,0:0:0:0:
322,178,136976,6,0,B|175:245|163:111|4:167,2,330,2|2|2,1:0|1:0|1:0,0:0:0:0:
363,155,137797,1,2,0:0:0:0:
402,119,137914,1,2,0:0:0:0:
92,336,138148,2,0,P|81:285|89:236,1,98.9999969787599,2|0,0:0|0:0,0:0:0:0:
236,238,138383,2,0,P|246:288|239:338,1,98.9999969787599,10|0,0:0|0:0,0:0:0:0:
165,372,138617,1,2,0:0:0:0:
256,323,138734,6,0,P|358:296|456:335,1,197.99999395752,2|0,0:0|0:0,0:0:0:0:
367,380,139086,2,0,P|459:327|487:227,1,197.99999395752,2|8,0:0|0:0,0:0:0:0:
488,53,139555,2,0,P|468:68|486:45,1,98.9999969787599,2|0,0:0|0:0,0:0:0:0:
485,158,139789,1,2,1:2:0:0:
336,52,140023,2,0,P|355:67|337:44,1,98.9999969787599,2|0,0:0|0:0,0:0:0:0:
391,150,140258,2,0,P|355:175|320:238,1,98.9999969787599,10|0,0:0|0:0,0:0:0:0:
255,108,140492,2,0,P|239:66|247:-4,1,98.9999969787599,2|0,0:0|0:0,0:0:0:0:
6,231,140726,6,0,B|82:363|222:316|217:230|178:183|97:197|93:250|116:270|144:259|143:237,2,330,2|2|2,1:0|1:0|1:0,0:0:0:0:
11,190,141547,1,2,0:0:0:0:
11,140,141664,1,2,0:0:0:0:
255,284,141898,2,0,P|251:227|236:187,1,98.9999969787599,2|0,0:0|0:0,0:0:0:0:
84,39,142133,2,0,P|87:95|102:135,1,98.9999969787599,10|0,0:0|0:0,0:0:0:0:
155,202,142367,1,2,0:0:0:0:
195,82,142484,2,0,P|283:120|328:216,1,197.99999395752,2|0,0:0|0:0,0:0:0:0:
339,289,142836,2,0,P|379:212|489:171,1,197.99999395752,2|8,0:0|0:0,0:0:0:0:
507,69,143305,6,0,P|461:78|414:58,1,98.9999969787599,2|0,0:0|0:0,0:0:0:0:
478,351,143539,2,0,P|447:241|446:147,2,197.99999395752,2|2|10,1:2|0:0|0:0,0:0:0:0:
478,351,144242,2,0,P|438:363|367:371,1,98.9999969787599,2|0,0:0|0:0,0:0:0:0:
164,360,144476,6,0,B|125:286|266:109|199:28,2,330,2|2|2,1:0|1:0|1:0,0:0:0:0:
212,368,145297,1,2,0:0:0:0:
262,368,145414,1,2,0:0:0:0:
136,92,145648,2,0,P|127:133|97:198,1,98.9999969787599,2|0,0:0|0:0,0:0:0:0:
263,285,145883,2,0,P|272:244|302:179,1,98.9999969787599,10|0,0:0|0:0,0:0:0:0:
333,120,146117,1,2,0:0:0:0:
415,162,146234,2,0,P|376:255|349:358,1,197.99999395752,2|0,0:0|0:0,0:0:0:0:
466,270,146586,6,0,P|418:264|367:236,1,98.9999969787599,2|0,0:0|0:0,0:0:0:0:
419,61,146820,2,0,P|467:67|518:95,1,98.9999969787599,10|0,0:0|0:0,0:0:0:0:
512,90,147055,1,2,0:0:0:0:
345,11,147172,2,0,P|256:34|146:23,1,197.99999395752,2|0,0:0|0:0,0:0:0:0:
50,0,147523,2,0,P|73:38|78:102,1,98.9999969787599,2|0,0:0|0:0,0:0:0:0:
35,333,147758,1,10,0:0:0:0:
35,333,147875,2,0,P|12:295|7:231,1,98.9999969787599,2|0,0:0|0:0,0:0:0:0:
0,122,148109,6,0,P|74:195|265:304,1,296.99999093628,2|2,0:0|0:0,0:0:0:0:
277,213,148578,2,0,P|231:184|185:170,1,98.9999969787599,2|8,0:0|0:0,0:0:0:0:
124,330,148812,1,2,0:0:0:0:
124,330,148930,2,0,P|168:358|214:372,1,98.9999969787599,2|0,0:0|0:0,0:0:0:0:
328,320,149164,5,0,1:2:0:0:
328,320,149398,2,0,P|359:312|330:312,1,98.9999969787599,2|0,0:0|0:0,0:0:0:0:
512,147,149633,2,0,P|479:139|509:139,1,98.9999969787599,10|0,0:0|0:0,0:0:0:0:
512,245,149867,1,2,0:0:0:0:
390,173,149984,2,0,P|430:256|454:372,1,197.99999395752,2|0,0:0|0:0,0:0:0:0:
302,202,150336,2,0,P|262:119|238:3,1,197.99999395752,2|8,0:0|0:0,0:0:0:0:
239,16,150805,6,0,P|189:7|135:7,1,98.9999969787599,2|0,0:0|0:0,0:0:0:0:
7,21,151039,1,2,1:2:0:0:
176,183,151273,2,0,P|146:141|108:102,1,98.9999969787599,2|0,0:0|0:0,0:0:0:0:
7,21,151508,2,0,P|25:40|17:24,1,98.9999969787599,10|0,0:0|0:0,0:0:0:0:
13,254,151742,2,0,P|20:204|21:150,1,98.9999969787599,2|0,0:0|0:0,0:0:0:0:
132,288,151976,6,0,B|291:229|317:406|458:321,2,330,2|2|2,1:0|1:0|1:0,0:0:0:0:
90,313,152797,1,2,0:0:0:0:
48,347,152914,1,2,0:0:0:0:
383,264,153148,2,0,P|387:312|377:367,1,98.9999969787599,2|0,0:0|0:0,0:0:0:0:
210,360,153383,2,0,P|205:314|215:261,1,98.9999969787599,10|0,0:0|0:0,0:0:0:0:
302,228,153617,1,2,0:0:0:0:
383,264,153734,2,0,P|482:245|439:177,1,197.99999395752,2|0,0:0|0:0,0:0:0:0:
478,87,154086,2,0,P|395:116|284:106,1,197.99999395752,2|8,0:0|0:0,0:0:0:0:
287,107,154555,5,2,0:0:0:0:
92,84,154789,2,0,P|59:102|93:86,1,98.9999969787599,2|0,1:2|0:0,0:0:0:0:
189,65,155023,2,0,P|187:114|168:170,1,98.9999969787599,2|0,0:0|0:0,0:0:0:0:
82,301,155258,2,0,P|84:252|103:196,1,98.9999969787599,10|0,0:0|0:0,0:0:0:0:
20,177,155492,1,2,0:0:0:0:
332,259,155726,6,0,B|267:386|115:338|120:243|163:191|252:207|257:265|231:287|201:275|202:251,2,330,2|2|2,1:0|1:0|1:0,0:0:0:0:
348,203,156547,1,2,0:0:0:0:
358,148,156664,1,2,0:0:0:0:
448,351,156898,6,0,P|434:299|432:246,1,98.9999969787599,2|0,0:0|0:0,0:0:0:0:
512,110,157133,2,0,P|512:160|502:212,1,98.9999969787599,10|0,0:0|0:0,0:0:0:0:
461,44,157367,1,2,0:0:0:0:
386,0,157484,2,0,P|287:36|183:42,1,197.99999395752,2|0,0:0|0:0,0:0:0:0:
10,82,157836,2,0,P|70:32|115:118,1,197.99999395752,2|8,0:0|0:0,0:0:0:0:
116,114,158305,1,2,0:0:0:0:
236,384,158539,6,0,P|233:331|222:279,1,98.9999969787599,2|0,1:2|0:0,0:0:0:0:
220,150,158773,2,0,P|221:201|232:253,1,98.9999969787599,2|0,0:0|0:0,0:0:0:0:
0,379,159008,2,0,P|2:326|13:274,1,98.9999969787599,10|0,0:0|0:0,0:0:0:0:
16,145,159242,2,0,P|14:196|4:248,1,98.9999969787599,2|0,0:0|0:0,0:0:0:0:
152,384,159476,6,0,B|190:310|49:131|103:52,2,330,2|2|2,1:0|1:0|1:0,0:0:0:0:
102,380,160297,1,2,0:0:0:0:
78,339,160414,1,2,0:0:0:0:
187,138,160648,2,0,P|196:184|224:239,1,98.9999969787599,2|0,0:0|0:0,0:0:0:0:
309,235,160883,1,10,0:0:0:0:
389,167,161000,2,0,P|380:121|352:66,1,98.9999969787599,2|0,0:0|0:0,0:0:0:0:
235,58,161234,6,0,P|292:136|308:239,1,197.99999395752,2|0,0:0|0:0,0:0:0:0:
296,332,161586,2,0,P|347:324|389:294,1,98.9999969787599,2|0,0:0|0:0,0:0:0:0:
463,231,161820,1,10,0:0:0:0:
478,134,161937,2,0,P|426:140|384:171,1,98.9999969787599,2|0,0:0|0:0,0:0:0:0:
474,318,162172,2,0,P|420:374|408:287,1,197.99999395752,2|0,0:0|0:0,0:0:0:0:
296,332,162523,2,0,P|244:339|202:369,1,98.9999969787599,2|0,0:0|0:0,0:0:0:0:
157,291,162758,1,10,0:0:0:0:
157,291,162875,1,2,0:0:0:0:
256,192,163226,12,2,164164,0:0:0:0:
256,192,164281,12,4,165101,1:0:0:0:
211,23,180101,5,2,0:0:0:0:
211,23,180570,2,0,P|215:104|189:184,2,153.999995300293,2|2|2,0:0|0:0|0:0,0:0:0:0:
211,23,181976,1,2,0:0:0:0:
416,242,182445,2,0,P|343:204|287:142,2,153.999995300293,2|2|2,0:0|0:0|0:0,0:0:0:0:
416,242,183851,1,2,0:0:0:0:
123,310,184320,2,0,P|191:266|273:248,2,153.999995300293,2|2|2,0:0|0:0|0:0,0:0:0:0:
211,23,185726,5,2,0:0:0:0:
123,310,186664,1,2,0:0:0:0:
416,242,187601,1,2,0:0:0:0:
256,192,187719,12,0,190883,0:0:0:0:
256,192,191117,5,2,0:0:0:0:
256,192,191351,1,2,0:0:0:0:
256,192,191469,12,2,193226,0:0:0:0:
415,114,194398,6,0,P|435:161|446:248,2,110,2|2|2,0:0|0:0|0:0,0:0:0:0:
364,270,194984,2,0,P|337:226|311:99,1,165,2|2,0:0|0:0,0:0:0:0:
97,114,201898,6,0,P|77:161|66:248,2,110,2|2|2,0:0|0:0|0:0,0:0:0:0:
148,270,202484,2,0,P|175:226|201:99,1,165,2|2,0:0|0:0,0:0:0:0:
201,116,203070,1,8,0:0:0:0:
256,286,203422,2,0,P|277:235|290:182,2,110,2|2|2,0:0|0:0|0:0,0:0:0:0:
290,99,204125,1,2,0:0:0:0:
465,30,204359,1,2,0:0:0:0:
465,30,204476,6,0,P|464:82|482:151,2,110,2|2|10,1:2|0:0|0:0,0:0:0:0:
425,207,205297,1,2,0:0:0:0:
381,118,205531,1,2,0:0:0:0:
362,275,205766,1,2,0:0:0:0:
508,250,206000,1,2,0:0:0:0:
305,371,206234,1,2,0:0:0:0:
305,371,206351,6,0,P|370:363|421:376,2,110,2|2|10,1:2|0:0|0:0,0:0:0:0:
206,240,207172,2,0,P|141:248|90:235,2,110,2|2|2,0:0|0:0|0:0,0:0:0:0:
225,325,207875,1,2,0:0:0:0:
42,297,208109,1,2,0:0:0:0:
26,285,208226,5,12,0:0:0:0:
12,234,208344,1,0,0:0:0:0:
35,182,208461,1,0,0:0:0:0:
85,158,208578,5,12,0:0:0:0:
99,107,208696,1,0,0:0:0:0:
76,55,208813,1,0,0:0:0:0:
11,4,208930,6,0,P|44:4|81:14,1,55,12|0,0:0|1:0,0:0:0:0:
149,30,209164,2,0,P|182:30|219:20,1,55,2|0,1:2|1:0,0:0:0:0:
287,4,209398,2,0,P|320:4|357:14,1,55,2|0,1:2|1:0,0:0:0:0:
495,36,209633,6,0,L|492:-4,1,33,10|2,0:0|0:0,0:0:0:0:
392,168,210101,6,0,P|414:120|408:47,1,110,4|0,1:0|0:0,0:0:0:0:
483,210,210336,2,0,P|461:258|467:331,1,110,2|0,0:0|0:0,0:0:0:0:
503,123,210570,1,8,0:0:0:0:
317,95,210805,2,0,P|271:117|184:127,1,110,2|0,0:0|0:0,0:0:0:0:
284,305,211039,2,0,P|287:254|322:173,1,110,2|0,1:2|0:0,0:0:0:0:
118,171,211273,2,0,P|160:199|212:270,1,110,2|0,0:0|0:0,0:0:0:0:
7,80,211508,2,0,P|23:134|15:208,1,110,10|0,0:0|0:0,0:0:0:0:
13,384,211742,2,0,P|-3:330|5:256,1,110,2|0,0:0|0:0,0:0:0:0:
118,171,211976,6,0,B|231:222|240:119|362:162,1,242.000007385254,2|0,1:0|0:0,0:0:0:0:
410,379,212328,2,0,B|398:255|304:298|280:171,1,242.000007385254,2|0,1:0|0:0,0:0:0:0:
444,22,212680,2,0,B|342:94|427:153|328:238,1,242.000007385254,2|2,1:0|0:0,0:0:0:0:
73,17,213148,2,0,P|102:42|71:27,1,110,2|0,0:0|0:0,0:0:0:0:
292,122,213383,2,0,P|263:147|294:132,1,110,10|0,0:0|0:0,0:0:0:0:
158,286,213617,1,2,0:0:0:0:
204,211,213734,2,0,P|179:90|257:28,1,220,2|0,0:0|0:0,0:0:0:0:
59,125,214086,2,0,P|84:246|6:308,1,220,2|8,0:0|0:0,0:0:0:0:
123,383,214555,6,0,P|156:341|151:266,1,110,2|0,0:0|0:0,0:0:0:0:
337,230,214789,2,0,P|304:272|309:347,1,110,2|0,1:2|0:0,0:0:0:0:
233,377,215023,1,2,0:0:0:0:
437,272,215258,2,0,P|427:217|430:157,1,110,10|0,0:0|0:0,0:0:0:0:
333,35,215492,2,0,P|343:90|340:150,1,110,2|0,0:0|0:0,0:0:0:0:
76,54,215726,6,0,B|-5:65|-9:159|30:206|111:192|115:139|92:119|68:125|65:152,1,242.000007385254,2|0,1:0|0:0,0:0:0:0:
97,248,216078,2,0,B|147:312|230:269|251:211|199:148|151:171|145:201|162:219|187:208,1,242.000007385254,2|0,1:0|0:0,0:0:0:0:
254,132,216430,2,0,B|284:56|205:5|145:16|116:93|160:123|189:113|196:89|174:73,1,242.000007385254,2|2,1:0|0:0,0:0:0:0:
407,369,216898,6,0,P|468:360|514:337,1,110,2|0,0:0|0:0,0:0:0:0:
462,167,217133,2,0,P|401:176|355:199,1,110,10|0,0:0|0:0,0:0:0:0:
436,269,217367,1,2,0:0:0:0:
462,167,217484,2,0,P|429:56|321:22,1,220,2|0,0:0|0:0,0:0:0:0:
223,138,217836,2,0,P|256:249|364:283,1,220,2|8,0:0|0:0,0:0:0:0:
2,231,218305,6,0,P|63:215|106:165,1,110,2|0,0:0|0:0,0:0:0:0:
129,90,218539,2,0,P|190:106|233:156,1,110,2|0,1:2|0:0,0:0:0:0:
159,245,218773,1,2,0:0:0:0:
155,373,219008,6,0,P|158:335|172:374,1,110,10|0,0:0|0:0,0:0:0:0:
286,223,219242,2,0,P|283:261|269:222,1,110,2|0,0:0|0:0,0:0:0:0:
463,368,219476,6,0,B|435:316|534:192|487:135,1,242.000007385254,2|0,1:0|0:0,0:0:0:0:
410,0,219828,2,0,B|437:51|338:175|385:232,1,242.000007385254,2|0,1:0|0:0,0:0:0:0:
302,368,220180,2,0,B|329:316|230:192|277:135,1,242.000007385254,2|2,1:0|0:0,0:0:0:0:
0,3,220648,2,0,P|54:3|106:21,1,110,2|0,0:0|0:0,0:0:0:0:
276,135,220883,2,0,P|221:135|169:117,1,110,10|0,0:0|0:0,0:0:0:0:
192,36,221117,1,2,0:0:0:0:
83,103,221234,2,0,P|93:224|67:333,1,220,2|0,0:0|0:0,0:0:0:0:
302,368,221586,6,0,P|305:311|317:252,1,110,2|0,0:0|0:0,0:0:0:0:
484,89,221820,2,0,P|481:146|469:205,1,110,10|0,0:0|0:0,0:0:0:0:
416,24,222055,1,2,0:0:0:0:
381,156,222172,2,0,P|411:274|476:368,1,220,2|0,0:0|0:0,0:0:0:0:
480,347,222523,2,0,P|492:335|480:362,1,110,2|0,0:0|0:0,0:0:0:0:
383,384,222758,1,10,0:0:0:0:
315,259,222875,2,0,P|309:311|287:369,1,110,2|0,0:0|0:0,0:0:0:0:
93,370,223109,6,0,P|154:274|156:153,1,220,2|0,0:0|0:0,0:0:0:0:
125,90,223461,1,2,0:0:0:0:
200,41,223578,2,0,P|256:27|331:29,1,110,2|8,0:0|0:0,0:0:0:0:
116,4,223812,1,2,0:0:0:0:
41,52,223929,2,0,P|40:111|70:162,1,110,2|0,0:0|0:0,0:0:0:0:
1,203,224164,1,0,1:2:0:0:
240,129,224398,6,0,P|257:181|261:244,1,110,2|0,0:0|0:0,0:0:0:0:
472,200,224633,2,0,P|455:148|451:85,1,110,10|0,0:0|0:0,0:0:0:0:
457,12,224867,1,2,0:0:0:0:
328,54,224984,2,0,P|360:156|362:285,1,220,2|0,0:0|0:0,0:0:0:0:
192,314,225336,2,0,P|264:235|375:169,1,220,2|8,0:0|0:0,0:0:0:0:
40,377,225805,6,0,P|35:323|8:274,1,110,2|0,0:0|0:0,0:0:0:0:
135,89,226039,2,0,P|140:143|167:192,1,110,2|0,1:2|0:0,0:0:0:0:
106,264,226273,1,2,0:0:0:0:
224,119,226508,2,0,P|271:105|347:98,1,110,10|0,0:0|0:0,0:0:0:0:
496,5,226742,2,0,P|449:19|373:26,1,110,2|0,0:0|0:0,0:0:0:0:
503,235,226976,6,0,B|390:184|381:287|259:244,1,242.000007385254,2|0,1:0|0:0,0:0:0:0:
211,27,227328,2,0,B|223:151|317:108|341:235,1,242.000007385254,2|0,1:0|0:0,0:0:0:0:
177,384,227680,2,0,B|279:312|194:253|293:168,1,242.000007385254,2|2,1:0|0:0,0:0:0:0:
8,7,228148,2,0,P|-2:62|2:125,1,110,2|0,0:0|0:0,0:0:0:0:
151,296,228383,2,0,P|161:241|148:177,1,110,10|0,0:0|0:0,0:0:0:0:
88,123,228617,1,2,0:0:0:0:
16,200,228734,2,0,P|-6:262|37:197,1,220,2|0,0:0|0:0,0:0:0:0:
88,123,229086,2,0,P|154:76|291:0,1,220,2|8,0:0|0:0,0:0:0:0:
500,287,229555,6,0,P|453:310|397:319,1,110,2|0,0:0|0:0,0:0:0:0:
362,225,229789,2,0,P|409:202|465:193,1,110,2|0,1:2|0:0,0:0:0:0:
438,94,230023,2,0,P|391:117|335:126,1,110,2|0,0:0|0:0,0:0:0:0:
300,32,230257,2,0,P|347:9|403:0,1,110,10|0,0:0|0:0,0:0:0:0:
494,22,230492,1,2,0:0:0:0:
191,76,230726,6,0,B|272:87|276:181|237:228|156:214|152:161|175:141|199:147|202:174,1,242.000007385254,2|0,1:0|0:0,0:0:0:0:
170,270,231078,2,0,B|120:334|37:291|16:233|68:170|116:193|122:223|105:241|80:230,1,242.000007385254,2|0,1:0|0:0,0:0:0:0:
13,154,231430,2,0,B|-17:78|62:27|122:38|151:115|107:145|78:135|71:111|93:95,1,242.000007385254,2|2,1:0|0:0,0:0:0:0:
337,120,231898,2,0,P|340:176|372:232,1,110,2|0,0:0|0:0,0:0:0:0:
512,384,232133,2,0,P|509:328|477:272,1,110,10|0,0:0|0:0,0:0:0:0:
446,190,232367,1,2,0:0:0:0:
402,312,232484,2,0,P|295:365|186:368,1,220,2|0,0:0|0:0,0:0:0:0:
9,264,232836,2,0,P|47:242|93:365,1,220,2|8,0:0|0:0,0:0:0:0:
182,41,233305,6,0,P|237:41|304:13,1,110,2|0,0:0|0:0,0:0:0:0:
89,215,233539,2,0,P|106:163|100:91,1,110,2|0,1:2|0:0,0:0:0:0:
227,357,233773,2,0,P|182:325|111:308,1,110,2|0,0:0|0:0,0:0:0:0:
404,270,234008,2,0,P|360:302|322:365,1,110,10|0,0:0|0:0,0:0:0:0:
376,74,234242,2,0,P|393:127|441:182,1,110,2|0,0:0|0:0,0:0:0:0:
237,371,234476,6,0,B|209:319|308:195|261:138,1,242.000007385254,2|0,1:0|0:0,0:0:0:0:
184,3,234828,2,0,B|211:54|112:178|159:235,1,242.000007385254,2|0,1:0|0:0,0:0:0:0:
76,371,235180,2,0,B|103:319|4:195|51:138,1,242.000007385254,2|2,1:0|0:0,0:0:0:0:
277,10,235648,2,0,P|332:32|398:31,1,110,2|0,0:0|0:0,0:0:0:0:
439,106,235883,1,10,0:0:0:0:
369,165,236000,2,0,P|314:143|248:144,1,110,2|0,0:0|0:0,0:0:0:0:
195,370,236234,2,0,P|256:292|285:172,1,220,2|0,0:0|0:0,0:0:0:0:
188,178,236586,6,0,P|183:222|139:286,1,110,2|0,0:0|0:0,0:0:0:0:
107,353,236820,1,10,0:0:0:0:
195,370,236937,2,0,P|257:368|326:350,1,110,2|0,0:0|0:0,0:0:0:0:
369,165,237172,2,0,P|378:292|431:370,1,220,2|0,0:0|0:0,0:0:0:0:
512,379,237523,1,2,0:0:0:0:
439,106,237758,1,10,0:0:0:0:
439,106,237875,1,2,0:0:0:0:
256,192,238226,12,2,239164,0:0:0:0:
256,192,239281,12,4,240101,1:0:0:0:
