osu file format v14

[General]
AudioFilename: audio.mp3
AudioLeadIn: 0
PreviewTime: 29164
Countdown: 0
SampleSet: Soft
StackLeniency: 0.5
Mode: 0
LetterboxInBreaks: 0
WidescreenStoryboard: 1

[Editor]
Bookmarks: 165101,180101,195336,201898
DistanceSpacing: 1
BeatDivisor: 4
GridSize: 4
TimelineZoom: 2.1

[Metadata]
Title:Kimi to Driven Star
TitleUnicode:キミとDriven Star
Artist:La priere
ArtistUnicode:La prière
Creator:UberFazz
Version:Normal
Source:
Tags:japanese electronic house featured artist galaxy triangle nayuta 棗いつき Natsume Itsuki aran
BeatmapID:3066953
BeatmapSetID:1495067

[Difficulty]
HPDrainRate:3
CircleSize:3
OverallDifficulty:5
ApproachRate:6
SliderMultiplier:1.7
SliderTickRate:1

[Events]
//Background and Video events
0,0,"galaxy triangle.jpg",0,0
//Break Periods
2,60301,72176
2,165301,179051
2,195535,200848
//Storyboard Layer 0 (Background)
//Storyboard Layer 1 (Fail)
//Storyboard Layer 2 (Pass)
//Storyboard Layer 3 (Foreground)
//Storyboard Layer 4 (Overlay)
//Storyboard Sound Samples

[TimingPoints]
102,468.749999999999,4,2,1,60,1,0
15101,-100,4,2,1,60,0,0
30101,-90.9090909090909,4,2,1,70,0,1
58226,-100,4,2,1,60,0,0
73226,-100,4,2,1,60,0,0
135101,-90.9090909090909,4,2,1,70,0,1
163226,-125,4,2,1,60,0,0
194398,-111.111111111111,4,2,1,60,0,0
201898,-99.9999999999999,4,2,1,60,0,0
208226,-90.9090909090909,4,2,1,60,0,0
210101,-86.9565217391304,4,2,1,80,0,1
240101,-100,4,2,1,60,0,0

[Colours]
Combo1 : 255,243,17
Combo2 : 224,116,216

[HitObjects]
116,76,15101,6,0,P|113:123|122:186,2,85,4|0|8,1:0|0:0|0:0,0:0:0:0:
253,66,15922,2,0,P|300:60|351:61,2,85,2|2|0,0:0|0:0|0:0,0:0:0:0:
235,105,16508,1,8,0:0:0:0:
211,281,16976,2,0,P|212:334|199:387,1,85,2|2,0:0|0:0,0:0:0:0:
206,365,17445,1,8,0:0:0:0:
334,373,17797,2,0,P|385:364|454:363,1,85,2|2,0:0|0:0,0:0:0:0:
507,360,18266,1,2,0:0:0:0:
507,360,18383,1,8,0:0:0:0:
499,190,18851,6,0,P|398:192|486:90,1,297.5,2|2,0:0|0:0,0:0:0:0:
473,83,20258,1,8,0:0:0:0:
314,22,20726,6,0,P|323:87|289:200,1,170,2|8,0:0|0:0,0:0:0:0:
181,130,21547,2,0,P|188:84|209:39,1,85,2|2,0:0|0:0,0:0:0:0:
134,8,22016,1,2,0:0:0:0:
134,8,22133,1,8,0:0:0:0:
57,159,22601,6,0,P|76:270|316:61,1,680,6|2,1:2|0:0,0:0:0:0:
321,65,24711,2,0,P|371:61|419:44,1,85,2|8,0:0|0:0,0:0:0:0:
479,154,25297,2,0,P|481:207|491:260,2,85,2|2|2,0:0|0:0|0:0,0:0:0:0:
489,69,26000,1,2,0:0:0:0:
256,192,26351,12,0,28226,1:0:0:0:
134,234,29398,6,0,P|139:276|149:317,2,85,2|2|2,0:0|0:0|0:0,0:0:0:0:
114,202,29984,1,2,0:0:0:0:
114,202,30101,6,0,P|108:155|94:111,1,93.5000028533936,4|2,1:0|0:0,0:0:0:0:
184,84,30570,2,0,P|189:130|203:174,1,93.5000028533936,8|2,0:0|0:0,0:0:0:0:
276,234,31039,2,0,P|335:232|392:218,2,93.5000028533936,2|2|10,1:2|0:0|0:0,0:0:0:0:
291,141,31742,1,2,0:0:0:0:
361,79,31976,6,0,P|422:39|504:14,2,140.25000428009,2|2|2,1:0|1:0|1:0,0:0:0:0:
498,205,33148,1,2,0:0:0:0:
436,275,33383,1,10,0:0:0:0:
448,367,33617,2,0,P|425:374|398:374,1,46.7500014266968,2|2,0:0|0:0,0:0:0:0:
268,343,34086,2,0,P|217:341|144:353,1,93.5000028533936,2|8,0:0|0:0,0:0:0:0:
82,362,34555,5,2,0:0:0:0:
73,269,34789,2,0,P|57:205|37:167,2,93.5000028533936,2|2|10,1:2|0:0|0:0,0:0:0:0:
156,226,35492,1,2,0:0:0:0:
228,167,35726,6,0,P|207:100|168:42,2,140.25000428009,2|2|2,1:0|1:0|1:0,0:0:0:0:
415,167,36898,2,0,P|459:163|510:142,2,93.5000028533936,2|10|2,0:0|0:0|0:0,0:0:0:0:
368,164,37484,1,2,0:0:0:0:
285,277,37836,1,2,0:0:0:0:
443,376,38305,5,2,0:0:0:0:
463,286,38539,2,0,P|475:235|477:191,2,93.5000028533936,2|2|10,1:2|0:0|0:0,0:0:0:0:
372,263,39242,1,2,0:0:0:0:
337,176,39476,6,0,P|380:117|446:85,2,140.25000428009,2|2|2,1:0|1:0|1:0,0:0:0:0:
158,197,40648,1,2,0:0:0:0:
146,290,40883,2,0,P|117:321|47:366,1,93.5000028533936,10|2,0:0|0:0,0:0:0:0:
32,366,41234,1,2,0:0:0:0:
13,226,41586,1,2,0:0:0:0:
17,132,41820,2,0,P|40:77|69:34,1,93.5000028533936,10|2,0:0|0:0,0:0:0:0:
89,13,42172,1,2,0:0:0:0:
227,32,42523,5,2,0:0:0:0:
241,124,42758,2,0,P|268:124|294:132,1,46.7500014266968,10|2,0:0|0:0,0:0:0:0:
258,211,43109,2,0,P|309:281|389:136,1,327.250009986878,2|2,0:0|0:0,0:0:0:0:
394,140,44398,6,0,P|406:89|406:34,2,93.5000028533936,2|10|2,0:0|0:0|0:0,0:0:0:0:
359,172,44984,1,2,0:0:0:0:
254,265,45336,2,0,P|195:271|140:265,1,93.5000028533936,2|8,0:0|0:0,0:0:0:0:
74,231,45805,5,2,0:0:0:0:
115,147,46039,2,0,P|125:88|123:45,2,93.5000028533936,2|2|10,1:2|0:0|0:0,0:0:0:0:
208,150,46742,1,2,0:0:0:0:
296,179,46976,6,0,P|278:241|272:345,2,140.25000428009,2|2|2,1:0|1:0|1:0,0:0:0:0:
461,90,48148,1,2,0:0:0:0:
471,183,48383,2,0,P|474:236|470:287,1,93.5000028533936,10|2,0:0|0:0,0:0:0:0:
462,321,48734,2,0,P|397:302|313:299,1,140.25000428009,2|2,0:0|0:0,0:0:0:0:
147,352,49555,5,2,0:0:0:0:
180,264,49789,2,0,P|191:218|192:159,2,93.5000028533936,2|2|10,1:2|0:0|0:0,0:0:0:0:
86,275,50492,1,2,0:0:0:0:
32,198,50726,6,0,P|33:119|50:46,2,140.25000428009,2|2|2,1:0|1:0|1:0,0:0:0:0:
167,68,51898,1,2,0:0:0:0:
256,39,52133,2,0,P|314:30|364:36,1,93.5000028533936,10|2,0:0|0:0,0:0:0:0:
394,42,52484,1,2,0:0:0:0:
482,151,52836,2,0,P|491:197|464:347,1,187.000005706787,2|2,0:0|0:0,0:0:0:0:
383,299,53539,1,2,1:2:0:0:
310,357,53773,1,2,0:0:0:0:
233,302,54008,2,0,P|185:285|128:272,1,93.5000028533936,10|2,0:0|0:0,0:0:0:0:
179,188,54476,6,0,P|200:120|201:46,2,140.25000428009,2|2|2,1:0|1:0|1:0,0:0:0:0:
360,143,55648,1,2,0:0:0:0:
423,74,55883,2,0,P|437:48|462:20,1,46.7500014266968,10|2,0:0|0:0,0:0:0:0:
506,107,56234,2,0,P|488:184|452:251,1,140.25000428009,2|2,0:0|0:0,0:0:0:0:
370,263,56820,2,0,P|346:256|320:254,1,46.7500014266968,10|2,0:0|0:0,0:0:0:0:
327,349,57172,2,0,P|248:354|158:337,1,140.25000428009,2|2,0:0|0:0,0:0:0:0:
103,319,57758,1,10,0:0:0:0:
103,319,57875,1,2,0:0:0:0:
256,192,58226,12,4,60101,1:0:0:0:
154,48,73226,6,0,P|151:130|176:232,1,170,0|0,1:0|0:0,0:0:0:0:
218,285,73930,1,2,0:0:0:0:
258,211,74164,2,0,P|261:129|236:27,1,170,2|2,0:0|0:0,0:0:0:0:
242,43,74867,1,2,0:0:0:0:
322,16,75101,6,0,P|367:15|422:19,2,85,4|2|8,1:0|0:0|0:0,0:0:0:0:
344,107,75805,1,2,0:2:0:0:
437,109,76039,2,0,P|443:154|442:211,1,85,2|2,1:2|0:2,0:0:0:0:
411,281,76508,1,10,0:0:0:0:
471,352,76742,2,0,P|392:375|281:375,1,170,2|2,0:0|0:0,0:0:0:0:
70,366,77914,6,0,P|59:321|55:275,1,85,2|2,1:2|0:0,0:0:0:0:
54,197,78383,1,10,0:0:0:0:
127,154,78617,2,0,P|205:194|284:130,1,170,2|2,0:0|0:0,0:0:0:0:
293,75,79320,1,10,0:0:0:0:
225,22,79555,1,2,0:0:0:0:
143,45,79789,2,0,P|107:56|53:59,2,85,2|2|10,1:2|0:0|0:0,0:0:0:0:
225,22,80492,2,0,P|319:33|471:123,1,255,2|8,0:0|0:0,0:0:0:0:
486,190,81430,5,2,0:0:0:0:
472,273,81664,2,0,P|451:318|420:357,1,85,2|0,1:2|0:0,0:0:0:0:
345,353,82133,1,10,0:0:0:0:
260,353,82367,2,0,P|235:318|218:279,1,85,2|0,0:0|1:0,0:0:0:0:
238,196,82836,1,2,0:0:0:0:
132,62,83305,5,2,0:0:0:0:
81,130,83539,2,0,P|50:163|10:198,2,85,2|2|10,1:2|0:0|0:0,0:0:0:0:
134,196,84242,2,0,P|91:245|-12:313,1,170,2|2,0:0|0:0,0:0:0:0:
166,384,85414,5,2,1:2:0:0:
251,373,85648,2,0,P|243:320|246:275,1,85,2|10,0:0|0:0,0:0:0:0:
293,219,86117,2,0,P|296:135|264:33,1,170,2|2,0:0|0:0,0:0:0:0:
438,9,87055,1,2,0:0:0:0:
491,170,87523,2,0,P|489:211|481:261,2,85,2|10|2,0:0|0:0|0:0,0:0:0:0:
506,77,88226,5,0,1:0:0:0:
368,203,88695,1,8,0:0:0:0:
306,315,89047,2,0,P|351:357|407:330,2,127.5,0|0|0,1:0|1:0|1:0,0:0:0:0:
225,216,90101,6,0,P|181:225|117:229,1,85,2|0,1:2|0:0,0:0:0:0:
76,173,90570,2,0,P|85:129|89:65,1,85,8|2,0:0|0:0,0:0:0:0:
60,57,90922,1,2,0:0:0:0:
134,12,91156,1,2,0:0:0:0:
134,12,91273,2,0,P|174:15|358:58,1,212.5,2|2,0:0|0:0,0:0:0:0:
358,91,91976,6,0,P|350:138|325:183,2,85,2|2|10,1:2|0:0|0:0,0:0:0:0:
428,42,92680,2,0,P|448:41|476:44,1,42.5,2|2,0:0|0:0,0:0:0:0:
475,131,93031,1,2,0:0:0:0:
475,131,93148,2,0,P|476:163|341:292,1,212.5,2|2,0:0|0:0,0:0:0:0:
324,304,93851,6,0,P|339:354|373:411,2,85,2|2|10,1:2|0:0|0:0,0:0:0:0:
241,281,94555,2,0,P|217:284|190:292,1,42.5,2|2,0:0|0:0,0:0:0:0:
172,372,94906,1,2,0:0:0:0:
172,372,95023,2,0,P|139:372|-22:270,1,212.5,2|2,0:0|0:0,0:0:0:0:
9,248,95726,6,0,P|33:207|48:166,1,85,2|2,1:2|0:0,0:0:0:0:
88,98,96195,1,10,0:0:0:0:
135,176,96430,1,2,0:0:0:0:
135,176,96547,2,0,P|150:215|172:251,1,85,2|2,0:0|0:0,0:0:0:0:
214,251,96898,5,2,0:1:0:0:
341,238,97250,5,2,0:1:0:0:
468,225,97601,6,0,P|457:182|450:124,1,85,2|2,1:2|0:2,0:0:0:0:
422,61,98070,2,0,P|379:72|321:79,1,85,10|2,0:2|0:2,0:0:0:0:
311,45,98422,1,2,0:2:0:0:
230,17,98656,1,2,0:0:0:0:
230,17,98773,2,0,P|199:38|153:127,1,127.5,2|2,0:2|0:2,0:0:0:0:
99,179,99359,1,2,0:0:0:0:
99,179,99476,6,0,P|50:163|9:145,2,85,2|2|10,1:2|0:2|0:2,0:0:0:0:
175,217,100180,2,0,P|177:245|182:266,1,42.5,2|2,0:2|0:2,0:0:0:0:
265,267,100531,1,2,0:0:0:0:
265,267,100648,2,0,P|281:299|370:348,1,127.5,2|2,0:2|0:0,0:0:0:0:
445,350,101234,1,2,0:0:0:0:
445,350,101351,6,0,P|457:300|459:237,1,85,2|2,1:2|0:0,0:0:0:0:
459,181,101820,1,10,0:0:0:0:
489,101,102055,2,0,P|492:80|489:54,1,42.5,2|2,0:0|0:0,0:0:0:0:
414,33,102406,1,2,0:0:0:0:
414,33,102523,2,0,P|355:70|283:73,1,127.5,2|2,0:0|0:0,0:0:0:0:
234,21,103109,1,2,0:0:0:0:
234,21,103226,6,0,P|148:21|41:34,1,170,2|10,1:2|0:0,0:0:0:0:
72,200,104164,2,0,P|158:200|265:187,1,170,2|10,1:2|0:2,0:0:0:0:
241,191,105101,5,4,1:0:0:0:
256,192,105219,12,0,107914,1:0:0:0:
366,133,108851,5,2,1:2:0:0:
342,301,109320,1,10,0:2:0:0:
180,353,109789,1,2,1:2:0:0:
180,353,110492,5,2,1:2:0:0:
342,301,110961,1,2,1:2:0:0:
274,249,111195,1,10,0:0:0:0:
364,132,111664,1,2,1:2:0:0:
180,353,112601,5,6,1:2:0:0:
256,192,112719,12,0,115414,1:0:0:0:
386,83,116351,6,0,P|432:147|282:72,1,595,2|2,1:2|0:0,0:0:0:0:
119,33,118461,1,2,1:2:0:0:
37,56,118695,1,10,0:0:0:0:
4,223,119164,1,2,1:2:0:0:
240,345,120101,5,6,1:2:0:0:
256,192,120219,12,0,122914,1:0:0:0:
386,268,123851,6,0,P|386:187|322:224,1,170,2|8,1:2|0:0,0:0:0:0:
126,268,124789,2,2,P|126:187|203:172,1,170,2|8,1:2|0:0,0:2:0:0:
386,268,125726,2,2,P|386:187|326:118,1,170,2|8,1:2|0:0,0:2:0:0:
126,268,126664,2,2,P|126:187|159:92,1,170,2|8,1:2|0:0,0:2:0:0:
153,102,127601,5,6,1:2:0:0:
256,192,127719,12,0,130414,1:0:0:0:
366,47,131351,6,0,B|362:242|239:357|239:357|177:190|248:16,1,680,2|2,1:2|0:0,0:0:0:0:
242,29,134398,6,0,P|196:33|131:49,2,85,2|2|2,0:0|0:0|0:0,0:0:0:0:
280,47,134984,1,2,0:0:0:0:
280,47,135101,6,0,P|311:90|357:132,1,93.5000028533936,4|2,1:0|0:0,0:0:0:0:
431,138,135570,2,0,P|463:171|490:209,1,93.5000028533936,8|2,0:0|0:0,0:0:0:0:
484,302,136039,1,2,1:2:0:0:
405,352,136273,2,0,P|353:356|291:347,2,93.5000028533936,2|10|2,0:0|0:0|0:0,0:0:0:0:
399,258,136976,6,0,P|331:253|236:263,2,140.25000428009,2|2|2,1:0|1:0|1:0,0:0:0:0:
222,343,138148,1,2,0:0:0:0:
128,347,138383,2,0,P|84:308|45:249,1,93.5000028533936,10|2,0:0|0:0,0:0:0:0:
33,244,138734,1,2,0:0:0:0:
24,103,139086,1,2,0:0:0:0:
199,167,139555,5,2,0:0:0:0:
135,98,139789,2,0,P|112:50|99:4,2,93.5000028533936,2|2|10,1:2|0:0|0:0,0:0:0:0:
199,167,140492,1,2,0:0:0:0:
288,139,140726,6,0,P|311:91|324:1,2,140.25000428009,2|2|2,1:0|1:0|1:0,0:0:0:0:
425,12,141898,1,2,0:0:0:0:
458,99,142133,2,0,P|468:153|472:207,1,93.5000028533936,10|2,0:0|0:0,0:0:0:0:
476,237,142484,1,2,0:0:0:0:
467,377,142836,2,0,P|413:369|354:353,1,93.5000028533936,2|8,0:0|0:0,0:0:0:0:
288,322,143305,5,2,0:0:0:0:
348,250,143539,2,0,P|374:200|382:154,2,93.5000028533936,2|2|10,1:2|0:0|0:0,0:0:0:0:
255,234,144242,1,2,0:0:0:0:
169,195,144476,6,0,P|140:261|83:315,2,140.25000428009,2|2|2,1:0|1:0|1:0,0:0:0:0:
9,96,145648,1,2,0:0:0:0:
70,25,145883,2,0,P|119:21|171:22,1,93.5000028533936,10|2,0:0|0:0,0:0:0:0:
181,64,146234,2,0,P|240:68|326:54,1,140.25000428009,2|2,0:0|0:0,0:0:0:0:
408,25,146820,1,10,0:0:0:0:
478,86,147055,1,2,0:0:0:0:
478,86,147172,2,0,P|472:165|471:234,1,140.25000428009,2|2,0:0|0:0,0:0:0:0:
377,225,147758,6,0,P|389:250|398:279,1,46.7500014266968,10|2,0:0|0:0,0:0:0:0:
312,286,148109,2,0,P|207:301|270:153,1,327.250009986878,2|2,0:0|0:0,0:0:0:0:
252,150,149398,6,0,P|251:101|236:43,1,93.5000028533936,2|10,0:0|0:0,0:0:0:0:
158,14,149867,1,2,0:0:0:0:
158,14,149984,2,0,P|104:37|10:41,1,140.25000428009,2|2,0:0|0:0,0:0:0:0:
42,229,150805,2,0,P|54:160|69:108,2,93.5000028533936,2|2|2,0:0|1:2|0:0,0:0:0:0:
65,319,151508,1,10,0:0:0:0:
150,356,151742,1,2,0:0:0:0:
223,299,151976,6,0,P|237:236|240:142,2,140.25000428009,2|2|2,1:0|1:0|1:0,0:0:0:0:
400,356,153148,1,2,0:0:0:0:
375,265,153383,2,0,P|364:208|362:138,1,93.5000028533936,10|2,0:0|0:0,0:0:0:0:
392,137,153734,2,0,P|386:69|353:-4,1,140.25000428009,2|2,0:0|0:0,0:0:0:0:
170,13,154555,5,2,0:0:0:0:
92,65,154789,2,0,P|60:108|41:161,2,93.5000028533936,2|2|10,1:2|0:0|0:0,0:0:0:0:
176,106,155492,1,2,0:0:0:0:
226,184,155726,6,0,P|244:249|240:346,2,140.25000428009,2|2|2,1:0|1:0|1:0,0:0:0:0:
405,130,156898,1,2,0:0:0:0:
484,179,157133,2,0,P|482:234|473:279,1,93.5000028533936,10|2,0:0|0:0,0:0:0:0:
452,312,157484,1,2,0:0:0:0:
318,356,157836,2,0,P|297:270|315:162,1,187.000005706787,2|2,0:0|0:0,0:0:0:0:
287,82,158539,5,2,1:2:0:0:
209,29,158773,1,2,0:0:0:0:
124,69,159008,2,0,P|72:91|14:96,1,93.5000028533936,10|2,0:0|0:0,0:0:0:0:
36,189,159476,6,0,P|51:265|33:355,2,140.25000428009,2|2|2,1:0|1:0|1:0,0:0:0:0:
142,342,160648,1,2,0:0:0:0:
232,367,160883,2,0,P|260:361|295:361,1,46.7500014266968,10|2,0:0|0:0,0:0:0:0:
371,362,161234,2,0,P|356:297|359:219,1,140.25000428009,2|2,0:0|0:0,0:0:0:0:
449,202,161820,2,0,P|455:169|455:138,1,46.7500014266968,10|2,0:0|0:0,0:0:0:0:
432,67,162172,2,0,P|348:46|269:53,1,140.25000428009,2|2,0:0|0:0,0:0:0:0:
240,124,162758,1,10,0:0:0:0:
240,124,162875,1,2,0:0:0:0:
256,192,163226,12,4,165101,1:0:0:0:
171,105,180101,5,2,0:0:0:0:
171,105,180570,2,0,P|149:162|73:222,2,136,2|2|2,0:0|0:0|0:0,0:0:0:0:
171,105,181976,1,2,0:0:0:0:
341,105,182445,2,0,P|363:162|439:222,2,136,2|2|2,0:0|0:0|0:0,0:0:0:0:
341,105,183851,1,2,0:0:0:0:
256,192,184320,5,2,0:0:0:0:
256,192,184789,1,2,0:0:0:0:
256,192,185258,1,2,0:0:0:0:
256,192,185726,5,2,0:0:0:0:
256,192,186664,1,2,0:0:0:0:
256,192,187601,1,2,0:0:0:0:
256,192,187719,12,2,189476,0:0:0:0:
256,192,191118,5,2,0:0:0:0:
256,192,191352,1,2,0:0:0:0:
256,192,191469,12,2,193226,0:0:0:0:
378,344,194398,6,0,P|410:315|469:298,2,76.4999976654053,2|2|2,0:0|0:0|0:0,0:0:0:0:
342,328,194984,2,0,P|351:265|339:179,1,114.749996498108,2|2,0:0|0:0,0:0:0:0:
134,344,201898,6,0,P|102:315|43:298,2,85,2|2|2,0:0|0:0|0:0,0:0:0:0:
172,324,202484,2,0,P|163:261|175:175,1,127.5,2|2,0:0|0:0,0:0:0:0:
250,174,203070,2,0,P|250:112|192:71,1,127.5,8|2,0:0|0:0,0:0:0:0:
118,84,203656,2,0,P|78:95|15:98,2,85,2|2|2,0:0|0:0|0:0,0:0:0:0:
202,72,204359,1,2,0:0:0:0:
202,72,204476,6,0,P|246:56|284:28,2,85,2|2|10,1:2|0:0|0:0,0:0:0:0:
323,113,205297,1,2,0:0:0:0:
375,179,205531,2,0,P|372:234|347:280,2,85,2|2|2,0:0|0:0|0:0,0:0:0:0:
448,136,206234,1,2,0:0:0:0:
448,136,206351,6,0,P|470:179|474:229,1,85,2|2,1:2|0:0,0:0:0:0:
453,297,206820,1,10,0:0:0:0:
339,355,207172,2,0,P|292:353|245:342,1,85,2|2,0:0|0:0,0:0:0:0:
188,291,207641,2,0,P|141:293|94:304,1,85,2|2,0:0|0:0,0:0:0:0:
20,317,208109,1,2,0:0:0:0:
20,317,208226,6,0,P|18:250|39:162,1,140.25000428009,12|12,0:0|0:0,0:0:0:0:
154,107,208930,2,0,P|222:129|159:31,1,280.500008560181,12|10,0:0|0:0,0:0:0:0:
365,20,210101,6,0,P|370:76|355:152,1,97.7500018644333,4|2,1:0|0:0,0:0:0:0:
441,178,210570,2,0,P|435:234|451:310,1,97.7500018644333,8|2,0:0|0:0,0:0:0:0:
479,364,211039,1,2,1:2:0:0:
384,384,211273,1,2,0:0:0:0:
292,348,211508,2,0,P|239:333|189:330,1,97.7500018644333,10|2,0:0|0:0,0:0:0:0:
103,359,211976,6,0,B|128:312|74:262|101:204,2,146.62500279665,2|2|2,1:0|1:0|1:0,0:0:0:0:
9,186,213149,1,2,0:0:0:0:
65,106,213383,2,0,P|81:57|92:-22,1,97.7500018644333,10|2,0:0|0:0,0:0:0:0:
137,19,213734,2,0,P|213:38|282:43,1,146.62500279665,2|2,0:0|0:0,0:0:0:0:
476,54,214555,5,2,0:0:0:0:
455,149,214789,2,0,P|433:198|397:241,2,97.7500018644333,2|2|10,1:2|0:0|0:0,0:0:0:0:
386,79,215492,1,2,0:0:0:0:
321,151,215726,6,0,B|241:163|285:227|187:230,2,146.62500279665,2|2|2,1:0|1:0|1:0,0:0:0:0:
406,327,216898,1,2,0:0:0:0:
313,359,217133,2,0,P|259:363|181:349,1,97.7500018644333,10|2,0:0|0:0,0:0:0:0:
169,342,217484,1,2,0:0:0:0:
25,313,217836,2,0,P|38:262|44:175,1,97.7500018644333,2|8,0:0|0:0,0:0:0:0:
29,120,218305,5,2,0:0:0:0:
13,23,218539,2,0,P|68:32|123:21,1,97.7500018644333,2|2,1:2|0:0,0:0:0:0:
205,41,219008,2,0,P|260:32|315:43,1,97.7500018644333,10|2,0:0|0:0,0:0:0:0:
259,126,219476,6,0,B|194:139|212:191|110:189,2,146.62500279665,2|2|2,1:0|1:0|1:0,0:0:0:0:
425,229,220648,1,2,0:0:0:0:
437,131,220883,2,0,P|438:70|421:21,1,97.7500018644333,10|2,0:0|0:0,0:0:0:0:
390,3,221234,1,2,0:0:0:0:
349,144,221586,5,2,0:0:0:0:
324,238,221820,2,0,P|339:293|371:349,1,97.7500018644333,10|2,0:0|0:0,0:0:0:0:
396,359,222172,1,2,0:0:0:0:
249,364,222523,1,2,0:0:0:0:
155,334,222758,2,0,P|170:304|173:278,1,48.8750009322167,10|2,0:0|0:0,0:0:0:0:
80,279,223109,6,0,P|101:207|100:114,1,146.62500279665,2|2,0:0|0:0,0:0:0:0:
79,92,223578,1,2,0:0:0:0:
216,39,223930,2,0,P|205:90|209:171,1,97.7500018644333,2|0,0:0|1:2,0:0:0:0:
211,232,224398,1,2,0:0:0:0:
305,216,224633,6,0,P|354:214|420:248,1,97.7500018644333,10|2,0:0|0:0,0:0:0:0:
438,259,224984,1,2,0:0:0:0:
470,115,225336,2,0,P|451:70|402:15,1,97.7500018644333,2|8,0:0|0:0,0:0:0:0:
324,15,225805,1,2,0:0:0:0:
241,67,226039,2,0,P|181:94|126:103,2,97.7500018644333,2|2|10,1:2|0:0|0:0,0:0:0:0:
327,113,226742,1,2,0:0:0:0:
254,178,226976,6,0,B|181:193|214:255|113:271,2,146.62500279665,2|2|2,1:0|1:0|1:0,0:0:0:0:
449,191,228148,1,2,0:0:0:0:
431,288,228383,2,0,B|397:330|331:358,1,97.7500018644333,10|2,0:0|0:0,0:0:0:0:
317,379,228734,2,0,P|247:357|141:362,1,146.62500279665,2|2,0:0|0:0,0:0:0:0:
42,210,229555,1,2,0:0:0:0:
120,268,229789,2,0,P|101:323|74:373,2,97.7500018644333,2|2|10,1:2|0:0|0:0,0:0:0:0:
126,170,230492,1,2,0:0:0:0:
164,80,230726,6,0,B|109:54|73:101|13:73,2,146.62500279665,2|2|2,1:0|1:0|1:0,0:0:0:0:
349,17,231898,1,2,0:0:0:0:
445,32,232133,2,0,P|478:70|508:132,1,97.7500018644333,10|2,0:0|0:0,0:0:0:0:
478,155,232484,2,0,P|456:219|458:316,1,146.62500279665,2|2,0:0|0:0,0:0:0:0:
269,362,233305,5,2,0:0:0:0:
241,268,233539,1,2,1:2:0:0:
263,173,233773,1,2,0:0:0:0:
259,75,234008,2,0,P|206:54|150:46,1,97.7500018644333,10|2,0:0|0:0,0:0:0:0:
69,61,234476,6,0,B|111:103|77:159|126:202,2,146.62500279665,2|2|2,1:0|1:0|1:0,0:0:0:0:
25,251,235648,1,2,0:0:0:0:
79,332,235883,2,0,P|109:319|126:305,1,48.8750009322167,10|2,0:0|0:0,0:0:0:0:
210,267,236234,2,0,P|263:303|382:298,1,146.62500279665,2|2,0:0|0:0,0:0:0:0:
435,276,236820,2,0,P|427:245|419:224,1,48.8750009322167,10|2,0:0|0:0,0:0:0:0:
351,160,237172,2,0,P|345:89|401:25,1,146.62500279665,2|2,0:0|0:0,0:0:0:0:
481,76,237758,1,10,0:0:0:0:
481,76,237875,1,2,0:0:0:0:
256,192,238226,12,4,240101,1:0:0:0:
