osu file format v14

[General]
AudioFilename: audio.mp3
AudioLeadIn: 0
PreviewTime: 29164
Countdown: 0
SampleSet: Soft
StackLeniency: 0.5
Mode: 0
LetterboxInBreaks: 0
WidescreenStoryboard: 1

[Editor]
Bookmarks: 165101,180101,195336,201898
DistanceSpacing: 1
BeatDivisor: 4
GridSize: 4
TimelineZoom: 2.1

[Metadata]
Title:Kimi to Driven Star
TitleUnicode:キミとDriven Star
Artist:La priere
ArtistUnicode:La prière
Creator:UberFazz
Version:Hard
Source:
Tags:japanese electronic house featured artist galaxy triangle nayuta 棗いつき Natsume Itsuki aran
BeatmapID:3066952
BeatmapSetID:1495067

[Difficulty]
HPDrainRate:4
CircleSize:3.5
OverallDifficulty:7
ApproachRate:8
SliderMultiplier:1.8
SliderTickRate:1

[Events]
//Background and Video events
0,0,"galaxy triangle.jpg",0,0
//Break Periods
2,60301,72476
2,165301,179351
2,195535,201148
//Storyboard Layer 0 (Background)
//Storyboard Layer 1 (Fail)
//Storyboard Layer 2 (Pass)
//Storyboard Layer 3 (Foreground)
//Storyboard Layer 4 (Overlay)
//Storyboard Sound Samples

[TimingPoints]
102,468.749999999999,4,2,1,60,1,0
15101,-83.3333333333333,4,2,1,60,0,0
22601,-76.9230769230769,4,2,1,60,0,0
29398,-71.4285714285714,4,2,1,60,0,0
30101,-62.5,4,2,1,70,0,1
31976,-55.5555555555556,4,2,1,70,0,1
33383,-62.5,4,2,1,70,0,1
35726,-55.5555555555556,4,2,1,70,0,1
36898,-62.5,4,2,1,70,0,1
39476,-55.5555555555556,4,2,1,70,0,1
40648,-62.5,4,2,1,70,0,1
46976,-55.5555555555556,4,2,1,70,0,1
48383,-62.5,4,2,1,70,0,1
50726,-55.5555555555556,4,2,1,70,0,1
51898,-62.5,4,2,1,70,0,1
54476,-55.5555555555556,4,2,1,70,0,1
55648,-62.5,4,2,1,70,0,1
58226,-62.5,4,2,1,70,0,0
59164,-62.5,4,2,1,60,0,0
73226,-250,4,2,1,60,0,0
74164,-125,4,2,1,60,0,0
75101,-100,4,2,1,60,0,0
90101,-83.3333333333333,4,2,1,60,0,0
103226,-125,4,2,1,60,0,0
108851,-83.3333333333333,4,2,1,60,0,0
118930,-71.4285714285714,4,2,1,60,0,0
123851,-125,4,2,1,60,0,0
124789,-100,4,2,1,60,0,0
125726,-83.3333333333333,4,2,1,60,0,0
126664,-71.4285714285714,4,2,1,60,0,0
131351,-83.3333333333333,4,2,1,60,0,0
135101,-62.5,4,2,1,70,0,1
136976,-55.5555555555556,4,2,1,70,0,1
138383,-62.5,4,2,1,70,0,1
140726,-55.5555555555556,4,2,1,70,0,1
141898,-62.5,4,2,1,70,0,1
144476,-55.5555555555556,4,2,1,70,0,1
145648,-62.5,4,2,1,70,0,1
151976,-55.5555555555556,4,2,1,70,0,1
153148,-62.5,4,2,1,70,0,1
155726,-55.5555555555556,4,2,1,70,0,1
156898,-62.5,4,2,1,70,0,1
159476,-55.5555555555556,4,2,1,70,0,1
160648,-62.5,4,2,1,70,0,1
163226,-62.5,4,2,1,70,0,0
164164,-62.5,4,2,1,60,0,0
180570,-142.857142857143,4,2,1,60,0,0
194398,-100,4,2,1,60,0,0
210101,-55.5555555555556,4,2,1,80,0,1
211976,-50,4,2,1,80,0,1
213383,-55.5555555555556,4,2,1,80,0,1
215726,-50,4,2,1,80,0,1
217133,-55.5555555555556,4,2,1,80,0,1
219476,-50,4,2,1,80,0,1
220648,-55.5555555555556,4,2,1,80,0,1
226976,-50,4,2,1,80,0,1
228383,-55.5555555555556,4,2,1,80,0,1
230726,-50,4,2,1,80,0,1
232133,-55.5555555555556,4,2,1,80,0,1
234476,-50,4,2,1,80,0,1
236000,-55.5555555555556,4,2,1,80,0,1
240101,-55.5555555555556,4,2,1,60,0,0

[Colours]
Combo1 : 255,243,17
Combo2 : 224,116,216

[HitObjects]
106,48,15101,6,0,P|107:105|131:163,2,107.999996704102,4|0|8,1:0|2:0|2:0,2:0:0:0:
109,246,15922,2,0,P|166:234|210:197,1,107.999996704102,0|2,2:0|2:0,2:0:0:0:
209,115,16391,1,2,2:0:0:0:
209,115,16508,1,8,2:0:0:0:
377,11,16976,6,0,P|383:83|445:235,1,215.999993408203,2|8,2:0|2:0,2:0:0:0:
308,381,17797,2,0,P|297:324|259:262,1,107.999996704102,0|2,2:0|2:0,2:0:0:0:
376,289,18266,1,2,2:0:0:0:
376,289,18383,1,8,2:0:0:0:
55,287,18851,5,2,2:0:0:0:
176,176,19320,2,0,P|172:263|194:339,1,161.999995056153,8|2,2:0|2:0,2:0:0:0:
191,334,19906,1,2,2:0:0:0:
110,371,20141,1,0,2:0:0:0:
110,371,20258,1,8,2:0:0:0:
2,198,20726,6,0,P|81:119|108:8,1,215.999993408203,2|8,2:0|2:0,2:0:0:0:
306,140,21664,2,0,P|227:219|200:330,1,215.999993408203,2|8,2:0|2:0,2:0:0:0:
131,213,22601,6,0,P|155:156|199:110,2,116.999994644165,6|2|8,1:2|2:0|2:0,2:0:0:0:
296,161,23422,2,0,P|340:204|404:215,1,116.999994644165,2|2,2:0|2:0,2:0:0:0:
345,326,23891,2,0,P|304:284|248:271,1,116.999994644165,2|0,2:0|2:0,2:0:0:0:
433,296,24359,1,2,2:0:0:0:
433,296,24476,5,2,2:0:0:0:
477,204,24711,1,2,2:0:0:0:
445,103,24945,1,8,2:0:0:0:
445,103,25297,2,0,P|390:84|321:81,1,116.999994644165,2|2,2:0|2:0,2:0:0:0:
252,28,25766,2,0,P|197:47|128:50,1,116.999994644165,2|0,2:0|2:0,2:0:0:0:
138,50,26234,1,2,2:0:0:0:
138,50,26351,5,2,2:0:0:0:
256,192,26469,12,0,28226,1:0:0:0:
62,13,29398,6,0,P|68:81|50:144,2,125.999996154785,2|2|2,2:0|2:0|2:0,2:0:0:0:
161,26,29984,1,2,2:0:0:0:
161,26,30101,6,0,P|240:48|320:55,1,144,4|2,1:0|2:0,2:0:0:0:
291,168,30570,2,0,P|212:146|132:139,1,144,8|2,2:0|2:0,2:0:0:0:
367,104,31039,6,0,P|407:96|439:86,1,72,2|0,1:2|2:0,2:0:0:0:
512,53,31273,1,2,2:0:0:0:
512,207,31508,2,0,P|491:276|445:352,1,144,10|2,2:0|2:0,2:0:0:0:
358,344,31976,6,0,P|367:257|461:126,2,242.999992584229,2|2|2,1:0|1:0|1:0,2:0:0:0:
358,344,33148,1,2,2:0:0:0:
234,365,33383,2,0,P|198:370|145:367,1,72,10|0,2:0|2:0,2:0:0:0:
115,283,33617,1,2,2:0:0:0:
115,283,33734,2,0,P|165:272|267:277,1,144,2|0,2:0|2:0,2:0:0:0:
170,177,34086,2,0,P|134:182|176:141,1,144,2|8,2:0|2:0,2:0:0:0:
265,155,34555,5,2,2:0:0:0:
293,42,34789,1,2,1:2:0:0:
377,162,35023,1,2,2:0:0:0:
405,49,35257,1,10,2:0:0:0:
491,124,35492,1,2,2:0:0:0:
460,243,35726,6,0,P|376:271|267:385,2,242.999992584229,2|2|2,1:0|1:0|1:0,2:0:0:0:
181,384,36898,2,0,P|171:315|146:236,1,144,2|10,2:0|2:0,2:0:0:0:
119,139,37367,1,2,2:0:0:0:
119,139,37484,2,0,P|195:111|283:129,1,144,2|0,2:0|2:0,2:0:0:0:
276,209,37836,2,0,P|200:237|112:219,1,144,2|8,2:0|2:0,2:0:0:0:
43,203,38305,5,2,2:0:0:0:
7,86,38539,1,2,1:2:0:0:
119,139,38773,1,2,2:0:0:0:
96,18,39008,2,0,P|136:7|172:6,1,72,10|0,2:0|2:0,2:0:0:0:
255,20,39242,2,0,P|295:31|331:32,1,72,2|0,2:0|2:0,2:0:0:0:
432,45,39476,6,0,P|407:151|441:298,2,242.999992584229,2|2|2,1:0|1:0|1:0,2:0:0:0:
331,295,40648,2,0,P|319:262|311:198,1,72,2|0,2:0|2:0,2:0:0:0:
315,126,40883,1,10,2:0:0:0:
179,153,41117,1,2,2:0:0:0:
179,153,41234,2,0,P|204:224|203:305,1,144,2|0,2:0|2:0,2:0:0:0:
173,372,41586,2,0,P|133:373|89:363,1,72,2|0,2:0|2:0,2:0:0:0:
10,338,41820,1,10,2:0:0:0:
91,245,42055,1,2,2:0:0:0:
91,245,42172,2,0,P|66:174|67:93,1,144,2|0,2:0|2:0,2:0:0:0:
10,34,42523,5,2,2:0:0:0:
143,9,42758,1,10,2:0:0:0:
143,9,42875,2,0,P|188:8|224:16,1,72,2|0,2:0|2:0,2:0:0:0:
313,27,43109,1,2,2:0:0:0:
313,27,43226,2,0,P|341:109|407:36,2,216,2|2|2,1:2|2:0|2:0,2:0:0:0:
456,361,44398,6,0,P|480:299|491:210,1,144,2|10,2:0|2:0,2:0:0:0:
499,76,44867,1,2,2:0:0:0:
499,76,44984,2,0,P|442:100|360:102,1,144,2|0,2:0|2:0,2:0:0:0:
277,129,45336,2,0,P|220:105|138:103,1,144,2|8,2:0|2:0,2:0:0:0:
61,177,45805,5,2,2:0:0:0:
0,291,46039,1,2,1:2:0:0:
92,383,46273,1,2,2:0:0:0:
208,324,46508,1,10,2:0:0:0:
188,197,46742,1,2,2:0:0:0:
325,232,46976,6,0,P|405:266|518:386,2,242.999992584229,2|2|2,1:0|1:0|1:0,2:0:0:0:
61,177,48148,1,2,2:0:0:0:
85,60,48383,2,0,P|153:28|222:18,1,144,10|2,2:0|2:0,2:0:0:0:
233,63,48734,2,0,P|301:95|370:105,1,144,2|0,2:0|2:0,2:0:0:0:
375,57,49086,2,0,P|443:25|512:15,1,144,2|8,2:0|2:0,2:0:0:0:
495,188,49555,6,0,P|498:226|494:265,1,72,2|0,2:0|2:0,2:0:0:0:
485,345,49789,1,2,1:2:0:0:
371,306,50023,1,2,2:0:0:0:
257,345,50258,1,10,2:0:0:0:
143,306,50492,1,2,2:0:0:0:
235,210,50726,6,0,P|117:190|-16:123,2,242.999992584229,2|2|2,1:0|1:0|1:0,2:0:0:0:
235,210,51898,2,0,P|233:162|217:122,1,72,2|0,2:0|2:0,2:0:0:0:
185,61,52133,1,10,2:0:0:0:
312,8,52367,1,2,2:0:0:0:
312,8,52484,2,0,P|317:95|357:163,1,144,2|0,2:0|2:0,2:0:0:0:
421,175,52836,2,0,P|416:262|376:330,1,144,2|8,2:0|2:0,2:0:0:0:
288,384,53305,5,2,2:0:0:0:
186,300,53539,2,0,P|141:288|99:288,1,72,2|0,1:2|2:0,2:0:0:0:
35,301,53773,1,2,2:0:0:0:
39,163,54008,2,0,P|84:151|126:151,1,72,10|0,2:0|2:0,2:0:0:0:
190,164,54242,1,2,2:0:0:0:
159,12,54476,6,0,P|245:71|400:73,2,242.999992584229,2|2|2,1:0|1:0|1:0,2:0:0:0:
473,41,55648,2,0,P|467:77|470:115,1,72,2|0,2:0|2:0,2:0:0:0:
485,195,55883,1,10,2:0:0:0:
485,195,56000,1,2,2:0:0:0:
483,337,56234,2,0,P|383:323|268:323,1,216,2|2,2:0|2:0,2:0:0:0:
268,322,56820,5,10,2:0:0:0:
268,322,56937,1,2,2:0:0:0:
110,368,57172,2,0,P|135:286|83:131,1,216,2|2,2:0|2:0,2:0:0:0:
105,161,57758,1,10,2:0:0:0:
105,161,57875,1,2,2:0:0:0:
256,192,58226,12,2,59164,2:0:0:0:
256,192,59281,12,4,60101,1:0:0:0:
121,61,73226,6,0,P|128:120|148:167,1,108,0|2,1:0|2:0,2:0:0:0:
249,151,74164,2,0,P|241:70|204:-4,1,144,2|2,2:0|2:0,2:0:0:0:
215,13,74867,1,2,2:0:0:0:
329,6,75101,6,0,P|381:7|436:13,2,90,4|2|8,1:0|2:0|2:0,2:0:0:0:
461,87,75805,1,2,2:0:0:0:
369,109,76039,2,0,P|359:162|358:206,1,90,2|2,1:2|2:0,2:0:0:0:
379,284,76508,1,10,2:0:0:0:
471,270,76742,2,0,P|468:225|459:181,1,90,2|0,2:0|1:0,2:0:0:0:
441,367,77211,2,0,P|331:381|247:371,1,180,2|0,2:0|2:0,2:0:0:0:
262,374,77914,5,2,1:2:0:0:
170,328,78148,1,2,2:0:0:0:
67,342,78383,1,10,2:0:0:0:
8,206,78617,2,0,P|28:283|115:242,1,180,2|2,2:0|2:0,2:0:0:0:
97,169,79320,1,10,2:0:0:0:
55,82,79555,2,0,P|29:34|2:1,2,90,2|2|2,2:0|1:2|2:0,2:0:0:0:
151,89,80258,1,10,2:0:0:0:
234,21,80492,2,0,P|335:26|483:113,1,270,2|8,2:0|2:0,2:0:0:0:
491,210,81430,5,2,2:0:0:0:
398,178,81664,2,0,P|402:121|419:65,1,90,2|0,1:2|2:0,2:0:0:0:
329,243,82133,1,10,2:0:0:0:
422,275,82367,2,0,P|418:332|401:388,1,90,2|0,2:0|1:0,2:0:0:0:
508,303,82836,1,2,2:0:0:0:
325,335,83305,5,2,2:0:0:0:
229,362,83539,2,0,P|173:357|130:341,1,90,2|2,1:2|2:0,2:0:0:0:
60,293,84008,1,10,2:0:0:0:
62,200,84242,2,0,P|50:130|18:17,1,180,2|2,2:0|2:0,2:0:0:0:
20,25,85414,1,2,1:2:0:0:
117,43,85648,1,2,2:0:0:0:
232,5,85883,1,10,2:0:0:0:
370,65,86117,6,0,P|356:107|351:175,1,90,2|0,2:0|1:0,2:0:0:0:
320,261,86586,2,0,P|290:227|234:189,1,90,2|8,2:0|2:0,2:0:0:0:
175,119,87055,2,0,P|218:110|341:20,1,180,2|2,2:0|2:0,2:0:0:0:
437,0,87758,1,10,2:0:0:0:
453,101,87992,2,0,P|460:167|487:261,1,135,2|0,2:0|2:0,2:0:0:0:
485,248,88461,2,0,P|486:278|484:303,1,45,2|2,2:0|2:0,2:0:0:0:
460,373,88695,2,0,P|461:343|459:318,3,45,10|2|2|2,2:0|2:0|2:0|1:2,2:0:0:0:
439,359,89164,6,0,P|415:359|392:357,1,45,2|0,2:0|2:0,2:0:0:0:
316,330,89398,2,0,P|292:330|269:332,1,45,0|0,1:0|2:0,2:0:0:0:
176,361,89633,1,10,2:0:0:0:
176,361,89750,1,2,1:2:0:0:
176,361,89867,2,0,P|148:358|124:352,1,45,2|2,2:0|2:0,2:0:0:0:
48,334,90101,6,0,P|41:277|21:210,1,107.999996704102,2|0,1:2|2:0,2:0:0:0:
68,128,90570,2,0,P|75:71|95:4,1,107.999996704102,8|2,2:0|2:0,2:0:0:0:
120,18,90922,1,2,2:0:0:0:
251,36,91156,2,0,P|283:34|312:28,1,53.9999983520508,2|2,2:0|2:0,2:0:0:0:
448,19,91508,2,0,P|480:21|509:27,1,53.9999983520508,10|2,2:0|2:0,2:0:0:0:
504,159,91859,1,2,2:0:0:0:
504,159,91976,6,0,P|493:220|491:273,2,107.999996704102,2|2|10,1:2|2:0|2:0,2:0:0:0:
403,360,92680,2,0,P|375:366|339:366,1,53.9999983520508,2|2,2:0|2:0,2:0:0:0:
235,335,93031,1,2,2:0:0:0:
235,335,93148,1,2,2:0:0:0:
128,371,93383,2,0,P|100:377|64:377,1,53.9999983520508,10|2,2:0|2:0,2:0:0:0:
7,269,93734,1,2,2:0:0:0:
7,269,93851,6,0,P|69:274|136:260,1,107.999996704102,2|2,1:2|2:0,2:0:0:0:
212,217,94320,1,10,2:0:0:0:
108,145,94555,2,0,P|90:125|75:103,1,53.9999983520508,2|2,2:0|2:0,2:0:0:0:
179,10,94905,1,2,2:0:0:0:
179,10,95023,1,2,2:0:0:0:
309,44,95258,1,10,2:0:0:0:
309,44,95376,1,2,2:0:0:0:
430,9,95609,1,2,2:0:0:0:
430,9,95726,6,0,P|437:43|440:73,1,53.9999983520508,2|0,1:2|2:0,2:0:0:0:
413,150,95961,1,2,2:0:0:0:
484,267,96195,1,10,2:0:0:0:
411,378,96430,1,2,2:0:0:0:
411,378,96547,1,2,2:0:0:0:
342,259,96781,1,2,2:0:0:0:
342,259,96898,2,0,P|300:305|234:340,1,107.999996704102,2|8,2:1|2:0,2:0:0:0:
260,349,97250,2,0,P|198:352|126:330,1,107.999996704102,2|0,2:1|2:0,2:0:0:0:
76,302,97601,5,2,1:2:0:0:
17,177,97836,1,2,2:0:0:0:
86,68,98070,1,10,2:0:0:0:
218,111,98305,1,2,2:0:0:0:
218,111,98422,1,2,2:0:0:0:
351,65,98656,1,2,2:0:0:0:
351,65,98773,2,0,P|412:69|473:83,1,107.999996704102,2|10,2:0|2:0,2:0:0:0:
472,89,99125,1,2,2:0:0:0:
501,239,99359,1,2,2:0:0:0:
501,239,99476,6,0,P|439:238|391:221,1,107.999996704102,2|2,1:2|2:0,2:0:0:0:
308,145,99945,1,10,2:0:0:0:
252,13,100180,1,2,2:0:0:0:
252,13,100297,1,2,2:0:0:0:
113,38,100531,1,2,2:0:0:0:
113,38,100648,1,2,2:0:0:0:
120,176,100883,1,10,2:0:0:0:
120,176,101000,2,0,P|141:227|193:288,1,107.999996704102,2|2,2:0|2:0,2:0:0:0:
188,273,101351,5,2,1:2:0:0:
312,300,101586,1,2,2:0:0:0:
405,235,101820,1,10,2:0:0:0:
512,278,102055,1,2,2:0:0:0:
512,278,102172,1,2,2:0:0:0:
419,352,102406,1,2,2:0:0:0:
419,352,102523,1,2,2:0:0:0:
312,300,102758,1,10,2:0:0:0:
312,300,102875,1,2,2:0:0:0:
203,358,103109,1,2,2:0:0:0:
203,358,103226,6,0,P|164:359|120:353,1,72,2|2,1:2|2:0,2:0:0:0:
1,292,103695,2,0,P|40:293|84:287,1,72,10|2,2:0|2:0,2:0:0:0:
244,150,104398,5,2,2:0:0:0:
244,150,104516,1,2,2:0:0:0:
244,150,104633,1,2,2:0:0:0:
244,150,104750,1,2,2:0:0:0:
244,150,104867,1,2,2:0:0:0:
244,150,104984,1,2,2:0:0:0:
244,150,105101,5,4,1:0:0:0:
256,192,105219,12,8,108383,2:0:0:0:
441,94,108851,6,0,P|445:154|391:317,2,215.999993408203,2|10|2,1:2|2:0|1:2,2:0:0:0:
258,291,110492,2,0,P|254:231|308:68,1,215.999993408203,2|2,1:2|1:2,2:0:0:0:
381,5,111195,1,10,2:0:0:0:
381,5,111664,1,2,1:2:0:0:
329,354,112601,5,6,1:2:0:0:
256,192,112719,12,0,115414,1:0:0:0:
444,174,116117,5,2,2:0:0:0:
444,174,116351,1,2,1:2:0:0:
256,192,116469,12,0,118226,1:0:0:0:
90,326,118930,6,0,P|114:257|132:50,1,251.999992309571,2|2,2:0|2:0,2:0:0:0:
134,80,119633,2,0,P|192:117|251:120,1,125.999996154785,10|2,2:0|2:0,2:0:0:0:
373,83,120101,5,6,1:2:0:0:
256,192,120219,12,8,123383,2:0:0:0:
319,168,123851,6,0,P|389:162|325:223,1,216,2|0,1:2|2:0,2:0:0:0:
199,259,124789,2,2,P|104:193|197:123,1,270,2|0,1:2|2:0,2:0:0:0:
309,69,125726,2,2,P|405:189|307:299,1,323.999990112305,2|0,1:2|2:0,2:0:0:0:
195,355,126664,2,2,P|110:183|198:16,1,377.999988464356,2|0,1:2|2:0,2:0:0:0:
184,26,127601,5,6,1:2:0:0:
256,192,127719,12,8,130883,2:0:0:0:
268,71,131351,6,0,B|374:135|406:274|406:274|280:352|106:278|106:278|181:210|310:217,1,755.999976928712,2|0,1:2|2:0,2:0:0:0:
282,216,133226,1,2,2:0:0:0:
467,20,134398,6,0,P|464:85|485:152,2,107.999996704102,2|2|2,2:0|2:0|2:0,2:0:0:0:
370,23,134984,1,2,2:0:0:0:
370,23,135101,6,0,P|309:59|215:79,2,144,4|2|8,1:0|2:0|2:0,2:0:0:0:
386,121,135805,1,2,2:0:0:0:
472,224,136039,1,2,1:2:0:0:
415,326,136273,1,2,2:0:0:0:
305,288,136508,1,10,2:0:0:0:
205,342,136742,1,2,2:0:0:0:
120,239,136976,6,0,B|222:266|250:158|359:205,2,242.999992584229,2|2|2,1:0|1:0|1:0,2:0:0:0:
120,239,138148,1,2,2:0:0:0:
21,153,138383,2,0,P|17:110|26:68,1,72,10|0,2:0|2:0,2:0:0:0:
74,9,138617,1,2,2:0:0:0:
74,9,138734,2,0,P|143:6|231:32,1,144,2|0,2:0|2:0,2:0:0:0:
171,126,139086,2,0,P|143:153|167:111,1,144,2|8,2:0|2:0,2:0:0:0:
303,15,139555,5,2,2:0:0:0:
438,66,139789,1,2,1:2:0:0:
303,117,140023,1,2,2:0:0:0:
438,168,140258,1,10,2:0:0:0:
501,284,140492,1,2,2:0:0:0:
379,367,140726,6,0,B|422:265|314:237|341:135,2,242.999992584229,2|2|2,1:0|1:0|1:0,2:0:0:0:
379,367,141898,2,0,P|337:366|293:358,1,72,2|0,2:0|2:0,2:0:0:0:
214,339,142133,1,10,2:0:0:0:
71,349,142367,1,2,2:0:0:0:
71,349,142484,2,0,P|82:278|58:211,1,144,2|0,2:0|2:0,2:0:0:0:
201,201,142836,2,0,P|189:271|213:338,1,144,2|8,2:0|2:0,2:0:0:0:
127,137,143305,5,2,2:0:0:0:
17,73,143539,1,2,1:2:0:0:
122,5,143773,1,2,2:0:0:0:
230,60,144008,1,10,2:0:0:0:
127,137,144242,2,0,P|166:148|209:150,1,72,2|0,2:0|2:0,2:0:0:0:
289,141,144476,6,0,B|316:243|208:271|255:380,2,242.999992584229,2|2|2,1:0|1:0|1:0,2:0:0:0:
289,141,145648,2,0,P|338:138|380:122,1,72,2|0,2:0|2:0,2:0:0:0:
459,92,145883,1,10,2:0:0:0:
350,18,146117,1,2,2:0:0:0:
350,18,146234,2,0,P|372:110|419:233,1,216,2|2,2:0|2:0,2:0:0:0:
505,334,146820,5,10,2:0:0:0:
381,353,147055,1,2,2:0:0:0:
381,353,147172,2,0,P|309:353|221:333,1,144,2|0,2:0|2:0,2:0:0:0:
167,383,147523,1,2,2:0:0:0:
19,346,147758,1,10,2:0:0:0:
19,346,147875,2,0,P|26:293|26:257,1,72,2|0,2:0|2:0,2:0:0:0:
23,177,148109,1,2,2:0:0:0:
23,177,148226,6,0,P|113:153|262:144,2,216,2|2|2,1:2|2:0|2:0,2:0:0:0:
283,70,149398,2,0,P|309:101|319:137,1,72,2|0,2:0|2:0,2:0:0:0:
293,209,149633,1,10,2:0:0:0:
153,238,149867,1,2,2:0:0:0:
153,238,149984,2,0,P|131:165|120:75,1,144,2|0,2:0|2:0,2:0:0:0:
29,196,150336,2,0,P|51:269|62:359,1,144,2|8,2:0|2:0,2:0:0:0:
60,335,150805,5,2,2:0:0:0:
201,361,151039,1,2,1:2:0:0:
342,335,151273,1,2,2:0:0:0:
483,361,151508,1,10,2:0:0:0:
433,241,151742,1,2,2:0:0:0:
511,122,151976,6,0,B|433:45|331:167|244:40,2,242.999992584229,2|2|2,1:0|1:0|1:0,2:0:0:0:
195,58,153148,2,0,P|194:99|207:151,1,72,2|0,2:0|2:0,2:0:0:0:
266,177,153383,1,10,2:0:0:0:
104,110,153617,1,2,2:0:0:0:
104,110,153734,2,0,P|68:43|5:-6,1,144,2|0,2:0|2:0,2:0:0:0:
1,16,154086,2,0,P|61:15|141:-13,1,144,2|8,0:0|0:0,0:0:0:0:
7,107,154555,5,2,0:0:0:0:
20,251,154789,1,2,1:2:0:0:
147,193,155023,1,2,2:0:0:0:
134,337,155257,1,10,2:0:0:0:
261,273,155492,1,2,2:0:0:0:
288,144,155726,6,0,B|411:135|375:19|504:9,2,242.999992584229,2|2|2,1:0|1:0|1:0,2:0:0:0:
489,173,156898,2,0,P|493:127|488:87,1,72,2|0,2:0|2:0,2:0:0:0:
481,12,157133,1,10,2:0:0:0:
302,40,157367,1,2,2:0:0:0:
302,40,157484,2,0,P|346:108|415:130,1,144,2|0,2:0|2:0,2:0:0:0:
315,232,157836,2,0,P|271:164|202:142,1,144,2|8,2:0|2:0,2:0:0:0:
32,153,158305,5,2,2:0:0:0:
101,295,158539,2,0,P|120:257|127:206,1,72,2|0,1:2|2:0,2:0:0:0:
124,135,158773,1,2,2:0:0:0:
246,166,159008,2,0,P|227:204|220:255,1,72,10|0,2:0|2:0,2:0:0:0:
223,326,159242,1,2,2:0:0:0:
422,314,159476,6,0,B|306:312|353:162|214:163,2,242.999992584229,2|2|2,1:0|1:0|1:0,2:0:0:0:
431,64,160648,2,0,P|450:102|453:142,1,72,2|0,2:0|2:0,2:0:0:0:
432,221,160883,1,10,2:0:0:0:
432,221,161000,1,2,2:0:0:0:
293,62,161234,2,0,P|341:172|252:196,1,216,2|2,2:0|2:0,2:0:0:0:
278,202,161820,5,10,2:0:0:0:
278,202,161937,1,2,2:0:0:0:
155,134,162172,2,0,P|73:177|0:311,1,216,2|2,2:0|2:0,2:0:0:0:
6,278,162758,1,10,2:0:0:0:
6,278,162875,1,2,2:0:0:0:
256,192,163226,12,2,164164,2:0:0:0:
256,192,164281,12,4,165101,1:0:0:0:
190,118,180101,5,2,2:0:0:0:
190,118,180570,2,0,P|150:168|86:199,2,125.999996154785,2|2|2,2:0|2:0|2:0,2:0:0:0:
190,118,181976,1,2,2:0:0:0:
357,175,182445,2,0,P|334:116|339:44,2,125.999996154785,2|2|2,2:0|2:0|2:0,2:0:0:0:
357,175,183851,1,2,2:0:0:0:
223,291,184320,2,0,P|286:301|346:340,2,125.999996154785,2|2|2,2:0|2:0|2:0,2:0:0:0:
256,192,185726,5,2,2:0:0:0:
256,192,186664,1,2,2:0:0:0:
256,192,187601,1,2,2:0:0:0:
256,192,187719,12,0,190414,2:0:0:0:
256,192,191117,5,2,2:0:0:0:
256,192,191351,1,2,2:0:0:0:
256,192,191469,12,2,193226,2:0:0:0:
444,266,194398,6,0,P|451:213|467:166,2,90,2|2|2,2:0|2:0|2:0,2:0:0:0:
343,252,194984,2,0,P|368:187|371:93,1,135,2|2,2:0|2:0,2:0:0:0:
68,266,201898,6,0,P|61:213|45:166,2,90,2|2|2,2:0|2:0|2:0,2:0:0:0:
169,252,202484,2,0,P|144:187|141:93,1,135,2|2,2:0|2:0,2:0:0:0:
138,122,203070,1,8,2:0:0:0:
237,12,203422,2,0,P|284:15|328:23,1,90,2|2,2:0|2:0,2:0:0:0:
417,114,203891,2,0,P|464:111|508:103,1,90,2|2,2:0|2:0,2:0:0:0:
497,231,204359,1,2,2:0:0:0:
497,231,204476,5,2,1:2:0:0:
462,345,204711,1,2,2:0:0:0:
346,325,204945,1,10,2:0:0:0:
346,325,205297,2,0,P|345:272|331:223,1,90,2|2,2:0|2:0,2:0:0:0:
221,249,205766,2,0,P|222:302|236:351,1,90,2|2,2:0|2:0,2:0:0:0:
106,354,206234,1,2,2:0:0:0:
106,354,206351,6,0,P|106:299|90:254,2,90,2|2|10,1:2|2:0|2:0,2:0:0:0:
12,235,207172,2,0,P|12:180|28:135,1,90,2|2,2:0|2:0,2:0:0:0:
80,0,207641,2,0,P|91:43|90:88,1,90,2|2,2:0|2:0,2:0:0:0:
292,20,208109,1,2,2:0:0:0:
292,20,208226,6,0,P|327:12|348:10,1,45,12|0,2:0|2:0,2:0:0:0:
224,75,208461,1,0,2:0:0:0:
224,75,208578,2,0,P|189:83|168:85,1,45,12|0,2:0|1:0,2:0:0:0:
317,123,208812,1,0,1:0:0:0:
317,123,208929,2,0,P|352:131|373:133,1,45,12|0,2:0|1:0,2:0:0:0:
377,220,209164,2,0,P|410:206|428:196,1,45,2|0,1:2|1:0,2:0:0:0:
481,265,209398,2,0,P|500:234|509:215,1,45,2|0,1:2|1:0,2:0:0:0:
483,122,209633,5,10,2:0:0:0:
285,211,210101,6,0,P|203:232|99:234,1,161.999995056153,4|2,1:0|2:0,2:0:0:0:
137,363,210570,2,0,P|178:352|230:351,1,80.9999975280763,8|0,2:0|2:0,2:0:0:0:
304,350,210805,1,2,2:0:0:0:
449,373,211039,1,2,1:2:0:0:
413,250,211273,1,2,2:0:0:0:
449,127,211508,1,10,2:0:0:0:
413,4,211742,1,2,2:0:0:0:
323,140,211976,6,0,B|250:111|221:193|136:172,1,180,2|0,1:0|2:0,2:0:0:0:
109,252,212328,2,0,B|170:203|114:137|174:74,1,180,2|0,1:0|2:0,2:0:0:0:
119,10,212680,2,0,B|130:87|215:71|240:155,1,180,2|2,1:0|2:0,2:0:0:0:
295,225,213148,1,2,2:0:0:0:
235,350,213383,2,0,P|186:348|153:332,1,80.9999975280763,10|0,2:0|2:0,2:0:0:0:
109,252,213617,1,2,2:0:0:0:
109,252,213734,2,0,P|43:250|84:373,1,242.999992584229,2|2,2:0|2:0,2:0:0:0:
10,151,214555,5,2,2:0:0:0:
100,55,214789,1,2,1:2:0:0:
190,151,215023,1,2,2:0:0:0:
280,55,215258,1,10,2:0:0:0:
101,152,215492,1,2,2:0:0:0:
283,216,215726,6,0,B|374:236|325:328|422:348,1,180,2|0,1:0|2:0,2:0:0:0:
435,253,216078,2,0,B|395:202|484:160|440:81,1,180,2|0,1:0|2:0,2:0:0:0:
364,125,216430,2,0,B|285:91|332:27|246:0,1,180,2|2,1:0|2:0,2:0:0:0:
118,0,216898,1,2,2:0:0:0:
23,97,217133,2,0,P|55:126|110:140,1,80.9999975280763,10|0,2:0|2:0,2:0:0:0:
196,161,217367,1,2,2:0:0:0:
196,161,217484,2,0,P|161:211|45:237,1,161.999995056153,2|0,2:0|2:0,2:0:0:0:
0,288,217836,2,0,P|35:338|151:364,1,161.999995056153,2|8,2:0|2:0,2:0:0:0:
286,345,218305,5,2,2:0:0:0:
416,311,218539,1,2,1:2:0:0:
320,222,218773,1,2,2:0:0:0:
449,187,219008,2,0,P|448:142|435:99,1,80.9999975280763,10|0,2:0|2:0,2:0:0:0:
333,33,219242,2,0,P|334:78|347:121,1,80.9999975280763,2|0,2:0|2:0,2:0:0:0:
320,222,219476,6,0,B|247:251|218:169|133:190,1,180,2|0,1:0|2:0,2:0:0:0:
106,110,219828,2,0,B|167:158|111:224|171:287,1,180,2|0,1:0|2:0,2:0:0:0:
116,352,220180,2,0,B|127:274|212:290|237:206,1,180,2|2,1:0|2:0,2:0:0:0:
196,45,220648,2,0,P|231:19|268:8,1,80.9999975280763,2|0,2:0|2:0,2:0:0:0:
364,6,220883,1,10,2:0:0:0:
383,119,221117,1,2,2:0:0:0:
383,119,221234,2,0,P|294:136|196:125,1,161.999995056153,2|0,2:0|2:0,2:0:0:0:
137,120,221586,6,0,P|128:169|107:212,1,80.9999975280763,2|0,2:0|2:0,2:0:0:0:
58,266,221820,1,10,2:0:0:0:
149,371,222055,1,2,2:0:0:0:
149,371,222172,2,0,P|179:275|239:195,1,161.999995056153,2|0,2:0|2:0,2:0:0:0:
297,222,222523,1,2,2:0:0:0:
412,291,222758,1,10,2:0:0:0:
412,291,222875,2,0,P|400:238|404:193,1,80.9999975280763,2|0,2:0|2:0,2:0:0:0:
489,182,223109,1,2,2:0:0:0:
489,182,223226,6,0,P|490:83|363:8,2,242.999992584229,2|2|2,1:2|2:0|2:0,2:0:0:0:
437,381,224398,2,0,P|393:376|351:363,1,80.9999975280763,2|0,2:0|2:0,2:0:0:0:
282,321,224633,1,10,2:0:0:0:
155,233,224867,1,2,2:0:0:0:
155,233,224984,2,0,P|114:237|-3:281,1,161.999995056153,2|0,2:0|2:0,2:0:0:0:
32,370,225336,2,0,P|72:365|190:322,1,161.999995056153,2|8,2:0|2:0,2:0:0:0:
317,153,225805,6,0,P|317:189|312:233,1,80.9999975280763,2|0,2:0|2:0,2:0:0:0:
282,321,226039,1,2,1:2:0:0:
224,168,226273,2,0,P|224:132|229:88,1,80.9999975280763,2|0,2:0|2:0,2:0:0:0:
259,0,226507,1,10,2:0:0:0:
128,99,226742,1,2,2:0:0:0:
329,65,226976,6,0,B|421:68|387:168|504:164,1,180,2|0,1:0|2:0,2:0:0:0:
463,250,227328,2,0,B|371:253|405:353|288:349,1,180,2|0,1:0|2:0,2:0:0:0:
230,346,227680,2,0,B|138:343|172:243|55:247,1,180,2|2,1:0|2:0,2:0:0:0:
16,79,228148,1,2,2:0:0:0:
83,146,228383,2,0,P|43:169|3:174,1,80.9999975280763,10|0,2:0|2:0,2:0:0:0:
169,186,228617,1,2,2:0:0:0:
169,186,228734,2,0,P|209:209|299:148,1,161.999995056153,2|0,2:0|2:0,2:0:0:0:
346,84,229086,2,0,P|386:61|476:122,1,161.999995056153,2|8,2:0|2:0,2:0:0:0:
254,74,229555,5,2,2:0:0:0:
383,172,229789,2,0,P|403:214|409:272,1,80.9999975280763,2|0,1:2|2:0,2:0:0:0:
402,333,230023,1,2,2:0:0:0:
188,347,230258,2,0,P|168:305|162:247,1,80.9999975280763,10|0,2:0|2:0,2:0:0:0:
169,186,230492,1,2,2:0:0:0:
328,132,230726,6,0,B|255:161|226:79|141:100,1,180,2|0,1:0|2:0,2:0:0:0:
114,20,231078,2,0,B|175:69|119:135|179:198,1,180,2|0,1:0|2:0,2:0:0:0:
124,262,231430,2,0,B|135:185|220:201|245:117,1,180,2|2,1:0|2:0,2:0:0:0:
283,0,231898,1,2,2:0:0:0:
432,31,232133,2,0,P|466:56|490:101,1,80.9999975280763,10|0,2:0|2:0,2:0:0:0:
492,182,232367,1,2,2:0:0:0:
492,182,232484,2,0,P|409:185|405:116,1,161.999995056153,2|0,2:0|2:0,2:0:0:0:
334,234,232836,2,0,P|417:231|421:300,1,161.999995056153,2|8,2:0|2:0,2:0:0:0:
313,379,233305,5,2,2:0:0:0:
188,299,233539,1,2,1:2:0:0:
56,360,233773,1,2,2:0:0:0:
12,224,234008,2,0,P|12:176|21:134,1,80.9999975280763,10|0,2:0|2:0,2:0:0:0:
127,149,234242,2,0,P|127:197|118:239,1,80.9999975280763,2|0,2:0|2:0,2:0:0:0:
80,67,234476,6,0,B|188:71|164:7|290:26,1,180,2|0,1:0|2:0,2:0:0:0:
244,114,234828,2,0,B|331:98|307:162|415:158,1,180,2|0,1:0|2:0,2:0:0:0:
471,239,235180,2,0,B|363:235|387:299|261:280,1,180,2|2,1:0|2:0,2:0:0:0:
146,372,235648,1,2,2:0:0:0:
207,289,235883,1,10,2:0:0:0:
207,289,236000,2,0,P|197:235|172:194,1,80.9999975280763,2|0,2:0|2:0,2:0:0:0:
98,182,236234,2,0,P|108:128|214:147,1,161.999995056153,2|0,2:0|2:0,2:0:0:0:
265,177,236586,5,2,2:0:0:0:
233,34,236820,1,10,2:0:0:0:
233,34,236937,2,0,P|282:19|323:18,1,80.9999975280763,2|0,2:0|2:0,2:0:0:0:
409,30,237172,2,0,P|443:127|490:39,1,242.999992584229,2|2,2:0|2:0,2:0:0:0:
496,50,237758,1,10,2:0:0:0:
496,50,237875,1,2,2:0:0:0:
256,192,238226,12,2,239164,2:0:0:0:
256,192,239281,12,4,240101,1:0:0:0:
