osu file format v14

[General]
AudioFilename: audio.mp3
AudioLeadIn: 0
PreviewTime: 100782
Countdown: 0
SampleSet: Soft
StackLeniency: 0.4
Mode: 0
LetterboxInBreaks: 0
WidescreenStoryboard: 0

[Editor]
Bookmarks: 45055,191392,215287,265520,287845,317845,318543,319939,321334,322032,332497,350636,363194,368776,384125,388136,388311,400869,406450
DistanceSpacing: 1.4
BeatDivisor: 4
GridSize: 32
TimelineZoom: 1.699999

[Metadata]
Title:Chronologue
TitleUnicode:Chronologue
Artist:La priere
ArtistUnicode:La prière
Creator:gazimal
Version:Song for
Source:
Tags:jpop pop j-pop japanese aitsuki nakuru natsume itsuki nayuta 藍月なくる 棗いつき なゆた
BeatmapID:3777051
BeatmapSetID:1839149

[Difficulty]
HPDrainRate:5
CircleSize:4
OverallDifficulty:9
ApproachRate:9.4
SliderMultiplier:1.8
SliderTickRate:1

[Events]
//Background and Video events
0,0,"xo02xrg.jpeg",0,0
//Break Periods
2,265520,286995
//Storyboard Layer 0 (Background)
//Storyboard Layer 1 (Fail)
//Storyboard Layer 2 (Pass)
//Storyboard Layer 3 (Foreground)
//Storyboard Layer 4 (Overlay)
//Storyboard Sound Samples

[TimingPoints]
1102,428.571428571429,4,2,1,20,1,0
1102,-200,4,2,1,20,0,0
4423,-200,4,2,1,5,0,0
4530,-200,4,2,1,20,0,0
7959,-142.857142857143,4,2,1,20,0,0
11387,-250.000000000001,4,2,1,20,0,0
12673,468.75,4,2,1,20,1,0
12673,-250,4,2,1,20,0,0
13141,521.739130434783,4,2,1,20,1,0
13141,-200,4,2,1,20,0,0
14706,461.538461538461,4,2,1,20,1,0
15629,1090.90909090909,4,2,1,20,1,0
15629,-125,4,2,1,20,0,0
17265,1348.31460674157,4,2,1,20,1,0
19961,348.837209302326,4,2,1,50,1,0
19961,-200,4,2,1,50,0,0
21269,-200,4,2,1,5,0,0
21356,-200,4,2,1,50,0,0
24059,-200,4,2,1,5,0,0
24147,-200,4,2,1,50,0,0
26850,-200,4,2,1,5,0,0
26937,-200,4,2,1,50,0,0
29641,-200,4,2,1,5,0,0
29728,-142.857142857143,4,2,1,50,0,0
30774,-111.111111111111,4,2,1,50,0,0
31036,-200,4,2,1,5,0,0
31123,-111.111111111111,4,2,1,60,0,0
31734,-83.3333333333333,4,2,1,5,0,0
31821,-111.111111111111,4,2,1,60,0,0
32170,-83.3333333333333,4,2,1,60,0,0
32431,-83.3333333333333,4,2,1,5,0,0
32519,-83.3333333333333,4,2,1,60,0,0
33565,-125,4,2,1,60,0,0
35222,-83.3333333333333,4,2,1,5,0,0
35309,-125,4,2,1,60,0,0
36705,-125,4,2,1,65,0,0
40193,-100,4,2,1,65,0,0
40542,-100,4,2,1,65,0,0
40804,-83.3333333333333,4,2,1,5,0,0
40891,-100,4,2,1,65,0,0
45077,-100,4,2,1,50,0,0
47867,-100,4,2,1,55,0,0
48914,-125,4,2,1,55,0,0
49176,-83.3333333333333,4,2,1,5,0,0
49263,-125,4,2,1,55,0,0
51966,-83.3333333333333,4,2,1,5,0,0
52054,-100,4,2,1,55,0,0
54495,-166.666666666667,4,2,1,55,0,0
54757,-83.3333333333333,4,2,1,5,0,0
54844,-125,4,2,1,55,0,0
56501,-83.3333333333333,4,2,1,5,0,0
56588,-125,4,2,1,55,0,0
57635,-100,4,2,1,55,0,0
58158,-125,4,2,1,55,0,0
59030,-100,4,2,1,60,0,0
60077,-83.3333333333333,4,2,1,60,0,0
60338,-83.3333333333333,4,2,1,5,0,0
60426,-100,4,2,1,60,0,0
60687,-83.3333333333333,4,2,1,5,0,0
60774,-100,4,2,1,60,0,0
63478,-83.3333333333333,4,2,1,5,0,0
63565,-100,4,2,1,60,0,0
64873,-83.3333333333333,4,2,1,5,0,0
64961,-100,4,2,1,60,0,0
67054,-200,4,2,1,60,0,0
67315,-83.3333333333333,4,2,1,5,0,0
67402,-100,4,2,1,60,0,0
67664,-83.3333333333333,4,2,1,5,0,0
67751,-100,4,2,1,60,0,0
68798,-125,4,2,1,60,0,0
70193,-125,4,2,1,55,0,0
70542,-76.9230769230769,4,2,1,55,0,0
71240,-166.666666666667,4,2,1,55,0,0
72984,-83.3333333333333,4,2,1,60,0,0
73420,-83.3333333333333,4,2,1,5,0,0
73507,-83.3333333333333,4,2,1,60,0,0
73681,-166.666666666667,4,2,1,60,0,0
74030,-83.3333333333333,4,2,1,60,0,0
74466,-83.3333333333333,4,2,1,5,0,0
74554,-166.666666666667,4,2,1,60,0,0
75426,-100,4,2,1,60,0,0
75774,-100,4,2,1,55,0,0
75949,-125,4,2,1,55,0,0
76123,-76.9230769230769,4,2,1,55,0,0
76821,-166.666666666667,4,2,1,55,0,0
78565,-83.3333333333333,4,2,1,60,0,0
79001,-83.3333333333333,4,2,1,5,0,0
79088,-83.3333333333333,4,2,1,60,0,0
79263,-166.666666666667,4,2,1,60,0,0
79612,-83.3333333333333,4,2,1,60,0,0
80048,-83.3333333333333,4,2,1,5,0,0
80135,-166.666666666667,4,2,1,60,0,0
80658,-100,4,2,1,60,0,0
81356,-83.3333333333333,4,2,1,60,0,0
81617,-83.3333333333333,4,2,1,5,0,0
81705,-100,4,2,1,60,0,0
81879,-100,4,2,1,55,0,0
84408,-83.3333333333333,4,2,1,5,0,0
84495,-100,4,2,1,55,0,0
88158,-83.3333333333333,4,2,1,55,0,0
88681,-125,4,2,1,55,0,0
89728,-500,4,2,1,55,0,0
90949,-500,4,2,1,60,0,0
91123,-125,4,2,1,60,0,0
91385,-83.3333333333333,4,2,1,5,0,0
91472,-125,4,2,1,60,0,0
92519,-83.3333333333333,4,2,1,65,0,0
92780,-83.3333333333333,4,2,1,5,0,0
92867,-83.3333333333333,4,2,1,65,0,0
93042,-100,4,2,1,65,0,0
95309,-90.9090909090909,4,2,1,70,0,0
96356,-500,4,2,1,70,0,0
96617,-83.3333333333333,4,2,1,5,0,0
96705,-90.9090909090909,4,2,1,70,0,0
97402,-66.6666666666667,4,2,1,70,0,0
97664,-83.3333333333333,4,2,1,5,0,0
97751,-66.6666666666667,4,2,1,70,0,0
98013,-83.3333333333333,4,2,1,5,0,0
98100,-66.6666666666667,4,2,1,70,0,0
100891,-66.6666666666667,4,2,1,60,0,0
105077,-111.111111111111,4,2,1,60,0,0
106472,-125,4,2,1,60,0,0
107170,-100,4,2,1,60,0,0
111356,-125,4,2,1,60,0,0
111966,-83.3333333333333,4,2,1,5,0,0
112054,-125,4,2,1,60,0,0
116240,-100,4,2,1,60,0,0
120426,-125,4,2,1,60,0,0
122867,-125,4,2,1,65,0,0
123216,-71.4285714285714,4,2,1,70,0,0
123478,-83.3333333333333,4,2,1,5,0,0
123565,-83.3333333333333,4,2,1,70,0,0
127054,-200,4,2,1,70,0,0
127402,-83.3333333333333,4,2,1,70,0,0
128798,-83.3333333333333,4,2,1,70,0,0
130716,-71.4285714285714,4,2,1,70,0,0
131240,-83.3333333333333,4,2,1,70,0,0
131588,-71.4285714285714,4,2,1,70,0,0
131937,-100,4,2,1,70,0,0
133943,-83.3333333333333,4,2,1,5,0,0
134030,-100,4,2,1,70,0,0
134379,-71.4285714285714,4,2,1,70,0,0
135077,-83.3333333333333,4,2,1,70,0,0
135426,-125,4,2,1,70,0,0
137170,-71.4285714285714,4,2,1,70,0,0
137431,-83.3333333333333,4,2,1,5,0,0
137519,-71.4285714285714,4,2,1,70,0,0
138216,-100,4,2,1,70,0,0
138391,-83.3333333333333,4,2,1,70,0,0
138740,-142.857142857143,4,2,1,70,0,0
138914,-76.923076923077,4,2,1,70,0,0
139263,-125,4,2,1,70,0,0
139961,-125,4,2,1,60,0,0
140222,-83.3333333333333,4,2,1,5,0,0
140309,-125,4,2,1,60,0,0
142664,-83.3333333333333,4,2,1,5,0,0
142751,-125,4,2,1,60,0,0
144059,-83.3333333333333,4,2,1,5,0,0
144147,-125,4,2,1,60,0,0
144495,-83.3333333333333,4,2,1,60,0,0
146065,-500,4,2,1,45,0,0
146501,-83.3333333333333,4,2,1,5,0,0
146588,-90.9090909090909,4,2,1,60,0,0
146850,-83.3333333333333,4,2,1,5,0,0
146937,-90.9090909090909,4,2,1,60,0,0
147199,-83.3333333333333,4,2,1,5,0,0
147286,-90.9090909090909,4,2,1,60,0,0
147461,-111.111111111111,4,2,1,60,0,0
148594,-83.3333333333333,4,2,1,5,0,0
148681,-111.111111111111,4,2,1,60,0,0
149117,-83.3333333333333,4,2,1,5,0,0
149205,-111.111111111111,4,2,1,60,0,0
150251,-100,4,2,1,60,0,0
151385,-83.3333333333333,4,2,1,5,0,0
151472,-100,4,2,1,60,0,0
152519,-125,4,2,1,60,0,0
152780,-83.3333333333333,4,2,1,5,0,0
152867,-125,4,2,1,60,0,0
153914,-100,4,2,1,60,0,0
154176,-83.3333333333333,4,2,1,5,0,0
154263,-100,4,2,1,60,0,0
154961,-125,4,2,1,60,0,0
155571,-83.3333333333333,4,2,1,5,0,0
155658,-125,4,2,1,60,0,0
159495,-83.3333333333333,4,2,1,60,0,0
159757,-83.3333333333333,4,2,1,5,0,0
159844,-125,4,2,1,60,0,0
160019,-83.3333333333333,4,2,1,60,0,0
160542,-100,4,2,1,60,0,0
162286,-125,4,2,1,55,0,0
163681,-90.9090909090909,4,2,1,55,0,0
164205,-166.666666666667,4,2,1,55,0,0
165077,-83.3333333333333,4,2,1,60,0,0
165600,-166.666666666667,4,2,1,60,0,0
166123,-83.3333333333333,4,2,1,60,0,0
166647,-166.666666666667,4,2,1,60,0,0
167170,-90.9090909090909,4,2,1,60,0,0
167519,-166.666666666667,4,2,1,60,0,0
167867,-125,4,2,1,55,0,0
169176,-83.3333333333333,4,2,1,5,0,0
169263,-125,4,2,1,55,0,0
169524,-83.3333333333333,4,2,1,5,0,0
169612,-125,4,2,1,55,0,0
170658,-83.3333333333333,4,2,1,60,0,0
172751,-125,4,2,1,60,0,0
173449,-83.3333333333333,4,2,1,60,0,0
174147,-125,4,2,1,60,0,0
174321,-100,4,2,1,60,0,0
174670,-83.3333333333333,4,2,1,60,0,0
175367,-100,4,2,1,60,0,0
177461,-83.3333333333333,4,2,1,60,0,0
177722,-83.3333333333333,4,2,1,5,0,0
177809,-125,4,2,1,60,0,0
178681,-166.666666666667,4,2,1,60,0,0
179030,-83.3333333333333,4,2,1,60,0,0
179292,-83.3333333333333,4,2,1,5,0,0
179379,-83.3333333333333,4,2,1,60,0,0
179554,-125,4,2,1,60,0,0
180251,-83.3333333333333,4,2,1,60,0,0
180774,-100,4,2,1,60,0,0
181821,-100,4,2,1,55,0,0
182083,-83.3333333333333,4,2,1,5,0,0
182170,-100,4,2,1,55,0,0
182344,-125,4,2,1,55,0,0
183042,-125,4,2,1,60,0,0
184612,-100,4,2,1,65,0,0
184873,-83.3333333333333,4,2,1,5,0,0
184961,-100,4,2,1,65,0,0
187402,-71.4285714285714,4,2,1,70,0,0
189495,-83.3333333333333,4,2,1,70,0,0
189757,-83.3333333333333,4,2,1,5,0,0
189844,-100,4,2,1,70,0,0
190106,-83.3333333333333,4,2,1,5,0,0
190193,-125,4,2,1,70,0,0
191501,-83.3333333333333,4,2,1,5,0,0
191588,-333.333333333333,4,2,1,50,0,0
192635,-333.333333333333,4,2,1,60,0,0
192984,-83.3333333333333,4,2,1,70,0,0
197170,-125,4,2,1,75,0,0
197519,-400,4,2,1,75,0,0
197780,-83.3333333333333,4,2,1,5,0,0
197867,-400,4,2,1,75,0,0
198565,-76.9230769230769,4,2,1,80,0,0
199612,-83.3333333333333,4,2,1,80,0,0
200484,-100,4,2,1,80,0,0
201181,-83.3333333333333,4,2,1,80,0,0
203449,-100,4,2,1,80,0,0
203798,-200,4,2,1,80,0,0
204147,-76.9230769230769,4,2,1,80,0,0
204670,-100,4,2,1,80,0,0
204844,-83.3333333333333,4,2,1,80,0,0
206588,-100,4,2,1,80,0,0
206937,-83.3333333333333,4,2,1,80,0,0
207461,-100,4,2,1,80,0,0
207635,-83.3333333333333,4,2,1,80,0,0
209728,-76.9230769230769,4,2,1,80,0,0
211385,-83.3333333333333,4,2,1,5,0,0
211472,-76.9230769230769,4,2,1,80,0,0
211821,-100,4,2,1,80,0,0
212170,-200,4,2,1,80,0,0
213565,-100,4,2,1,80,0,0
215309,-100,4,2,1,70,0,0
215571,-83.3333333333333,4,2,1,5,0,0
215658,-100,4,2,1,70,0,0
215833,-125,4,2,1,70,0,0
218013,-83.3333333333333,4,2,1,5,0,0
218100,-111.111111111111,4,2,1,70,0,0
218623,-125,4,2,1,70,0,0
220891,-100,4,2,1,70,0,0
221152,-83.3333333333333,4,2,1,5,0,0
221240,-100,4,2,1,70,0,0
222286,-125,4,2,1,70,0,0
223681,-100,4,2,1,70,0,0
224728,-125,4,2,1,70,0,0
225077,-100,4,2,1,70,0,0
226123,-166.666666666667,4,2,1,70,0,0
226385,-83.3333333333333,4,2,1,5,0,0
226472,-100,4,2,1,65,0,0
226995,-125,4,2,1,65,0,0
229263,-100,4,2,1,65,0,0
229786,-125,4,2,1,65,0,0
230658,-100,4,2,1,65,0,0
232054,-83.3333333333333,4,2,1,65,0,0
232315,-83.3333333333333,4,2,1,5,0,0
232402,-83.3333333333333,4,2,1,60,0,0
232751,-125,4,2,1,60,0,0
233274,-166.666666666667,4,2,1,60,0,0
234844,-100,4,2,1,60,0,0
235106,-83.3333333333333,4,2,1,5,0,0
235193,-166.666666666667,4,2,1,60,0,0
236240,-83.3333333333333,4,2,1,60,0,0
236588,-125,4,2,1,60,0,0
236763,-125,4,2,1,60,0,0
237024,-83.3333333333333,4,2,1,5,0,0
237112,-125,4,2,1,60,0,0
237635,-100,4,2,1,60,0,0
238333,-166.666666666667,4,2,1,60,0,0
238507,-125,4,2,1,60,0,0
238856,-166.666666666667,4,2,1,60,0,0
239902,-125,4,2,1,60,0,0
240426,-100,4,2,1,60,0,0
241123,-125,4,2,1,60,0,0
241647,-166.666666666667,4,2,1,60,0,0
243216,-83.3333333333334,4,2,1,65,0,0
243478,-83.3333333333333,4,2,1,5,0,0
243565,-125,4,2,1,65,0,0
244437,-100,4,2,1,65,0,0
246356,-125,4,2,1,65,0,0
246530,-100,4,2,1,65,0,0
246879,-125,4,2,1,65,0,0
247054,-66.6666666666667,4,2,1,65,0,0
247490,-83.3333333333333,4,2,1,5,0,0
247577,-125,4,2,1,65,0,0
248798,-125,4,2,1,70,0,0
252112,-83.3333333333333,4,2,1,70,0,0
252461,-125,4,2,1,70,0,0
252809,-58.8235294117647,4,2,1,70,0,0
253071,-83.3333333333333,4,2,1,5,0,0
253158,-100,4,2,1,70,0,0
254030,-200,4,2,1,70,0,0
254379,-200,4,2,1,75,0,0
255774,-200,4,2,1,80,0,0
257170,-71.4285714285714,4,2,1,80,0,0
257431,-83.3333333333333,4,2,1,5,0,0
257519,-100,4,2,1,80,0,0
257693,-83.3333333333333,4,2,1,80,0,0
259176,-100,4,2,1,80,0,0
259961,-71.4285714285714,4,2,1,70,0,0
260222,-83.3333333333333,4,2,1,5,0,0
260309,-100,4,2,1,70,0,0
260833,-83.3333333333333,4,2,1,70,0,0
262228,-100,4,2,1,70,0,0
262751,-66.6666666666667,4,2,1,70,0,0
263013,-83.3333333333333,4,2,1,5,0,0
263100,-125,4,2,1,70,0,0
263972,-90.9090909090909,4,2,1,70,0,0
264670,-90.9090909090909,4,2,1,40,0,0
269030,-1000,4,2,1,40,0,0
287867,-200,4,2,1,55,0,0
289176,-83.3333333333333,4,2,1,5,0,0
289263,-142.857142857143,4,2,1,55,0,0
293449,-200,4,2,1,55,0,0
294757,-83.3333333333333,4,2,1,5,0,0
294844,-142.857142857143,4,2,1,55,0,0
299030,-125,4,2,1,55,0,0
299554,-142.857142857143,4,2,1,55,0,0
301821,-111.111111111111,4,2,1,55,0,0
302344,-142.857142857143,4,2,1,55,0,0
304263,-111.111111111111,4,2,1,55,0,0
304612,-111.111111111111,4,2,1,60,0,0
304873,-83.3333333333333,4,2,1,5,0,0
304961,-142.857142857143,4,2,1,60,0,0
306007,-111.111111111111,4,2,1,60,0,0
306269,-83.3333333333333,4,2,1,5,0,0
306356,-142.857142857143,4,2,1,60,0,0
306705,-111.111111111111,4,2,1,60,0,0
307054,-333.333333333332,4,2,1,60,0,0
307315,-83.3333333333333,4,2,1,5,0,0
307402,-76.9230769230769,4,2,1,65,0,0
307664,-83.3333333333333,4,2,1,5,0,0
307751,-76.9230769230769,4,2,1,65,0,0
309670,-76.9230769230769,4,2,1,65,0,0
310106,-83.3333333333333,4,2,1,5,0,0
310193,-90.9090909090909,4,2,1,65,0,0
311588,-100,4,2,1,65,0,0
312635,-333.333333333333,4,2,1,65,0,0
312897,-83.3333333333333,4,2,1,5,0,0
312984,-71.4285714285714,4,2,1,70,0,0
315077,-83.3333333333333,4,2,1,70,0,0
315338,-83.3333333333333,4,2,1,5,0,0
315426,-100,4,2,1,70,0,0
315687,-83.3333333333333,4,2,1,5,0,0
315774,-125,4,2,1,70,0,0
317867,-83.3333333333333,4,2,1,5,0,0
318565,-125,4,2,1,60,0,0
322054,-66.6666666666667,4,2,1,90,0,0
322112,-83.3333333333333,4,2,1,5,0,0
322286,-66.6666666666667,4,2,1,90,0,0
322344,-83.3333333333333,4,2,1,5,0,0
322519,-66.6666666666667,4,2,1,90,0,0
322577,-83.3333333333333,4,2,1,5,0,0
322751,-66.6666666666667,4,2,1,60,0,0
323100,-250,4,2,1,70,0,0
323187,-200,4,2,1,70,0,0
323274,-166.666666666667,4,2,1,70,0,0
323362,-142.857142857143,4,2,1,70,0,0
323449,-125,4,2,1,75,0,0
323536,-111.111111111111,4,2,1,75,0,0
323623,-100,4,2,1,75,0,0
323711,-90.9090909090909,4,2,1,75,0,0
323798,-83.3333333333333,4,2,1,80,0,0
323885,-76.9230769230769,4,2,1,80,0,0
323972,-71.4285714285714,4,2,1,80,0,0
324059,-66.6666666666667,4,2,1,80,0,0
324147,-66.6666666666667,4,2,1,85,0,0
324844,-83.3333333333333,4,2,1,85,0,0
325542,-76.9230769230769,4,2,1,85,0,0
325804,-83.3333333333333,4,2,1,5,0,0
325891,-83.3333333333333,4,2,1,85,0,0
329728,-83.3333333333333,4,2,1,90,0,0
332693,-100,4,2,1,90,0,0
332867,-125,4,2,1,90,0,0
333042,-166.666666666667,4,2,1,90,0,0
333304,-166.666666666667,4,2,1,80,0,0
333565,-166.666666666667,4,2,1,70,0,0
333914,-500,4,2,1,70,0,0
334176,-83.3333333333333,4,2,1,5,0,0
334263,-50,4,2,1,90,0,0
334524,-83.3333333333333,4,2,1,5,0,0
334612,-50,4,2,1,85,0,0
335309,-66.6666666666667,4,2,1,80,0,0
335571,-83.3333333333333,4,2,1,5,0,0
335658,-100,4,2,1,80,0,0
337751,-303.030303030303,4,2,1,80,0,0
338013,-83.3333333333333,4,2,1,5,0,0
338100,-83.3333333333333,4,2,1,80,0,0
339495,-66.6666666666667,4,2,1,80,0,0
339844,-100,4,2,1,80,0,0
340891,-66.6666666666667,4,2,1,85,0,0
341152,-83.3333333333333,4,2,1,5,0,0
341240,-66.6666666666667,4,2,1,85,0,0
342286,-100,4,2,1,85,0,0
343681,-76.9230769230769,4,2,1,85,0,0
343943,-83.3333333333333,4,2,1,5,0,0
344030,-100,4,2,1,85,0,0
344554,-83.3333333333333,4,2,1,85,0,0
345077,-66.6666666666667,4,2,1,85,0,0
345338,-83.3333333333333,4,2,1,5,0,0
345426,-66.6666666666667,4,2,1,85,0,0
345687,-83.3333333333333,4,2,1,5,0,0
345774,-66.6666666666667,4,2,1,85,0,0
346472,-500,4,2,1,75,0,0
346734,-83.3333333333333,4,2,1,5,0,0
346821,-52.6315789473684,4,2,1,85,0,0
347083,-83.3333333333333,4,2,1,5,0,0
347170,-125,4,2,1,70,0,0
347519,-52.6315789473684,4,2,1,85,0,0
347780,-83.3333333333333,4,2,1,5,0,0
347867,-500,4,2,1,70,0,0
348129,-83.3333333333333,4,2,1,5,0,0
348216,-52.6315789473684,4,2,1,85,0,0
348478,-83.3333333333333,4,2,1,5,0,0
348565,-200,4,2,1,70,0,0
348914,-52.6315789473684,4,2,1,85,0,0
349176,-83.3333333333333,4,2,1,5,0,0
349263,-142.857142857143,4,2,1,70,0,0
349524,-83.3333333333333,4,2,1,5,0,0
349612,-52.6315789473684,4,2,1,85,0,0
349873,-83.3333333333333,4,2,1,5,0,0
349961,-52.6315789473684,4,2,1,85,0,0
352054,-66.6666666666667,4,2,1,85,0,0
352315,-83.3333333333333,4,2,1,5,0,0
352402,-66.6666666666667,4,2,1,75,0,0
352577,-83.3333333333333,4,2,1,75,0,0
353711,-83.3333333333333,4,2,1,5,0,0
353798,-83.3333333333333,4,2,1,75,0,0
356240,-71.4285714285714,4,2,1,75,0,0
356501,-71.4285714285714,4,2,1,5,0,0
356588,-71.4285714285714,4,2,1,75,0,0
359030,-83.3333333333333,4,2,1,75,0,0
360426,-71.4285714285714,4,2,1,75,0,0
360687,-83.3333333333333,4,2,1,5,0,0
360774,-83.3333333333333,4,2,1,75,0,0
361472,-100,4,2,1,75,0,0
361647,-58.8235294117647,4,2,1,75,0,0
361908,-83.3333333333333,4,2,1,5,0,0
361995,-125,4,2,1,75,0,0
362170,-100,4,2,1,75,0,0
362519,-58.8235294117647,4,2,1,75,0,0
362867,-100,4,2,1,75,0,0
363216,-66.6666666666667,4,2,1,80,0,0
363914,-100,4,2,1,80,0,0
364612,-66.6666666666667,4,2,1,80,0,0
364873,-125,4,2,1,80,0,0
366007,-76.9230769230769,4,2,1,80,0,0
367054,-100,4,2,1,80,0,0
367402,-76.9230769230769,4,2,1,80,0,0
367664,-100,4,2,1,80,0,0
367926,-125,4,2,1,80,0,0
368100,-166.666666666667,4,2,1,80,0,0
368274,-250.000000000001,4,2,1,80,0,0
368798,-71.4285714285714,4,2,1,80,0,0
369147,-100,4,2,1,80,0,0
369321,-83.3333333333333,4,2,1,80,0,0
369844,-100,4,2,1,80,0,0
374030,-250,4,2,1,80,0,0
374292,-83.3333333333333,4,2,1,5,0,0
374379,-66.6666666666667,4,2,1,85,0,0
374641,-83.3333333333333,4,2,1,5,0,0
374728,-66.6666666666667,4,2,1,85,0,0
375251,-83.3333333333333,4,2,1,85,0,0
377170,-58.8235294117647,4,2,1,85,0,0
377431,-83.3333333333333,4,2,1,5,0,0
377519,-100,4,2,1,85,0,0
378391,-71.4285714285714,4,2,1,85,0,0
378914,-83.3333333333333,4,2,1,85,0,0
380309,-58.8235294117647,4,2,1,85,0,0
380571,-83.3333333333333,4,2,1,5,0,0
380658,-100,4,2,1,85,0,0
381181,-62.5,4,2,1,85,0,0
381705,-303.030303030303,4,2,1,85,0,0
381966,-83.3333333333333,4,2,1,5,0,0
382054,-100,4,2,1,85,0,0
382577,-66.6666666666667,4,2,1,85,0,0
383449,-100,4,2,1,85,0,0
384147,-142.857142857143,4,2,1,85,0,0
388216,-142.857142857143,4,2,1,40,0,0
389728,-66.6666666666667,4,2,1,70,0,0
392519,-100,4,2,1,70,0,0
393740,-83.3333333333333,4,2,1,5,0,0
393798,-200,4,2,1,40,0,0
395309,-142.857142857143,4,2,1,55,0,0
396617,-83.3333333333333,4,2,1,5,0,0
396705,-200,4,2,1,45,0,0
399495,-500,4,2,1,45,0,0
400891,-166.666666666667,4,2,1,45,0,0
406472,-83.3333333333333,4,2,1,5,0,0

[Colours]
Combo1 : 226,226,226
Combo2 : 248,223,7
Combo3 : 255,128,255
Combo4 : 3,202,252

[HitObjects]
366,101,1102,6,0,B|342:59|381:31|381:31|374:66|386:87,1,135,2|0,0:0|0:0,0:0:0:0:
320,191,1959,2,0,B|295:232|251:213|251:213|285:201|297:180,1,135,2|0,0:0|0:0,0:0:0:0:
422,186,2816,2,0,B|470:186|475:233|475:233|448:210|424:210,1,135,2|0,0:0|0:0,0:0:0:0:
236,138,3673,2,0,P|216:125|190:119,1,45,2|0,0:0|0:0,0:0:0:0:
108,79,4102,2,0,P|143:61|159:30,1,67.5,2|0,0:0|0:0,0:0:0:0:
3,115,4530,38,0,P|51:160|84:237,1,135,2|0,0:0|0:0,0:0:0:0:
80,221,5387,1,2,0:0:0:0:
61,341,6030,5,2,0:0:0:0:
61,341,6244,2,0,P|105:327|168:318,2,90,2|0|2,0:0|0:0|0:0,0:0:0:0:
61,341,7530,1,2,0:0:0:0:
212,243,7852,37,2,0:0:0:0:
212,243,7959,2,0,B|238:205|289:212|313:240|313:240|327:287|374:287,1,188.999994232178,2|0,0:0|0:0,0:0:0:0:
452,213,8816,2,0,P|413:270|379:385,1,188.999994232178,2|0,0:0|0:0,0:0:0:0:
371,149,9673,6,0,B|382:110|346:64|346:64|387:105|436:104,1,188.999994232178,2|0,0:0|0:0,0:0:0:0:
289,128,10530,2,0,P|203:86|107:84,1,188.999994232178,2|0,0:0|0:0,0:0:0:0:
57,275,11387,38,0,P|41:237|13:209,2,72,2|0|0,0:0|0:0|0:0,0:0:0:0:
102,369,12673,2,0,P|115:356|132:351,1,36,2|2,0:0|0:0,0:0:0:0:
283,318,13141,6,0,B|244:342|204:322|204:322|189:286|154:280,1,135,2|0,0:0|0:0,0:0:0:0:
57,276,14184,2,0,P|91:246|102:187,1,90,2|0,0:0|0:0,0:0:0:0:
103,204,15167,37,2,0:0:0:0:
17,125,15629,6,0,L|70:113,3,48,2|0|0|2,0:0|0:0|0:0|0:0,0:0:0:0:
63,114,17265,37,2,0:0:0:0:
439,82,19961,38,0,B|467:73|483:43|477:-6|421:-29|339:4|328:61|350:138|401:168|453:159,1,337.5,2|0,3:2|0:0,0:0:0:0:
447,160,21356,38,0,P|431:186|427:207,2,45,2|0|2,0:0|0:0|0:0,0:0:0:0:
447,160,21879,1,2,0:0:0:0:
477,311,22054,2,0,P|462:284|446:270,1,45,2|0,0:0|0:0,0:0:0:0:
331,261,22402,2,0,P|361:261|381:254,1,45,2|0,0:0|0:0,0:0:0:0:
241,176,22751,22,0,B|203:150|142:164|145:212|154:211|134:284|38:305|-2:235|26:146|88:137|121:186|123:196,1,337.5,2|0,0:0|0:0,0:0:0:0:
122,192,24147,38,0,P|133:165|133:144,2,45,2|0|2,0:0|0:0|0:0,0:0:0:0:
122,192,24670,1,2,0:0:0:0:
49,58,24844,2,0,P|66:81|85:91,1,45,2|0,0:0|0:0,0:0:0:0:
202,61,25193,2,0,P|172:64|154:75,1,45,2|0,0:0|0:0,0:0:0:0:
290,312,25542,38,0,B|331:316|382:263|403:218|369:116|272:138|240:237|306:279|336:297|371:291,1,337.5,2|0,3:2|0:0,0:0:0:0:
359,291,26937,22,0,P|385:301|406:302,1,45,2|0,0:0|0:0,0:0:0:0:
499,312,27286,2,0,P|477:329|465:347,1,45,2|2,0:0|0:0,0:0:0:0:
400,382,27635,1,2,0:0:0:0:
400,382,27809,1,0,0:0:0:0:
458,246,27984,1,2,0:0:0:0:
458,246,28158,1,0,0:0:0:0:
300,209,28333,38,0,B|253:176|267:96|347:92|379:122|379:122|416:146|472:112|470:71|445:34,1,337.5,2|0,0:2|0:0,0:0:0:0:
451,44,29728,2,0,P|476:27|514:24,1,62.9999980773926,2|0,0:0|0:0,0:0:0:0:
312,14,30077,2,0,P|337:31|375:34,1,62.9999980773926,2|0,0:0|0:0,0:0:0:0:
244,60,30426,1,2,0:0:0:0:
186,4,30600,38,0,L|150:11,1,31.4999990386963,2|0,0:0|0:0,0:0:0:0:
21,55,30774,2,0,P|76:53|110:113,1,121.499996292114,2|0,0:0|0:0,0:0:0:0:
110,103,31123,21,4,3:2:0:0:
33,200,31298,2,0,L|23:154,1,40.4999987640381,2|0,0:0|0:0,0:0:0:0:
122,203,31472,2,0,L|94:333,1,121.499996292114,2|0,3:2|0:0,0:0:0:0:
96,321,31821,1,0,3:2:0:0:
255,252,31995,1,0,1:0:0:0:
255,252,32083,1,0,1:0:0:0:
255,252,32170,2,0,B|297:218|348:263|348:263|361:302|394:304,1,161.999995056153,8|0,3:2|0:0,0:0:0:0:
419,236,32519,37,2,3:2:0:0:
353,373,32693,1,2,0:0:0:0:
462,297,32867,1,2,3:2:0:0:
376,173,33042,1,2,1:2:0:0:
376,173,33129,1,0,1:2:0:0:
376,173,33216,1,2,3:2:0:0:
386,303,33391,1,2,0:0:0:0:
255,252,33565,2,0,P|289:243|355:230,1,72,10|2,3:2|0:0,0:0:0:0:
206,350,33914,38,0,P|169:341|106:328,1,72,0|0,3:2|0:0,0:0:0:0:
0,307,34263,1,0,3:2:0:0:
168,207,34437,1,0,0:0:0:0:
22,146,34612,2,0,L|40:231,1,72,2|0,3:2|1:0,0:0:0:0:
101,148,34873,1,0,1:0:0:0:
101,148,34961,2,0,P|143:118|204:125,1,108,8|0,3:2|0:0,0:0:0:0:
197,121,35309,21,2,3:2:0:0:
337,57,35484,1,2,0:0:0:0:
207,17,35658,1,2,3:2:0:0:
260,213,35833,1,2,1:2:0:0:
260,213,35920,1,0,1:2:0:0:
260,213,36007,2,0,L|299:204,1,36,10|0,3:2|0:0,0:0:0:0:
461,179,36181,37,0,1:2:0:0:
420,173,36268,1,0,1:2:0:0:
394,141,36355,1,8,3:2:0:0:
397,100,36442,1,0,1:2:0:0:
427,73,36529,1,0,1:2:0:0:
468,73,36617,1,0,1:2:0:0:
498,102,36705,38,0,L|489:144,1,36,6|0,3:2|0:0,0:0:0:0:
447,305,36879,1,2,0:0:0:0:
363,227,37054,1,0,3:2:0:0:
261,372,37228,1,2,0:0:0:0:
375,333,37402,1,2,3:2:0:0:
260,213,37577,1,2,1:2:0:0:
260,213,37664,1,0,1:2:0:0:
260,213,37751,2,0,L|278:302,1,72,10|2,3:2|0:0,0:0:0:0:
426,166,38100,21,0,3:2:0:0:
257,95,38274,1,2,0:0:0:0:
415,56,38449,1,2,3:2:0:0:
370,235,38623,1,2,1:2:0:0:
370,235,38711,1,0,1:2:0:0:
370,235,38798,1,2,3:2:0:0:
336,120,38972,1,2,0:0:0:0:
164,215,39147,2,0,L|182:125,1,72,10|2,3:2|0:0,0:0:0:0:
87,330,39495,38,0,B|106:294|93:259|93:259|111:292|161:296,1,144,0|2,3:2|3:2,0:0:0:0:
18,291,40019,1,2,0:0:0:0:
158,380,40193,2,0,P|196:359|247:344,1,90,2|0,3:2|1:2,0:0:0:0:
289,264,40455,1,0,1:2:0:0:
289,264,40542,2,0,P|359:314|414:322,1,135,8|0,3:2|0:0,0:0:0:0:
405,322,40891,37,2,3:2:0:0:
309,384,41065,1,2,0:0:0:0:
377,189,41240,1,8,3:2:0:0:
383,175,41327,1,0,1:2:0:0:
397,165,41414,1,0,1:2:0:0:
412,163,41501,1,0,1:2:0:0:
427,168,41588,21,8,3:2:0:0:
407,191,41676,1,0,1:0:0:0:
377,189,41763,1,0,1:0:0:0:
352,172,41850,1,0,1:0:0:0:
326,132,41937,1,8,3:2:0:0:
278,107,42024,1,0,1:2:0:0:
220,108,42112,1,0,1:2:0:0:
173,146,42199,1,0,1:2:0:0:
171,212,42286,1,6,3:2:0:0:
256,192,45077,12,0,46123,0:0:0:0:
101,124,46472,54,0,B|76:89|20:87|20:87|61:24|141:4|204:33|208:116|204:118|200:119|200:176|245:212|336:162|345:112|291:62,1,540,2|0,0:0|0:0,0:0:0:0:
30,168,47867,38,0,B|11:215|64:243|64:243|126:234|137:302,2,180,2|0|0,3:2|3:2|3:2,0:0:0:0:
308,378,48914,2,0,P|347:343|408:328,1,108,2|0,3:2|0:0,0:0:0:0:
488,344,49263,6,0,P|425:311|395:224,1,144,2|2,3:2|3:2,0:0:0:0:
255,318,49786,2,0,P|285:288|312:275,1,72,2|0,0:0|3:2,0:0:0:0:
486,231,50135,1,2,0:0:0:0:
320,166,50309,1,0,3:3:0:0:
507,125,50484,1,0,0:3:0:0:
395,247,50658,38,0,L|426:98,1,144,2|2,3:2|3:2,0:0:0:0:
293,7,51181,2,0,L|308:79,1,72,2|0,0:0|3:2,0:0:0:0:
388,0,51530,1,2,0:0:0:0:
239,132,51705,2,0,P|190:104|132:103,1,108,0|0,3:2|0:0,0:0:0:0:
66,136,52054,6,0,B|96:116|127:74|110:25|52:5|19:45|37:82,2,180,2|0|0,3:2|3:2|3:2,0:0:0:0:
0,296,52926,1,0,0:0:0:0:
168,204,53100,1,2,3:2:0:0:
168,204,53274,1,2,0:0:0:0:
5,181,53449,38,0,P|56:232|112:330,2,180,2|0|0,3:2|3:2|3:2,0:0:0:0:
94,15,54495,2,0,P|75:43|29:61,1,80.9999975280763,2|0,3:2|0:0,0:0:0:0:
33,61,54844,6,0,B|73:31|119:60|119:60|132:100|179:103,1,144,2|2,3:2|3:2,0:0:0:0:
264,15,55367,2,0,L|184:31,1,72,2|0,0:0|3:2,0:0:0:0:
315,153,55716,1,2,0:0:0:0:
481,79,55891,1,0,3:2:0:0:
340,26,56065,1,0,0:0:0:0:
421,185,56240,38,0,L|397:74,1,108,2|0,3:2|0:0,0:0:0:0:
398,79,56588,1,2,3:2:0:0:
469,262,56763,2,0,B|492:253|492:226|492:226|482:246|463:255,1,72,2|0,0:0|3:2,0:0:0:0:
369,333,57112,2,0,L|384:260,2,72,2|0|0,0:0|3:2|0:0,0:0:0:0:
131,357,57635,6,0,P|191:294|278:292,1,180,2|0,3:2|3:2,0:0:0:0:
113,232,58158,2,0,P|83:210|38:206,1,72,2|0,0:3|3:2,0:0:0:0:
44,293,58507,1,2,0:3:0:0:
188,146,58681,2,0,P|218:124|263:120,1,72,2|2,3:2|0:0,0:0:0:0:
471,189,59030,22,0,L|432:1,2,180,2|0|0,3:2|3:2|3:2,0:0:0:0:
279,292,60077,2,0,B|277:249|316:215|361:237|361:237|354:269|324:282,1,161.999995056153,2|0,3:2|0:0,0:0:0:0:
251,380,60426,22,0,P|192:346|127:332,1,135,2|0,3:2|0:0,0:0:0:0:
49,341,60774,1,2,3:2:0:0:
164,244,60949,1,2,0:0:0:0:
30,207,61123,1,0,3:2:0:0:
83,270,61298,1,0,0:0:0:0:
200,161,61472,1,2,3:2:0:0:
200,161,61647,1,2,0:0:0:0:
91,88,61821,22,0,L|111:183,1,90,2|0,3:2|0:0,0:0:0:0:
6,34,62170,1,0,3:2:0:0:
180,56,62344,2,0,B|168:30|141:23|141:23|163:38|167:57,1,90,0|0,0:0|3:2,0:0:0:0:
353,144,62693,1,0,0:0:0:0:
355,46,62867,2,0,P|308:54|277:90,1,90,2|0,3:2|0:0,0:0:0:0:
424,240,63216,22,0,L|453:103,1,135,2|0,3:2|0:0,0:0:0:0:
452,107,63565,1,2,3:2:0:0:
342,268,63740,2,0,L|360:362,1,90,2|0,0:0|3:2,0:0:0:0:
510,214,64088,1,0,1:0:0:0:
474,366,64263,1,2,3:2:0:0:
474,366,64437,1,2,1:2:0:0:
265,290,64612,22,0,B|218:274|188:301|188:301|171:332|142:340,1,135,2|0,3:2|0:0,0:0:0:0:
89,287,64961,2,0,B|95:265|82:242|82:242|95:265|116:272,1,90,0|0,3:2|0:0,0:0:0:0:
359,357,65309,1,2,3:2:0:0:
384,334,65396,1,2,0:3:0:0:
395,303,65483,1,2,0:3:0:0:
389,270,65570,1,2,0:3:0:0:
367,244,65657,1,2,3:3:0:0:
336,233,65745,1,2,0:3:0:0:
303,238,65832,1,2,0:3:0:0:
277,259,65920,1,2,0:3:0:0:
265,290,66007,22,0,P|233:249|181:234,1,90,2|0,3:2|0:0,0:0:0:0:
397,159,66356,2,0,P|429:118|481:103,1,90,2|0,3:2|0:0,0:0:0:0:
490,210,66705,1,2,3:2:0:0:
318,99,66879,21,2,0:3:0:0:
318,99,66966,1,2,0:3:0:0:
318,99,67054,2,0,P|290:78|258:68,1,67.5,0|0,3:2|0:0,0:0:0:0:
206,9,67402,22,0,P|168:48|88:82,1,135,2|0,3:2|0:0,0:0:0:0:
20,81,67751,1,0,3:2:0:0:
27,229,67926,2,0,P|55:187|56:140,1,90,2|0,0:0|3:2,0:0:0:0:
11,333,68274,1,0,1:2:0:0:
178,245,68449,1,2,3:2:0:0:
27,229,68623,1,0,1:2:0:0:
191,361,68798,22,0,L|183:325,1,36,2|0,3:2|0:0,0:0:0:0:
95,300,68972,2,0,L|103:336,1,36,2|0,0:0|0:0,0:0:0:0:
277,384,69147,2,0,P|292:368|309:356,1,36,10|0,3:2|0:0,0:0:0:0:
346,281,69321,2,0,P|367:286|386:294,1,36,6|0,3:2|0:0,0:0:0:0:
448,379,69495,21,2,0:0:0:0:
482,363,69583,1,2,0:0:0:0:
502,321,69670,1,2,3:2:0:0:
494,283,69757,1,2,0:0:0:0:
463,256,69844,1,2,0:0:0:0:
441,233,69931,1,2,0:0:0:0:
435,205,70019,1,2,3:2:0:0:
449,182,70106,1,2,0:0:0:0:
469,179,70193,1,2,3:2:0:0:
380,291,70367,6,0,P|363:285|346:281,1,36,2|0,0:0|0:0,0:0:0:0:
261,201,70542,2,0,B|223:191|203:217|211:218|192:253|141:243,1,116.999994644165,2|0,0:0|3:2,0:0:0:0:
20,93,70891,2,0,B|33:69|21:35|21:35|36:69|68:80,1,116.999994644165,8|0,0:0|0:0,0:0:0:0:
144,170,71240,38,0,P|114:157|94:154,1,53.9999983520508,2|0,0:0|3:2,0:0:0:0:
261,88,71588,2,0,P|231:101|211:104,1,53.9999983520508,2|0,0:0|3:2,0:0:0:0:
378,170,71937,1,2,0:0:0:0:
456,107,72112,1,2,3:2:0:0:
378,170,72286,2,0,P|348:157|328:154,1,53.9999983520508,8|2,0:0|0:0,0:0:0:0:
481,284,72635,2,0,P|477:251|469:232,1,53.9999983520508,0|0,3:2|0:0,0:0:0:0:
335,377,72984,22,0,B|265:321|313:236|378:248|378:248|419:284|377:346,1,269.999991760254,2|0,3:2|0:0,0:0:0:0:
391,320,73507,1,2,3:2:0:0:
232,363,73681,2,0,P|208:347|181:343,1,53.9999983520508,0|0,1:0|0:0,0:0:0:0:
78,241,74030,6,0,B|148:185|100:100|35:112|35:112|-6:148|36:210,1,269.999991760254,2|0,3:2|0:0,0:0:0:0:
160,267,74554,2,0,P|173:244|184:213,2,53.9999983520508,2|0|0,3:2|0:0|3:2,0:0:0:0:
241,148,75077,2,0,L|179:134,1,53.9999983520508,2|0,1:2|0:0,0:0:0:0:
309,58,75426,2,0,L|408:36,1,90,2|2,1:2|0:0,0:0:0:0:
397,39,75687,1,2,0:3:0:0:
397,39,75774,1,4,3:2:0:0:
368,182,75949,22,0,P|378:168|399:158,1,36
472,218,76123,2,0,P|444:270|387:274,1,116.999994644165,2|0,0:0|3:2,0:0:0:0:
54,312,76472,2,0,B|54:338|38:367|38:367|59:345|95:342,1,116.999994644165,8|0,0:0|0:0,0:0:0:0:
224,361,76821,38,0,P|202:328|187:315,1,53.9999983520508,2|0,0:0|3:2,0:0:0:0:
303,228,77170,2,0,P|284:247|270:270,1,53.9999983520508,2|0,0:0|3:2,0:0:0:0:
191,137,77519,1,2,0:0:0:0:
129,217,77693,1,2,3:2:0:0:
191,137,77867,2,0,P|209:156|223:179,1,53.9999983520508,8|2,0:0|0:0,0:0:0:0:
68,58,78216,2,0,P|94:51|121:51,1,53.9999983520508,0|0,3:2|0:0,0:0:0:0:
349,154,78565,38,0,B|423:150|454:86|421:27|421:27|377:26|342:53|357:101,1,269.999991760254,2|0,3:2|0:0,0:0:0:0:
354,74,79088,1,2,3:2:0:0:
455,190,79263,2,0,P|478:213|500:220,1,53.9999983520508,0|0,1:0|0:0,0:0:0:0:
162,306,79612,38,0,B|87:302|56:238|89:179|89:179|133:178|168:205|153:253,1,269.999991760254,2|0,0:0|0:0,0:0:0:0:
56,342,80135,2,0,P|32:365|10:372,2,53.9999983520508,2|0|0,3:2|0:0|3:2,0:0:0:0:
232,252,80658,2,0,P|288:224|322:221,1,90,14|0,0:0|0:0,0:0:0:0:
445,381,81007,1,2,3:2:0:0:
435,364,81094,1,2,0:0:0:0:
436,330,81181,1,2,0:0:0:0:
462,301,81269,1,2,0:0:0:0:
504,307,81356,6,0,B|487:317|476:331|476:331|416:318|416:318|403:284|367:273,1,161.999995056153,6|0,3:2|0:0,0:0:0:0:
316,353,81705,2,0,B|312:362|294:376|294:376|326:374|338:339,1,90,8|2,0:0|0:0,0:0:0:0:
184,184,82054,1,2,3:2:0:0:
125,382,82228,1,0,3:2:0:0:
259,303,82402,1,10,0:0:0:0:
82,207,82577,2,0,L|101:298,1,90,2|0,3:2|0:0,0:0:0:0:
5,174,82926,6,0,P|14:156|39:138,1,45,0|0,3:2|0:0,0:0:0:0:
83,51,83100,2,0,P|128:49|181:77,1,90,8|0,0:0|0:0,0:0:0:0:
292,224,83449,1,0,3:2:0:0:
451,125,83623,1,0,3:2:0:0:
271,98,83798,1,10,0:0:0:0:
271,98,83972,1,2,0:0:0:0:
376,213,84147,38,0,L|346:76,1,135,2|0,3:2|0:0,0:0:0:0:
430,10,84495,2,0,L|417:62,1,45,10|0,0:0|0:0,0:0:0:0:
501,205,84670,2,0,B|524:196|523:160|523:160|510:184|498:191,1,90,2|0,0:0|3:2,0:0:0:0:
345,293,85019,2,0,L|389:302,1,45,2|0,3:2|0:0,0:0:0:0:
512,325,85193,1,8,0:0:0:0:
292,224,85367,6,0,B|168:250|168:250|170:284|147:305,1,180,2|0,3:2|0:0,0:0:0:0:
18,220,85891,2,0,P|65:222|100:267,1,90,10|0,0:0|0:0,0:0:0:0:
16,331,86240,1,2,3:2:0:0:
100,133,86414,1,0,3:2:0:0:
239,323,86588,2,0,B|233:353|204:358|204:358|221:341|228:321,1,90,10|0,0:0|3:2,0:0:0:0:
307,109,86937,38,0,B|361:73|410:123|410:123|424:165|470:165,1,180,2|8,0:0|0:0,0:0:0:0:
493,86,87461,1,2,0:0:0:0:
336,218,87635,2,0,L|347:167,1,45,2|0,3:2|0:0,0:0:0:0:
383,8,87809,1,0,3:2:0:0:
10,238,88158,6,0,B|-18:227|-43:201|-31:123|44:122|76:158|76:158|77:185|96:202,1,215.999993408203,14|0,0:0|3:2,0:0:0:0:
163,279,88681,2,0,P|127:269|91:263,1,72,14|0,0:0|0:0,0:0:0:0:
247,239,89030,1,0,3:2:0:0:
237,211,89117,1,0,0:0:0:0:
212,191,89205,1,0,1:0:0:0:
181,187,89292,1,0,1:0:0:0:
154,200,89379,2,0,L|145:159,1,36,10|0,0:0|0:0,0:0:0:0:
51,25,89554,37,2,3:2:0:0:
51,25,89641,1,0,0:0:0:0:
51,25,89728,2,0,L|42:65,3,36,6|2|0|0,3:2|3:2|3:2|3:2,0:0:0:0:
127,90,90949,37,2,0:0:0:0:
127,90,91123,2,0,P|167:61|244:54,1,108,0|0,3:2|0:0,0:0:0:0:
303,28,91472,2,0,B|296:6|275:-2|275:-2|289:8|294:30,1,72,2|0,3:2|0:0,0:0:0:0:
429,140,91821,2,0,P|447:108|477:85,1,72,2|0,3:2|0:0,0:0:0:0:
330,218,92170,2,0,P|312:186|282:163,1,72,2|0,3:2|0:0,0:0:0:0:
416,358,92519,38,0,B|409:306|445:260|516:267|500:316|485:334|458:327,1,161.999995056153,2|0,3:2|0:0,0:0:0:0:
473,327,92867,1,2,3:2:0:0:
311,367,93042,2,0,P|275:336|235:326,1,90,2|0,0:0|3:2,0:0:0:0:
46,363,93391,2,0,B|71:359|85:328|85:328|66:349|49:353,1,90,2|0,0:0|3:2,0:0:0:0:
6,193,93740,2,0,L|27:304,1,90,2|0,0:0|3:2,0:0:0:0:
230,242,94088,5,0,1:0:0:0:
230,242,94176,1,0,1:0:0:0:
230,242,94263,2,0,P|185:257|156:287,1,90,2|0,3:2|0:0,0:0:0:0:
20,60,94612,5,2,3:2:0:0:
23,44,94699,1,2,0:0:0:0:
36,29,94786,1,2,0:0:0:0:
58,16,94873,1,2,0:0:0:0:
96,14,94961,1,2,3:2:0:0:
129,39,95048,1,2,0:0:0:0:
140,78,95135,1,2,0:0:0:0:
121,115,95222,1,2,0:0:0:0:
79,137,95309,38,0,B|74:119|56:95|56:95|138:129|138:129|143:169|174:182,1,198.000006042481,6|0,3:2|0:0,0:0:0:0:
410,115,95833,6,0,B|456:88|443:26|443:26|368:21|355:74,1,198.000006042481,6|0,3:2|0:0,0:0:0:0:
253,177,96356,22,0,L|259:208,1,27,6|0,3:2|0:0,0:0:0:0:
279,291,96705,37,2,0:3:0:0:
279,291,96792,1,2,0:3:0:0:
279,291,96879,22,0,B|329:293|367:331|367:331|334:289|336:219,1,198.000006042481,6|0,3:2|0:0,0:0:0:0:
158,162,97402,6,0,B|132:204|80:218|80:218|132:211|192:247,1,202.500007724762,6|0,3:2|0:0,0:0:0:0:
330,122,97751,22,0,B|306:78|320:26|320:26|301:75|239:109,1,202.500007724762,6|0,3:2|0:0,0:0:0:0:
256,192,98100,5,6,3:2:0:0:
253,176,98274,1,0,1:2:0:0:
451,118,98449,1,0,3:2:0:0:
439,151,98623,1,0,1:2:0:0:
179,240,98798,5,0,3:2:0:0:
158,162,98972,1,0,1:2:0:0:
387,68,99147,1,0,3:2:0:0:
336,238,99321,1,0,1:2:0:0:
9,120,99495,5,10,3:2:0:0:
12,95,99583,1,2,0:0:0:0:
35,79,99670,1,10,0:0:0:0:
64,82,99757,1,2,0:0:0:0:
88,104,99844,1,10,3:2:0:0:
91,131,99931,1,2,0:0:0:0:
85,184,100019,1,10,0:0:0:0:
121,234,100106,1,2,0:0:0:0:
179,240,100193,1,10,3:2:0:0:
219,207,100280,1,10,0:0:0:0:
244,154,100367,1,10,0:0:0:0:
302,129,100455,1,10,0:0:0:0:
361,139,100542,1,10,3:2:0:0:
400,187,100629,1,10,0:0:0:0:
398,249,100716,1,10,0:0:0:0:
352,298,100804,1,10,0:0:0:0:
286,302,100891,21,2,3:2:0:0:
286,302,101240,1,8,0:1:0:0:
286,302,101588,1,8,0:1:0:0:
286,302,101937,1,8,0:1:0:0:
492,204,102286,21,8,0:1:0:0:
492,204,102635,1,8,0:1:0:0:
492,204,102983,1,8,0:1:0:0:
492,204,103332,1,8,0:1:0:0:
305,75,103681,21,8,0:1:0:0:
305,75,104030,1,8,0:1:0:0:
305,75,104378,1,8,0:1:0:0:
305,75,104727,1,8,0:1:0:0:
336,182,104902,21,0,0:0:0:0:
336,182,105077,2,0,B|381:202|419:167|419:167|439:123|491:127,3,161.999995056153,8|8|8|8,0:1|0:1|0:1|0:1,0:0:0:0:
111,365,106472,22,0,P|77:304|-5:281,1,144,8|8,0:1|0:1,0:0:0:0:
76,118,106995,1,0,0:0:0:0:
76,118,107170,2,0,B|97:108|114:83|114:83|85:219,1,180,8|8,0:1|0:1,0:0:0:0:
41,45,107693,1,0,0:0:0:0:
263,97,107867,22,0,B|278:68|264:30|225:17|182:41|182:41|193:63|191:85,1,180,8|8,0:1|0:1,0:0:0:0:
262,211,108391,1,0,0:0:0:0:
262,211,108565,2,0,P|355:176|451:168,1,180,8|8,0:1|0:1,0:0:0:0:
207,373,109263,22,0,L|168:193,3,180,8|8|8|8,0:1|0:1|0:1|0:1,0:0:0:0:
380,0,110658,22,0,B|411:53|374:98|374:98|324:98|305:139,1,180,8|8,0:1|0:1,0:0:0:0:
380,0,111181,1,0,0:0:0:0:
373,212,111356,2,0,L|363:168,1,36,8|0,0:1|0:0,0:0:0:0:
452,106,111530,2,0,L|442:149,1,36,8|0,0:1|0:0,0:0:0:0:
309,307,111705,2,0,L|285:194,1,108,8|0,0:1|0:0,0:0:0:0:
230,145,112054,38,0,B|187:131|156:166|156:166|142:199|104:209,1,144,8|8,3:1|3:1,0:0:0:0:
41,122,112577,1,0,0:0:0:0:
41,122,112751,2,0,B|36:104|11:91|11:91|61:79|83:104|86:149,1,144,8|8,3:1|3:1,0:0:0:0:
65,346,113274,5,0,0:0:0:0:
65,346,113449,2,0,B|43:243|43:243|58:268|84:281,1,144,8|8,3:1|3:1,0:0:0:0:
197,305,113972,1,0,0:0:0:0:
197,305,114147,1,8,3:1:0:0:
111,206,114321,2,0,L|191:189,1,72,0|8,0:0|3:1,0:0:0:0:
391,164,114670,1,0,0:0:0:0:
472,130,114844,38,0,P|437:88|344:90,1,144,8|8,3:1|3:1,0:0:0:0:
400,262,115367,1,0,0:0:0:0:
400,262,115542,2,0,B|440:264|463:291|463:291|451:255|467:209,1,144,8|8,3:1|3:1,0:0:0:0:
265,53,116065,5,0,0:0:0:0:
265,53,116240,2,0,L|303:235,3,180,8|8|8|8,3:1|3:1|3:1|3:1,0:0:0:0:
56,382,117635,37,8,3:1:0:0:
66,359,117809,1,0,1:0:0:0:
95,339,117984,1,8,3:1:0:0:
138,335,118158,1,0,1:0:0:0:
179,355,118333,1,8,3:1:0:0:
221,384,118507,1,0,1:0:0:0:
273,376,118681,1,8,3:1:0:0:
305,333,118856,1,0,1:0:0:0:
297,281,119030,5,8,3:1:0:0:
370,291,119205,1,0,1:0:0:0:
434,251,119379,1,8,3:1:0:0:
443,176,119554,1,0,1:0:0:0:
401,113,119728,1,8,3:1:0:0:
321,98,119902,1,0,1:0:0:0:
249,134,120077,1,8,3:1:0:0:
211,203,120251,1,0,1:0:0:0:
140,239,120426,38,0,P|128:223|122:201,1,36,8|0,0:1|0:0,0:0:0:0:
80,228,120600,2,0,P|82:209|94:188,1,36,8|0,0:1|0:0,0:0:0:0:
39,166,120774,2,0,P|54:154|77:148,1,36,8|0,0:1|0:0,0:0:0:0:
76,74,120949,2,0,P|94:76|115:88,1,36,8|0,0:1|0:0,0:0:0:0:
173,33,121123,2,0,P|184:47|190:70,1,36,8|0,0:1|0:0,0:0:0:0:
274,74,121298,2,0,P|272:92|260:113,1,36,8|0,0:1|0:0,0:0:0:0:
311,175,121472,2,0,P|296:186|273:192,1,36,8|0,0:1|0:0,0:0:0:0:
268,280,121647,2,0,P|250:278|229:266,1,36,8|0,0:1|0:0,0:0:0:0:
168,169,121821,22,0,P|178:154|199:142,1,36,8|0,0:1|0:0,0:0:0:0:
274,74,121995,2,0,P|291:76|313:88,1,36,8|0,0:1|0:0,0:0:0:0:
409,118,122170,2,0,P|416:134|416:158,1,36,8|0,0:1|0:0,0:0:0:0:
400,284,122344,1,8,0:3:0:0:
416,263,122431,1,8,0:3:0:0:
436,256,122519,1,8,0:3:0:0:
451,258,122606,1,4,0:3:0:0:
461,265,122693,5,4,0:3:0:0:
453,275,122780,1,8,0:3:0:0:
430,286,122867,1,2,0:0:0:0:
400,284,122955,1,2,0:0:0:0:
355,269,123042,1,2,0:0:0:0:
321,222,123129,1,2,0:0:0:0:
318,149,123216,6,0,B|315:106|351:69|411:80|411:80|397:115|361:119,1,188.999994232178,14|0,3:2|0:0,0:0:0:0:
251,189,123565,2,0,P|151:143|34:140,1,215.999993408203,8|0,0:0|3:2,0:0:0:0:
208,48,124088,1,2,3:2:0:0:
208,48,124176,1,0,0:0:0:0:
208,48,124263,1,10,0:0:0:0:
180,249,124437,2,0,P|128:221|66:221,1,107.999996704102,2|0,0:0|3:2,0:0:0:0:
277,384,124786,21,0,0:0:0:0:
439,308,124961,1,8,0:0:0:0:
260,275,125135,1,2,0:0:0:0:
354,353,125309,2,0,L|342:298,1,53.9999983520508,2|0,3:2|0:0,0:0:0:0:
463,174,125484,2,0,L|451:228,1,53.9999983520508,2|0,3:2|0:0,0:0:0:0:
391,114,125658,2,0,P|408:92|451:84,1,53.9999983520508,10|0,0:0|0:0,0:0:0:0:
391,9,125833,2,0,P|365:16|346:35,1,53.9999983520508,2|0,0:0|0:0,0:0:0:0:
200,121,126007,6,0,P|179:75|128:40,1,107.999996704102,2|0,3:2|0:0,0:0:0:0:
260,275,126356,2,0,P|281:229|332:194,1,107.999996704102,10|0,0:0|0:0,0:0:0:0:
127,384,126705,1,2,3:2:0:0:
15,200,126879,1,0,3:2:0:0:
178,289,127054,6,0,L|134:279,1,45,10|0,0:0|0:0,0:0:0:0:
95,297,127315,21,2,0:0:0:0:
95,297,127402,2,0,B|190:317|190:317|207:344|207:344|297:363,1,215.999993408203,2|8,3:2|0:0,0:0:0:0:
495,227,127926,1,2,0:0:0:0:
495,227,128013,1,2,0:0:0:0:
495,227,128100,2,0,P|464:234|447:255,1,53.9999983520508,0|0,3:2|0:0,0:0:0:0:
378,384,128274,1,2,1:2:0:0:
378,384,128362,1,2,1:2:0:0:
378,384,128449,2,0,L|342:214,1,161.999995056153,10|0,0:0|3:2,0:0:0:0:
344,225,128798,5,6,3:2:0:0:
512,146,128972,2,0,P|482:146|452:129,1,53.9999983520508,2|0,0:0|0:0,0:0:0:0:
360,116,129147,2,0,P|374:89|404:72,1,53.9999983520508,10|0,0:0|0:0,0:0:0:0:
461,0,129321,1,2,0:0:0:0:
461,0,129408,1,2,0:0:0:0:
461,0,129495,2,0,P|476:25|476:59,1,53.9999983520508,2|0,3:2|0:0,0:0:0:0:
264,164,129670,2,0,P|218:135|152:124,1,107.999996704102,2|8,3:2|0:0,0:0:0:0:
14,59,130019,2,0,B|19:31|4:4|4:4|24:28|62:33,1,107.999996704102,2|0,0:0|3:2,0:0:0:0:
121,188,130367,6,0,P|100:167|88:137,1,53.9999983520508,2|0,3:2|0:0,0:0:0:0:
232,260,130542,2,0,P|220:284|200:302,1,53.9999983520508,10|0,0:0|0:0,0:0:0:0:
43,345,130716,2,0,B|38:319|3:301|3:301|60:263|120:309|120:309|123:358|165:371,1,251.999992309571,2|2,0:0|3:2,0:0:0:0:
260,356,131152,1,2,0:0:0:0:
260,356,131240,2,0,P|279:338|291:314,1,53.9999983520508,10|0,0:0|0:0,0:0:0:0:
328,153,131414,21,2,1:2:0:0:
328,153,131501,1,0,1:2:0:0:
328,153,131588,2,0,B|306:207|372:223|374:219|376:216|435:223|417:294,1,167.999994873047,6|2,3:2|0:0,0:0:0:0:
451,349,131937,6,0,P|472:327|510:319,2,60,8|2|2,0:0|0:3|0:3,0:0:0:0:
291,313,132286,5,6,3:2:0:0:
309,303,132402,2,0,P|338:310|364:339,1,60,2|2,0:3|0:3,0:0:0:0:
191,383,132635,21,10,0:0:0:0:
120,367,132751,1,2,0:3:0:0:
106,292,132867,1,2,0:3:0:0:
160,235,132984,5,6,3:2:0:0:
157,205,133100,1,2,0:3:0:0:
131,192,133216,1,2,0:3:0:0:
53,176,133333,5,10,0:0:0:0:
40,98,133449,1,2,0:3:0:0:
102,52,133565,1,2,0:3:0:0:
196,55,133681,22,0,B|195:6|154:-3|154:-3|180:18|184:50,1,135,6|0,3:2|0:0,0:0:0:0:
270,127,134030,5,2,3:2:0:0:
293,135,134117,1,2,0:0:0:0:
340,135,134205,1,2,0:0:0:0:
378,110,134292,1,2,0:0:0:0:
406,59,134379,6,0,B|374:31|317:22|275:80|275:80|255:138|199:134,1,251.999992309571,6|8,3:2|0:0,0:0:0:0:
20,24,134902,1,2,0:0:0:0:
20,24,134990,1,2,0:0:0:0:
20,24,135077,2,0,L|43:137,1,107.999996704102,2|0,3:2|3:2,0:0:0:0:
72,341,135426,2,0,L|25:331,1,36,10|0,0:0|0:0,0:0:0:0:
20,244,135600,2,0,L|66:253,1,36,0|0,3:2|0:0,0:0:0:0:
254,280,135774,21,2,0:0:0:0:
214,352,135949,1,2,3:2:0:0:
172,280,136123,1,10,0:0:0:0:
338,280,136298,5,2,3:2:0:0:
297,208,136472,1,2,0:0:0:0:
254,280,136647,1,2,3:2:0:0:
297,352,136821,5,10,0:0:0:0:
222,215,136996,1,2,1:2:0:0:
222,215,137083,1,2,1:2:0:0:
222,215,137170,2,0,B|212:157|275:130|275:130|339:135|362:78,1,188.999994232178,6|2,3:2|0:0,0:0:0:0:
366,28,137519,2,0,B|394:17|415:-13|415:-13|394:17|397:54,1,125.999996154785,8|2,0:0|1:2,0:0:0:0:
288,54,137780,1,2,1:2:0:0:
288,54,137867,2,0,P|211:15|169:14,1,125.999996154785,2|0,3:2|3:2,0:0:0:0:
100,119,138216,22,0,L|86:54,1,45,2|0,0:0|0:0,0:0:0:0:
6,37,138391,2,0,L|32:160,1,107.999996704102,14|0,0:0|0:0,0:0:0:0:
61,344,138740,6,0,L|69:382,1,31.4999990386963,0|0,3:2|0:0,0:0:0:0:
169,304,138914,2,0,B|150:259|106:273|106:273|132:289|135:315,1,116.999994644165,8|0,0:0|1:0,0:0:0:0:
164,384,139176,1,0,1:0:0:0:
164,384,139263,2,0,L|200:376,1,36,0|0,3:2|0:0,0:0:0:0:
384,338,139437,1,0,3:2:0:0:
265,287,139612,2,0,L|280:360,1,72,2|2,0:0|0:0,0:0:0:0:
369,217,139961,38,0,P|403:184|473:179,1,108,0|0,3:2|0:0,0:0:0:0:
461,175,140309,1,8,0:0:0:0:
353,97,140484,2,0,B|299:80|285:26|326:-4|364:6|354:45|351:51,1,144,0|0,3:2|3:2,0:0:0:0:
272,166,141007,1,10,0:0:0:0:
151,82,141181,37,0,3:2:0:0:
151,82,141269,1,0,3:0:0:0:
151,82,141356,2,0,L|224:66,1,72,2|0,3:2|0:0,0:0:0:0:
87,7,141705,1,10,0:0:0:0:
40,156,141879,2,0,B|18:55|18:55|34:79|64:89,1,144,2|2,3:2|3:2,0:0:0:0:
131,170,142402,2,0,L|108:275,1,108,8|0,0:0|0:0,0:0:0:0:
94,348,142751,5,2,3:2:0:0:
231,299,142926,2,0,P|218:284|193:276,1,36,0|0,3:2|0:0,0:0:0:0:
261,380,143100,1,10,0:0:0:0:
367,279,143274,2,0,P|342:309|303:321,1,72,2|0,3:2|0:0,0:0:0:0:
451,365,143536,1,0,1:2:0:0:
451,365,143623,2,0,P|438:350|413:342,1,36,2|0,3:2|0:0,0:0:0:0:
293,241,143798,2,0,L|316:131,1,108,8|0,0:0|0:0,0:0:0:0:
330,62,144147,37,0,3:2:0:0:
432,198,144321,1,0,3:2:0:0:
494,88,144495,2,0,B|443:98|443:98|439:102|439:102|388:113,1,107.999996704102,12|0,0:0|3:2,0:0:0:0:
389,113,144757,1,2,0:3:0:0:
389,113,144844,1,0,3:2:0:0:
252,106,145019,5,0,1:2:0:0:
252,106,145106,1,0,1:2:0:0:
252,106,145193,1,10,0:0:0:0:
289,241,145367,1,2,0:0:0:0:
333,383,145542,1,2,3:2:0:0:
333,383,146065,38,0,P|342:363|364:348,1,45,2|0,0:0|0:0,0:0:0:0:
392,326,146588,6,0,P|326:307|290:212,1,148.50000453186,10|0,0:0|1:2,0:0:0:0:
226,193,146937,37,2,3:2:0:0:
226,193,147024,2,0,P|190:228|139:238,1,99.0000030212403,0|0,1:2|0:0,0:0:0:0:
70,221,147286,1,10,0:0:0:0:
201,56,147461,2,0,B|253:21|295:65|295:65|303:102|340:114,1,161.999995056153,2|2,3:2|3:2,0:0:0:0:
479,7,147984,1,8,0:0:0:0:
369,43,148158,1,0,3:2:0:0:
450,156,148333,6,0,B|445:127|464:97|464:97|438:118|400:114,1,121.499996292114,2|0,3:2|0:0,0:0:0:0:
408,114,148681,1,10,0:0:0:0:
354,288,148856,2,0,P|404:261|470:247,1,121.499996292114,2|0,3:2|0:0,0:0:0:0:
466,247,149205,1,2,3:2:0:0:
377,187,149379,1,8,0:0:0:0:
442,342,149554,1,0,3:2:0:0:
272,258,149728,38,0,B|273:233|303:223|303:223|284:234|278:256,1,80.9999975280763,2|0,3:2|1:2,0:0:0:0:
232,332,149990,1,0,1:2:0:0:
232,332,150077,2,0,P|255:339|273:350,1,40.4999987640381,8|0,0:0|0:0,0:0:0:0:
41,323,150251,2,0,P|102:260|190:259,1,180,4|0,3:2|3:2,0:0:0:0:
148,379,150774,1,14,0:0:0:0:
10,224,150949,37,2,1:2:0:0:
10,224,151036,1,0,1:2:0:0:
10,224,151123,2,0,L|42:73,1,135,2|0,3:2|0:0,0:0:0:0:
37,91,151472,1,8,0:0:0:0:
153,168,151647,2,0,B|201:194|242:157|242:157|272:111|318:124,1,180,0|0,3:2|3:2,0:0:0:0:
408,238,152170,1,10,0:0:0:0:
460,117,152344,1,0,3:2:0:0:
308,198,152519,6,0,L|333:318,1,108,2|0,3:2|0:0,0:0:0:0:
351,377,152867,1,10,0:0:0:0:
490,263,153042,2,0,B|485:301|509:329|509:329|480:306|420:320,1,144,2|0,3:2|3:2,0:0:0:0:
210,230,153565,1,10,0:0:0:0:
386,158,153740,1,2,0:0:0:0:
246,82,153914,38,0,B|247:55|269:25|315:32|315:32|294:50|289:75,1,135,2|0,3:2|0:0,0:0:0:0:
292,61,154263,1,8,0:0:0:0:
153,17,154437,2,0,B|106:-10|57:27|57:27|42:70|-12:73,1,180,0|0,3:2|3:2,0:0:0:0:
129,159,154961,2,0,L|113:86,1,72,8|0,0:0|0:0,0:0:0:0:
0,274,155309,6,0,P|23:234|83:226,1,108,2|0,3:2|0:0,0:0:0:0:
156,237,155658,1,10,0:0:0:0:
216,378,155833,2,0,B|152:364|152:364|137:354|137:354|78:341,1,144,0|0,3:2|3:2,0:0:0:0:
254,189,156356,1,10,0:0:0:0:
323,384,156530,37,2,1:2:0:0:
323,384,156617,1,0,1:2:0:0:
323,384,156705,1,6,3:2:0:0:
455,219,156879,1,0,0:0:0:0:
470,299,157054,1,8,0:0:0:0:
254,189,157228,1,0,0:0:0:0:
231,266,157402,5,10,0:0:0:0:
438,139,157577,1,0,3:2:0:0:
208,89,157751,1,8,0:0:0:0:
453,137,157926,1,0,3:2:0:0:
231,266,158100,37,14,0:0:0:0:
336,198,158274,1,0,0:0:0:0:
6,109,158449,1,8,0:0:0:0:
122,167,158623,1,0,0:0:0:0:
105,43,158798,5,10,0:0:0:0:
15,242,158972,1,0,3:2:0:0:
254,189,159147,1,8,0:0:0:0:
197,12,159321,1,0,3:2:0:0:
93,274,159495,38,0,B|120:315|164:310|189:274|189:274|166:262|146:272|136:289,1,161.999995056153,6|0,3:2|0:0,0:0:0:0:
68,357,159844,2,0,P|54:374|27:381,1,36,8|0,0:0|0:0,0:0:0:0:
276,274,160019,2,0,B|304:241|351:252|371:300|368:302|365:304|376:350|421:357|458:333,1,215.999993408203,6|0,3:2|3:2,0:0:0:0:
239,358,160542,2,0,B|214:353|209:321|209:321|222:339|244:347,1,90,10|0,0:0|0:0,0:0:0:0:
505,284,160891,5,2,3:2:0:0:
496,262,160978,1,0,1:2:0:0:
480,250,161065,1,0,1:2:0:0:
450,250,161152,1,0,1:2:0:0:
432,263,161240,2,0,L|422:217,1,45,8|0,0:0|0:0,0:0:0:0:
396,76,161414,2,0,B|380:12|444:-18|512:-2|493:59|447:65,1,180,6|0,3:2|3:2,0:0:0:0:
309,166,161937,1,2,3:2:0:0:
309,166,162112,1,2,3:2:0:0:
167,87,162286,22,0,L|311:56,2,144,0|0|0,3:2|3:2|3:2,0:0:0:0:
379,180,163333,2,0,L|307:165,1,72,0|0,3:2|0:0,0:0:0:0:
456,34,163681,22,0,B|492:31|530:66|517:117|478:140|446:133|446:133|431:113|404:103,1,198.000006042481,2|2,3:2|3:2,0:0:0:0:
307,57,164205,2,0,P|337:60|360:83,1,53.9999983520508,2|0,0:0|3:2,0:0:0:0:
237,132,164554,1,2,0:0:0:0:
167,87,164728,2,0,P|184:62|216:54,1,53.9999983520508,0|0,3:2|0:0,0:0:0:0:
96,266,164990,37,2,0:0:0:0:
96,266,165077,2,0,L|49:48,1,215.999993408203,0|0,3:2|3:2,0:0:0:0:
66,40,165600,2,0,L|77:94,1,53.9999983520508,2|0,3:2|3:2,0:0:0:0:
259,351,165949,21,2,0:0:0:0:
259,351,166036,1,2,0:0:0:0:
259,351,166123,2,0,L|306:133,1,215.999993408203,2|0,3:2|3:2,0:0:0:0:
289,125,166647,2,0,L|278:179,1,53.9999983520508,2|0,3:2|3:2,0:0:0:0:
434,353,167170,22,0,B|394:348|376:314|396:274|396:274|411:302|444:312,1,148.50000453186,2|0,3:2|0:0,0:0:0:0:
495,237,167519,2,0,L|468:242,1,26.9999991760254,2|0,3:2|0:0,0:0:0:0:
298,280,167693,1,2,0:0:0:0:
373,106,167867,38,0,B|408:73|452:109|452:109|471:145|516:141,2,144,2|0|0,3:2|3:2|3:2,0:0:0:0:
57,86,168914,2,0,B|63:69|35:39|35:39|65:67|96:67,1,108,2|0,3:2|0:0,0:0:0:0:
135,124,169263,22,0,P|105:168|81:234,1,108,2|0,3:2|0:0,0:0:0:0:
84,218,169612,1,2,3:2:0:0:
115,342,169786,2,0,P|90:316|47:312,1,72,2|0,0:0|3:2,0:0:0:0:
271,310,170135,1,2,0:0:0:0:
208,260,170309,2,0,P|233:234|276:230,1,72,0|0,3:2|0:0,0:0:0:0:
463,123,170658,6,0,B|508:79|469:27|469:27|394:18|389:90,1,215.999993408203,2|0,3:2|3:2,0:0:0:0:
368,152,171094,1,2,0:0:0:0:
368,152,171181,2,0,B|374:178|362:205|362:205|380:181|410:176,1,107.999996704102,2|0,0:0|3:2,0:0:0:0:
49,123,171705,22,0,B|4:79|43:27|43:27|118:18|123:90,1,215.999993408203,2|0,3:2|3:2,0:0:0:0:
144,152,172141,1,2,0:0:0:0:
144,152,172228,2,0,B|137:178|149:205|149:205|132:181|101:176,1,107.999996704102,2|0,0:0|3:2,0:0:0:0:
291,340,172577,21,0,1:2:0:0:
291,340,172664,1,0,1:2:0:0:
291,340,172751,2,0,L|252:331,1,36,6|0,3:2|0:0,0:0:0:0:
197,257,172926,2,0,L|170:285,1,36,2|0,0:3|0:0,0:0:0:0:
19,364,173100,1,2,3:2:0:0:
11,342,173187,1,2,0:0:0:0:
26,313,173274,1,2,0:0:0:0:
63,304,173362,1,2,0:0:0:0:
88,327,173449,22,0,B|41:276|86:225|86:225|139:209|152:167|138:131,1,215.999993408203,6|8,3:2|0:0,0:0:0:0:
41,27,173972,1,2,0:0:0:0:
24,158,174147,2,0,L|69:148,1,36,2|0,3:2|0:0,0:0:0:0:
200,87,174321,2,0,L|111:68,1,90,2|2,3:2|0:0,0:0:0:0:
359,125,174670,6,0,B|410:83|374:9|309:15|278:59|278:59|283:84|277:105,1,215.999993408203,6|0,3:2|3:2,0:0:0:0:
459,85,175193,1,8,0:0:0:0:
250,158,175367,2,0,L|272:266,1,90,2|0,0:0|3:2,0:0:0:0:
299,384,175716,1,0,3:2:0:0:
493,270,175891,1,10,0:0:0:0:
333,183,176065,1,2,0:0:0:0:
395,366,176240,38,0,L|417:257,1,90,2|0,3:2|0:0,0:0:0:0:
192,258,176588,1,10,0:0:0:0:
185,284,176676,1,2,0:0:0:0:
201,317,176763,1,2,0:0:0:0:
248,336,176850,1,2,0:0:0:0:
292,311,176937,2,0,L|238:322,1,45,0|0,3:2|0:0,0:0:0:0:
23,356,177112,1,2,3:2:0:0:
23,356,177461,6,0,B|87:316|53:250|53:250|39:283|16:299,1,161.999995056153,6|0,3:2|0:0,0:0:0:0:
110,374,177809,2,0,P|120:359|131:331,1,36,2|0,3:2|0:0,0:0:0:0:
192,258,177984,2,0,P|184:241|166:218,1,36,10|0,0:0|0:0,0:0:0:0:
1,137,178158,1,0,1:2:0:0:
154,19,178333,1,2,3:2:0:0:
111,173,178507,1,0,3:2:0:0:
28,55,178681,38,0,L|88:67,1,53.9999983520508,10|0,0:0|0:0,0:0:0:0:
169,109,178943,5,2,0:0:0:0:
169,109,179030,2,0,L|343:71,1,161.999995056153,6|0,3:2|0:0,0:0:0:0:
421,62,179379,2,0,B|415:28|379:19|379:19|400:43|402:63,1,107.999996704102,8|2,0:0|0:0,0:0:0:0:
451,218,179728,2,0,L|459:179,1,36,2|0,3:2|0:0,0:0:0:0:
494,24,179902,1,2,3:2:0:0:
276,347,180251,38,0,B|276:260|378:257|378:257|401:293|441:295,1,215.999993408203,14|0,0:0|3:2,0:0:0:0:
196,377,180774,2,0,P|158:354|105:341,1,90,12|2,0:0|0:0,0:0:0:0:
6,252,181123,1,0,3:2:0:0:
40,244,181211,1,0,1:2:0:0:
65,220,181298,1,0,1:2:0:0:
72,185,181385,1,0,1:2:0:0:
54,153,181472,1,10,0:0:0:0:
204,288,181647,1,2,0:0:0:0:
339,87,181821,6,0,L|205:115,1,135,2|0,3:2|0:0,0:0:0:0:
134,131,182170,1,2,3:2:0:0:
409,23,182344,2,0,L|487:39,1,72,2|0,0:0|3:2,0:0:0:0:
268,72,182693,2,0,L|346:88,1,72,2|0,0:0|3:2,0:0:0:0:
101,230,183042,22,0,B|53:214|52:162|52:162|67:195|90:201,1,144,2|0,0:0|0:0,0:0:0:0:
219,343,183565,2,0,P|181:349|142:359,1,72,2|0,3:2|0:0,0:0:0:0:
374,233,183914,2,0,P|411:239|450:249,1,72,2|0,3:2|0:0,0:0:0:0:
204,116,184263,2,0,P|166:122|127:132,1,72,2|0,3:2|0:0,0:0:0:0:
479,37,184612,38,0,B|436:19|403:52|403:52|396:89|359:94,1,135,2|0,3:2|0:0,0:0:0:0:
297,76,184961,1,2,3:2:0:0:
444,247,185135,2,0,L|463:157,1,90,2|0,0:0|3:2,0:0:0:0:
291,280,185484,2,0,L|310:369,1,90,2|0,0:0|3:2,0:0:0:0:
365,217,185833,1,2,0:0:0:0:
154,313,186007,6,0,L|106:302,3,45,0|2|2|2,3:2|0:3|0:3|0:3,0:0:0:0:
227,196,186356,2,0,L|274:185,3,45,2|2|2|2,3:2|0:3|0:3|0:3,0:0:0:0:
77,162,186705,5,2,3:2:0:0:
72,153,186792,1,2,0:0:0:0:
75,137,186879,1,2,0:0:0:0:
92,124,186966,1,2,0:0:0:0:
130,112,187054,1,2,3:2:0:0:
180,103,187141,1,2,0:0:0:0:
207,60,187228,1,2,0:0:0:0:
195,11,187315,1,2,0:0:0:0:
138,0,187402,22,0,B|107:51|126:99|187:117|187:117|234:105|267:125|276:162,1,251.999992309571,6|0,3:2|0:0,0:0:0:0:
146,384,187926,6,0,B|205:385|237:344|222:283|222:283|188:248|189:209|217:183,1,251.999992309571,6|0,3:2|0:0,0:0:0:0:
476,184,188449,6,0,B|447:131|396:124|350:167|350:167|337:214|303:233|266:222,1,251.999992309571,6|0,3:2|0:0,0:0:0:0:
24,92,188885,21,2,0:0:0:0:
24,92,188972,2,0,B|-17:82|-21:25|47:-36|119:26|121:81|96:138,1,251.999992309571,6|0,3:2|0:0,0:0:0:0:
75,255,189495,6,0,B|82:280|53:299|-1:282|9:223|39:205|77:201,1,161.999995056153,6|0,3:2|0:0,0:0:0:0:
193,167,189844,6,0,B|207:151|233:164|243:209|197:226|172:212|154:187,1,135,6|0,3:2|0:0,0:0:0:0:
197,84,190193,6,0,B|245:24|324:47|340:101|333:101|343:168|387:217|501:166|499:94|474:32|368:16|322:68|284:138|313:209,1,540,6|0,3:2|0:0,0:0:0:0:
307,193,191588,38,0,P|313:205|328:223,2,26.9999991760254,2|2|2,0:0|0:0|0:0,0:0:0:0:
307,193,192112,1,2,0:0:0:0:
445,296,192286,5,2,0:0:0:0:
437,308,192373,1,2,0:0:0:0:
416,320,192461,1,2,0:0:0:0:
380,325,192548,1,2,0:0:0:0:
343,319,192635,1,2,0:0:0:0:
301,292,192722,1,2,0:0:0:0:
251,263,192809,1,2,0:0:0:0:
189,262,192897,1,2,0:0:0:0:
140,305,192984,38,0,B|188:281|196:210|138:186|138:186|106:198|92:226|106:253,1,215.999993408203,6|0,3:2|3:2,0:0:0:0:
100,233,193507,1,2,0:0:0:0:
55,371,193681,2,0,P|151:324|256:300,1,215.999993408203,2|0,3:2|3:2,0:0:0:0:
256,300,194205,1,2,0:0:0:0:
481,194,194379,6,0,B|465:166|488:87|488:87|446:157|402:163,1,215.999993408203,0|0,3:2|3:2,0:0:0:0:
413,160,194902,1,2,0:0:0:0:
246,29,195077,1,2,3:2:0:0:
236,139,195251,1,2,0:0:0:0:
332,94,195426,1,2,3:2:0:0:
84,103,195600,37,2,0:0:0:0:
84,103,195687,1,2,0:0:0:0:
84,103,195774,2,0,B|43:98|38:52|38:52|83:8|152:33|159:96,1,215.999993408203,2|0,3:2|3:2,0:0:0:0:
153,74,196298,1,2,0:0:0:0:
121,264,196472,1,2,3:2:0:0:
121,264,196559,1,2,0:3:0:0:
121,264,196647,2,0,P|74:232|13:223,1,107.999996704102,2|0,0:3|3:2,0:0:0:0:
138,164,196995,1,2,0:0:0:0:
99,361,197170,22,0,L|136:353,1,36,0|0,3:2|0:0,0:0:0:0:
234,329,197344,2,0,L|271:321,1,36,8|0,0:0|0:0,0:0:0:0:
369,297,197519,6,0,L|406:289,1,33.75,10|0,3:2|0:0,0:0:0:0:
473,261,197867,5,10,3:2:0:0:
451,224,197955,1,0,1:2:0:0:
407,203,198042,1,0,1:2:0:0:
352,209,198129,1,0,1:2:0:0:
310,250,198216,1,8,3:2:0:0:
245,253,198304,1,8,0:0:0:0:
187,222,198391,1,8,0:0:0:0:
177,156,198478,1,8,0:0:0:0:
217,97,198565,22,0,L|162:351,1,233.999989288331,6|8,3:2|0:0,0:0:0:0:
167,325,199088,1,2,0:0:0:0:
38,240,199263,1,2,3:2:0:0:
286,156,199437,1,0,3:2:0:0:
76,52,199612,2,0,L|100:166,1,107.999996704102,8|2,0:0|0:0,0:0:0:0:
478,360,199961,6,0,P|510:275|420:282,1,215.999993408203,2|8,3:2|0:0,0:0:0:0:
243,382,200484,2,0,L|253:332,1,45,2|0,0:0|0:0,0:0:0:0:
286,156,200658,1,2,3:2:0:0:
388,365,200833,1,0,3:2:0:0:
190,251,201007,1,8,0:0:0:0:
402,134,201181,5,2,0:3:0:0:
402,134,201269,1,2,0:3:0:0:
402,134,201356,2,0,B|395:94|359:87|359:87|379:108|380:130,1,107.999996704102,2|0,3:2|0:0,0:0:0:0:
271,265,201705,2,0,P|331:228|383:222,1,107.999996704102,10|0,0:0|0:0,0:0:0:0:
83,334,202054,1,2,3:2:0:0:
12,173,202228,1,0,3:2:0:0:
190,251,202402,2,0,L|83:228,1,107.999996704102,10|0,0:0|0:0,0:0:0:0:
286,156,202751,21,2,3:2:0:0:
387,333,202926,1,0,0:0:0:0:
464,104,203100,1,8,0:0:0:0:
271,265,203274,1,2,0:0:0:0:
479,333,203449,5,0,3:2:0:0:
476,307,203536,1,2,0:3:0:0:
462,280,203623,1,2,0:3:0:0:
440,257,203711,1,2,0:3:0:0:
398,240,203798,1,10,0:0:0:0:
365,202,203885,1,2,0:0:0:0:
369,141,203972,1,2,0:0:0:0:
409,103,204059,1,2,0:0:0:0:
464,104,204147,6,0,B|396:138|347:89|347:89|326:21|248:33,1,233.999989288331,6|8,3:2|0:0,0:0:0:0:
30,172,204670,2,0,L|19:124,1,45,2|0,0:0|0:0,0:0:0:0:
88,31,204844,2,0,L|113:151,1,107.999996704102,2|0,3:2|3:2,0:0:0:0:
146,352,205193,1,8,0:0:0:0:
204,183,205367,1,2,0:0:0:0:
0,328,205542,22,0,P|37:288|96:283,1,107.999996704102,2|0,3:2|3:2,0:0:0:0:
271,375,205891,1,8,0:0:0:0:
180,261,206065,1,2,0:0:0:0:
399,180,206240,1,2,3:2:0:0:
367,384,206414,1,2,3:2:0:0:
204,183,206588,2,0,L|263:195,1,45,10|0,0:0|0:0,0:0:0:0:
457,236,206763,1,2,0:0:0:0:
367,384,206937,6,0,L|321:168,1,215.999993408203,0|8,3:2|0:0,0:0:0:0:
507,118,207461,2,0,P|489:137|463:143,1,45,2|0,0:0|0:0,0:0:0:0:
348,34,207635,2,0,P|401:33|445:62,1,107.999996704102,0|0,3:2|3:2,0:0:0:0:
263,115,207984,2,0,L|239:3,1,107.999996704102,8|2,0:0|3:2,0:0:0:0:
0,253,208333,5,2,0:0:0:0:
185,176,208507,1,0,3:2:0:0:
102,131,208681,21,10,0:0:0:0:
276,226,208856,1,0,0:0:0:0:
207,312,209030,5,2,3:2:0:0:
392,235,209204,1,0,3:2:0:0:
263,115,209379,5,10,0:0:0:0:
288,131,209466,1,2,0:3:0:0:
329,129,209554,1,2,0:3:0:0:
370,110,209641,1,2,0:3:0:0:
383,68,209728,22,0,P|290:121|227:243,1,233.999989288331,6|8,3:2|0:0,0:0:0:0:
396,358,210251,1,2,0:0:0:0:
396,358,210338,1,2,0:0:0:0:
396,358,210426,2,0,B|463:342|492:292|472:226|427:217|380:241|389:282,1,233.999989288331,0|8,3:2|0:0,0:0:0:0:
501,384,210949,1,2,0:0:0:0:
271,291,211123,6,0,B|238:265|200:269|175:301|175:301|163:341|126:349,1,175.499991966248,2|0,3:2|0:0,0:0:0:0:
100,279,211472,1,10,0:0:0:0:
234,363,211647,1,2,3:2:0:0:
191,186,211821,1,2,3:2:0:0:
7,327,211995,2,0,L|17:278,1,45,0|0,3:2|0:0,0:0:0:0:
61,93,212170,6,0,L|71:44,1,45,8|0,0:0|0:0,0:0:0:0:
70,48,212431,21,0,1:0:0:0:
70,48,212519,1,6,3:2:0:0:
285,149,212693,1,0,0:0:0:0:
100,279,212867,1,10,0:0:0:0:
158,22,213042,1,0,0:0:0:0:
370,223,213216,1,2,3:2:0:0:
334,39,213391,1,0,1:2:0:0:
334,39,213478,1,0,1:2:0:0:
334,39,213565,2,0,B|336:11|363:4|363:4|341:19|338:41,1,90,10|0,0:0|0:0,0:0:0:0:
14,188,213914,37,2,3:2:0:0:
61,153,214001,1,2,0:0:0:0:
120,141,214088,1,2,0:0:0:0:
179,148,214176,1,2,0:0:0:0:
233,180,214263,1,2,3:2:0:0:
272,215,214350,1,2,0:0:0:0:
319,230,214437,1,2,0:0:0:0:
370,223,214524,1,2,0:0:0:0:
409,194,214612,5,2,3:3:0:0:
406,171,214699,1,2,0:3:0:0:
392,154,214786,1,2,0:3:0:0:
371,149,214873,1,2,0:3:0:0:
350,156,214960,1,2,3:3:0:0:
337,174,215048,1,2,0:3:0:0:
337,196,215135,1,2,0:3:0:0:
349,214,215222,1,2,0:3:0:0:
370,222,215309,6,0,P|420:183|494:184,1,135,4|0,3:2|0:0,0:0:0:0:
489,182,215658,1,2,3:2:0:0:
379,372,215833,2,0,B|362:341|368:302|368:302|348:340|308:352,1,144,2|0,0:0|0:0,0:0:0:0:
379,372,216356,1,0,3:2:0:0:
290,269,216530,1,2,0:0:0:0:
164,342,216705,22,0,P|196:329|242:325,1,72,2|0,3:2|0:0,0:0:0:0:
45,375,217054,2,0,P|49:340|69:298,1,72,2|0,3:2|0:0,0:0:0:0:
210,217,217402,2,0,P|178:229|131:233,1,72,2|0,3:2|0:0,0:0:0:0:
243,134,217751,2,0,B|275:144|283:175|283:175|267:151|243:146,1,108,0|0,3:2|0:0,0:0:0:0:
152,125,218100,22,0,P|172:71|226:24,1,121.499996292114,2|0,3:2|0:0,0:0:0:0:
217,28,218449,1,2,3:2:0:0:
34,17,218623,2,0,P|65:32|89:62,1,72,2|0,0:0|3:2,0:0:0:0:
243,134,218972,2,0,P|274:119|298:89,1,72,2|0,0:0|3:2,0:0:0:0:
412,11,219321,1,2,0:0:0:0:
412,11,219495,21,2,3:2:0:0:
493,136,219670,1,2,0:0:0:0:
491,47,219844,1,2,3:2:0:0:
410,172,220019,1,2,0:0:0:0:
327,285,220193,21,2,3:2:0:0:
327,198,220367,1,2,0:0:0:0:
460,242,220542,1,2,3:2:0:0:
460,242,220716,1,2,0:0:0:0:
301,384,220891,6,0,P|248:345|167:335,1,135,2|0,3:2|0:0,0:0:0:0:
180,333,221240,1,2,3:2:0:0:
437,347,221414,2,0,B|495:352|528:288|528:288|495:324|463:321,1,180,2|0,0:0|0:0,0:0:0:0:
437,347,221937,1,0,3:2:0:0:
460,242,222112,1,2,0:0:0:0:
327,285,222286,6,0,P|308:248|286:225,1,72,2|0,3:2|0:0,0:0:0:0:
432,104,222635,1,2,3:2:0:0:
385,186,222809,1,2,0:0:0:0:
267,134,222984,2,0,P|305:116|347:110,1,72,2|0,3:2|0:0,0:0:0:0:
152,166,223333,2,0,P|155:124|171:84,1,72,2|0,3:2|0:0,0:0:0:0:
29,240,223681,38,0,B|15:279|40:312|78:306|80:302|81:299|103:290|146:308|133:358,2,180,2|0|0,3:2|3:2|3:2,0:0:0:0:
62,380,224554,1,0,0:0:0:0:
208,295,224728,2,0,P|188:258|162:238,1,72,2|2,3:2|0:0,0:0:0:0:
377,85,225077,2,0,P|298:136|252:220,2,180,2|0|2,3:2|3:2|3:2,0:0:0:0:
183,154,225949,1,0,1:2:0:0:
183,154,226036,1,0,1:2:0:0:
183,154,226123,2,0,P|158:122|106:98,1,80.9999975280763,0|0,3:2|0:0,0:0:0:0:
28,79,226472,6,0,L|204:41,1,180,6|0,3:2|3:2,0:0:0:0:
377,85,226995,2,0,P|342:67|322:33,1,72,2|0,0:3|3:2,0:0:0:0:
495,14,227344,1,2,0:3:0:0:
495,14,227431,1,2,0:3:0:0:
495,14,227519,2,0,L|475:103,1,72,2|0,3:2|0:0,0:0:0:0:
462,235,227867,6,0,B|421:229|401:191|425:151|425:151|442:169|478:178,1,144,2|0,3:2|3:2,0:0:0:0:
368,272,228391,1,2,0:0:0:0:
242,250,228565,2,0,P|274:215|363:194,1,108,0|0,3:2|0:0,0:0:0:0:
326,176,228914,2,0,P|306:181|289:191,1,36,2|0,3:2|0:0,0:0:0:0:
156,324,229088,37,2,0:3:0:0:
156,324,229176,1,2,0:3:0:0:
156,324,229263,2,0,L|115:140,1,180,6|0,3:2|3:2,0:0:0:0:
94,40,229786,2,0,P|71:74|34:90,1,72,2|0,0:3|3:2,0:0:0:0:
14,12,230135,1,0,0:0:0:0:
196,11,230309,2,0,L|179:86,1,72,2|0,3:2|0:0,0:0:0:0:
234,176,230571,5,2,0:3:0:0:
234,176,230658,2,0,B|276:130|343:153|343:153|362:197|412:207,1,180,2|0,3:2|3:2,0:0:0:0:
295,236,231181,1,2,0:0:0:0:
475,199,231356,1,0,3:2:0:0:
475,199,231443,1,2,0:3:0:0:
475,199,231530,2,0,L|485:148,1,45,2|2,0:3|0:3,0:0:0:0:
424,79,231705,2,0,L|412:132,3,45,2|2|2|2,3:2|0:3|0:3|0:3,0:0:0:0:
283,49,232054,38,0,B|268:1|302:-26|350:-28|367:17|367:17|355:28|349:40,1,161.999995056153,6|0,3:2|0:0,0:0:0:0:
338,104,232402,1,2,3:2:0:0:
197,10,232577,1,2,0:0:0:0:
120,155,232751,2,0,L|266:123,1,144,0|0,3:2|3:2,0:0:0:0:
62,64,233274,6,0,P|44:41|12:28,1,53.9999983520508,2|0,0:0|3:2,0:0:0:0:
80,188,233623,2,0,P|98:165|130:152,1,53.9999983520508,2|0,0:0|3:2,0:0:0:0:
62,312,233972,2,0,P|44:289|12:276,1,53.9999983520508,2|0,0:0|3:2,0:0:0:0:
119,384,234321,2,0,L|177:371,2,53.9999983520508,0|0|0,0:0|3:2|0:0,0:0:0:0:
273,299,234844,38,0,B|308:268|355:295|355:295|371:328|403:335,1,135,2|0,3:2|0:0,0:0:0:0:
385,328,235193,2,0,P|368:335|355:344,1,26.9999991760254,2|0,3:2|0:0,0:0:0:0:
453,278,235367,2,0,P|438:267|423:260,7,26.9999991760254,2|2|2|2|2|2|2|2,0:0|0:3|3:3|0:3|0:3|0:3|3:3|0:3,0:0:0:0:
359,210,236065,5,2,0:3:0:0:
359,210,236152,1,2,0:3:0:0:
359,210,236240,2,0,P|412:179|442:139,1,107.999996704102,0|0,3:2|0:0,0:0:0:0:
447,151,236501,1,0,1:2:0:0:
447,151,236588,2,0,P|462:166|487:174,1,36,8|0,0:0|0:0,0:0:0:0:
359,55,236763,2,0,P|312:27|229:28,1,108,6|0,3:2|0:0,0:0:0:0:
185,33,237112,1,0,3:2:0:0:
235,166,237286,1,2,0:0:0:0:
235,166,237461,1,0,3:2:0:0:
43,66,237635,38,0,B|38:52|18:32|18:32|100:48|100:48|107:79|137:98,1,180,6|2,3:2|0:0,0:0:0:0:
128,92,238158,1,0,3:2:0:0:
15,233,238333,2,0,L|5:187,1,26.9999991760254,8|0,0:0|0:0,0:0:0:0:
73,148,238507,2,0,L|89:223,1,72
94,371,238856,2,0,P|65:354|43:350,1,53.9999983520508,0|0,3:2|0:0,0:0:0:0:
190,384,239205,2,0,P|190:350|182:329,1,53.9999983520508,0|0,3:2|0:0,0:0:0:0:
116,288,239554,1,0,3:2:0:0:
281,381,239728,2,0,P|293:372|313:366,1,26.9999991760254,8|0,0:0|0:0,0:0:0:0:
368,299,239902,2,0,P|405:307|447:337,1,72,0|0,0:0|3:2,0:0:0:0:
272,281,240251,5,0,1:2:0:0:
272,281,240338,1,0,1:2:0:0:
272,281,240426,2,0,B|251:228|303:193|303:193|356:200|381:151,1,180,2|0,3:2|0:0,0:0:0:0:
371,166,240949,1,0,3:2:0:0:
357,36,241123,2,0,L|394:43,1,36,8|0,0:0|0:0,0:0:0:0:
504,64,241298,1,2,1:2:0:0:
504,64,241385,1,0,1:2:0:0:
504,64,241472,1,0,1:2:0:0:
314,112,241647,38,0,P|293:93|262:85,1,53.9999983520508,2|0,3:2|0:0,0:0:0:0:
191,117,241995,1,0,3:2:0:0:
202,36,242170,1,8,3:3:0:0:
131,0,242344,1,4,3:3:0:0:
72,57,242519,5,2,0:0:0:0:
61,71,242606,1,2,0:0:0:0:
59,90,242693,1,2,1:2:0:0:
71,116,242780,1,2,1:2:0:0:
108,137,242867,1,10,0:0:0:0:
153,162,242955,1,10,0:0:0:0:
171,217,243042,1,10,0:0:0:0:
140,268,243129,1,10,0:0:0:0:
79,286,243216,6,0,B|121:237|176:262|176:262|191:299|231:309,1,161.999995056153,6|0,3:2|0:0,0:0:0:0:
283,225,243565,2,0,L|242:233,1,36,8|0,0:0|0:0,0:0:0:0:
315,370,243740,1,2,0:0:0:0:
480,275,243914,1,2,3:2:0:0:
283,225,244088,1,2,3:2:0:0:
405,345,244263,2,0,L|393:291,1,36,10|0,0:0|0:0,0:0:0:0:
347,164,244437,6,0,P|370:206|415:217,1,90,2|0,3:2|0:0,0:0:0:0:
435,46,244786,2,0,P|387:44|355:78,1,90,2|8,3:2|0:0,0:0:0:0:
493,181,245135,2,0,P|517:140|504:95,1,90,2|0,3:2|3:2,0:0:0:0:
423,131,245484,1,2,3:2:0:0:
245,20,245658,2,0,L|265:117,1,90,8|0,0:0|0:0,0:0:0:0:
263,108,245920,21,2,0:0:0:0:
263,108,246007,1,0,3:2:0:0:
101,65,246181,1,2,0:0:0:0:
177,172,246356,2,0,L|186:126,1,36,8|0,0:0|0:0,0:0:0:0:
19,111,246530,2,0,P|49:152|88:161,1,90,2|0,0:0|3:2,0:0:0:0:
249,198,246879,2,0,L|243:234,1,36,2|0,3:2|0:0,0:0:0:0:
186,320,247054,37,10,0:0:0:0:
186,320,247141,1,2,0:0:0:0:
186,320,247228,2,0,B|189:261|244:244|287:268|287:268|296:293|279:324|245:327,1,202.500007724762,6|0,3:2|0:0,0:0:0:0:
116,372,247577,2,0,P|107:356|99:331,1,36,2|0,3:2|0:0,0:0:0:0:
12,290,247751,2,0,P|21:274|39:254,1,36,10|0,0:0|0:0,0:0:0:0:
177,172,247926,21,2,0:0:0:0:
160,179,248013,1,2,0:0:0:0:
134,179,248100,1,2,3:2:0:0:
106,156,248187,1,2,0:0:0:0:
99,113,248274,1,2,3:2:0:0:
126,78,248362,1,2,0:0:0:0:
171,64,248449,1,10,0:0:0:0:
223,82,248536,1,2,0:0:0:0:
258,128,248623,1,2,1:2:0:0:
306,157,248711,1,2,1:2:0:0:
362,147,248798,6,0,L|351:195,1,36,6|0,3:2|0:0,0:0:0:0:
326,344,248972,1,2,0:0:0:0:
326,344,249059,1,2,0:0:0:0:
326,344,249147,1,10,0:0:0:0:
496,292,249321,21,2,0:0:0:0:
479,248,249408,1,2,0:0:0:0:
433,250,249496,1,2,3:2:0:0:
420,296,249583,1,2,0:0:0:0:
460,322,249670,1,2,3:2:0:0:
258,272,249844,5,10,0:0:0:0:
221,227,249931,1,2,0:0:0:0:
252,179,250019,1,2,3:2:0:0:
308,194,250106,1,2,0:0:0:0:
312,252,250193,1,2,0:0:0:0:
456,171,250367,5,2,3:2:0:0:
500,117,250454,1,2,0:0:0:0:
463,59,250542,1,10,0:0:0:0:
396,77,250629,1,2,0:0:0:0:
391,147,250716,1,2,0:0:0:0:
112,133,250891,21,2,3:2:0:0:
93,58,251007,5,2,0:0:0:0:
148,5,251123,5,2,0:0:0:0:
222,26,251240,21,10,0:0:0:0:
241,100,251356,5,2,0:0:0:0:
185,154,251472,5,2,0:0:0:0:
93,58,251588,22,0,P|73:42|40:34,1,36,6|0,3:2|0:0,0:0:0:0:
3,134,251763,2,0,P|23:150|56:158,1,36,2|0,0:0|0:0,0:0:0:0:
241,100,251937,2,0,P|261:84|294:76,1,36,10|0,0:0|0:0,0:0:0:0:
463,59,252112,6,0,L|348:35,1,107.999996704102,6|0,3:2|0:0,0:0:0:0:
301,196,252461,2,0,P|317:187|331:176,1,36,10|0,0:0|0:0,0:0:0:0:
270,79,252635,2,0,P|254:88|241:100,1,36,2|0,3:2|0:0,0:0:0:0:
69,304,252809,6,0,B|40:302|23:276|27:249|27:249|66:207|140:229|150:304,1,229.500004377365,6|0,0:0|0:0,0:0:0:0:
173,366,253158,2,0,P|197:352|220:322,1,45,2|0,3:2|0:0,0:0:0:0:
312,323,253333,2,0,P|311:295|297:260,1,45,10|0,0:0|0:0,0:0:0:0:
186,155,253507,1,2,3:2:0:0:
371,194,253681,22,0,P|346:180|309:175,1,45,10|0,0:0|0:0,0:0:0:0:
154,79,253856,2,0,P|130:93|107:123,1,45,10|0,3:2|0:0,0:0:0:0:
64,281,254030,6,0,L|69:307,3,22.5,14|2|2|2,0:0|0:3|0:3|0:3,0:0:0:0:
11,202,254379,21,6,3:2:0:0:
11,188,254466,1,2,0:3:0:0:
22,173,254554,1,2,0:3:0:0:
44,169,254641,1,2,0:3:0:0:
63,176,254728,1,10,0:0:0:0:
72,201,254815,1,2,0:3:0:0:
98,215,254902,1,2,0:3:0:0:
134,203,254990,1,2,0:3:0:0:
141,164,255077,1,10,0:0:0:0:
162,124,255164,1,2,0:3:0:0:
207,117,255251,1,2,3:3:0:0:
242,141,255338,1,2,0:3:0:0:
249,187,255426,1,10,0:0:0:0:
286,219,255513,1,2,0:3:0:0:
335,217,255600,1,2,3:3:0:0:
371,184,255687,1,2,0:3:0:0:
367,135,255774,5,8,0:0:0:0:
347,141,255862,1,2,0:3:0:0:
331,155,255949,1,2,3:3:0:0:
325,186,256036,1,2,0:3:0:0:
335,217,256123,1,10,0:0:0:0:
370,240,256211,1,2,0:3:0:0:
405,267,256298,1,2,3:3:0:0:
409,310,256385,1,2,0:3:0:0:
379,346,256472,5,10,0:0:0:0:
335,324,256559,1,2,0:3:0:0:
317,271,256647,1,2,3:2:0:0:
335,217,256734,1,2,0:0:0:0:
387,186,256821,1,10,0:0:0:0:
450,171,256908,1,2,0:0:0:0:
491,108,256995,1,2,3:2:0:0:
464,34,257083,1,2,0:0:0:0:
394,12,257170,6,0,B|333:-18|284:24|284:24|267:66|208:69,1,188.999994232178,10|0,0:0|0:0,0:0:0:0:
133,46,257519,2,0,L|145:102,1,45,10|0,0:0|0:0,0:0:0:0:
76,215,257693,2,0,L|51:99,1,107.999996704102,2|8,3:2|0:0,0:0:0:0:
209,153,258042,1,2,3:2:0:0:
26,298,258216,1,8,0:0:0:0:
287,380,258391,2,0,B|322:369|318:320|318:320|298:338|276:344,1,107.999996704102,2|8,3:2|0:0,0:0:0:0:
155,247,258740,5,2,1:2:0:0:
155,247,258827,1,2,1:2:0:0:
155,247,258914,2,0,L|259:268,1,107.999996704102,10|2,0:0|1:2,0:0:0:0:
214,341,259176,1,2,1:2:0:0:
214,341,259263,2,0,L|168:331,1,45,12|0,0:0|0:0,0:0:0:0:
317,168,259437,1,2,3:2:0:0:
404,364,259612,1,10,0:0:0:0:
512,183,259786,5,2,1:2:0:0:
512,183,259873,1,0,1:2:0:0:
512,183,259961,2,0,B|490:152|446:134|395:179|395:179|391:217|348:244,1,188.999994232178,6|0,3:2|0:0,0:0:0:0:
275,155,260309,2,0,P|299:157|324:175,1,45,10|0,0:0|0:0,0:0:0:0:
474,325,260484,2,0,L|453:229,1,90,2|0,0:0|3:2,0:0:0:0:
512,36,260833,2,0,B|508:61|517:89|517:89|490:75|454:73,1,107.999996704102,2|8,3:2|0:0,0:0:0:0:
197,118,261181,6,0,B|174:68|222:8|302:27|302:27|297:58|308:89,1,215.999993408203,6|0,3:2|3:2,0:0:0:0:
124,255,261705,2,0,P|65:228|12:220,1,107.999996704102,8|0,0:0|0:0,0:0:0:0:
217,355,262054,1,10,0:0:0:0:
415,246,262228,1,2,1:2:0:0:
415,246,262315,1,0,1:2:0:0:
415,246,262402,2,0,L|403:297,1,45,10|0,0:0|0:0,0:0:0:0:
212,228,262577,5,2,1:2:0:0:
212,228,262664,1,0,1:2:0:0:
212,228,262751,2,0,B|198:156|279:141|279:141|334:153|361:113,1,202.500007724762,6|0,3:2|0:0,0:0:0:0:
294,32,263100,2,0,L|302:70,1,36,8|0,0:0|0:0,0:0:0:0:
336,219,263274,1,0,3:2:0:0:
130,122,263449,1,10,0:0:0:0:
375,53,263623,1,2,3:2:0:0:
253,332,263798,1,2,3:2:0:0:
78,196,263972,6,0,B|51:179|41:142|41:142|26:211|70:244|128:240|128:240|132:243|132:243|146:197|202:149|275:175,1,396.000012084961,6|2,3:2|0:3,0:0:0:0:
264,171,264757,1,2,0:3:0:0:
264,171,264844,1,2,0:3:0:0:
448,200,287867,38,0,L|435:256,5,45,0|0|0|0|0|0,3:2|0:0|3:2|0:0|3:2|0:0,0:0:0:0:
395,85,288914,2,0,P|424:106|461:110,1,67.5,2|0,3:2|0:0,0:0:0:0:
454,110,289263,6,0,P|397:119|354:183,1,125.999996154785,2|2,3:2|3:2,0:0:0:0:
296,266,289786,1,2,0:0:0:0:
296,266,289961,2,0,L|365:251,1,62.9999980773926,0|2,3:2|0:0,0:0:0:0:
225,372,290309,2,0,P|186:325|117:321,1,125.999996154785,0|2,3:2|3:2,0:0:0:0:
124,318,290833,1,2,0:0:0:0:
153,240,291007,1,0,3:2:0:0:
88,189,291181,1,2,0:0:0:0:
13,216,291356,1,0,3:2:0:0:
88,189,291530,1,2,0:0:0:0:
76,202,291705,1,0,3:2:0:0:
29,201,291879,1,2,0:0:0:0:
13,216,292054,37,0,3:2:0:0:
25,122,292228,1,2,0:0:0:0:
96,80,292402,1,0,3:2:0:0:
172,90,292577,1,2,0:0:0:0:
242,107,292751,1,0,3:2:0:0:
287,90,292926,1,2,0:0:0:0:
300,52,293100,1,0,3:2:0:0:
289,28,293274,1,2,0:0:0:0:
422,143,293449,6,0,L|467:133,5,45,2|0|0|0|0|0,3:2|0:0|3:2|0:0|3:2|0:0,0:0:0:0:
393,228,294495,2,0,P|361:211|345:183,1,67.5,2|0,3:2|0:0,0:0:0:0:
337,108,294844,38,0,P|326:161|267:205,1,125.999996154785,2|2,3:2|3:2,0:0:0:0:
139,261,295367,2,0,P|153:232|179:210,1,62.9999980773926,2|0,0:0|3:2,0:0:0:0:
3,99,295716,1,2,0:0:0:0:
3,99,295891,2,0,P|59:128|93:192,1,125.999996154785,0|2,3:2|3:2,0:0:0:0:
90,180,296414,5,2,0:0:0:0:
144,113,296588,1,0,3:2:0:0:
233,88,296763,1,2,0:0:0:0:
313,119,296937,1,0,3:2:0:0:
233,88,297112,1,2,0:0:0:0:
252,108,297286,1,0,3:2:0:0:
300,102,297461,1,2,0:0:0:0:
313,119,297635,37,0,3:2:0:0:
382,67,297809,1,2,0:0:0:0:
465,101,297984,1,0,3:2:0:0:
473,184,298158,1,2,0:0:0:0:
420,242,298333,1,0,3:2:0:0:
382,268,298507,1,2,0:0:0:0:
376,303,298681,1,0,3:2:0:0:
395,334,298856,1,2,0:0:0:0:
290,245,299030,6,0,P|250:214|160:203,1,144,6|2,3:2|3:2,0:0:0:0:
64,191,299554,2,0,P|80:161|107:132,1,62.9999980773926,2|0,0:0|3:2,0:0:0:0:
199,59,299902,1,2,0:0:0:0:
199,59,300077,2,0,P|165:60|126:51,1,62.9999980773926,2|0,3:2|0:0,0:0:0:0:
296,145,300426,38,0,P|327:82|378:44,1,125.999996154785,2|0,3:2|3:2,0:0:0:0:
381,173,300949,2,0,P|394:144|416:122,1,62.9999980773926,2|0,0:0|3:2,0:0:0:0:
467,196,301298,1,2,0:0:0:0:
346,286,301472,2,0,P|327:261|319:230,1,62.9999980773926,2|2,3:2|0:0,0:0:0:0:
508,301,301821,6,0,B|464:282|421:317|421:317|404:360|362:363,1,161.999995056153,6|2,3:2|3:2,0:0:0:0:
245,384,302344,2,0,P|269:360|305:345,1,62.9999980773926,2|0,0:0|3:2,0:0:0:0:
176,287,302693,1,2,0:0:0:0:
176,287,302867,2,0,P|127:248|65:237,1,125.999996154785,2|0,3:2|3:2,0:0:0:0:
65,237,303391,37,2,0:0:0:0:
126,172,303565,1,2,3:2:0:0:
101,93,303740,1,2,0:0:0:0:
21,63,303914,1,2,3:2:0:0:
191,116,304088,1,0,1:2:0:0:
191,116,304176,1,2,1:2:0:0:
191,116,304263,2,0,P|231:107|275:81,1,80.9999975280763,2|2,3:2|0:0,0:0:0:0:
328,40,304524,37,0,1:2:0:0:
328,40,304612,2,0,L|296:185,1,121.499996292114,6|0,3:2|0:0,0:0:0:0:
301,158,304961,2,0,P|327:140|372:144,1,62.9999980773926,0|0,3:2|0:0,0:0:0:0:
187,237,305309,2,0,P|213:255|258:251,1,62.9999980773926,2|0,3:2|0:0,0:0:0:0:
73,158,305658,2,0,P|99:140|144:144,1,62.9999980773926,0|0,3:2|0:0,0:0:0:0:
56,283,306007,38,0,B|40:247|12:222|12:222|34:235|54:241,1,121.499996292114,2|0,3:2|0:0,0:0:0:0:
133,314,306356,2,0,P|115:344|82:365,1,62.9999980773926,0|0,3:2|0:0,0:0:0:0:
240,180,306705,2,0,P|273:153|331:147,1,80.9999975280763,2|0,3:2|0:0,0:0:0:0:
389,152,306966,21,0,1:0:0:0:
389,152,307054,2,0,L|379:108,1,40.4999987640381,0|0,3:2|0:0,0:0:0:0:
401,45,307402,38,0,L|359:242,1,175.499991966248,6|0,3:2|0:0,0:0:0:0:
351,290,307751,1,2,0:0:0:0:
495,199,307926,1,2,0:0:0:0:
247,104,308100,1,10,0:0:0:0:
319,384,308274,1,2,3:2:0:0:
433,171,308449,1,10,0:0:0:0:
289,238,308623,1,2,3:2:0:0:
474,284,308798,37,6,3:2:0:0:
408,52,308972,1,0,1:2:0:0:
408,52,309059,1,0,1:2:0:0:
408,52,309147,1,10,0:0:0:0:
170,207,309321,1,2,0:0:0:0:
433,171,309495,1,2,3:2:0:0:
168,33,309670,1,2,1:2:0:0:
168,33,309757,1,0,1:2:0:0:
168,33,309844,2,0,B|125:50|115:98|156:125|156:125|155:129|155:129|195:122|226:152,1,175.499991966248,2|0,3:2|0:0,0:0:0:0:
289,238,310193,22,0,L|335:16,2,198.000006042481,6|0|0,3:2|3:2|3:2,0:0:0:0:
289,238,311065,1,0,1:2:0:0:
96,384,311240,1,2,3:2:0:0:
107,360,311327,1,2,0:0:0:0:
97,320,311414,1,2,0:0:0:0:
54,306,311501,1,2,0:0:0:0:
12,328,311588,38,0,P|31:322|58:309,1,45,0|0,3:2|0:0,0:0:0:0:
139,364,311763,2,0,P|144:344|146:314,1,45,0|0,1:2|0:0,0:0:0:0:
255,283,311937,2,0,P|240:268|215:252,1,45,8|0,3:2|0:0,0:0:0:0:
240,110,312112,2,0,P|220:115|193:128,1,45,8|0,0:0|0:0,0:0:0:0:
22,83,312286,2,0,P|16:102|14:132,1,45,8|0,3:2|0:0,0:0:0:0:
12,328,312461,2,0,P|31:322|58:309,1,45,0|0,1:2|1:2,0:0:0:0:
256,191,312635,22,0,P|276:181|297:174,1,40.4999987640381,0|0,3:2|0:0,0:0:0:0:
330,254,312984,22,0,B|348:295|329:352|265:359|265:359|226:341|229:294|229:294|254:285|269:268,1,251.999992309571,6|0,3:2|0:0,0:0:0:0:
263,56,313507,6,0,B|289:19|348:7|386:58|386:58|390:101|348:122|348:122|328:105|305:101,1,251.999992309571,6|0,3:2|0:0,0:0:0:0:
126,214,314030,22,0,B|80:208|41:164|66:105|66:105|102:80|141:106|141:106|136:133|144:153,1,251.999992309571,6|0,3:2|0:0,0:0:0:0:
411,237,314466,5,2,0:0:0:0:
411,237,314554,2,0,B|441:218|441:218|432:170|452:128|452:128|431:170|390:194|390:194|393:227,1,251.999992309571,6|0,3:2|0:0,0:0:0:0:
400,326,315077,6,0,B|399:348|399:348|429:359|447:384|447:384|429:358|429:326|429:326|408:316,1,161.999995056153,6|0,3:2|0:0,0:0:0:0:
323,271,315426,22,0,B|306:261|306:261|285:278|260:281|260:281|286:279|308:292|308:292|323:281,1,135,6|0,3:2|0:0,0:0:0:0:
254,204,315774,38,0,B|203:167|131:182|100:236|103:283|103:283|-2:212|61:58|203:84|203:84|207:82|207:82|266:150|403:154|402:54|389:21|347:-7|290:4|273:48,1,864,6|0,3:2|0:0,0:0:0:0:
397,346,318565,6,0,B|462:351|504:284|484:199|385:169|309:226|325:308|325:308|325:364|269:378|269:378|262:344|225:320,1,504,6|0,3:2|0:0,0:0:0:0:
66,297,319961,38,0,B|47:282|12:272|-32:287|-71:374|-15:426|87:423|110:359|101:359|89:293|117:237|180:230|227:250|227:250|179:257|165:299,1,504,6|0,3:2|0:0,0:0:0:0:
239,330,321356,6,0,L|193:109,1,216,6|0,3:2|0:0,0:0:0:0:
312,314,322054,6,0,L|327:384,1,45.0000017166138,10|0,3:2|0:0,0:0:0:0:
128,164,322286,6,0,L|59:141,1,45.0000017166138,10|0,3:2|0:0,0:0:0:0:
349,79,322519,22,0,L|402:31,1,45.0000017166138,10|0,3:2|0:0,0:0:0:0:
256,192,322751,37,0,3:2:0:0:
256,192,323100,22,0,P|259:185|266:180,1,9,6|0,3:2|0:0,0:0:0:0:
275,182,323187,6,0,P|281:176|292:173,1,11.25,2|0,0:0|0:0,0:0:0:0:
291,188,323274,22,0,P|295:187|308:184,1,13.4999995880127,2|0,0:0|0:0,0:0:0:0:
302,208,323362,6,0,P|309:213|317:222,1,15.7499995193482,2|0,0:0|0:0,0:0:0:0:
292,227,323449,6,0,P|288:238|284:248,1,18,2|0,0:0|0:0,0:0:0:0:
255,237,323536,1,2,0:0:0:0:
229,207,323623,1,2,0:0:0:0:
240,160,323711,1,2,0:0:0:0:
285,138,323798,21,2,0:0:0:0:
346,164,323885,1,2,0:0:0:0:
419,147,323972,1,2,0:0:0:0:
458,78,324059,1,2,0:0:0:0:
423,9,324147,6,0,B|374:37|361:108|425:151|425:151|424:155|424:155|497:152|509:214,1,270.000010299683,6|8,3:2|0:0,0:0:0:0:
363,317,324670,1,2,0:0:0:0:
363,317,324757,1,2,0:0:0:0:
363,317,324844,2,0,P|395:261|440:233,1,107.999996704102,2|0,3:2|3:2,0:0:0:0:
491,311,325106,1,2,0:0:0:0:
491,311,325193,2,0,B|486:340|499:365|499:365|479:347|440:347,1,107.999996704102,8|2,0:0|0:0,0:0:0:0:
263,201,325542,6,0,P|199:160|89:133,1,175.499991966248,2|0,3:2|0:0,0:0:0:0:
21,120,325891,2,0,B|21:92|50:74|50:74|28:94|27:119,1,107.999996704102,8|2,0:0|0:0,0:0:0:0:
0,350,326240,1,0,3:2:0:0:
196,254,326414,1,0,3:2:0:0:
57,195,326588,2,0,L|81:309,1,107.999996704102,8|0,0:0|0:0,0:0:0:0:
297,353,326937,21,2,3:2:0:0:
263,201,327112,1,0,0:0:0:0:
493,122,327286,1,10,0:0:0:0:
431,272,327461,1,0,0:0:0:0:
189,106,327635,1,2,3:2:0:0:
440,30,327809,2,0,L|425:96,1,53.9999983520508,0|0,3:2|0:0,0:0:0:0:
335,155,327984,2,0,L|361:26,1,107.999996704102,10|0,0:0|0:0,0:0:0:0:
128,163,328333,6,0,P|146:182|171:190,1,53.9999983520508,2|0,3:2|0:0,0:0:0:0:
196,274,328507,2,0,P|221:267|240:250,1,53.9999983520508,2|0,3:2|0:0,0:0:0:0:
174,28,328681,6,0,P|148:34|129:51,1,53.9999983520508,8|0,0:0|0:0,0:0:0:0:
43,31,328855,2,0,P|35:56|41:81,1,53.9999983520508,2|0,0:0|0:0,0:0:0:0:
256,164,329031,21,2,3:2:0:0:
267,156,329117,1,2,1:2:0:0:
287,157,329205,1,2,1:2:0:0:
303,178,329292,1,2,1:2:0:0:
289,214,329379,1,10,0:0:0:0:
236,225,329466,1,2,0:0:0:0:
182,198,329554,1,2,0:0:0:0:
128,163,329641,1,2,0:0:0:0:
62,183,329728,6,0,P|42:204|31:227,1,53.9999983520508,6|0,3:2|0:0,0:0:0:0:
52,358,329902,1,0,1:2:0:0:
37,333,329990,1,0,1:2:0:0:
7,327,330077,1,8,3:2:0:0:
195,333,330251,1,2,1:2:0:0:
175,356,330338,1,0,1:2:0:0:
146,357,330426,1,10,3:2:0:0:
333,356,330599,1,0,1:2:0:0:
313,333,330686,1,0,1:2:0:0:
284,332,330774,1,8,3:2:0:0:
477,334,330949,5,2,1:2:0:0:
457,357,331036,1,0,1:2:0:0:
428,358,331123,2,0,P|418:326|408:307,1,53.9999983520508,10|0,3:2|0:0,0:0:0:0:
291,229,331298,1,0,1:2:0:0:
306,254,331386,1,0,1:2:0:0:
336,260,331473,1,8,3:2:0:0:
189,197,331647,1,2,1:2:0:0:
159,197,331735,1,0,1:2:0:0:
139,220,331822,1,10,3:2:0:0:
267,124,331995,1,2,1:2:0:0:
282,98,332083,1,0,1:2:0:0:
272,69,332170,1,10,3:2:0:0:
291,229,332344,21,2,1:2:0:0:
306,254,332432,1,0,1:2:0:0:
336,260,332519,2,0,P|336:232|314:212,1,53.9999983520508,8|0,3:2|0:0,0:0:0:0:
267,124,332693,2,0,P|248:111|226:111,1,45,0|0,1:2|1:3,0:0:0:0:
136,83,332867,2,0,P|119:89|107:103,1,36,8|0,3:2|0:0,0:0:0:0:
31,130,333042,2,0,P|28:143|30:156,1,26.9999991760254,2|0,1:2|1:2,0:0:0:0:
11,236,333216,5,10,3:2:0:0:
24,257,333304,1,8,0:3:0:0:
38,258,333391,1,8,0:3:0:0:
56,258,333478,1,8,0:3:0:0:
68,245,333565,1,4,3:3:0:0:
43,244,333652,1,4,0:3:0:0:
24,257,333740,1,4,0:3:0:0:
17,278,333827,1,4,0:3:0:0:
17,303,333914,6,0,P|18:317|24:337,1,27,0|0,3:2|0:0,0:0:0:0:
44,369,334263,22,0,P|148:283|276:243,1,270,14|0,3:2|0:0,0:0:0:0:
373,251,334612,1,2,3:2:0:0:
340,190,334699,1,2,1:3:0:0:
350,136,334786,1,2,1:3:0:0:
395,109,334873,1,2,1:3:0:0:
442,117,334961,1,2,3:2:0:0:
468,149,335048,1,2,1:3:0:0:
469,179,335135,1,2,1:3:0:0:
460,199,335222,1,2,1:3:0:0:
447,207,335309,6,0,B|406:241|353:206|353:206|326:152|266:159,1,202.500007724762,6|0,3:2|0:0,0:0:0:0:
194,183,335658,1,8,0:0:0:0:
305,25,335833,1,2,0:0:0:0:
305,25,335920,1,2,0:0:0:0:
305,25,336007,1,2,3:2:0:0:
94,162,336181,2,0,L|102:117,1,45,0|0,3:2|0:0,0:0:0:0:
203,52,336356,2,0,L|194:96,1,45,8|0,0:0|0:0,0:0:0:0:
71,26,336530,5,2,0:0:0:0:
71,26,336617,1,2,0:0:0:0:
71,26,336705,1,2,3:2:0:0:
6,188,336879,1,2,0:0:0:0:
27,239,336966,1,2,0:0:0:0:
74,258,337054,1,10,0:0:0:0:
119,254,337141,1,2,0:0:0:0:
151,234,337228,1,2,0:0:0:0:
170,214,337315,1,2,0:0:0:0:
197,211,337402,2,0,P|227:229|239:246,1,45,2|0,3:2|0:0,0:0:0:0:
239,369,337577,21,2,3:2:0:0:
239,369,337664,1,2,0:0:0:0:
239,369,337751,2,0,P|239:334|248:315,1,44.5499998640442,10|0,0:0|0:0,0:0:0:0:
312,269,338100,6,0,P|338:264|361:250,1,53.9999983520508,2|0,3:2|0:0,0:0:0:0:
479,152,338274,1,2,0:0:0:0:
483,167,338362,1,2,0:0:0:0:
488,184,338449,2,0,L|421:169,1,53.9999983520508,10|0,0:0|0:0,0:0:0:0:
349,67,338623,1,2,0:0:0:0:
345,52,338711,1,2,0:0:0:0:
340,35,338798,2,0,L|407:50,1,53.9999983520508,2|0,3:2|0:0,0:0:0:0:
303,173,338972,5,2,3:2:0:0:
273,186,339059,1,2,0:0:0:0:
224,178,339147,1,10,0:0:0:0:
186,134,339234,1,2,0:0:0:0:
130,99,339321,1,2,0:0:0:0:
57,124,339408,1,2,0:0:0:0:
46,202,339495,22,0,B|84:210|98:241|98:241|93:207|121:172,1,135.000005149842,2|0,3:2|0:0,0:0:0:0:
211,259,339757,1,0,1:2:0:0:
211,259,339844,2,0,P|192:240|156:230,1,45,8|0,0:0|0:0,0:0:0:0:
25,279,340019,1,2,0:0:0:0:
239,380,340193,5,2,3:2:0:0:
264,330,340280,1,2,1:2:0:0:
310,298,340367,1,2,1:2:0:0:
365,291,340454,1,2,1:2:0:0:
417,311,340541,1,8,0:0:0:0:
415,318,340629,1,8,0:3:0:0:
413,325,340716,1,4,0:3:0:0:
411,332,340804,1,4,0:3:0:0:
409,339,340891,6,0,B|373:275|430:233|430:233|487:224|496:171,1,202.500007724762,6|0,3:2|0:0,0:0:0:0:
498,110,341240,1,8,0:0:0:0:
300,189,341414,1,2,1:2:0:0:
300,189,341501,1,0,1:2:0:0:
300,189,341588,2,0,B|251:163|270:115|270:115|279:145|312:161,1,135.000005149842,10|0,0:0|3:2,0:0:0:0:
175,232,341937,1,8,0:0:0:0:
344,93,342112,1,2,3:2:0:0:
72,78,342286,6,0,P|75:104|90:123,1,45,10|0,3:2|0:0,0:0:0:0:
208,162,342461,2,0,P|183:151|160:155,1,45,2|0,0:3|0:0,0:0:0:0:
55,236,342635,2,0,P|76:220|84:197,1,45,8|0,0:0|0:0,0:0:0:0:
156,75,342809,1,2,0:0:0:0:
156,75,342897,1,2,0:0:0:0:
156,75,342984,1,10,0:0:0:0:
16,162,343158,1,2,3:2:0:0:
175,232,343333,1,10,0:0:0:0:
287,43,343507,37,2,3:2:0:0:
287,43,343594,1,2,1:2:0:0:
287,43,343681,2,0,B|324:-2|394:26|394:26|401:61|438:80,1,175.499991966248,2|0,3:2|0:0,0:0:0:0:
510,0,344030,2,0,P|480:0|464:17,1,45,8|0,0:0|0:0,0:0:0:0:
352,100,344205,1,2,3:2:0:0:
352,100,344292,1,2,0:0:0:0:
352,100,344379,2,0,L|362:149,1,45,2|0,3:2|0:0,0:0:0:0:
390,305,344554,2,0,P|426:262|490:253,1,107.999996704102,2|8,3:2|0:0,0:0:0:0:
364,384,344902,2,0,P|337:369|314:340,1,53.9999983520508,2|0,3:2|0:0,0:0:0:0:
144,205,345077,38,0,B|103:181|54:240|83:294|134:297|134:285|159:277|187:291|184:304,1,202.500007724762,12|0,0:0|0:0,0:0:0:0:
144,205,345426,2,0,B|156:164|233:163|251:222|216:261|209:252|184:264|174:295|185:302,1,202.500007724762,12|0,0:0|0:0,0:0:0:0:
205,374,345774,5,10,0:0:0:0:
223,353,345862,1,2,0:3:0:0:
220,321,345949,1,2,3:3:0:0:
185,302,346036,1,0,1:2:0:0:
146,320,346123,1,10,0:0:0:0:
114,362,346211,1,0,1:2:0:0:
67,374,346298,1,8,0:3:0:0:
23,361,346385,1,4,0:3:0:0:
7,317,346472,6,0,L|0:349,1,27,0|0,3:2|0:0,0:0:0:0:
8,236,346821,22,0,B|31:186|72:148|136:159|155:200|109:257|39:230|24:171,1,256.499993150711,14|0,3:2|0:0,0:0:0:0:
37,107,347170,38,0,P|57:99|79:97,1,36,0|0,3:2|0:0,0:0:0:0:
147,49,347344,2,0,P|163:62|176:80,1,36,0|0,3:2|0:0,0:0:0:0:
301,216,347519,22,0,B|360:218|389:295|389:295|367:215|421:165,1,256.499993150711,14|0,3:2|0:0,0:0:0:0:
462,117,347867,38,0,P|472:107|484:100,1,27,0|0,3:2|0:0,0:0:0:0:
486,189,348216,38,0,P|380:122|235:95,1,256.499993150711,14|0,3:2|0:0,0:0:0:0:
172,74,348565,22,0,L|178:44,3,22.5,0|2|2|2,3:2|0:3|0:3|0:3,0:0:0:0:
33,160,348914,38,0,B|12:214|52:252|112:241|111:238|111:236|152:217|209:247|194:299,1,256.499993150711,14|0,3:2|0:0,0:0:0:0:
103,353,349263,38,0,P|101:328|107:355,1,94.499997116089,2|0,3:2|0:0,0:0:0:0:
103,353,349612,22,0,B|50:329|51:274|102:240|103:242|104:244|148:228|166:167|119:141,1,256.499993150711,14|0,3:2|0:0,0:0:0:0:
67,77,349961,1,8,0:0:0:0:
295,207,350135,1,0,3:2:0:0:
250,11,350309,1,8,0:0:0:0:
52,186,350484,1,0,3:2:0:0:
335,135,350658,37,10,3:2:0:0:
390,132,350745,1,2,1:2:0:0:
432,170,350833,1,2,1:2:0:0:
437,222,350920,1,2,1:2:0:0:
412,265,351007,1,8,3:2:0:0:
363,279,351094,1,2,1:3:0:0:
316,278,351181,1,2,1:3:0:0:
279,295,351269,1,2,1:3:0:0:
259,332,351356,37,10,3:2:0:0:
262,291,351443,1,2,1:3:0:0:
240,256,351531,1,2,1:3:0:0:
201,231,351618,1,2,1:3:0:0:
167,193,351705,1,10,3:2:0:0:
170,143,351792,1,2,1:2:0:0:
203,101,351879,1,2,1:2:0:0:
258,93,351967,1,2,1:2:0:0:
304,126,352054,22,0,B|312:179|371:194|415:163|415:163|397:115|350:120,1,202.500007724762,6|0,3:2|0:0,0:0:0:0:
374,121,352402,1,8,0:0:0:0:
169,301,352577,2,0,B|143:363|87:376|44:348|44:348|43:318|64:300|97:298,1,215.999993408203,0|0,3:2|3:2,0:0:0:0:
255,384,353100,1,10,0:0:0:0:
118,240,353274,37,2,0:3:0:0:
118,240,353362,1,2,0:3:0:0:
118,240,353449,2,0,B|138:213|126:161|126:161|145:210|186:222,1,161.999995056153,2|0,3:2|0:0,0:0:0:0:
169,301,353798,1,8,0:0:0:0:
257,149,353972,2,0,B|240:128|242:98|242:98|231:129|206:143,2,107.999996704102,2|0|2,0:0|3:2|3:2,0:0:0:0:
396,145,354495,2,0,B|394:118|413:94|413:94|386:113|358:110,1,107.999996704102,10|0,0:0|0:0,0:0:0:0:
331,261,354757,37,2,0:3:0:0:
331,261,354844,2,0,B|383:306|437:262|437:262|459:204|528:209,2,215.999993408203,2|8|0,3:2|0:0|3:2,0:0:0:0:
132,150,355716,1,0,3:2:0:0:
179,365,355891,1,10,0:0:0:0:
16,271,356065,21,2,0:3:0:0:
16,271,356152,1,2,0:3:0:0:
16,271,356240,2,0,B|-28:258|-38:207|7:164|57:182|57:182|71:204|90:213,1,188.999994232178,2|0,3:2|0:0,0:0:0:0:
108,288,356588,1,8,0:0:0:0:
252,176,356763,2,0,B|279:163|276:114|234:106|214:128|214:128|217:143|210:160,2,125.999996154785,2|0|0,0:0|3:2|3:2,0:0:0:0:
298,355,357286,1,8,0:0:0:0:
320,335,357373,1,2,0:3:0:0:
312,306,357460,1,2,0:3:0:0:
282,302,357547,1,2,0:3:0:0:
266,326,357635,38,0,L|519:269,1,251.999992309571,6|8,3:2|0:0,0:0:0:0:
221,154,358158,1,2,0:0:0:0:
221,154,358245,1,2,0:0:0:0:
221,154,358333,2,0,B|178:116|129:129|105:176|108:179|111:182|104:227|48:250|4:216,1,251.999992309571,2|8,3:2|0:0,0:0:0:0:
426,99,358856,37,2,3:2:0:0:
426,99,358943,1,2,0:0:0:0:
426,99,359030,2,0,P|447:52|512:21,1,107.999996704102,6|0,3:2|0:0,0:0:0:0:
353,286,359379,2,0,P|332:239|267:208,1,107.999996704102,10|0,0:0|0:0,0:0:0:0:
13,222,359728,21,6,3:2:0:0:
16,232,359815,1,2,0:3:0:0:
19,242,359902,1,2,3:3:0:0:
22,252,359990,1,2,1:3:0:0:
25,262,360077,1,10,0:0:0:0:
53,238,360164,1,2,0:0:0:0:
66,188,360251,1,2,3:2:0:0:
53,129,360338,1,2,3:2:0:0:
4,81,360426,38,0,B|-3:101|-28:118|-28:118|110:88,1,188.999994232178,6|0,3:2|0:0,0:0:0:0:
189,67,360774,2,0,B|188:35|152:24|152:24|179:44|181:63,1,107.999996704102,8|0,0:0|0:0,0:0:0:0:
285,210,361123,1,0,3:2:0:0:
382,6,361298,1,2,3:2:0:0:
382,6,361385,1,2,0:0:0:0:
382,6,361472,2,0,L|323:18,1,45,2|0,3:2|0:0,0:0:0:0:
405,179,361647,38,0,B|455:221|531:175|506:96|449:91|449:91|430:107|410:115,1,229.500004377365,14|0,3:2|0:0,0:0:0:0:
340,90,361995,2,0,L|349:134,1,36,4|0,3:3|0:0,0:0:0:0:
285,210,362170,2,0,L|262:102,1,90,8|0,0:0|3:2,0:0:0:0:
215,249,362431,1,0,3:2:0:0:
215,249,362519,2,0,B|223:272|246:286|246:286|170:268|107:266|107:266|95:287|68:304,1,229.500004377365,2|0,0:0|1:2,0:0:0:0:
107,374,362867,2,0,P|125:360|141:341,1,45,8|0,0:0|0:0,0:0:0:0:
83,155,363042,21,2,0:0:0:0:
83,155,363129,1,2,0:0:0:0:
83,155,363216,2,0,B|81:136|87:121|87:121|64:97|-12:93|-35:169|-11:200|-11:200|29:208|45:251,1,270.000010299683,6|8,3:2|0:0,0:0:0:0:
293,217,363740,1,2,0:0:0:0:
293,217,363827,1,2,0:0:0:0:
293,217,363914,2,0,L|283:170,1,45,2|0,3:2|0:0,0:0:0:0:
361,110,364088,1,2,3:2:0:0:
361,110,364175,1,2,0:0:0:0:
361,110,364262,2,0,L|371:157,1,45,10|0,0:0|0:0,0:0:0:0:
413,372,364437,1,2,0:0:0:0:
465,213,364612,38,0,B|373:231|373:231|369:257|350:273,1,135.000005149842,2|0,3:2|3:2,0:0:0:0:
443,296,364873,1,2,0:0:0:0:
443,296,364961,2,0,L|488:286,1,36,10|0,0:0|0:0,0:0:0:0:
293,217,365135,2,0,L|248:207,1,36,2|0,0:0|0:0,0:0:0:0:
58,177,365309,1,0,3:2:0:0:
252,45,365484,1,2,3:2:0:0:
145,301,365658,1,8,0:0:0:0:
40,81,365833,37,2,1:2:0:0:
40,81,365920,1,0,1:2:0:0:
40,81,366007,2,0,B|70:21|140:32|171:70|171:70|183:112|222:121,1,233.999989288331,2|8,3:2|0:0,0:0:0:0:
405,10,366530,1,2,0:0:0:0:
293,217,366705,1,0,3:2:0:0:
259,52,366879,1,0,3:2:0:0:
259,52,366966,1,2,0:0:0:0:
259,52,367054,2,0,L|321:66,1,45,10|0,0:0|0:0,0:0:0:0:
490,107,367228,21,2,0:0:0:0:
484,93,367315,1,2,0:3:0:0:
472,87,367402,2,0,P|412:110|391:162,1,116.999994644165,2|0,3:2|1:2,0:0:0:0:
297,220,367664,1,0,1:2:0:0:
297,220,367751,2,0,P|314:239|332:249,1,45,10|0,0:0|0:0,0:0:0:0:
340,325,367926,2,0,P|357:322|374:315,1,36,2|0,3:3|0:0,0:0:0:0:
442,349,368100,2,0,P|447:336|450:323,1,26.9999991760254,2|0,3:2|0:0,0:0:0:0:
512,280,368274,2,0,P|506:272|500:265,1,18,2|0,3:3|0:0,0:0:0:0:
420,227,368449,37,10,0:0:0:0:
405,234,368536,1,0,1:2:0:0:
408,250,368624,1,0,1:2:0:0:
425,252,368711,1,0,1:2:0:0:
431,237,368798,38,0,B|372:199|334:250|344:253|313:310|256:288,1,188.999994232178,6|0,3:2|0:0,0:0:0:0:
182,242,369147,2,0,L|192:290,1,45,10|0,0:0|0:0,0:0:0:0:
130,384,369321,2,0,L|104:261,1,107.999996704102,2|0,0:0|3:2,0:0:0:0:
220,357,369670,1,0,3:2:0:0:
37,245,369844,2,0,P|51:223|77:208,1,45,10|2,0:0|0:0,0:0:0:0:
104,112,370019,2,0,P|130:113|156:128,1,45,2|2,0:0|0:0,0:0:0:0:
256,192,370193,21,2,3:2:0:0:
264,197,370280,1,2,0:0:0:0:
280,196,370367,1,2,0:0:0:0:
295,187,370455,1,2,0:0:0:0:
306,169,370542,1,10,0:0:0:0:
320,139,370629,1,2,0:0:0:0:
351,119,370716,1,2,3:2:0:0:
392,123,370804,1,2,0:0:0:0:
426,153,370891,1,2,3:2:0:0:
429,202,370978,1,2,0:0:0:0:
388,236,371065,1,2,3:2:0:0:
329,235,371152,1,2,0:0:0:0:
295,187,371240,2,0,L|305:138,1,45,10|2,0:0|0:0,0:0:0:0:
198,43,371414,37,2,1:2:0:0:
198,43,371501,1,2,1:2:0:0:
198,43,371588,2,0,L|208:92,1,45,10|0,3:2|0:0,0:0:0:0:
240,272,371763,1,0,1:2:0:0:
248,276,371850,1,0,1:2:0:0:
257,281,371937,1,8,0:0:0:0:
242,246,372024,1,8,0:0:0:0:
186,224,372112,1,8,0:0:0:0:
125,240,372199,1,8,0:0:0:0:
86,294,372286,2,0,P|114:301|151:281,1,45,10|8,3:3|0:3,0:0:0:0:
195,383,372461,2,0,P|215:362|216:320,1,45,6|4,0:3|0:3,0:0:0:0:
329,235,372635,37,8,0:0:0:0:
331,246,372722,1,8,0:0:0:0:
333,257,372809,1,8,0:0:0:0:
335,268,372896,1,8,0:0:0:0:
337,279,372984,22,0,L|389:267,1,45,2|2,3:2|0:0,0:0:0:0:
469,169,373158,1,2,1:2:0:0:
469,169,373245,1,0,1:2:0:0:
469,169,373333,2,0,L|417:181,1,45,8|0,0:0|0:0,0:0:0:0:
291,135,373507,2,0,P|297:111|318:83,1,45,2|0,0:3|0:0,0:0:0:0:
234,36,373681,2,0,P|221:54|215:76,1,45,8|0,0:0|0:0,0:0:0:0:
152,177,373856,37,10,0:2:0:0:
152,177,373943,1,10,0:2:0:0:
152,177,374030,2,0,P|134:152|107:138,1,54,10|0,3:2|0:0,0:0:0:0:
17,118,374379,38,0,L|226:73,1,202.500007724762,6|0,3:2|0:0,0:0:0:0:
290,63,374728,1,10,0:0:0:0:
198,305,374902,1,2,0:0:0:0:
425,179,375077,1,8,0:0:0:0:
243,156,375251,1,2,3:2:0:0:
243,156,375338,1,0,1:0:0:0:
243,156,375426,2,0,L|266:268,1,107.999996704102,8|2,0:0|3:2,0:0:0:0:
29,372,375774,21,8,0:0:0:0:
114,140,375949,1,0,3:2:0:0:
284,337,376123,1,8,0:0:0:0:
30,263,376298,1,0,3:2:0:0:
243,156,376472,1,10,0:0:0:0:
241,194,376559,1,2,0:0:0:0:
214,224,376647,1,2,3:2:0:0:
170,235,376734,1,2,0:0:0:0:
132,219,376821,2,0,P|155:234|169:258,1,53.9999983520508,10|0,0:0|0:0,0:0:0:0:
284,337,376995,2,0,P|307:322|321:298,1,53.9999983520508,2|0,3:2|0:0,0:0:0:0:
425,112,377170,38,0,B|465:79|531:106|534:179|478:209|478:209|455:195|420:193,1,229.500004377365,10|0,0:0|0:0,0:0:0:0:
362,174,377519,2,0,P|342:158|315:149,1,45,10|0,0:0|0:0,0:0:0:0:
184,145,377693,2,0,P|207:135|229:116,1,45,2|0,3:2|0:0,0:0:0:0:
291,0,377867,1,8,0:0:0:0:
103,128,378042,1,2,0:0:0:0:
74,94,378129,1,2,0:0:0:0:
86,53,378216,1,10,0:0:0:0:
126,39,378303,1,2,0:0:0:0:
160,65,378391,38,0,B|199:113|172:168|127:183|127:183|71:185|47:216|52:261,1,251.999992309571,6|0,3:2|3:2,0:0:0:0:
184,274,378914,2,0,L|129:262,1,53.9999983520508,10|0,0:0|0:0,0:0:0:0:
284,291,379088,1,0,1:2:0:0:
287,303,379176,1,0,1:2:0:0:
289,313,379263,2,0,L|251:354,1,53.9999983520508,10|0,0:0|0:0,0:0:0:0:
354,235,379437,1,0,1:2:0:0:
365,238,379525,1,0,1:2:0:0:
375,241,379612,2,0,L|391:294,1,53.9999983520508,8|0,0:0|0:0,0:0:0:0:
482,310,379786,2,0,L|466:257,1,53.9999983520508,0|0,1:2|1:2,0:0:0:0:
408,51,379961,21,6,3:2:0:0:
408,51,380309,2,0,B|438:54|461:79|462:103|462:103|417:148|347:124|336:68,1,229.500004377365,8|0,0:0|0:0,0:0:0:0:
239,25,380658,2,0,L|228:75,1,45,10|0,0:0|0:0,0:0:0:0:
188,291,380833,37,10,0:0:0:0:
188,291,381181,38,0,B|169:248|103:211|35:244|25:317|67:340|127:321|144:285|133:217,1,288,6|0,3:2|3:2,0:0:0:0:
92,151,381617,21,2,0:3:0:0:
92,151,381705,2,0,P|74:136|54:128,1,44.5499998640442,8|0,0:0|0:0,0:0:0:0:
55,129,382054,2,0,L|112:116,1,45,8|0,0:0|0:0,0:0:0:0:
340,81,382228,37,8,0:0:0:0:
340,81,382577,38,0,B|322:70|316:50|316:50|325:68|339:73,1,67.5000025749208,6|0,3:2|0:0,0:0:0:0:
436,128,382751,1,0,3:2:0:0:
453,147,382838,1,0,1:2:0:0:
456,181,382926,1,0,1:2:0:0:
434,205,383013,1,0,1:2:0:0:
398,222,383100,1,8,3:2:0:0:
356,240,383187,1,8,0:0:0:0:
337,290,383274,1,8,0:0:0:0:
372,341,383362,1,8,0:0:0:0:
435,336,383449,2,0,P|422:313|404:296,1,45,10|0,3:2|0:0,0:0:0:0:
256,192,383623,21,10,0:0:0:0:
263,199,383972,5,0,1:2:0:0:
263,199,384059,1,0,1:2:0:0:
263,199,384147,2,0,B|234:195|193:160|192:104|225:66|225:66|226:65|226:65|181:-19|68:-10|31:63|31:63|24:122|88:173|142:178|142:178|88:218|68:298|136:357|136:357|207:359|238:310|240:267|240:267|287:336|379:355|485:303|518:196|459:96|377:63|309:92|274:127,1,1469.99995513916,14|0,3:2|3:2,0:0:0:0:
285,117,388274,21,0,3:2:0:0:
285,117,388333,5,0,3:2:0:0:
231,264,389728,22,0,B|195:260|165:278|165:278|188:249|187:216,1,135.000005149842,2|0,3:2|0:0,0:0:0:0:
337,183,389990,1,0,1:0:0:0:
337,183,390077,2,0,B|352:216|382:233|382:233|345:228|318:245,1,135.000005149842,0|0,3:2|0:0,0:0:0:0:
214,131,390338,1,0,1:2:0:0:
214,131,390426,2,0,B|235:102|235:67|235:67|249:101|277:117,1,135.000005149842,2|0,3:2|0:0,0:0:0:0:
290,326,390687,5,0,1:2:0:0:
290,326,390774,2,0,B|291:354|269:384|236:383|236:383|266:363|266:333,1,135.000005149842,2|0,3:2|3:2,0:0:0:0:
360,95,391036,1,0,3:2:0:0:
360,95,391123,2,0,B|383:79|420:83|436:112|436:112|404:96|378:111,1,135.000005149842,2|0,3:2|0:0,0:0:0:0:
126,156,391385,1,0,1:0:0:0:
126,156,391472,2,0,B|101:143|86:109|103:81|103:81|105:116|131:131,1,135.000005149842,2|0,3:2|0:0,0:0:0:0:
249,210,391821,5,2,3:2:0:0:
243,176,391908,1,0,1:2:0:0:
275,188,391995,1,0,1:2:0:0:
254,191,392083,1,0,1:2:0:0:
254,191,392170,1,6,3:2:0:0:
336,201,392519,6,0,B|352:197|377:195|377:195|261:175|194:94|194:94|241:210|203:302|203:302|255:216|325:205,1,630,6|0,3:2|0:0,0:0:0:0:
324,205,393798,6,0,L|327:223,2,15,0|0|0,3:2|3:2|3:2,0:0:0:0:
370,290,394147,6,0,L|355:302,2,15,0|0|0,3:2|3:2|3:2,0:0:0:0:
319,372,394495,6,0,L|300:366,2,15,0|0|0,3:2|3:2|3:2,0:0:0:0:
222,368,394844,22,0,L|218:349,2,15,0|0|0,3:2|3:2|3:2,0:0:0:0:
176,281,395193,6,0,L|190:268,1,15,0|0,3:2|3:2,0:0:0:0:
176,281,395309,6,0,B|138:261|96:281|96:281|127:211|192:202|250:229|250:229|281:196|286:165|273:131|241:102|187:97|161:138,1,472.499985580445,2|0,3:2|0:0,0:0:0:0:
168,128,396705,22,0,P|177:104|172:83,1,45,2|0,0:0|0:0,0:0:0:0:
71,12,397054,2,0,P|88:31|108:38,1,45,2|0,0:0|0:0,0:0:0:0:
180,6,397402,1,2,0:0:0:0:
180,6,397577,1,0,0:0:0:0:
99,115,397751,1,2,0:0:0:0:
99,115,397926,1,0,0:0:0:0:
250,53,398100,5,2,0:0:0:0:
250,53,398274,2,0,P|289:38|341:35,1,90,0|2,0:0|0:0,0:0:0:0:
336,34,399147,1,2,0:0:0:0:
280,266,399495,6,0,L|284:285,2,18,2|0|2,0:0|0:0|0:0,0:0:0:0:
280,266,400019,1,2,0:0:0:0:
334,192,400193,1,2,0:0:0:0:
192,145,400367,1,0,0:0:0:0:
192,238,400542,1,2,0:0:0:0:
280,117,400716,1,0,0:0:0:0:
256,192,400891,5,2,3:2:0:0:
256,192,400978,12,0,406472,0:0:0:0:
