osu file format v14

[General]
AudioFilename: audio.mp3
AudioLeadIn: 0
PreviewTime: 60836
Countdown: 0
SampleSet: Soft
StackLeniency: 0.7
Mode: 0
LetterboxInBreaks: 0
WidescreenStoryboard: 1

[Editor]
Bookmarks: 23696,54416,85136,92816,100496,112016,115856,131216,146576,161936,169616,184976
DistanceSpacing: 1.1
BeatDivisor: 4
GridSize: 16
TimelineZoom: 1.7

[Metadata]
Title:Atonement Twins
TitleUnicode:Atonement Twins
Artist:La priere
ArtistUnicode:La prière
Creator:iBell
Version:Insane
Source:
Tags:mg j-rock jpop j-pop female vocal vocals vocalist c97 comiket 97 metal なゆた bellicose mappers' guild mpg featured artist fa Feryquitous 棗いつき natsume itsuki 藍月なくる aitsuki nakuru nayuta japanese rock jrock Gemini Syndrome mbc 2023 November monthly beatmap contest
BeatmapID:4534695
BeatmapSetID:2135397

[Difficulty]
HPDrainRate:5
CircleSize:4
OverallDifficulty:8
ApproachRate:8.5
SliderMultiplier:1.6
SliderTickRate:1

[Events]
//Background and Video events
0,0,"bg.jpg",0,0
//Break Periods
2,85336,92141
2,112016,114701
//Storyboard Layer 0 (Background)
//Storyboard Layer 1 (Fail)
//Storyboard Layer 2 (Pass)
//Storyboard Layer 3 (Foreground)
//Storyboard Layer 4 (Overlay)
//Storyboard Sound Samples

[TimingPoints]
656,240,4,2,1,50,1,0
1736,-100,4,2,1,50,0,0
2036,-100,4,2,1,5,0,0
2096,-100,4,2,1,50,0,0
5576,-100,4,2,1,50,0,0
5876,-100,4,2,1,5,0,0
5936,-100,4,2,1,50,0,0
7856,-100,4,2,1,50,0,0
8336,-100,4,2,1,60,0,0
8576,-100,4,2,1,60,0,0
9296,-100,4,2,1,60,0,0
10016,-100,4,2,1,60,0,0
13136,-100,4,2,1,60,0,0
14096,-100,4,2,1,60,0,0
16976,-100,4,2,1,60,0,0
17936,-100,4,2,1,60,0,0
20816,-100,4,2,1,60,0,0
21536,-100,4,2,1,60,0,0
23696,-100,4,2,1,45,0,0
24416,-111.111111111111,4,2,1,45,0,0
24776,-111.111111111111,4,2,1,45,0,0
25016,-111.111111111111,4,2,2,45,0,0
25256,-111.111111111111,4,2,1,45,0,0
25616,-111.111111111111,4,2,1,45,0,0
26216,-111.111111111111,4,2,2,45,0,0
26576,-111.111111111111,4,2,1,45,0,0
26936,-111.111111111111,4,2,1,45,0,0
27536,-111.111111111111,4,2,1,45,0,0
28496,-111.111111111111,4,2,1,45,0,0
28976,-111.111111111111,4,2,2,45,0,0
29096,-111.111111111111,4,2,1,45,0,0
29456,-111.111111111111,4,2,1,45,0,0
29816,-111.111111111111,4,2,1,45,0,0
30176,-111.111111111111,4,2,1,45,0,0
31376,-100,4,2,1,55,0,0
32276,-100,4,2,1,5,0,0
32336,-100,4,2,1,55,0,0
33236,-100,4,2,1,5,0,0
33296,-100,4,2,1,55,0,0
37076,-100,4,2,1,5,0,0
37136,-100,4,2,1,55,0,0
38096,-100,4,2,1,55,0,0
38336,-100,4,2,1,55,0,0
38816,-100,4,2,1,55,0,0
39056,-200,4,2,2,60,0,0
41216,-200,4,2,1,60,0,0
41936,-200,4,2,2,60,0,0
44816,-200,4,2,2,60,0,0
45056,-200,4,2,1,60,0,0
45776,-200,4,2,2,60,0,0
48656,-200,4,2,2,60,0,0
48896,-200,4,2,1,60,0,0
49136,-200,4,2,2,60,0,0
52496,-200,4,2,2,60,0,0
52736,-200,4,2,1,60,0,0
52976,-200,4,2,2,60,0,0
53696,-200,4,2,1,45,0,0
54416,-200,4,2,2,45,0,0
54776,-200,4,2,1,45,0,0
56336,-200,4,2,2,45,0,0
56696,-200,4,2,1,45,0,0
58256,-200,4,2,2,45,0,0
58616,-200,4,2,1,45,0,0
60416,-100,4,2,1,30,0,0
60656,-100,4,2,1,35,0,0
60896,-125,4,2,1,40,0,0
61136,-125,4,2,1,45,0,0
61376,-125,4,2,1,50,0,0
61616,-125,4,2,1,55,0,0
61856,-100,4,2,1,60,0,0
62036,-125,4,2,1,5,0,0
62096,-100,4,2,1,65,0,0
63536,-100,4,2,1,65,0,0
63896,-100,4,2,1,65,0,0
64496,-100,4,2,1,65,0,0
64736,-100,4,2,1,65,0,0
67376,-100,4,2,1,65,0,0
67736,-100,4,2,1,65,0,0
69776,-90.9090909090909,4,2,1,70,0,1
77456,-133.333333333333,4,2,1,60,0,0
77936,-133.333333333333,4,2,2,60,0,0
78176,-133.333333333333,4,2,1,60,0,0
78896,-133.333333333333,4,2,2,60,0,0
79136,-133.333333333333,4,2,1,60,0,0
79376,-133.333333333333,4,2,2,60,0,0
79616,-133.333333333333,4,2,1,60,0,0
79856,-133.333333333333,4,2,2,60,0,0
80096,-133.333333333333,4,2,1,60,0,0
80336,-133.333333333333,4,2,2,60,0,0
80816,-133.333333333333,4,2,2,60,0,0
81056,-133.333333333333,4,2,1,60,0,0
81776,-133.333333333333,4,2,2,60,0,0
82016,-133.333333333333,4,2,1,60,0,0
82256,-133.333333333333,4,2,2,60,0,0
82736,-133.333333333333,4,2,2,60,0,0
82976,-133.333333333333,4,2,1,60,0,0
83216,-133.333333333333,4,2,2,60,0,0
83456,-133.333333333333,4,2,1,60,0,0
83696,-133.333333333333,4,2,2,60,0,0
83936,-133.333333333333,4,2,1,60,0,0
84176,-133.333333333333,4,2,2,60,0,0
84656,-133.333333333333,4,2,2,60,0,0
84896,-200,4,2,1,60,0,0
92816,-200,4,2,1,45,0,0
93536,-200,4,2,1,35,0,0
94256,-200,4,2,1,45,0,0
94736,-100,4,2,1,45,0,0
96176,-100,4,2,1,45,0,0
96656,-100,4,2,1,45,0,0
100016,-100,4,2,1,50,0,0
100496,-133.333333333333,4,2,1,55,0,0
100976,-133.333333333333,4,2,2,55,0,0
101216,-133.333333333333,4,2,2,55,0,0
101936,-133.333333333333,4,2,2,60,0,0
102176,-133.333333333333,4,2,2,60,0,0
103976,-133.333333333333,4,2,1,60,0,0
104336,-133.333333333333,4,2,2,60,0,0
105776,-133.333333333333,4,2,2,60,0,0
106016,-133.333333333333,4,2,2,60,0,0
107816,-133.333333333333,4,2,1,60,0,0
108176,-133.333333333333,4,2,2,60,0,0
109616,-133.333333333333,4,2,2,60,0,0
109856,-133.333333333333,4,2,2,60,0,0
111656,-133.333333333333,4,2,1,60,0,0
112016,-133.333333333333,4,2,2,60,0,0
113456,-133.333333333333,4,2,2,60,0,0
113696,-133.333333333333,4,2,2,60,0,0
115496,-133.333333333333,4,2,1,60,0,0
115856,-200,4,2,1,45,0,0
122036,-200,4,2,1,5,0,0
122096,-200,4,2,1,45,0,0
123056,-200,4,2,1,45,0,0
123536,-200,4,2,1,45,0,0
124016,-200,4,2,1,45,0,0
126176,-200,4,2,1,45,0,0
126656,-200,4,2,1,45,0,0
129536,-200,4,2,1,30,0,0
129776,-200,4,2,1,35,0,0
130016,-200,4,2,1,40,0,0
130256,-133.333333333333,4,2,1,45,0,0
130496,-133.333333333333,4,2,1,50,0,0
130736,-100,4,2,1,55,0,0
131216,-100,4,2,1,60,0,0
131696,-100,4,2,2,60,0,0
131816,-100,4,2,1,60,0,0
132176,-100,4,2,2,60,0,0
132356,-100,4,2,1,5,0,0
132416,-100,4,2,1,60,0,0
132596,-100,4,2,1,5,0,0
132656,-100,4,2,2,60,0,0
132896,-100,4,2,1,60,0,0
133136,-100,4,2,2,60,0,0
133376,-100,4,2,1,60,0,0
133616,-100,4,2,2,60,0,0
133736,-100,4,2,1,60,0,0
134096,-100,4,2,2,60,0,0
134216,-100,4,2,1,60,0,0
134576,-100,4,2,2,60,0,0
134756,-100,4,2,1,5,0,0
134816,-100,4,2,1,60,0,0
135296,-100,4,2,1,60,0,0
135536,-100,4,2,2,60,0,0
135776,-100,4,2,2,60,0,0
138896,-200,4,2,2,60,0,0
142496,-200,4,2,1,60,0,0
142736,-200,4,2,2,60,0,0
145856,-200,4,2,1,45,0,0
146576,-200,4,2,2,45,0,0
146936,-200,4,2,1,45,0,0
148496,-200,4,2,2,45,0,0
148856,-200,4,2,1,45,0,0
150416,-200,4,2,2,45,0,0
150776,-200,4,2,1,45,0,0
152336,-200,4,2,2,45,0,0
152696,-200,4,2,1,45,0,0
154256,-200,4,2,2,45,0,0
154616,-200,4,2,1,45,0,0
156176,-200,4,2,2,45,0,0
156536,-200,4,2,1,45,0,0
158096,-200,4,2,2,45,0,0
158456,-200,4,2,1,45,0,0
160256,-200,4,2,1,30,0,0
160496,-200,4,2,1,35,0,0
160736,-125,4,2,1,40,0,0
160976,-125,4,2,1,45,0,0
161216,-125,4,2,1,50,0,0
161456,-125,4,2,1,55,0,0
161696,-100,4,2,1,60,0,0
161876,-100,4,2,1,5,0,0
161936,-100,4,2,1,65,0,0
163376,-100,4,2,1,65,0,0
163736,-100,4,2,1,65,0,0
164336,-100,4,2,1,65,0,0
164576,-100,4,2,1,65,0,0
167216,-100,4,2,1,65,0,0
167576,-100,4,2,1,65,0,0
169616,-90.9090909090909,4,2,1,70,0,1
176336,-90.9090909090909,4,2,1,70,0,1
176576,-90.9090909090909,4,2,1,70,0,1
177296,-100,4,2,2,60,0,0
177476,-100,4,2,1,5,0,0
177536,-100,4,2,2,60,0,0
177716,-100,4,2,1,5,0,0
177776,-100,4,2,2,60,0,0
177956,-100,4,2,1,5,0,0
178016,-100,4,2,2,60,0,0
178436,-100,4,2,1,5,0,0
178496,-100,4,2,2,60,0,0
178676,-100,4,2,1,5,0,0
178736,-100,4,2,2,60,0,0
179396,-100,4,2,1,5,0,0
179456,-100,4,2,2,60,0,0
179636,-100,4,2,1,5,0,0
179696,-100,4,2,2,60,0,0
179876,-100,4,2,1,5,0,0
179936,-100,4,2,2,60,0,0
180896,-100,4,2,1,60,0,0
181136,-100,4,2,1,60,0,0
181316,-100,4,2,1,5,0,0
181376,-100,4,2,2,60,0,0
181556,-100,4,2,1,5,0,0
181616,-100,4,2,2,60,0,0
181796,-100,4,2,1,5,0,0
181856,-100,4,2,2,60,0,0
182276,-100,4,2,1,5,0,0
182336,-100,4,2,2,60,0,0
182516,-100,4,2,1,5,0,0
182576,-100,4,2,2,60,0,0
183236,-100,4,2,1,5,0,0
183296,-100,4,2,2,60,0,0
183476,-100,4,2,1,5,0,0
183536,-100,4,2,2,60,0,0
183716,-100,4,2,1,5,0,0
183776,-100,4,2,2,60,0,0
184736,-100,4,2,1,60,0,0

[Colours]
Combo1 : 255,100,123
Combo2 : 67,222,250
Combo3 : 129,95,248
Combo4 : 254,126,232

[HitObjects]
370,56,656,5,0,1:0:0:0:
381,83,776,2,0,P|437:92|480:109,1,80,8|0,0:0|0:0,0:0:0:0:
370,160,1016,2,0,P|424:176|466:179,1,80,8|0,0:0|0:0,0:0:0:0:
193,283,1616,5,2,0:0:0:0:
217,264,1736,1,0,3:0:0:0:
224,236,1856,2,0,P|238:193|243:146,1,80,2|0,0:0|0:0,0:0:0:0:
260,370,2096,2,0,P|323:332|298:237,1,160,4|0,0:3|0:0,0:0:0:0:
54,156,2576,5,0,1:0:0:0:
67,130,2696,2,0,P|111:118|158:103,1,80,8|0,0:0|0:0,0:0:0:0:
45,40,2936,2,0,P|88:31|137:25,1,80,8|0,0:0|0:0,0:0:0:0:
214,354,3536,6,0,P|192:261|97:323,1,240,10|8,0:0|0:0,0:0:0:0:
102,327,3956,1,8,0:0:0:0:
106,338,4016,2,0,P|116:234|159:103,1,240,10|8,0:0|0:0,0:0:0:0:
297,0,4496,5,0,1:0:0:0:
274,15,4616,2,0,P|283:53|299:94,1,80,8|0,0:0|0:0,0:0:0:0:
249,225,4856,2,0,P|237:186|233:146,1,80,8|0,0:0|0:0,0:0:0:0:
443,67,5456,5,2,0:0:0:0:
409,45,5576,1,0,3:0:0:0:
369,57,5696,2,0,P|318:77|287:100,1,80,2|0,0:0|0:0,0:0:0:0:
481,237,5936,2,0,P|461:171|372:153,1,160,4|0,0:3|0:0,0:0:0:0:
371,384,6416,5,0,1:0:0:0:
345,370,6536,2,0,P|361:325|369:286,1,80,8|0,0:0|0:0,0:0:0:0:
241,371,6776,2,0,P|196:342|164:326,1,80,8|0,0:0|0:0,0:0:0:0:
374,185,7376,6,0,P|406:92|297:25,1,240,6|8,0:3|0:0,0:0:0:0:
296,15,7796,1,8,0:0:0:0:
286,10,7856,2,0,P|272:132|216:24,1,320,6|4,0:3|1:2,0:0:0:0:
20,192,8576,6,0,P|30:113|101:82,1,160,10|0,0:0|1:0,0:0:0:0:
107,172,8936,1,2,1:2:0:0:
107,172,9056,2,0,P|147:157|190:152,1,80,8|0,0:0|0:0,0:0:0:0:
55,271,9296,2,0,P|132:285|152:378,1,160,2|8,1:2|0:0,0:0:0:0:
322,285,9656,2,0,P|335:353|253:362,1,160,2|0,1:2|1:0,0:0:0:0:
232,284,10016,2,0,P|251:225|274:207,1,80,8|0,0:0|0:0,0:0:0:0:
158,354,10256,6,0,P|116:344|69:355,1,80,0|0,1:0|0:0,0:0:0:0:
138,251,10496,2,0,P|102:177|96:83,1,160,8|0,0:0|1:0,0:0:0:0:
110,17,10856,1,0,1:0:0:0:
110,17,10976,2,0,P|66:16|35:37,1,80,8|0,0:0|0:0,0:0:0:0:
13,133,11216,6,0,P|30:172|70:184,1,80,2|0,1:2|0:0,0:0:0:0:
94,100,11456,2,0,P|146:98|178:123,1,80,10|0,0:0|1:0,0:0:0:0:
287,64,11696,2,0,P|332:60|362:20,1,80,2|0,0:0|1:0,0:0:0:0:
213,7,11936,2,0,P|248:78|256:157,1,160,10|4,0:0|1:0,0:0:0:0:
204,363,12416,6,0,P|249:353|247:237,1,160,10|0,0:0|1:0,0:0:0:0:
326,183,12776,1,2,1:2:0:0:
326,183,12896,2,0,P|291:158|242:161,1,80,8|0,0:0|0:0,0:0:0:0:
362,302,13136,2,0,P|404:241|500:249,1,160,2|8,1:2|0:0,0:0:0:0:
502,71,13496,2,0,P|435:68|436:159,1,160,2|0,1:2|1:0,0:0:0:0:
318,15,13856,2,0,P|312:71|331:91,1,80,8|0,0:0|0:0,0:0:0:0:
259,213,14096,6,0,P|301:181|340:188,1,80,0|0,1:0|0:0,0:0:0:0:
493,243,14336,2,0,P|491:331|430:383,1,160,8|0,0:0|1:0,0:0:0:0:
361,337,14696,1,0,1:0:0:0:
361,337,14816,2,0,P|361:296|383:250,1,80,8|0,0:0|0:0,0:0:0:0:
509,153,15056,5,2,1:2:0:0:
460,158,15176,1,2,0:2:0:0:
413,145,15296,1,10,0:2:0:0:
379,110,15416,1,2,1:2:0:0:
367,62,15536,1,2,0:2:0:0:
341,23,15656,1,2,1:2:0:0:
296,3,15776,1,10,0:2:0:0:
248,2,15896,1,2,0:2:0:0:
204,22,16016,1,4,1:2:0:0:
449,79,16256,6,0,P|358:86|311:155,1,160,10|0,0:0|1:0,0:0:0:0:
263,209,16616,1,2,1:2:0:0:
263,209,16736,2,0,P|229:179|234:133,1,80,8|0,0:0|0:0,0:0:0:0:
86,2,16976,2,0,P|84:89|155:119,1,160,2|8,1:2|0:0,0:0:0:0:
19,152,17336,2,0,P|34:223|111:197,1,160,2|0,1:2|1:0,0:0:0:0:
241,12,17696,2,0,P|179:22|163:44,1,80,8|0,0:0|0:0,0:0:0:0:
367,115,17936,6,0,P|335:82|295:81,1,80,0|0,1:0|0:0,0:0:0:0:
140,119,18176,2,0,P|213:152|305:167,1,160,8|0,0:0|1:0,0:0:0:0:
183,280,18536,1,0,1:0:0:0:
183,280,18656,2,0,P|221:262|285:256,1,80,8|0,0:0|0:0,0:0:0:0:
348,384,18896,6,0,P|325:350|335:310,1,80,2|0,1:2|0:0,0:0:0:0:
425,305,19136,2,0,P|470:302|503:257,1,80,10|0,0:0|1:0,0:0:0:0:
291,166,19376,2,0,P|246:159|228:121,1,80,2|0,0:0|1:0,0:0:0:0:
338,310,19616,2,0,P|366:215|400:141,1,160,10|4,0:0|1:0,0:0:0:0:
243,29,20096,6,0,P|317:14|362:86,1,160,10|0,0:0|1:0,0:0:0:0:
506,55,20456,1,2,1:2:0:0:
506,55,20576,2,0,P|484:88|440:87,1,80,8|0,0:0|0:0,0:0:0:0:
507,262,20816,2,0,P|462:191|359:173,1,160,2|8,1:2|0:0,0:0:0:0:
234,223,21176,2,0,P|303:185|264:123,1,160,2|0,1:2|1:0,0:0:0:0:
392,168,21536,2,0,P|396:220|412:255,1,80,8|0,0:0|0:0,0:0:0:0:
354,363,21776,6,0,P|336:313|295:309,1,80,0|0,1:0|0:0,0:0:0:0:
131,255,22016,2,0,P|133:368|187:388,1,160,8|0,0:0|1:0,0:0:0:0:
217,305,22376,1,0,1:0:0:0:
217,305,22496,2,0,P|237:255|237:218,1,80,8|0,0:0|0:0,0:0:0:0:
0,200,22736,5,2,1:2:0:0:
48,204,22856,1,2,0:2:0:0:
87,176,22976,1,10,0:2:0:0:
101,128,23096,1,2,1:2:0:0:
81,84,23216,1,2,0:2:0:0:
93,37,23336,1,2,1:2:0:0:
130,6,23456,1,10,0:2:0:0:
180,1,23576,1,2,0:2:0:0:
219,28,23696,6,0,P|242:98|171:68,1,160,6|0,1:3|0:0,0:0:0:0:
338,23,24056,1,6,1:3:0:0:
338,23,24416,2,0,P|400:32|420:46,1,71.9999978027344,2|0,0:0|0:0,0:0:0:0:
280,92,24656,2,0,P|260:141|383:170,1,215.999993408203,2|2,3:2|0:3,0:0:0:0:
455,239,25136,5,10,0:0:0:0:
489,213,25256,1,2,0:0:0:0:
475,170,25376,1,2,0:0:0:0:
512,376,25616,5,2,1:2:0:0:
505,351,25736,2,0,P|453:347|418:323,1,71.9999978027344,8|0,0:0|0:0,0:0:0:0:
287,384,25976,2,0,P|341:352|352:249,1,143.999995605469,10|2,0:0|0:3,0:0:0:0:
361,277,26336,2,0,P|329:249|336:209,1,71.9999978027344,2|0,0:0|0:0,0:0:0:0:
249,295,26576,6,0,P|211:280|155:274,1,71.9999978027344,2|0,1:2|0:0,0:0:0:0:
276,151,26816,2,0,P|240:157|207:171,1,71.9999978027344,10|8,0:3|0:0,0:0:0:0:
205,180,26996,1,8,0:0:0:0:
200,189,27056,2,0,P|195:129|117:103,1,143.999995605469,2|2,1:2|0:0,0:0:0:0:
16,379,27536,6,0,P|19:335|109:345,1,143.999995605469,6|0,1:3|0:0,0:0:0:0:
8,232,27896,1,6,1:3:0:0:
8,232,28256,2,0,P|26:192|26:151,1,71.9999978027344,2|0,0:0|0:0,0:0:0:0:
101,331,28496,2,0,P|144:314|176:315,1,71.9999978027344,2|0,3:2|3:0,0:0:0:0:
112,222,28736,2,0,P|171:178|171:92,1,143.999995605469,2|10,3:2|0:0,0:0:0:0:
251,51,29096,1,2,0:0:0:0:
251,51,29216,2,0,P|226:24|171:28,1,71.9999978027344,2|0,0:0|0:0,0:0:0:0:
71,95,29456,5,2,1:2:0:0:
50,77,29576,2,0,P|30:42|38:7,1,71.9999978027344,8|0,0:0|0:0,0:0:0:0:
13,211,29816,2,0,P|29:171|185:113,1,215.999993408203,10|0,0:0|0:0,0:0:0:0:
178,111,30416,6,0,P|146:179|211:192,1,143.999995605469,2|4,1:2|0:3,0:0:0:0:
219,183,30736,5,8,0:0:0:0:
259,190,30816,5,8,0:0:0:0:
288,157,30896,6,0,P|260:85|270:6,1,143.999995605469,10|0,0:0|0:0,0:0:0:0:
450,238,31376,6,0,P|441:336|397:393,1,160,6|8,1:2|0:0,0:0:0:0:
289,272,31736,2,0,P|321:306|363:301,1,80,2|0,0:0|1:0,0:0:0:0:
512,178,31976,1,0,1:0:0:0:
512,178,32096,2,0,P|480:144|438:149,1,80,10|0,0:0|0:0,0:0:0:0:
367,213,32336,2,0,P|355:171|354:121,1,80,2|0,1:2|0:0,0:0:0:0:
365,39,32576,5,10,0:0:0:0:
317,27,32696,1,2,1:2:0:0:
274,48,32816,1,2,0:0:0:0:
261,94,32936,1,2,1:2:0:0:
215,109,33056,2,0,P|163:96|150:59,1,80,10|0,0:0|0:0,0:0:0:0:
352,134,33296,6,0,P|363:172|366:212,1,80,2|0,1:2|0:0,0:0:0:0:
260,366,33536,2,0,P|263:322|284:283,1,80,10|0,0:0|0:0,0:0:0:0:
269,187,33776,1,2,1:2:0:0:
237,212,33896,1,2,1:2:0:0:
197,205,34016,2,0,P|169:202|127:233,1,80,10|0,0:2|0:0,0:0:0:0:
65,371,34256,5,6,1:0:0:0:
65,371,34736,2,0,P|86:300|32:147,1,240,10|0,0:0|0:0,0:0:0:0:
197,41,35216,6,0,P|114:23|98:94,1,160,6|8,1:2|0:0,0:0:0:0:
29,257,35576,2,0,P|67:229|111:230,1,80,2|0,0:0|1:0,0:0:0:0:
175,141,35816,1,0,1:0:0:0:
175,141,35936,2,0,P|199:166|177:226,1,80,10|0,0:0|0:0,0:0:0:0:
92,79,36176,2,0,P|52:67|32:35,1,80,2|0,1:2|0:0,0:0:0:0:
276,11,36416,2,0,P|234:19|207:54,1,80,10|0,0:2|0:0,0:0:0:0:
190,221,36656,5,2,1:2:0:0:
217,256,36776,1,2,1:2:0:0:
259,256,36896,2,0,P|282:232|291:177,1,80,10|0,0:0|0:0,0:0:0:0:
337,384,37136,2,0,P|365:346|377:234,1,160,2|8,1:2|0:0,0:0:0:0:
484,15,37616,5,2,1:2:0:0:
484,15,37736,1,0,1:0:0:0:
484,15,37856,2,0,P|442:45|444:79,1,80,8|0,0:0|0:0,0:0:0:0:
504,222,38096,2,0,P|477:181|340:158,1,160,2|8,1:2|0:0,0:0:0:0:
318,163,38456,1,0,1:0:0:0:
265,134,38576,1,2,0:0:0:0:
255,74,38696,1,0,1:0:0:0:
301,33,38816,1,8,0:0:0:0:
301,33,39056,6,0,B|151:-2|229:118|82:102,1,240,6|0,1:2|1:0,0:0:0:0:
76,57,39896,1,0,1:0:0:0:
117,20,40016,2,0,P|176:62|172:220,1,240,8|0,3:2|1:0,0:0:0:0:
174,216,40856,1,0,1:0:0:0:
174,216,40976,1,0,3:0:0:0:
348,373,41216,6,0,P|299:356|279:254,1,160,2|0,1:2|1:0,0:0:0:0:
291,229,41816,1,0,1:0:0:0:
339,217,41936,2,0,P|399:243|430:250,1,80,10|0,3:2|0:0,0:0:0:0:
246,354,42416,2,0,P|199:366|161:387,1,80,2|0,3:2|0:0,0:0:0:0:
347,378,42896,6,0,B|347:246|248:309|267:152,1,240,4|0,1:0|1:0,0:0:0:0:
229,147,43736,1,0,1:0:0:0:
187,177,43856,2,0,P|152:245|273:283,1,240,8|0,3:2|1:0,0:0:0:0:
272,283,44696,1,0,1:0:0:0:
272,283,44816,1,0,3:0:0:0:
487,256,45056,6,0,P|417:260|331:201,1,160,2|0,1:2|1:0,0:0:0:0:
347,174,45656,1,0,1:0:0:0:
386,144,45776,2,0,P|377:94|357:61,1,80,10|0,3:2|0:0,0:0:0:0:
363,68,46136,1,2,0:0:0:0:
363,68,46256,1,0,3:0:0:0:
192,36,46496,5,2,0:0:0:0:
228,0,46616,1,2,0:0:0:0:
278,15,46736,2,0,B|265:173|203:72|192:238,1,240,6|0,1:0|1:0,0:0:0:0:
219,257,47576,1,0,1:0:0:0:
271,243,47696,2,0,P|258:161|117:130,1,240,8|0,3:2|1:0,0:0:0:0:
121,127,48536,1,0,1:0:0:0:
121,127,48656,1,0,3:0:0:0:
40,241,48896,6,0,P|74:227|127:221,2,80,2|0|0,0:0|3:0|1:0,0:0:0:0:
2,222,49496,1,0,1:0:0:0:
0,171,49616,2,0,P|9:96|85:60,1,160,10|2,3:2|0:1,0:0:0:0:
124,239,50336,5,0,3:0:0:0:
124,239,50456,1,0,3:0:0:0:
124,239,50576,2,0,B|266:221|207:328|340:318,1,240,4|0,1:0|1:0,0:0:0:0:
320,360,51416,1,0,1:0:0:0:
267,361,51536,2,0,P|277:252|344:142,1,240,8|0,3:2|1:0,0:0:0:0:
343,142,52376,1,0,1:0:0:0:
343,142,52496,1,0,3:0:0:0:
234,30,52736,6,0,P|168:20|150:3,2,80,2|0|0,0:0|3:0|1:0,0:0:0:0:
274,21,53336,1,0,1:0:0:0:
308,59,53456,1,8,3:2:0:0:
429,212,53696,2,0,P|495:202|513:185,2,80,2|2|2,0:0|0:0|0:0,0:0:0:0:
409,214,54236,2,0,L|400:247,3,20,0|0|0|6,3:0|3:0|3:0|3:1,0:0:0:0:
317,384,54776,5,0,3:0:0:0:
340,346,54896,1,0,3:0:0:0:
331,302,55016,1,0,3:0:0:0:
298,271,55136,1,0,3:0:0:0:
289,227,55256,1,0,3:0:0:0:
313,190,55376,2,0,P|338:141|326:102,1,80,0|0,3:0|3:0,0:0:0:0:
481,120,55796,5,0,3:0:0:0:
481,120,55856,2,0,P|441:116|413:88,2,80,0|0|2,3:0|3:0|1:0,0:0:0:0:
342,5,56696,5,0,3:0:0:0:
298,0,56816,1,0,3:0:0:0:
256,16,56936,1,0,3:0:0:0:
238,55,57056,1,0,3:0:0:0:
201,80,57176,1,0,3:0:0:0:
157,73,57296,2,0,P|127:61|111:8,1,80,0|0,3:0|3:0,0:0:0:0:
78,166,57716,5,0,3:0:0:0:
78,166,57776,2,0,P|57:132|21:115,2,80,0|0|2,3:0|3:0|1:0,0:0:0:0:
66,351,58616,5,0,3:0:0:0:
66,306,58736,1,0,3:0:0:0:
96,275,58856,1,0,3:0:0:0:
140,272,58976,1,0,3:0:0:0:
174,245,59096,1,0,3:0:0:0:
174,201,59216,2,0,P|177:160|213:133,1,80,0|0,3:0|3:0,0:0:0:0:
97,19,59636,5,0,3:0:0:0:
97,19,59696,2,0,P|130:46|169:41,1,80,0|0,3:0|1:0,0:0:0:0:
174,42,59996,1,0,1:0:0:0:
181,38,60056,1,0,1:0:0:0:
25,158,60416,5,0,1:0:0:0:
25,158,60656,1,0,1:0:0:0:
25,158,60896,2,0,P|12:104|5:78,1,64,2|0,1:2|0:0,0:0:0:0:
96,99,61136,2,0,P|97:63|95:22,1,64,2|0,1:2|0:0,0:0:0:0:
194,131,61376,2,0,P|208:81|222:52,1,64,2|0,1:2|0:0,0:0:0:0:
318,72,61616,2,0,P|301:26|296:5,1,64,10|0,1:3|0:0,0:0:0:0:
399,195,61856,2,0,P|415:153|435:118,1,80,2|0,0:0|0:0,0:0:0:0:
285,380,62096,5,2,1:2:0:0:
307,369,62216,2,0,P|321:288|259:251,1,160,8|8,0:0|0:0,0:0:0:0:
401,347,62576,2,0,P|442:359|485:252,1,160,2|2,0:0|0:0,0:0:0:0:
484,230,62936,1,2,0:0:0:0:
436,229,63056,1,2,0:0:0:0:
399,195,63176,1,2,0:0:0:0:
406,146,63296,1,2,0:0:0:0:
406,146,63536,2,0,P|283:204|146:222,1,240,6|0,0:3|0:0,0:0:0:0:
28,71,64016,5,2,1:2:0:0:
48,55,64136,2,0,P|89:63|105:102,1,80,8|2,0:0|0:0,0:0:0:0:
43,286,64376,1,8,0:0:0:0:
22,267,64496,2,0,P|30:210|190:146,1,240,2|0,0:0|0:0,0:0:0:0:
210,11,64976,2,0,P|204:65|255:254,1,240,10|8,0:0|0:0,0:0:0:0:
246,253,65396,1,8,0:0:0:0:
243,262,65456,2,0,P|178:274|143:309,1,80,10|0,0:0|0:0,0:0:0:0:
399,152,65696,2,0,P|445:158|490:187,1,80,2|8,0:0|0:0,0:0:0:0:
314,106,65936,5,2,1:2:0:0:
304,81,66056,2,0,P|315:32|418:42,1,160,8|8,0:0|0:0,0:0:0:0:
321,195,66416,2,0,P|255:187|227:99,1,160,2|2,0:0|0:0,0:0:0:0:
414,187,66776,2,0,P|415:221|382:272,1,80,0|2,0:0|0:0,0:0:0:0:
359,298,67016,1,2,0:0:0:0:
374,346,67136,1,2,0:0:0:0:
374,346,67376,2,0,P|450:360|498:227,1,240,6|0,0:3|0:0,0:0:0:0:
512,63,67856,6,0,P|496:97|489:162,1,80,2|8,1:2|0:0,0:0:0:0:
311,40,68096,2,0,P|314:77|340:137,1,80,2|8,0:0|0:0,0:0:0:0:
413,30,68336,2,0,P|406:66|416:131,1,80,2|0,0:0|0:0,0:0:0:0:
230,93,68576,2,0,P|242:128|283:179,1,80,2|0,0:0|0:0,0:0:0:0:
414,189,68816,6,0,B|316:188|371:253|267:259,1,160,6|0,0:3|0:0,0:0:0:0:
255,295,69176,1,8,0:0:0:0:
278,339,69296,2,0,P|314:354|378:358,1,80,6|0,0:3|0:0,0:0:0:0:
241,174,69536,2,0,P|205:189|141:193,1,80,2|0,0:0|0:0,0:0:0:0:
106,363,69776,6,0,P|154:337|162:272,1,88.000002685547,6|0,1:2|0:0,0:0:0:0:
200,91,70016,2,0,P|185:37|53:48,1,176.000005371094,8|0,0:0|1:0,0:0:0:0:
296,106,70376,1,0,1:0:0:0:
317,97,70496,2,0,P|352:58|352:10,1,88.000002685547,8|2,0:0|0:0,0:0:0:0:
358,234,70736,6,0,P|300:254|241:168,1,176.000005371094,0|10,1:0|0:0,0:0:0:0:
29,105,71096,1,2,1:2:0:0:
18,82,71216,2,0,P|44:38|88:31,1,88.000002685547,2|0,0:0|1:0,0:0:0:0:
139,137,71456,2,0,P|157:94|164:26,1,88.000002685547,8|0,0:0|0:0,0:0:0:0:
5,194,71696,6,0,P|40:224|85:222,1,88.000002685547,2|0,1:2|0:0,0:0:0:0:
267,288,71936,2,0,P|275:242|251:204,1,88.000002685547,8|0,0:2|0:0,0:0:0:0:
108,319,72176,2,0,P|151:303|172:263,1,88.000002685547,2|0,1:2|1:0,0:0:0:0:
327,133,72416,2,0,P|292:103|247:105,1,88.000002685547,10|0,0:0|0:0,0:0:0:0:
129,0,72656,6,0,P|145:103|171:187,1,176.000005371094,2|8,1:2|0:0,0:0:0:0:
19,251,73016,1,0,1:0:0:0:
35,234,73136,2,0,P|52:184|51:130,1,88.000002685547,2|0,0:0|1:0,0:0:0:0:
112,310,73376,2,0,P|154:280|203:267,1,88.000002685547,10|0,0:0|0:0,0:0:0:0:
307,384,73616,6,0,P|293:325|272:296,1,88.000002685547,6|0,1:0|0:0,0:0:0:0:
411,364,73856,2,0,P|473:342|450:224,1,176.000005371094,8|0,0:0|1:0,0:0:0:0:
491,98,74216,1,0,1:0:0:0:
502,118,74336,2,0,P|478:145|422:143,1,88.000002685547,10|2,0:0|0:0,0:0:0:0:
342,7,74576,6,0,P|375:57|419:58,1,88.000002685547,2|0,1:2|0:0,0:0:0:0:
290,240,74816,2,0,P|349:236|372:198,1,88.000002685547,10|0,0:0|1:0,0:0:0:0:
261,115,75056,2,0,P|314:141|353:120,1,88.000002685547,2|0,0:0|1:0,0:0:0:0:
389,320,75296,2,0,P|439:287|440:243,1,88.000002685547,10|0,0:0|0:0,0:0:0:0:
193,197,75536,6,0,P|130:215|101:240,1,88.000002685547,2|0,1:2|0:0,0:0:0:0:
314,384,75776,2,0,P|276:325|293:220,1,176.000005371094,8|2,0:0|1:2,0:0:0:0:
194,51,76136,1,0,1:0:0:0:
212,39,76256,2,0,P|250:77|259:126,1,88.000002685547,8|0,0:0|0:0,0:0:0:0:
443,15,76496,6,0,P|426:98|329:139,1,176.000005371094,2|8,1:2|0:0,0:0:0:0:
474,278,76856,1,0,1:0:0:0:
455,286,76976,2,0,P|432:288|385:239,1,88.000002685547,2|0,0:0|1:0,0:0:0:0:
492,178,77216,1,8,0:0:0:0:
492,178,77456,6,0,P|414:128|254:117,1,240.000009155274,6|0,1:2|3:0,0:0:0:0:
91,2,78176,1,0,1:0:0:0:
69,37,78296,1,0,1:0:0:0:
95,79,78416,2,0,P|218:91|310:24,1,240.000009155274,10|0,0:0|3:0,0:0:0:0:
151,199,79136,2,0,P|164:171|165:130,1,60.0000022888184,0|0,1:0|1:0,0:0:0:0:
177,44,79376,6,0,P|254:9|261:126,1,240.000009155274,0|0,3:0|3:0,0:0:0:0:
29,251,80096,1,0,1:0:0:0:
4,219,80216,1,0,1:0:0:0:
32,177,80336,2,0,P|145:187|255:251,1,240.000009155274,10|2,3:2|3:2,0:0:0:0:
97,371,81056,1,0,3:0:0:0:
97,371,81176,1,0,3:0:0:0:
97,371,81296,6,0,P|112:246|180:155,1,240.000009155274,6|0,1:0|3:0,0:0:0:0:
290,44,82016,1,0,1:0:0:0:
266,4,82136,1,0,1:0:0:0:
212,4,82256,2,0,P|214:112|300:228,1,240.000009155274,10|0,3:2|3:0,0:0:0:0:
55,175,82976,2,0,P|98:206|130:204,1,60.0000022888184,0|0,1:0|1:0,0:0:0:0:
187,168,83216,6,0,P|214:119|382:122,1,240.000009155274,0|0,3:0|3:0,0:0:0:0:
502,347,83936,1,0,1:0:0:0:
477,378,84056,1,0,1:0:0:0:
429,369,84176,2,0,P|434:246|461:180,1,180.000006866455,10|0,3:2|0:0,0:0:0:0:
500,118,84656,2,0,P|493:58|426:34,1,120.000004577637,2|0,3:2|3:0,0:0:0:0:
444,32,85016,1,0,3:0:0:0:
444,32,85136,1,4,1:2:0:0:
94,226,92816,5,6,1:3:0:0:
418,158,93176,1,6,1:3:0:0:
280,366,93536,5,0,0:0:0:0:
261,346,93656,1,0,0:0:0:0:
250,321,93776,1,0,0:0:0:0:
245,294,93896,1,0,0:0:0:0:
250,268,94016,1,0,0:0:0:0:
265,245,94136,1,0,0:0:0:0:
289,233,94256,2,0,P|323:228|362:252,1,80,8|0,0:1|3:0,0:0:0:0:
142,52,94736,5,2,1:2:0:0:
155,28,94856,2,0,P|193:20|225:42,1,80,8|0,0:0|0:0,0:0:0:0:
331,116,95096,2,0,P|217:141|86:192,1,240,10|0,0:0|0:0,0:0:0:0:
36,250,95576,1,0,0:0:0:0:
36,250,95696,2,0,P|68:181|24:24,1,240,2|8,1:2|0:0,0:0:0:0:
32,21,96116,1,8,0:0:0:0:
35,13,96176,2,0,P|113:57|273:58,1,240,2|2,1:2|0:0,0:0:0:0:
333,28,96656,5,6,1:3:0:0:
181,205,96896,1,2,0:0:0:0:
181,205,97016,2,0,P|226:213|253:237,1,80,6|0,1:3|0:0,0:0:0:0:
251,234,97376,6,0,P|307:202|341:205,1,80,2|0,0:0|0:0,0:0:0:0:
351,113,97616,2,0,P|398:156|406:189,1,80,2|0,3:2|3:0,0:0:0:0:
497,173,97856,2,0,P|470:231|441:249,1,80,2|0,0:0|0:0,0:0:0:0:
491,336,98096,2,0,P|426:328|401:306,1,80,10|0,0:1|0:0,0:0:0:0:
335,373,98336,2,0,P|321:309|335:278,1,80,2|0,0:0|0:0,0:0:0:0:
325,118,98576,5,2,1:2:0:0:
351,113,98696,2,0,P|384:134|403:169,1,80,8|2,0:0|0:0,0:0:0:0:
466,248,98936,2,0,P|506:182|484:75,1,160,10|0,0:0|0:0,0:0:0:0:
499,102,99296,2,0,P|469:69|475:23,1,80,2|0,0:0|0:0,0:0:0:0:
329,17,99536,6,0,P|276:23|260:122,1,160,2|4,0:0|0:3,0:0:0:0:
270,133,99856,5,8,0:0:0:0:
273,167,99936,5,8,0:0:0:0:
242,194,100016,6,0,P|183:216|172:137,1,160,10|2,0:0|0:0,0:0:0:0:
475,255,100496,6,0,P|487:211|339:111,1,240.000009155274,6|0,1:2|3:0,0:0:0:0:
271,305,101216,1,0,1:0:0:0:
309,311,101336,1,0,1:0:0:0:
343,275,101456,2,0,P|334:162|259:38,1,240.000009155274,8|2,3:2|3:2,0:0:0:0:
447,253,102176,2,0,P|454:224|475:202,1,60.0000022888184,0|0,1:0|1:0,0:0:0:0:
428,113,102416,6,0,P|351:171|197:154,1,240.000009155274,2|0,3:2|3:0,0:0:0:0:
96,357,103136,1,0,1:0:0:0:
69,326,103256,1,0,1:0:0:0:
87,278,103376,2,0,P|138:251|177:76,1,240.000009155274,8|2,3:2|0:1,0:0:0:0:
202,57,103976,1,0,3:0:0:0:
195,21,104096,1,2,3:2:0:0:
161,7,104216,1,0,3:0:0:0:
128,23,104336,6,0,P|195:74|359:67,1,240.000009155274,4|0,1:0|3:0,0:0:0:0:
94,194,105056,1,0,1:0:0:0:
116,163,105176,1,0,1:0:0:0:
164,161,105296,2,0,P|217:256|224:407,1,240.000009155274,8|2,3:2|3:2,0:0:0:0:
6,270,106016,2,0,P|37:292|79:293,1,60.0000022888184,0|0,1:0|1:0,0:0:0:0:
69,384,106256,6,0,P|96:327|261:299,1,240.000009155274,2|0,3:2|3:0,0:0:0:0:
454,348,106976,1,0,1:0:0:0:
428,383,107096,1,0,1:0:0:0:
378,378,107216,2,0,P|341:288|325:147,1,240.000009155274,10|2,3:2|0:1,0:0:0:0:
352,123,107816,1,0,3:0:0:0:
387,123,107936,1,0,3:0:0:0:
414,145,108056,1,0,3:0:0:0:
421,180,108176,1,4,1:0:0:0:
256,192,108296,12,4,111056,0:0:0:0:
428,42,115376,5,2,0:1:0:0:
417,76,115496,1,0,3:0:0:0:
387,96,115616,1,0,3:0:0:0:
352,104,115736,1,0,3:0:0:0:
317,89,115856,2,0,P|294:36|195:23,1,160,6|0,1:0|0:0,0:0:0:0:
183,205,116576,5,2,0:0:0:0:
176,177,116696,1,2,0:0:0:0:
167,144,116816,1,2,0:0:0:0:
69,232,117056,5,2,0:0:0:0:
60,198,117176,1,2,0:0:0:0:
316,306,117536,5,2,0:0:0:0:
323,278,117656,1,2,0:0:0:0:
332,245,117776,1,2,0:0:0:0:
430,333,118016,5,2,0:0:0:0:
439,299,118136,1,2,0:0:0:0:
357,384,118496,5,2,0:0:0:0:
410,212,118736,1,2,0:0:0:0:
325,37,118976,1,2,0:0:0:0:
408,6,119216,5,2,0:0:0:0:
259,161,119456,1,2,0:0:0:0:
63,50,119696,2,0,B|160:34|132:102|217:91,1,160,2|0,0:0|0:0,0:0:0:0:
427,160,120416,5,2,0:0:0:0:
427,130,120536,1,2,0:0:0:0:
398,113,120656,2,0,P|333:103|314:97,1,80,2|2,0:0|0:0,0:0:0:0:
151,27,121136,2,0,P|204:14|244:-3,1,80,2|2,0:0|0:0,0:0:0:0:
319,17,121616,6,0,P|281:83|267:172,1,160,2|2,0:0|0:0,0:0:0:0:
266,164,122336,1,0,0:0:0:0:
371,116,122576,2,0,P|393:155|387:203,1,80,2|0,0:0|0:0,0:0:0:0:
487,227,123056,2,0,P|470:266|428:289,1,80,2|0,0:0|0:0,0:0:0:0:
383,370,123536,6,0,P|334:358|328:258,1,160,2|0,0:0|0:0,0:0:0:0:
496,112,124256,1,2,0:0:0:0:
480,86,124376,1,2,0:0:0:0:
446,86,124496,2,0,P|426:137|425:176,1,80,2|2,0:0|0:0,0:0:0:0:
346,67,124856,2,0,P|339:31|264:18,1,120,2|2,0:0|0:0,0:0:0:0:
291,151,125456,2,0,P|234:151|208:101,1,120,2|2,0:0|0:0,0:0:0:0:
277,329,126056,1,0,0:0:0:0:
277,329,126176,2,0,P|344:296|352:215,1,160,2|0,0:0|0:0,0:0:0:0:
412,383,127136,5,2,0:0:0:0:
268,239,127376,2,0,P|197:275|119:272,1,160,2|0,0:0|0:0,0:0:0:0:
118,271,128096,1,2,0:0:0:0:
183,186,128336,2,0,P|141:143|79:142,1,120,2|2,0:0|0:0,0:0:0:0:
83,140,129056,2,0,P|74:119|75:85,1,40,0|0,1:0|1:0,0:0:0:0:
26,36,129296,6,0,P|63:23|120:32,1,80,2|0,0:0|1:0,0:0:0:0:
5,202,129776,2,0,P|33:223|81:230,1,80,2|0,1:2|1:0,0:0:0:0:
176,145,130256,6,0,P|225:111|304:97,1,120.000004577637,10|0,0:3|1:0,0:0:0:0:
112,34,130616,2,0,P|88:73|7:62,1,120.000004577637,2|0,0:0|0:0,0:0:0:0:
79,237,130976,2,0,P|150:252|188:336,1,160,2|6,0:0|1:2,0:0:0:0:
324,384,131456,5,2,0:0:0:0:
337,359,131576,1,2,0:0:0:0:
341,324,131696,1,2,3:2:0:0:
327,295,131816,1,2,0:0:0:0:
291,278,131936,1,2,1:2:0:0:
258,246,132056,1,2,1:2:0:0:
268,197,132176,6,0,P|279:151|306:112,1,80,10|0,3:2|0:0,0:0:0:0:
170,113,132416,2,0,P|202:78|245:58,1,80,2|0,0:0|0:0,0:0:0:0:
395,223,132656,2,0,P|381:177|385:130,1,80,2|0,3:2|0:0,0:0:0:0:
511,171,132896,2,0,P|476:138|456:95,1,80,2|0,1:2|1:0,0:0:0:0:
359,12,133136,5,0,3:0:0:0:
359,12,133376,5,2,1:2:0:0:
369,33,133496,1,2,0:0:0:0:
360,64,133616,1,2,3:2:0:0:
328,83,133736,1,2,0:0:0:0:
287,73,133856,1,2,1:2:0:0:
238,80,133976,1,2,1:2:0:0:
213,126,134096,5,10,3:2:0:0:
195,71,134216,1,2,0:0:0:0:
144,35,134336,1,2,0:0:0:0:
76,40,134456,1,2,0:0:0:0:
34,98,134576,2,0,P|26:149|53:192,1,80,2|0,3:1|0:0,0:0:0:0:
147,247,134816,2,0,P|188:238|214:209,1,80,2|0,0:0|0:0,0:0:0:0:
131,141,135056,5,4,1:0:0:0:
131,141,135296,6,0,P|150:103|179:61,1,80,2|0,0:0|0:0,0:0:0:0:
261,0,135536,2,0,P|258:89|314:157,1,160,2|2,3:2|1:2,0:0:0:0:
322,165,135896,1,2,1:2:0:0:
367,184,136016,2,0,P|354:244|330:280,1,80,8|0,3:2|0:0,0:0:0:0:
431,111,136256,2,0,P|491:151|488:181,1,80,2|0,0:0|0:0,0:0:0:0:
481,375,136496,2,0,P|487:316|444:223,1,160,2|2,3:2|1:2,0:0:0:0:
446,226,136856,1,2,1:2:0:0:
446,226,136976,1,2,3:2:0:0:
227,373,137216,5,2,1:2:0:0:
228,342,137336,1,2,0:0:0:0:
253,319,137456,1,2,3:2:0:0:
291,317,137576,1,2,0:0:0:0:
326,292,137696,1,2,1:2:0:0:
334,246,137816,1,2,1:2:0:0:
304,204,137936,5,10,3:2:0:0:
356,187,138056,1,2,0:0:0:0:
366,130,138176,1,2,0:0:0:0:
324,74,138296,1,2,0:0:0:0:
253,87,138416,1,2,3:1:0:0:
42,0,138656,5,2,0:0:0:0:
18,49,138776,1,2,0:0:0:0:
47,91,138896,2,0,P|87:46|193:29,1,160,6|0,1:0|3:0,0:0:0:0:
471,70,139616,1,0,1:0:0:0:
480,109,139736,1,0,1:0:0:0:
439,137,139856,2,0,P|390:111|385:15,1,160,8|0,3:2|3:0,0:0:0:0:
444,225,140576,2,0,P|424:228|399:239,1,40,0|0,1:0|1:0,0:0:0:0:
338,190,140816,6,0,P|295:182|261:170,2,80,0|2|0,3:0|1:2|3:0,0:0:0:0:
149,263,141536,1,0,1:0:0:0:
182,281,141656,1,0,1:0:0:0:
228,267,141776,2,0,P|231:187|171:128,1,160,8|2,3:2|0:1,0:0:0:0:
309,310,142496,1,0,3:0:0:0:
309,310,142616,1,0,3:0:0:0:
309,310,142736,6,0,P|274:356|177:347,1,160,4|0,1:0|3:0,0:0:0:0:
76,141,143456,1,0,1:0:0:0:
96,177,143576,1,0,1:0:0:0:
74,224,143696,2,0,P|153:227|231:273,1,160,8|0,3:2|3:0,0:0:0:0:
15,143,144416,2,0,P|44:134|60:126,1,40,0|0,1:0|1:0,0:0:0:0:
140,108,144656,6,0,P|125:58|106:30,1,80,0|2,3:0|1:2,0:0:0:0:
63,229,145136,2,0,P|25:253|13:296,1,80,0|0,3:2|1:0,0:0:0:0:
14,322,145496,1,0,1:0:0:0:
47,356,145616,1,8,3:2:0:0:
170,201,145856,2,0,P|221:215|250:240,2,80,2|2|2,0:0|0:0|0:0,0:0:0:0:
149,212,146396,2,0,L|158:245,3,20,0|0|0|6,3:0|3:0|3:0|0:1,0:0:0:0:
181,377,146936,5,0,3:0:0:0:
224,382,147056,1,0,3:0:0:0:
264,365,147176,1,0,3:0:0:0:
276,322,147296,1,0,3:0:0:0:
310,294,147416,1,0,3:0:0:0:
353,294,147536,2,0,P|386:326|390:362,1,80,0|0,3:0|3:0,0:0:0:0:
451,226,147956,1,0,3:0:0:0:
451,226,148016,2,0,P|470:261|507:281,2,80,0|0|2,3:0|3:0|1:0,0:0:0:0:
482,59,148856,5,0,3:0:0:0:
479,102,148976,1,0,3:0:0:0:
443,127,149096,1,0,3:0:0:0:
399,129,149216,1,0,3:0:0:0:
365,157,149336,1,0,3:0:0:0:
367,200,149456,2,0,P|363:239|328:266,1,80,0|0,3:0|3:0,0:0:0:0:
329,80,149876,1,0,3:0:0:0:
329,80,149936,2,0,P|300:48|259:40,2,80,0|0|6,3:0|3:0|1:0,0:0:0:0:
71,288,150776,5,0,3:0:0:0:
83,245,150896,1,0,3:0:0:0:
114,214,151016,1,0,3:0:0:0:
154,197,151136,1,0,3:0:0:0:
197,197,151256,1,0,3:0:0:0:
238,211,151376,2,0,P|244:165|258:122,1,80,0|0,3:0|3:0,0:0:0:0:
223,304,151796,1,0,3:0:0:0:
223,304,151856,2,0,P|217:350|203:393,2,80,0|0|2,3:0|3:0|1:0,0:0:0:0:
70,220,152696,5,0,3:0:0:0:
34,194,152816,1,0,3:0:0:0:
11,156,152936,1,0,3:0:0:0:
0,113,153056,1,0,3:0:0:0:
1,69,153176,1,0,3:0:0:0:
17,28,153296,2,0,P|72:47|103:50,1,80,0|0,3:0|3:0,0:0:0:0:
253,29,153716,1,0,3:0:0:0:
253,29,153776,2,0,P|198:10|167:7,2,80,0|0|6,3:0|3:0|1:0,0:0:0:0:
170,230,154616,5,0,3:0:0:0:
154,188,154736,1,0,3:0:0:0:
164,145,154856,1,0,3:0:0:0:
197,116,154976,1,0,3:0:0:0:
240,113,155096,1,0,3:0:0:0:
279,132,155216,2,0,P|277:183|254:214,1,80,0|0,3:0|3:0,0:0:0:0:
361,74,155636,1,0,3:0:0:0:
361,74,155696,2,0,P|395:103|444:107,2,80,0|0|2,3:0|3:0|1:0,0:0:0:0:
505,176,156536,5,0,3:0:0:0:
509,219,156656,1,0,3:0:0:0:
487,258,156776,1,0,3:0:0:0:
447,278,156896,1,0,3:0:0:0:
403,271,157016,1,0,3:0:0:0:
368,243,157136,2,0,P|320:255|300:279,1,80,0|0,3:0|3:0,0:0:0:0:
391,138,157556,1,0,3:0:0:0:
391,138,157616,2,0,P|350:126|327:88,2,80,0|0|2,3:0|3:0|1:0,0:0:0:0:
260,361,158456,5,0,3:0:0:0:
283,324,158576,1,0,3:0:0:0:
287,280,158696,1,0,3:0:0:0:
273,237,158816,1,0,3:0:0:0:
240,207,158936,1,0,3:0:0:0:
196,201,159056,2,0,P|172:205|106:231,1,80,0|0,3:0|3:0,0:0:0:0:
81,74,159476,1,0,3:0:0:0:
81,74,159536,2,0,P|105:70|171:44,1,80,0|0,3:0|1:0,0:0:0:0:
165,54,159836,1,0,1:0:0:0:
173,57,159896,1,0,1:0:0:0:
364,167,160256,5,0,1:0:0:0:
364,167,160496,1,0,1:0:0:0:
364,167,160736,2,0,P|374:211|378:239,1,64,2|0,1:2|0:0,0:0:0:0:
485,209,160976,2,0,P|474:253|462:284,1,64,2|0,1:2|0:0,0:0:0:0:
315,360,161216,2,0,P|305:316|301:288,1,64,2|0,1:2|0:0,0:0:0:0:
184,314,161456,2,0,P|195:270|207:239,1,64,10|0,1:3|0:0,0:0:0:0:
78,366,161696,2,0,P|56:319|41:278,1,80,2|0,0:0|0:0,0:0:0:0:
64,74,161936,5,2,1:2:0:0:
85,90,162056,2,0,P|90:165|9:160,1,160,8|8,0:0|0:0,0:0:0:0:
149,37,162416,2,0,P|210:41|176:122,1,160,2|2,0:0|0:0,0:0:0:0:
219,258,162776,1,2,0:0:0:0:
219,258,162896,2,0,P|188:247|169:203,1,80,2|0,0:0|0:0,0:0:0:0:
24,180,163136,2,0,P|47:154|99:149,1,80,2|0,0:0|0:0,0:0:0:0:
65,20,163376,2,0,P|123:60|298:96,1,240,6|0,0:3|0:0,0:0:0:0:
433,217,163856,5,2,1:2:0:0:
454,225,163976,2,0,P|491:200|483:156,1,80,8|2,0:0|0:0,0:0:0:0:
370,10,164216,1,8,0:0:0:0:
393,27,164336,2,0,P|382:140|331:191,1,160,2|2,0:0|0:0,0:0:0:0:
421,336,164696,1,0,0:0:0:0:
421,336,164816,6,0,P|415:264|264:206,1,240,10|8,0:0|0:0,0:0:0:0:
270,195,165236,1,8,0:0:0:0:
264,188,165296,2,0,P|251:125|253:83,1,80,10|0,0:0|0:0,0:0:0:0:
64,289,165536,2,0,P|117:300|157:329,1,80,2|8,0:0|0:0,0:0:0:0:
49,131,165776,5,2,1:2:0:0:
37,152,165896,2,0,P|73:197|193:203,1,160,8|8,0:0|0:0,0:0:0:0:
226,384,166256,2,0,P|242:299|326:295,1,160,2|2,0:0|0:0,0:0:0:0:
178,227,166616,2,0,P|207:179|213:142,1,80,0|2,0:0|0:0,0:0:0:0:
211,111,166856,1,2,0:0:0:0:
173,78,166976,1,2,0:0:0:0:
173,78,167216,2,0,P|79:128|93:41,1,240,6|0,0:3|0:0,0:0:0:0:
245,25,167696,6,0,P|287:41|349:41,1,80,2|8,1:2|0:0,0:0:0:0:
214,218,167936,2,0,P|256:234|318:234,1,80,2|8,0:0|0:0,0:0:0:0:
257,142,168176,2,0,P|299:126|361:126,1,80,2|0,0:0|0:0,0:0:0:0:
223,340,168416,2,0,P|265:324|327:324,1,80,2|0,0:0|0:0,0:0:0:0:
446,196,168656,6,0,P|505:222|480:302,1,160,6|2,0:3|0:0,0:0:0:0:
472,346,169016,1,8,0:0:0:0:
423,357,169136,2,0,P|403:321|401:259,1,80,6|0,0:3|0:0,0:0:0:0:
345,119,169376,2,0,P|336:178|310:205,1,80,2|0,0:0|0:0,0:0:0:0:
476,112,169616,6,0,P|449:70|393:65,1,88.000002685547,6|0,1:2|0:0,0:0:0:0:
309,290,169856,2,0,P|262:334|148:320,1,176.000005371094,8|0,0:0|1:0,0:0:0:0:
8,159,170216,1,0,1:0:0:0:
0,187,170336,2,0,P|22:223|87:221,1,88.000002685547,10|2,0:0|0:0,0:0:0:0:
84,384,170576,6,0,P|142:272|158:190,1,176.000005371094,0|10,1:0|0:2,0:0:0:0:
132,50,170936,1,2,1:2:0:0:
105,62,171056,2,0,P|86:109|109:148,1,88.000002685547,2|0,0:0|1:0,0:0:0:0:
161,319,171296,2,0,P|204:324|243:350,1,88.000002685547,10|0,0:0|0:0,0:0:0:0:
469,170,171536,6,0,P|444:135|401:128,1,88.000002685547,2|0,1:2|0:0,0:0:0:0:
335,305,171776,2,0,P|350:345|332:384,1,88.000002685547,10|0,0:2|0:0,0:0:0:0:
429,294,172017,2,0,P|424:251|391:224,1,88.000002685547,2|0,1:2|1:0,0:0:0:0:
363,43,172256,2,0,P|403:27|442:45,1,88.000002685547,10|0,0:0|0:0,0:0:0:0:
298,218,172496,6,0,P|212:212|221:142,1,176.000005371094,2|8,1:2|0:0,0:0:0:0:
488,219,172856,1,0,1:0:0:0:
470,197,172976,2,0,P|391:217|366:236,1,88.000002685547,2|0,0:0|1:0,0:0:0:0:
260,54,173216,2,0,P|214:52|175:-2,1,88.000002685547,10|0,0:0|0:0,0:0:0:0:
358,46,173456,6,0,P|347:110|332:147,1,88.000002685547,6|0,1:0|0:0,0:0:0:0:
409,317,173696,2,0,P|374:238|268:234,1,176.000005371094,8|0,0:0|1:0,0:0:0:0:
231,376,174056,1,0,1:0:0:0:
234,349,174176,2,0,P|266:320|332:328,1,88.000002685547,10|2,0:0|0:0,0:0:0:0:
138,374,174416,6,0,P|107:340|108:295,1,88.000002685547,2|0,1:2|0:0,0:0:0:0:
30,124,174656,2,0,P|74:114|113:137,1,88.000002685547,10|0,0:0|1:0,0:0:0:0:
14,278,174896,2,0,P|27:234|67:212,1,88.000002685547,2|0,0:0|1:0,0:0:0:0:
172,57,175136,2,0,P|203:91|202:136,1,88.000002685547,10|0,0:0|0:0,0:0:0:0:
255,247,175376,6,0,P|199:240|159:219,1,88.000002685547,2|0,1:2|0:0,0:0:0:0:
14,382,175616,2,0,P|57:310|71:208,1,176.000005371094,8|2,0:0|1:2,0:0:0:0:
8,73,175976,1,0,1:0:0:0:
13,101,176096,2,0,P|53:117|112:125,1,88.000002685547,8|0,0:0|0:0,0:0:0:0:
188,0,176336,6,0,B|172:110|243:66|219:173,1,176.000005371094,2|8,1:2|0:0,0:0:0:0:
372,13,176696,1,0,1:0:0:0:
380,42,176816,2,0,P|358:79|309:84,1,88.000002685547,2|0,0:0|1:0,0:0:0:0:
97,124,177056,1,8,0:0:0:0:
97,124,177296,6,0,P|138:89|168:89,1,80,6|0,1:2|0:0,0:0:0:0:
218,161,177536,2,0,P|221:220|239:245,1,80,2|0,0:0|0:0,0:0:0:0:
210,359,177776,2,0,P|224:295|319:279,1,160,2|0,3:2|1:2,0:0:0:0:
441,379,178136,1,0,1:2:0:0:
414,378,178256,2,0,P|396:354|395:296,1,80,10|0,3:2|0:0,0:0:0:0:
512,247,178496,2,0,P|470:248|443:222,1,80,2|0,0:0|0:0,0:0:0:0:
396,42,178736,2,0,P|367:116|354:195,1,160,2|2,3:2|1:2,0:0:0:0:
286,75,179096,1,0,0:0:0:0:
286,75,179216,6,0,P|276:19|259:-10,1,80,2|0,3:2|0:0,0:0:0:0:
457,127,179456,2,0,P|500:88|549:75,1,80,2|0,1:2|0:0,0:0:0:0:
361,207,179696,2,0,P|304:249|203:234,1,160,2|2,3:2|1:2,0:0:0:0:
109,142,180056,1,0,1:0:0:0:
135,128,180176,2,0,P|252:144|331:322,1,320,10|2,3:2|0:1,0:0:0:0:
73,267,180896,1,0,3:0:0:0:
73,267,181016,1,0,3:0:0:0:
73,267,181136,6,0,P|102:306|144:311,1,80,6|0,1:0|0:0,0:0:0:0:
207,383,181376,2,0,P|226:337|234:279,1,80,2|0,0:0|0:0,0:0:0:0:
376,150,181616,2,0,P|358:203|253:214,1,160,2|2,3:2|1:2,0:0:0:0:
384,61,181976,1,0,1:0:0:0:
363,39,182096,2,0,P|325:38|302:69,1,80,10|0,3:2|0:0,0:0:0:0:
180,8,182336,2,0,P|191:64|226:77,1,80,2|0,0:0|0:0,0:0:0:0:
267,208,182576,2,0,P|191:164|87:155,1,160,2|0,3:2|1:0,0:0:0:0:
3,249,182936,1,0,0:0:0:0:
3,249,183056,6,0,P|62:239|88:221,1,80,2|0,3:2|0:0,0:0:0:0:
92,64,183296,2,0,P|53:56|20:33,1,80,2|0,1:2|0:0,0:0:0:0:
162,271,183536,2,0,P|185:199|126:151,1,160,2|2,3:2|1:2,0:0:0:0:
74,354,183896,1,0,1:0:0:0:
67,324,184016,2,0,P|91:147|161:7,1,320,10|2,3:2|0:1,0:0:0:0:
268,106,184736,1,0,3:0:0:0:
268,106,184856,1,0,3:0:0:0:
268,106,184976,1,4,1:0:0:0:
