osu file format v14

[General]
AudioFilename: audio.mp3
AudioLeadIn: 0
PreviewTime: 60836
Countdown: 0
SampleSet: Soft
StackLeniency: 0.7
Mode: 0
LetterboxInBreaks: 0
WidescreenStoryboard: 1

[Editor]
Bookmarks: 23696,54416,85136,92816,100496,112016,115856,131216,146576,161936,169616,184976
DistanceSpacing: 0.5
BeatDivisor: 4
GridSize: 16
TimelineZoom: 1.7

[Metadata]
Title:Atonement Twins
TitleUnicode:Atonement Twins
Artist:La priere
ArtistUnicode:La prière
Creator:iBell
Version:Sacrifice
Source:
Tags:mg j-rock jpop j-pop female vocal vocals vocalist c97 comiket 97 metal なゆた bellicose mappers' guild mpg featured artist fa Feryquitous 棗いつき natsume itsuki 藍月なくる aitsuki nakuru nayuta japanese rock jrock Gemini Syndrome mbc 2023 November monthly beatmap contest
BeatmapID:4493284
BeatmapSetID:2135397

[Difficulty]
HPDrainRate:6
CircleSize:4.3
OverallDifficulty:8.3
ApproachRate:9.2
SliderMultiplier:2
SliderTickRate:1

[Events]
//Background and Video events
0,0,"bg.jpg",0,0
//Break Periods
2,85336,92246
//Storyboard Layer 0 (Background)
//Storyboard Layer 1 (Fail)
//Storyboard Layer 2 (Pass)
//Storyboard Layer 3 (Foreground)
//Storyboard Layer 4 (Overlay)
//Storyboard Sound Samples

[TimingPoints]
656,240,4,2,1,50,1,0
1736,-125,4,2,1,50,0,0
2036,-125,4,2,1,5,0,0
2096,-100,4,2,1,50,0,0
5576,-125,4,2,1,50,0,0
5876,-125,4,2,1,5,0,0
5936,-100,4,2,1,50,0,0
7856,-125,4,2,1,50,0,0
8336,-100,4,2,1,60,0,0
8576,-100,4,2,1,60,0,0
9296,-66.6666666666667,4,2,1,60,0,0
10016,-100,4,2,1,60,0,0
13136,-66.6666666666667,4,2,1,60,0,0
14096,-100,4,2,1,60,0,0
16976,-66.6666666666667,4,2,1,60,0,0
17936,-100,4,2,1,60,0,0
20816,-66.6666666666667,4,2,1,60,0,0
21536,-100,4,2,1,60,0,0
23696,-125,4,2,1,45,0,0
24776,-100,4,2,1,45,0,0
25016,-125,4,2,2,45,0,0
25256,-125,4,2,1,45,0,0
25616,-100,4,2,1,45,0,0
26216,-100,4,2,2,45,0,0
26576,-125,4,2,1,45,0,0
26936,-100,4,2,1,45,0,0
27536,-125,4,2,1,45,0,0
28496,-100,4,2,1,45,0,0
28976,-125,4,2,2,45,0,0
29096,-125,4,2,1,45,0,0
29456,-100,4,2,1,45,0,0
29816,-125,4,2,1,45,0,0
30176,-100,4,2,1,45,0,0
31376,-100,4,2,1,55,0,0
32276,-125,4,2,1,5,0,0
32336,-100,4,2,1,55,0,0
33236,-125,4,2,1,5,0,0
33296,-100,4,2,1,55,0,0
37076,-125,4,2,1,5,0,0
37136,-100,4,2,1,55,0,0
38096,-83.3333333333333,4,2,1,55,0,0
38336,-100,4,2,1,55,0,0
38816,-133.333333333333,4,2,1,55,0,0
39056,-200,4,2,2,60,0,0
41216,-200,4,2,1,60,0,0
41936,-200,4,2,2,60,0,0
44816,-200,4,2,2,60,0,0
45056,-200,4,2,1,60,0,0
45776,-200,4,2,2,60,0,0
48656,-200,4,2,2,60,0,0
48896,-200,4,2,1,60,0,0
49136,-200,4,2,2,60,0,0
52496,-200,4,2,2,60,0,0
52736,-200,4,2,1,60,0,0
52976,-200,4,2,2,60,0,0
53696,-200,4,2,1,45,0,0
54416,-200,4,2,2,45,0,0
54776,-200,4,2,1,45,0,0
56336,-200,4,2,2,45,0,0
56696,-200,4,2,1,45,0,0
58256,-200,4,2,2,45,0,0
58616,-200,4,2,1,45,0,0
60416,-200,4,2,1,30,0,0
60656,-200,4,2,1,35,0,0
60896,-200,4,2,1,40,0,0
61136,-166.666666666667,4,2,1,45,0,0
61376,-142.857142857143,4,2,1,50,0,0
61616,-125,4,2,1,55,0,0
61856,-111.111111111111,4,2,1,60,0,0
62036,-125,4,2,1,5,0,0
62096,-100,4,2,1,65,0,0
63536,-83.3333333333333,4,2,1,65,0,0
63896,-100,4,2,1,65,0,0
64496,-90.9090909090909,4,2,1,65,0,0
64736,-100,4,2,1,65,0,0
67376,-83.3333333333333,4,2,1,65,0,0
67736,-100,4,2,1,65,0,0
69776,-90.9090909090909,4,2,1,70,0,1
77456,-200,4,2,1,60,0,0
77936,-200,4,2,2,60,0,0
78176,-200,4,2,1,60,0,0
78896,-200,4,2,2,60,0,0
79136,-133.333333333333,4,2,1,60,0,0
79376,-200,4,2,2,60,0,0
79616,-200,4,2,1,60,0,0
80336,-200,4,2,2,60,0,0
80816,-200,4,2,2,60,0,0
81056,-200,4,2,1,60,0,0
81776,-200,4,2,2,60,0,0
82016,-200,4,2,1,60,0,0
82256,-200,4,2,2,60,0,0
82736,-200,4,2,2,60,0,0
82976,-133.333333333333,4,2,1,60,0,0
83216,-200,4,2,2,60,0,0
83456,-200,4,2,1,60,0,0
84176,-200,4,2,2,60,0,0
84656,-200,4,2,2,60,0,0
84896,-200,4,2,1,60,0,0
92816,-133.333333333333,4,2,1,45,0,0
93536,-133.333333333333,4,2,1,35,0,0
94256,-133.333333333333,4,2,1,45,0,0
94736,-100,4,2,1,45,0,0
96176,-125,4,2,1,45,0,0
96656,-100,4,2,1,45,0,0
100016,-166.666666666667,4,2,1,50,0,0
100496,-133.333333333333,4,2,1,55,0,0
100976,-133.333333333333,4,2,2,55,0,0
101216,-133.333333333333,4,2,2,55,0,0
101936,-100,4,2,2,60,0,0
102176,-133.333333333333,4,2,2,60,0,0
103976,-133.333333333333,4,2,1,60,0,0
104336,-133.333333333333,4,2,2,60,0,0
105776,-100,4,2,2,60,0,0
106016,-133.333333333333,4,2,2,60,0,0
107816,-133.333333333333,4,2,1,60,0,0
108176,-133.333333333333,4,2,2,60,0,0
109616,-100,4,2,2,60,0,0
109856,-133.333333333333,4,2,2,60,0,0
111656,-133.333333333333,4,2,1,60,0,0
112016,-133.333333333333,4,2,2,60,0,0
113456,-100,4,2,2,60,0,0
113696,-133.333333333333,4,2,2,60,0,0
115496,-133.333333333333,4,2,1,60,0,0
115856,-200,4,2,1,45,0,0
122036,-125,4,2,1,5,0,0
122096,-200,4,2,1,45,0,0
123056,-166.666666666667,4,2,1,45,0,0
123536,-133.333333333333,4,2,1,45,0,0
124016,-200,4,2,1,45,0,0
126176,-181.818181818182,4,2,1,45,0,0
126656,-200,4,2,1,45,0,0
129536,-200,4,2,1,30,0,0
129776,-200,4,2,1,35,0,0
130016,-200,4,2,1,40,0,0
130256,-133.333333333333,4,2,1,45,0,0
130496,-133.333333333333,4,2,1,50,0,0
130736,-133.333333333333,4,2,1,55,0,0
131216,-100,4,2,1,60,0,0
131696,-100,4,2,2,60,0,0
131816,-100,4,2,1,60,0,0
132176,-83.3333333333333,4,2,2,60,0,0
132356,-125,4,2,1,5,0,0
132416,-83.3333333333333,4,2,1,60,0,0
132596,-125,4,2,1,5,0,0
132656,-111.111111111111,4,2,2,60,0,0
132896,-111.111111111111,4,2,1,60,0,0
133136,-100,4,2,2,60,0,0
133376,-100,4,2,1,60,0,0
133616,-100,4,2,2,60,0,0
133736,-100,4,2,1,60,0,0
134096,-100,4,2,2,60,0,0
134216,-100,4,2,1,60,0,0
134576,-83.3333333333333,4,2,2,60,0,0
134756,-125,4,2,1,5,0,0
134816,-111.111111111111,4,2,1,60,0,0
135296,-133.333333333333,4,2,1,60,0,0
135536,-133.333333333333,4,2,2,60,0,0
135776,-133.333333333333,4,2,2,60,0,0
138896,-200,4,2,2,60,0,0
142496,-200,4,2,1,60,0,0
142736,-200,4,2,2,60,0,0
145856,-200,4,2,1,45,0,0
146576,-200,4,2,2,45,0,0
146936,-200,4,2,1,45,0,0
148496,-200,4,2,2,45,0,0
148856,-200,4,2,1,45,0,0
150416,-200,4,2,2,45,0,0
150776,-200,4,2,1,45,0,0
152336,-200,4,2,2,45,0,0
152696,-200,4,2,1,45,0,0
154256,-200,4,2,2,45,0,0
154616,-200,4,2,1,45,0,0
156176,-200,4,2,2,45,0,0
156536,-200,4,2,1,45,0,0
158096,-200,4,2,2,45,0,0
158456,-200,4,2,1,45,0,0
160256,-200,4,2,1,30,0,0
160496,-200,4,2,1,35,0,0
160736,-200,4,2,1,40,0,0
160976,-166.666666666667,4,2,1,45,0,0
161216,-142.857142857143,4,2,1,50,0,0
161456,-125,4,2,1,55,0,0
161696,-111.111111111111,4,2,1,60,0,0
161876,-125,4,2,1,5,0,0
161936,-100,4,2,1,65,0,0
163376,-83.3333333333333,4,2,1,65,0,0
163736,-100,4,2,1,65,0,0
164336,-90.9090909090909,4,2,1,65,0,0
164576,-100,4,2,1,65,0,0
167216,-83.3333333333333,4,2,1,65,0,0
167576,-100,4,2,1,65,0,0
169616,-90.9090909090909,4,2,1,70,0,1
176336,-83.3333333333333,4,2,1,70,0,1
176576,-90.9090909090909,4,2,1,70,0,1
177296,-100,4,2,2,60,0,0
177476,-125,4,2,1,5,0,0
177536,-100,4,2,2,60,0,0
177716,-125,4,2,1,5,0,0
177776,-100,4,2,2,60,0,0
177956,-125,4,2,1,5,0,0
178016,-100,4,2,2,60,0,0
178436,-125,4,2,1,5,0,0
178496,-100,4,2,2,60,0,0
178676,-125,4,2,1,5,0,0
178736,-83.3333333333333,4,2,2,60,0,0
179396,-125,4,2,1,5,0,0
179456,-100,4,2,2,60,0,0
179636,-125,4,2,1,5,0,0
179696,-100,4,2,2,60,0,0
179876,-125,4,2,1,5,0,0
179936,-100,4,2,2,60,0,0
180896,-100,4,2,1,60,0,0
181136,-100,4,2,1,60,0,0
181316,-125,4,2,1,5,0,0
181376,-100,4,2,2,60,0,0
181556,-125,4,2,1,5,0,0
181616,-100,4,2,2,60,0,0
181796,-125,4,2,1,5,0,0
181856,-100,4,2,2,60,0,0
182276,-125,4,2,1,5,0,0
182336,-100,4,2,2,60,0,0
182516,-125,4,2,1,5,0,0
182576,-83.3333333333333,4,2,2,60,0,0
183236,-125,4,2,1,5,0,0
183296,-100,4,2,2,60,0,0
183476,-125,4,2,1,5,0,0
183536,-100,4,2,2,60,0,0
183716,-125,4,2,1,5,0,0
183776,-100,4,2,2,60,0,0
184736,-100,4,2,1,60,0,0

[Colours]
Combo1 : 255,100,123
Combo2 : 67,222,250
Combo3 : 129,95,248
Combo4 : 254,126,232

[HitObjects]
404,329,656,5,0,1:0:0:0:
349,273,776,6,0,B|308:299|308:299|329:347,1,100,8|0,0:0|0:0,0:0:0:0:
478,308,1016,2,0,B|499:351|499:351|458:382,1,100,8|0,0:0|0:0,0:0:0:0:
276,290,1496,5,0,3:0:0:0:
276,290,1556,1,0,3:0:0:0:
329,347,1676,5,0,3:0:0:0:
329,347,1736,2,0,B|377:318|413:229|320:224|393:158,1,200,0|0,3:0|0:0,0:0:0:0:
393,167,2096,6,0,P|434:120|381:160,1,200,4|0,0:3|0:0,0:0:0:0:
96,247,2576,5,0,1:0:0:0:
151,191,2696,6,0,B|192:217|192:217|171:265,1,100,8|0,0:0|0:0,0:0:0:0:
22,226,2936,2,0,B|1:269|1:269|42:300,1,100,8|0,0:0|0:0,0:0:0:0:
276,235,3416,5,0,3:0:0:0:
276,235,3476,1,0,3:0:0:0:
276,235,3536,2,0,B|323:268|323:268|133:319|133:319|104:374,1,300,10|8,0:0|0:0,0:0:0:0:
115,379,3956,1,8,0:0:0:0:
95,383,4016,2,0,B|88:353|57:306|23:396|-52:263|2:195|2:195|29:238|67:207,1,300,10|8,0:0|0:0,0:0:0:0:
129,89,4496,5,0,1:0:0:0:
55,68,4616,6,0,B|39:84|34:111|34:111|64:117|73:141,1,100,8|0,0:0|0:0,0:0:0:0:
184,33,4856,2,0,B|205:38|223:59|223:59|200:79|204:105,1,100,8|0,0:0|0:0,0:0:0:0:
0,122,5336,5,0,3:0:0:0:
0,122,5396,1,0,3:0:0:0:
72,140,5516,5,0,3:0:0:0:
72,140,5576,2,0,B|87:117|68:88|68:88|71:40|134:7|178:21,1,200,0|0,3:0|0:0,0:0:0:0:
184,33,5936,6,0,P|231:74|191:21,1,200,4|0,0:3|0:0,0:0:0:0:
382,193,6416,5,0,1:0:0:0:
456,172,6536,6,0,B|472:188|477:215|477:215|447:221|438:245,1,100,8|0,0:0|0:0,0:0:0:0:
327,137,6776,2,0,B|306:142|288:163|288:163|311:183|307:209,1,100,8|0,0:0|0:0,0:0:0:0:
438,87,7256,5,0,3:0:0:0:
438,87,7316,1,0,3:0:0:0:
438,87,7376,2,0,B|475:60|513:141|487:206|393:302|411:145|320:307|386:316,1,300,6|8,0:3|0:0,0:0:0:0:
385,320,7796,1,8,0:0:0:0:
387,338,7856,2,0,B|472:337|419:376|476:399|510:357|530:308|493:251|433:262,1,240,6|0,0:3|0:0,0:0:0:0:
291,352,8336,5,4,1:2:0:0:
291,352,8576,6,2,B|248:343|248:343|265:264|265:264|225:194,1,200,10|0,0:0|1:0,0:1:0:0:
160,335,8936,2,2,B|138:330|138:330|147:290|147:290|127:255,1,100,2|8,1:2|0:0,0:1:0:0:
336,230,9296,6,2,L|41:381,1,300.000011444092,2|8,1:2|0:0,0:1:0:0:
74,374,9656,2,2,L|369:223,1,300.000011444092,2|0,1:2|1:0,0:1:0:0:
416,193,10016,5,8,0:0:0:0:
416,193,10256,6,0,P|418:131|378:108,1,100,0|0,1:0|0:0,0:0:0:0:
322,34,10496,2,0,P|296:75|291:125,1,100,8|0,0:0|0:0,0:0:0:0:
89,26,10736,5,0,1:0:0:0:
159,0,10856,1,0,1:0:0:0:
209,60,10976,1,8,0:0:0:0:
209,60,11216,6,0,B|188:69|184:102|184:102|166:74|141:83,1,100,2|0,1:2|0:0,0:0:0:0:
210,189,11456,2,0,B|187:186|167:212|167:212|165:179|139:174,1,100,10|0,0:0|1:0,0:0:0:0:
144,300,11696,2,0,B|125:286|95:299|95:299|110:269|90:252,1,100,2|0,0:0|1:0,0:0:0:0:
30,364,11936,2,0,B|20:343|-12:339|-12:339|15:321|6:296,1,100,10|0,0:0|0:0,0:0:0:0:
149,87,12176,5,4,1:0:0:0:
149,87,12416,6,2,B|154:100|174:100|174:100|161:131|107:163|66:151|66:151|38:141|20:153,1,200,10|0,0:0|1:0,0:1:0:0:
159,219,12776,2,2,B|161:225|171:225|171:225|164:241|137:257|117:251|117:251|103:246|94:252,1,100,2|8,1:2|0:0,0:1:0:0:
74,47,13136,6,2,B|116:261|123:96|173:325,1,300.000011444092,2|8,1:2|0:0,0:1:0:0:
164,329,13496,2,2,B|114:100|106:265|64:50,1,300.000011444092,2|0,1:2|1:0,0:1:0:0:
139,0,13856,5,8,0:0:0:0:
139,0,14096,6,0,P|171:35|222:26,1,100,0|0,1:0|0:0,0:0:0:0:
291,99,14336,2,0,P|317:57|321:7,1,100,8|0,0:0|0:0,0:0:0:0:
235,236,14576,5,0,1:0:0:0:
171,198,14696,1,0,1:0:0:0:
201,128,14816,1,8,0:0:0:0:
201,128,15056,5,2,1:2:0:0:
163,95,15176,1,2,0:2:0:0:
115,111,15296,1,10,0:2:0:0:
104,159,15416,1,2,1:2:0:0:
22,188,15536,5,2,0:2:0:0:
12,237,15656,1,2,1:2:0:0:
50,270,15776,1,10,0:2:0:0:
97,256,15896,1,2,0:2:0:0:
170,331,16016,5,4,1:2:0:0:
170,331,16256,6,2,B|160:287|190:246|231:238|231:238|256:198|230:167,1,200,10|0,0:0|1:0,0:1:0:0:
94,244,16616,2,2,B|89:222|104:201|124:197|124:197|137:177|124:162,1,100,2|8,1:2|0:0,0:1:0:0:
298,287,16976,6,2,L|16:173,1,300.000011444092,2|8,1:2|0:0,0:1:0:0:
17,182,17336,2,2,L|295:294,1,300.000011444092,2|0,1:2|1:0,0:1:0:0:
378,337,17696,5,8,0:0:0:0:
378,337,17936,6,0,P|447:329|463:293,1,100,0|0,1:0|0:0,0:0:0:0:
265,384,18176,2,0,P|269:334|295:292,1,100,8|0,0:0|0:0,0:0:0:0:
156,372,18416,5,0,1:0:0:0:
81,363,18536,1,0,1:0:0:0:
74,289,18656,1,8,0:0:0:0:
74,289,18896,6,0,B|97:284|100:250|100:250|118:278|141:275,1,100,2|0,1:2|0:0,0:0:0:0:
89,156,19136,2,0,B|110:164|130:135|130:135|132:169|153:177,1,100,10|0,0:0|1:0,0:0:0:0:
171,50,19376,2,0,B|185:67|216:53|216:53|201:83|215:101,1,100,2|0,0:0|1:0,0:0:0:0:
298,0,19616,2,0,B|301:23|336:26|336:26|307:45|310:67,1,100,10|0,0:0|0:0,0:0:0:0:
490,225,19856,5,4,1:0:0:0:
490,225,20096,6,2,B|461:232|433:205|433:205|426:181|426:181|364:182|319:153,1,200,10|0,0:0|1:0,0:1:0:0:
487,111,20456,2,2,B|472:115|458:101|458:101|455:89|455:89|424:89|401:75,1,100,2|8,1:2|0:0,0:1:0:0:
369,285,20816,6,2,B|419:54|426:219|468:5,1,300.000011444092,2|8,1:2|0:0,0:1:0:0:
479,9,21176,2,2,B|437:224|429:59|379:288,1,300.000011444092,2|0,1:2|1:0,0:1:0:0:
431,371,21536,5,8,0:0:0:0:
431,371,21776,6,0,P|476:336|457:282,1,100,0|0,1:0|0:0,0:0:0:0:
394,124,22016,2,0,P|395:174|432:218,1,100,8|0,0:0|0:0,0:0:0:0:
287,116,22256,5,0,1:0:0:0:
322,49,22376,1,0,1:0:0:0:
264,0,22496,1,8,0:0:0:0:
264,0,22736,5,2,1:2:0:0:
214,9,22856,1,2,0:2:0:0:
198,56,22976,1,10,0:2:0:0:
148,65,23096,1,2,1:2:0:0:
205,136,23216,5,2,0:2:0:0:
214,186,23336,1,2,1:2:0:0:
261,202,23456,1,10,0:2:0:0:
270,252,23576,1,2,0:2:0:0:
245,339,23696,6,0,B|199:334|183:294|183:294|162:339|204:367,1,160,6|0,1:3|0:0,0:0:0:0:
351,299,24056,5,6,1:3:0:0:
351,299,24416,2,0,B|390:335|344:341|380:378,1,80,2|0,0:0|0:0,0:0:0:0:
460,308,24656,5,0,3:0:0:0:
460,308,24716,1,0,3:0:0:0:
460,308,24776,2,0,L|237:231,1,200,2|2,3:2|0:3,0:0:0:0:
231,65,25136,5,10,0:0:0:0:
284,47,25256,1,2,0:0:0:0:
319,90,25376,2,0,P|319:136|282:158,1,80,2|0,0:0|0:0,0:0:0:0:
51,84,25616,5,2,1:2:0:0:
12,148,25736,6,0,B|39:176|79:174|75:138|111:168,1,100,8|0,0:0|0:0,0:0:0:0:
87,18,25976,2,0,B|125:27|143:63|110:77|154:93,1,100,10|0,0:0|0:0,0:0:0:0:
44,79,26216,5,2,0:3:0:0:
9,61,26336,1,2,0:0:0:0:
191,167,26576,6,0,B|225:205|188:279|119:275|124:246,1,160,2|10,1:2|0:3,0:0:0:0:
233,87,26936,5,8,0:0:0:0:
239,94,26996,1,8,0:0:0:0:
242,84,27056,2,0,P|293:94|309:138,1,100,2|0,1:2|0:0,0:0:0:0:
202,343,27296,2,0,B|229:334|250:350|250:350|241:325|257:302,1,100,2|0,0:0|0:0,0:0:0:0:
400,261,27536,6,0,B|382:251|391:217|391:217|365:180|338:258|281:215,1,160,6|0,1:3|0:0,0:0:0:0:
144,94,27896,5,6,1:3:0:0:
144,94,28256,2,0,B|146:56|180:78|180:20,1,80,2|0,0:0|0:0,0:0:0:0:
52,136,28496,6,0,L|-3:155,2,50,2|0|0,3:2|3:0|3:0,0:0:0:0:
130,192,28736,2,0,L|224:159,1,100,2|0,3:2|0:0,0:0:0:0:
107,328,28976,5,10,0:0:0:0:
54,346,29096,1,2,0:0:0:0:
19,303,29216,2,0,P|19:257|56:235,1,80,2|0,0:0|0:0,0:0:0:0:
198,361,29456,5,2,1:2:0:0:
177,290,29576,6,0,B|174:243|133:270|133:200,1,100,8|0,0:0|0:0,0:0:0:0:
267,326,29816,2,0,B|299:277|318:334|353:336|442:285|425:187|369:185,1,240,10|0,0:0|0:0,0:0:0:0:
303,0,30416,6,0,B|297:15|297:15|299:23|299:23|287:43|287:43|247:227,1,200,2|4,1:2|0:3,0:0:0:0:
261,220,30736,5,8,0:0:0:0:
236,213,30816,5,8,0:0:0:0:
243,240,30896,6,0,B|203:262|203:262|257:348|257:348|210:382,1,200,10|0,0:0|0:0,0:0:0:0:
484,350,31376,6,0,B|477:322|477:322|404:302,1,100,6|0,1:2|0:0,0:0:0:0:
474,166,31616,2,0,P|512:200|487:250,1,100,8|2,0:0|0:0,0:0:0:0:
378,381,31856,5,0,1:0:0:0:
301,356,31976,1,0,1:0:0:0:
328,280,32096,2,0,B|334:201|397:254|381:179|381:179|392:151,1,150,10|0,0:0|0:0,0:0:0:0:
389,146,32336,1,2,1:2:0:0:
317,0,32576,5,10,0:0:0:0:
356,6,32696,1,2,1:2:0:0:
289,28,32816,5,2,0:0:0:0:
368,43,32936,1,2,1:2:0:0:
315,106,33056,6,0,P|385:123|442:76,1,150,10|0,0:0|0:0,0:0:0:0:
446,62,33296,6,0,P|501:58|514:99,1,100,2|0,1:2|0:0,0:0:0:0:
445,233,33536,2,0,B|441:180|398:211|396:148,1,100,10|0,0:0|0:0,0:0:0:0:
269,322,33776,5,2,1:2:0:0:
326,379,33896,1,2,1:2:0:0:
347,304,34016,1,10,0:2:0:0:
347,304,34256,6,0,B|331:278|355:256|355:256|313:229|245:245|171:288|264:374|168:362,1,300,6|0,1:0|0:0,0:0:0:0:
46,285,34736,2,0,L|362:395,1,300,10|0,0:0|0:0,0:0:0:0:
234,242,35216,6,0,B|206:233|206:233|190:159,1,100,6|0,1:2|0:0,0:0:0:0:
114,19,35456,2,0,P|100:80|150:110,1,100,8|2,0:0|0:0,0:0:0:0:
281,175,35696,5,0,1:0:0:0:
358,156,35816,1,0,1:0:0:0:
340,82,35936,1,10,0:0:0:0:
340,82,36176,6,0,B|395:79|361:43|428:36,1,100,2|0,1:2|0:0,0:0:0:0:
277,169,36416,2,0,B|222:172|256:208|189:215,1,100,10|0,0:2|0:0,0:0:0:0:
78,366,36656,5,2,1:2:0:0:
4,337,36776,1,2,1:2:0:0:
16,259,36896,2,0,P|79:233|119:308,1,150,10|0,0:0|0:0,0:0:0:0:
127,304,37136,6,0,P|147:194|178:108,1,200,2|8,1:2|0:0,0:0:0:0:
176,111,37616,5,2,1:2:0:0:
146,41,37736,1,0,1:0:0:0:
68,53,37856,2,0,B|69:31|37:16|37:16|73:20|83:-7,1,100,8|0,0:0|0:0,0:0:0:0:
258,96,38096,2,0,B|242:83|255:60|255:60|258:49|191:54|107:101|103:162,1,239.999992675781,2|8,1:2|0:0,0:0:0:0:
171,232,38456,5,0,1:0:0:0:
92,260,38576,1,2,0:0:0:0:
21,218,38696,1,0,1:0:0:0:
10,136,38816,1,8,0:0:0:0:
213,308,39056,6,0,B|284:302|309:375|318:369|318:369|329:367|342:255|254:230,1,300,6|0,1:2|1:0,0:0:0:0:
181,237,39896,1,0,1:0:0:0:
106,244,40016,2,0,B|19:219|33:107|43:105|43:105|53:99|77:172|149:166,1,300,8|0,3:2|1:0,0:0:0:0:
148,166,40976,1,0,3:0:0:0:
58,373,41216,6,0,P|67:320|195:281,1,200,2|0,1:2|1:0,0:0:0:0:
236,346,41816,1,0,1:0:0:0:
254,334,41936,2,0,B|268:241|301:309|326:199,1,150,10|0,3:2|0:0,0:0:0:0:
351,133,42416,2,0,P|330:95|271:110,1,100,2|0,3:2|0:0,0:0:0:0:
452,140,42896,6,0,B|434:95|476:47|525:24|525:24|470:-24|442:72|383:18,1,300,4|0,1:0|1:0,0:0:0:0:
376,101,43736,1,0,1:0:0:0:
365,180,43856,2,0,B|310:133|282:225|226:176|226:176|276:154|318:106|300:61,1,300,8|0,3:2|1:0,0:0:0:0:
300,62,44816,1,0,3:0:0:0:
506,145,45056,6,0,P|484:70|381:105,1,200,2|0,1:2|1:0,0:0:0:0:
430,160,45656,1,0,1:0:0:0:
421,178,45776,2,0,B|432:241|461:201|476:274,1,100,10|0,3:2|0:0,0:0:0:0:
504,332,46136,2,0,P|502:358|473:378,1,50,2|0,0:0|3:0,0:0:0:0:
222,297,46496,5,2,0:0:0:0:
335,348,46616,1,2,0:0:0:0:
256,374,46736,2,0,B|259:350|233:342|233:342|265:246|305:345|364:224|352:134|286:142,1,300,6|0,1:0|1:0,0:0:0:0:
229,131,47576,1,0,1:0:0:0:
175,184,47696,2,0,B|132:204|162:284|274:360|259:254|335:321|335:321|316:341|331:360,1,300,8|0,3:2|1:0,0:0:0:0:
327,355,48656,1,0,3:0:0:0:
153,280,48896,6,0,P|213:277|238:236,2,100,2|0|0,0:0|3:0|1:0,0:0:0:0:
85,247,49496,1,0,1:0:0:0:
79,268,49616,2,0,B|77:317|24:340|24:340|71:380|123:348,1,200,10|2,3:2|0:1,0:0:0:0:
305,186,50336,5,0,3:0:0:0:
311,141,50456,1,0,3:0:0:0:
270,122,50576,2,0,B|246:119|238:145|238:145|201:153|259:57|79:-19|118:121|33:85,1,300,4|0,1:0|1:0,0:0:0:0:
0,151,51416,1,0,1:0:0:0:
61,190,51536,2,0,B|116:116|152:257|270:101|172:47|208:35|208:35|228:54|247:39,1,300,8|0,3:2|1:0,0:0:0:0:
246,39,52496,1,0,3:0:0:0:
426,191,52736,6,0,P|377:198|339:168,2,100,2|0|0,0:0|3:0|1:0,0:0:0:0:
411,118,53336,1,0,1:0:0:0:
391,113,53456,1,8,3:2:0:0:
256,247,53696,6,0,B|275:192|232:214|257:149,2,100,2|2|2,0:0|0:0|0:0,0:0:0:0:
256,254,54236,1,0,3:0:0:0:
256,261,54296,1,0,3:0:0:0:
256,268,54356,1,0,3:0:0:0:
256,275,54416,1,6,3:1:0:0:
510,366,54776,5,0,3:0:0:0:
457,314,54896,1,0,3:0:0:0:
441,258,55016,1,0,3:0:0:0:
392,243,55136,1,0,3:0:0:0:
366,202,55256,1,0,3:0:0:0:
324,204,55376,1,0,3:0:0:0:
300,172,55496,1,0,3:0:0:0:
310,139,55616,2,0,P|328:118|330:90,1,50,0|0,3:0|3:0,0:0:0:0:
327,89,55796,1,0,3:0:0:0:
320,84,55856,2,0,P|295:79|277:62,1,50,0|0,3:0|3:0,0:0:0:0:
398,15,56096,5,0,3:0:0:0:
340,6,56216,1,8,0:1:0:0:
415,88,56336,1,2,1:0:0:0:
415,88,56696,5,0,3:0:0:0:
480,120,56816,1,0,3:0:0:0:
497,174,56936,1,0,3:0:0:0:
486,225,57056,1,0,3:0:0:0:
446,252,57176,1,0,3:0:0:0:
404,253,57296,1,0,3:0:0:0:
376,279,57416,1,0,3:0:0:0:
378,309,57536,2,0,P|396:332|389:370,1,50,0|0,3:0|3:0,0:0:0:0:
394,359,57716,1,0,3:0:0:0:
390,365,57776,2,0,P|367:383|329:376,1,50,0|0,3:0|3:0,0:0:0:0:
235,300,58016,5,0,3:0:0:0:
251,355,58136,1,8,0:1:0:0:
290,251,58256,1,2,1:0:0:0:
290,251,58616,5,0,3:0:0:0:
219,272,58736,1,0,3:0:0:0:
169,237,58856,1,0,3:0:0:0:
154,187,58976,1,0,3:0:0:0:
177,144,59096,1,0,3:0:0:0:
171,102,59216,1,0,3:0:0:0:
139,84,59336,1,0,3:0:0:0:
106,94,59456,2,0,P|91:111|56:112,1,50,0|0,3:0|3:0,0:0:0:0:
57,113,59636,1,0,3:0:0:0:
49,112,59696,2,0,P|32:97|31:62,1,50,0|0,3:0|3:0,0:0:0:0:
84,4,59936,5,0,1:0:0:0:
90,8,59996,1,0,1:0:0:0:
83,11,60056,1,0,1:0:0:0:
19,344,60416,5,0,1:0:0:0:
1,264,60656,5,0,1:0:0:0:
19,344,60896,6,0,B|52:350|37:363|72:370,1,50,2|0,1:2|0:0,0:0:0:0:
64,207,61136,6,0,B|89:229|69:232|96:257,1,59.9999981689454,2|0,1:2|0:0,0:0:0:0:
186,141,61376,6,0,B|197:179|176:170|189:211,1,69.9999978637696,2|0,1:2|0:0,0:0:0:0:
339,171,61616,6,0,B|329:215|312:194|302:242,1,80,10|0,1:3|0:0,0:0:0:0:
455,18,61856,6,0,B|482:28|506:0|506:0|503:62|438:68,1,134.999995880127,2|0,0:0|0:0,0:0:0:0:
437,48,62096,5,2,1:2:0:0:
358,35,62216,6,0,B|331:48|331:48|310:23|310:23|265:15,1,100,8|0,0:0|0:0,0:0:0:0:
454,133,62456,2,0,B|456:162|456:162|488:168|488:168|517:203,1,100,8|0,0:0|0:0,0:0:0:0:
486,384,62816,5,2,0:0:0:0:
435,334,62936,1,2,0:0:0:0:
502,314,63056,5,2,0:0:0:0:
473,346,63176,1,2,0:0:0:0:
452,262,63296,5,2,0:0:0:0:
452,262,63536,6,0,B|154:349|154:349|115:313,1,359.999989013672,6|0,0:3|0:0,0:0:0:0:
0,221,64016,5,2,1:2:0:0:
51,160,64136,6,0,B|86:150|103:169|103:169|100:205|134:215,1,100,8|2,0:0|0:0,0:0:0:0:
22,300,64376,1,8,0:0:0:0:
22,300,64496,2,0,B|47:190|71:285|128:104,1,220.000006713867,2|0,0:0|0:0,0:0:0:0:
125,111,64976,6,0,B|117:64|86:89|71:43|71:43|129:-18|220:8|254:73|201:77,1,300,10|8,0:0|0:0,0:0:0:0:
193,60,65396,1,8,0:0:0:0:
195,40,65456,2,0,B|242:2|240:47|292:4,1,100,10|0,0:0|0:0,0:0:0:0:
242,158,65696,2,0,B|301:148|277:186|344:175,1,100,2|8,0:0|0:0,0:0:0:0:
116,238,65936,5,2,1:2:0:0:
190,264,66056,6,0,B|201:281|236:272|236:272|212:300|224:321,1,100,8|0,0:0|0:0,0:0:0:0:
69,302,66296,2,0,B|67:322|33:331|33:331|67:344|68:368,1,100,8|0,0:0|0:0,0:0:0:0:
77,79,66656,5,2,0:0:0:0:
47,112,66896,5,2,0:0:0:0:
118,91,67016,1,2,0:0:0:0:
66,39,67136,1,2,0:0:0:0:
66,39,67376,6,0,B|79:58|79:58|68:86|68:86|86:107|86:107|156:381,1,359.999989013672,6|0,0:3|0:0,0:0:0:0:
0,183,67856,6,0,B|10:218|10:218|72:236,1,100,2|8,1:2|0:0,0:0:0:0:
196,128,68096,2,0,B|204:163|204:163|160:209,1,100,2|8,0:0|0:0,0:0:0:0:
88,116,68336,5,2,0:0:0:0:
155,377,68576,1,2,0:0:0:0:
461,229,68816,6,0,B|339:241|420:306|270:323,1,200,6|0,0:3|0:0,0:0:0:0:
433,369,69176,5,8,0:0:0:0:
444,359,69236,1,8,0:0:0:0:
429,354,69296,2,0,B|330:279|427:261|327:190,1,200,6|2,0:3|0:0,0:0:0:0:
509,26,69776,6,0,B|453:3|384:53|387:105|387:105|418:108|421:141,2,220.000006713867,6|8|0,1:2|0:0|1:0,0:0:0:0:
432,2,70376,1,0,1:0:0:0:
498,107,70496,5,8,0:0:0:0:
498,107,70616,2,0,L|284:44,1,220.000006713867,2|0,0:0|0:0,0:0:0:0:
132,238,70976,5,10,0:0:0:0:
92,165,71096,1,2,0:0:0:0:
158,115,71216,2,0,L|265:147,1,110.000003356934,2|0,0:0|1:0,0:0:0:0:
197,21,71456,5,8,0:0:0:0:
315,363,71696,6,0,B|306:343|266:347|266:347|300:323|290:300,1,110.000003356934,2|0,1:2|0:0,0:0:0:0:
436,122,71936,2,0,B|416:131|420:170|420:170|395:136|373:147,1,110.000003356934,8|0,0:2|0:0,0:0:0:0:
423,269,72176,2,0,B|402:261|377:292|377:292|384:251|360:242,1,110.000003356934,2|0,1:2|1:0,0:0:0:0:
351,0,72416,2,0,B|343:20|374:45|374:45|333:38|324:62,1,110.000003356934,10|0,0:0|0:0,0:0:0:0:
220,220,72656,5,2,1:2:0:0:
220,220,72896,5,8,0:0:0:0:
277,161,73016,1,0,1:0:0:0:
198,139,73136,2,0,B|136:142|169:179|103:185,1,110.000003356934,2|0,0:0|1:0,0:0:0:0:
40,0,73376,2,0,B|43:62|80:29|86:95,1,110.000003356934,10|0,0:0|0:0,0:0:0:0:
113,275,73616,6,0,B|118:397|-44:417|-24:342|20:326,2,220.000006713867,6|8|0,1:0|0:0|1:0,0:0:0:0:
113,275,74336,5,10,0:0:0:0:
34,253,74456,1,2,0:0:0:0:
91,194,74576,2,0,B|125:171|156:187|156:187|160:215|183:220,1,110.000003356934,2|0,1:2|0:0,0:0:0:0:
410,262,74816,2,0,B|368:260|353:229|353:229|366:204|350:186,1,110.000003356934,10|0,0:0|1:0,0:0:0:0:
191,19,75056,2,0,B|223:44|217:78|217:78|192:91|194:114,1,110.000003356934,2|0,0:0|1:0,0:0:0:0:
226,344,75296,2,0,B|214:304|239:280|239:280|267:284|279:264,1,110.000003356934,10|0,0:0|0:0,0:0:0:0:
389,61,75536,2,0,B|375:99|340:104|340:104|320:84|299:94,1,110.000003356934,2|0,1:2|0:0,0:0:0:0:
263,180,75776,5,8,0:0:0:0:
263,180,76016,5,2,1:2:0:0:
353,190,76136,1,0,1:0:0:0:
410,262,76256,2,0,B|477:269|437:302|507:310,1,110.000003356934,8|0,0:0|0:0,0:0:0:0:
423,384,76496,2,0,B|424:367|424:367|438:358|438:358|436:338|436:338|484:172,1,220.000006713867,2|8,1:2|0:0,0:0:0:0:
476,55,76856,5,0,1:0:0:0:
464,95,76976,1,2,0:0:0:0:
344,6,77096,5,0,1:0:0:0:
382,90,77216,1,8,0:0:0:0:
382,90,77456,6,0,B|399:64|346:38|241:71|221:135|264:132,1,200,6|0,1:2|3:0,0:0:0:0:
110,0,78176,5,0,1:0:0:0:
177,31,78296,1,0,1:0:0:0:
159,103,78416,2,0,B|148:148|172:196|223:215|223:215|263:206|272:239,1,200,10|0,0:0|3:0,0:0:0:0:
261,384,79136,5,0,1:0:0:0:
254,381,79196,1,0,1:0:0:0:
259,376,79256,2,0,B|263:337|291:361|301:311,1,75.0000028610231,0|0,1:0|3:0,0:0:0:0:
295,313,79616,6,0,B|177:338|177:338|162:365|162:365|110:376,1,200,0|0,1:0|1:0,0:0:0:0:
39,384,80216,1,0,1:0:0:0:
49,310,80336,2,0,B|59:262|59:262|86:247|86:247|111:129,1,200,10|2,3:2|3:2,0:0:0:0:
267,75,81056,5,0,3:0:0:0:
242,112,81176,1,0,3:0:0:0:
197,106,81296,2,0,B|176:89|185:62|185:62|159:31|98:41|98:41|63:27|64:-1,1,200,6|0,1:0|3:0,0:0:0:0:
113,253,82016,5,0,1:0:0:0:
156,192,82136,1,0,1:0:0:0:
230,201,82256,2,0,B|266:220|295:211|295:211|308:187|308:187|365:195|397:138,1,200,10|0,3:2|3:0,0:0:0:0:
276,29,82976,5,0,1:0:0:0:
269,32,83036,1,0,1:0:0:0:
274,37,83096,2,0,B|278:76|306:52|316:102,1,75.0000028610231,0|0,1:0|3:0,0:0:0:0:
317,102,83456,6,0,B|342:192|217:254|311:229|275:298,1,200,0|0,1:0|1:0,0:0:0:0:
290,366,84056,1,0,1:0:0:0:
349,320,84176,2,0,B|365:265|418:336|374:204|455:158,1,200,10|2,3:2|3:2,0:0:0:0:
312,229,84896,5,0,3:0:0:0:
371,249,85016,1,0,3:0:0:0:
349,216,85136,1,4,1:2:0:0:
25,237,92816,5,6,1:3:0:0:
486,147,93176,5,6,1:3:0:0:
235,235,93536,5,0,0:0:0:0:
218,161,93656,1,0,0:0:0:0:
252,217,93776,5,0,0:0:0:0:
242,167,93896,1,0,0:0:0:0:
269,199,94016,5,0,0:0:0:0:
266,173,94136,1,0,0:0:0:0:
286,180,94256,5,8,0:1:0:0:
301,353,94496,5,0,3:0:0:0:
211,31,94736,5,2,1:2:0:0:
286,48,94856,6,0,B|318:50|331:73|331:73|302:74|292:93,1,100,8|0,0:0|0:0,0:0:0:0:
163,90,95096,2,0,B|186:103|172:134|172:134|321:96|234:69|398:31,1,300,10|0,0:0|0:0,0:0:0:0:
409,222,95696,6,0,B|386:193|349:200|349:200|336:189|334:145|389:117|433:136,1,200,2|0,1:2|0:0,0:0:0:0:
512,215,96056,5,8,0:0:0:0:
493,211,96116,1,8,0:0:0:0:
507,195,96176,2,0,B|520:258|475:326|414:327|414:327|445:362|408:407,1,240,2|2,1:2|0:0,0:0:0:0:
402,214,96656,6,0,B|389:205|373:205|373:205|358:181|358:181|295:168|219:124,1,200,6|2,1:3|0:0,0:0:0:0:
166,65,97016,5,6,1:3:0:0:
166,65,97376,6,0,B|151:83|120:75|120:75|146:96|142:116,1,100,2|0,0:0|0:0,0:0:0:0:
63,136,97616,2,0,B|65:158|37:175|37:175|71:172|83:188,1,100,2|0,3:2|3:0,0:0:0:0:
43,259,97856,2,0,B|61:273|53:304|53:304|74:278|94:282,1,100,2|0,0:0|0:0,0:0:0:0:
117,361,98096,2,0,B|139:358|156:386|156:386|153:352|169:340,1,100,10|0,0:1|0:0,0:0:0:0:
244,375,98336,2,0,B|258:356|289:364|289:364|263:343|267:323,1,100,2|0,0:0|0:0,0:0:0:0:
223,131,98576,5,2,1:2:0:0:
303,150,98696,6,0,B|312:171|284:189|284:189|279:220|294:239,1,100,8|2,0:0|0:0,0:0:0:0:
160,185,98936,2,0,B|160:207|193:212|193:212|211:238|205:261,1,100,10|0,0:0|0:0,0:0:0:0:
293,238,99296,6,0,P|337:200|394:200,1,100,2|0,0:0|0:0,0:0:0:0:
205,261,99536,2,0,P|149:245|97:269,1,100,2|0,0:0|0:0,0:0:0:0:
187,100,99776,5,4,0:3:0:0:
218,109,99856,5,8,0:0:0:0:
243,87,99936,5,8,0:0:0:0:
205,59,100016,6,0,B|197:148|238:122|229:187,1,119.999996337891,10|2,0:0|0:0,0:0:0:0:
230,173,100496,6,0,B|286:172|331:249|306:300|306:300|277:325|294:354,1,225.000008583069,6|0,1:2|0:0,0:0:0:0:
380,384,100976,2,0,B|416:345|468:367|468:367|466:334|486:319,1,150.000005722046,0|0,3:0|1:0,0:0:0:0:
471,248,101336,1,0,1:0:0:0:
398,254,101456,2,0,B|376:239|349:265|349:265|296:285|223:234|230:178,1,225.000008583069,8|0,3:2|0:0,0:0:0:0:
208,59,101936,2,0,B|247:73|283:7|283:7|274:81|316:92,1,200,2|0,3:2|1:0,0:0:0:0:
316,92,102416,6,0,B|304:126|304:126|124:198,1,225.000008583069,2|0,3:2|0:0,0:0:0:0:
66,130,102896,2,0,B|70:74|121:58|121:58|107:102|148:114,1,150.000005722046,0|0,3:0|1:0,0:0:0:0:
200,65,103256,1,0,1:0:0:0:
239,130,103376,2,0,L|182:269,1,150.000005722046,8|0,3:2|0:0,0:0:0:0:
0,48,103856,5,2,0:1:0:0:
3,79,103976,1,0,3:0:0:0:
45,97,104096,1,2,3:2:0:0:
48,150,104216,1,0,3:0:0:0:
102,182,104336,6,0,B|151:222|151:175|196:157|282:208|266:278,1,225.000008583069,4|0,1:0|0:0,0:0:0:0:
350,311,104816,2,0,P|306:368|234:362,1,150.000005722046,0|0,3:0|1:0,0:0:0:0:
172,321,105176,1,0,1:0:0:0:
127,384,105296,2,0,B|161:355|126:329|133:311|133:311|191:261|205:187,1,225.000008583069,8|0,3:2|0:0,0:0:0:0:
85,216,105776,2,0,B|76:175|22:150|22:150|69:171|124:134|101:198,1,200,2|0,3:2|1:0,0:0:0:0:
105,185,106256,6,0,B|138:193|159:165|159:165|220:126|316:111,1,225.000008583069,2|0,3:2|0:0,0:0:0:0:
429,72,106736,2,0,B|370:65|417:32|288:12,1,150.000005722046,0|0,3:0|1:0,0:0:0:0:
222,28,107096,1,0,1:0:0:0:
212,104,107216,2,0,B|214:141|238:161|238:161|239:182|239:182|254:213|290:219,1,150.000005722046,10|0,3:2|0:0,0:0:0:0:
474,12,107696,5,2,0:1:0:0:
471,43,107816,1,0,3:0:0:0:
429,61,107936,1,0,3:0:0:0:
426,114,108056,1,0,3:0:0:0:
372,146,108176,6,0,B|341:158|312:128|312:128|302:135|302:135|298:188|243:218|189:204,1,225.000008583069,4|0,1:0|0:0,0:0:0:0:
127,271,108656,2,0,B|161:288|157:323|157:323|170:334|170:334|183:294|219:297,1,150.000005722046,0|0,3:0|1:0,0:0:0:0:
245,369,109016,1,0,1:0:0:0:
322,383,109136,2,0,B|333:356|333:356|315:336|315:336|272:173,1,225.000008583069,8|0,3:2|0:0,0:0:0:0:
225,32,109616,2,0,B|214:83|214:83|273:132|273:132|298:103|298:103|333:112,1,200,2|0,3:2|1:0,0:0:0:0:
329,111,110096,6,0,B|361:94|339:58|339:58|441:11|441:11|421:70,1,225.000008583069,0|0,3:0|0:0,0:0:0:0:
488,130,110576,2,0,B|466:203|466:203|406:152,1,150.000005722046,0|0,3:0|1:0,0:0:0:0:
341,197,110936,1,0,1:0:0:0:
335,119,111056,2,0,B|306:94|306:94|177:156,1,150.000005722046,8|0,3:2|0:0,0:0:0:0:
262,384,111536,5,2,0:1:0:0:
259,353,111656,1,0,3:0:0:0:
217,335,111776,1,0,3:0:0:0:
214,282,111896,1,0,3:0:0:0:
160,250,112016,6,0,B|127:245|128:176|156:184|164:153|164:153|159:140|159:140|114:110|118:49,1,225.000008583069,4|0,1:0|0:0,0:0:0:0:
13,23,112496,2,0,B|48:18|87:34|88:54|88:54|50:55|33:91,1,150.000005722046,0|0,3:0|1:0,0:0:0:0:
98,132,112856,1,0,1:0:0:0:
49,190,112976,2,0,B|98:165|93:198|138:176|138:176|147:142|147:142|190:109|239:117,1,225.000008583069,8|0,3:2|0:0,0:0:0:0:
141,267,113456,2,0,B|215:340|206:254|290:321|271:345|271:345|268:367|283:378,1,200,2|0,3:2|1:0,0:0:0:0:
278,373,113936,6,0,B|312:329|368:341|368:341|376:335|376:335|384:281|327:301|340:231,1,225.000008583069,0|0,3:0|0:0,0:0:0:0:
421,202,114416,2,0,B|426:169|379:144|379:144|430:159|446:118,1,150.000005722046,0|0,3:0|1:0,0:0:0:0:
396,62,114776,1,0,1:0:0:0:
320,74,114896,2,0,B|272:72|286:44|265:22|265:22|234:26|196:10,1,150.000005722046,8|0,3:2|0:0,0:0:0:0:
106,242,115376,5,2,0:1:0:0:
109,211,115496,1,0,3:0:0:0:
151,193,115616,1,0,3:0:0:0:
154,140,115736,1,0,3:0:0:0:
208,108,115856,6,0,B|269:200|208:167|261:258,1,150,6|0,1:0|0:0,0:0:0:0:
263,21,116576,5,2,0:0:0:0:
298,56,116696,1,2,0:0:0:0:
346,43,116816,1,2,0:0:0:0:
273,13,117056,5,2,0:0:0:0:
340,31,117176,1,2,0:0:0:0:
505,185,117536,5,2,0:0:0:0:
470,150,117656,1,2,0:0:0:0:
422,163,117776,1,2,0:0:0:0:
495,193,118016,5,2,0:0:0:0:
428,175,118136,1,2,0:0:0:0:
366,361,118496,5,2,0:0:0:0:
224,159,118736,1,2,0:0:0:0:
336,13,118976,5,2,0:0:0:0:
230,234,119216,1,2,0:0:0:0:
48,213,119456,5,2,0:0:0:0:
291,191,119696,2,0,B|333:194|355:155|355:155|361:204|322:213,1,150,2|0,0:0|0:0,0:0:0:0:
19,380,120416,5,2,0:0:0:0:
33,342,120536,1,2,0:0:0:0:
72,337,120656,1,2,0:0:0:0:
142,269,120896,5,2,0:0:0:0:
252,270,121136,5,2,0:0:0:0:
349,174,121376,5,2,0:0:0:0:
510,207,121616,6,0,B|480:208|437:130|530:164|454:54,1,175,2|0,0:0|0:0,0:0:0:0:
462,40,122096,2,0,P|430:16|436:56,1,100,2|0,0:0|0:0,0:0:0:0:
507,198,122576,6,0,B|402:228|474:273|383:290,1,150,2|0,0:0|0:0,0:0:0:0:
333,345,123056,6,0,B|282:380|248:339|248:339|295:345|313:296,1,179.999994506836,2|0,0:0|0:0,0:0:0:0:
410,384,123536,6,0,B|410:356|440:348|440:348|453:296|410:225|345:220,1,225.000008583069,2|0,0:0|0:0,0:0:0:0:
110,85,124256,5,2,0:0:0:0:
156,66,124376,1,2,0:0:0:0:
188,106,124496,1,2,0:0:0:0:
326,27,124736,5,2,0:0:0:0:
302,41,124856,2,0,L|256:193,1,150,2|2,0:0|0:0,0:0:0:0:
180,324,125456,6,0,B|202:369|202:369|247:343,1,100,2|0,0:0|0:0,0:0:0:0:
266,268,125816,2,0,B|244:223|244:223|199:249,1,100,2|0,0:0|0:0,0:0:0:0:
120,267,126176,6,0,B|282:274|170:322|327:325,1,220.000006713867,2|0,0:0|0:0,0:0:0:0:
67,384,127136,5,2,0:0:0:0:
67,384,127376,2,0,B|79:351|54:319|13:321|13:321|44:300|28:267,1,150,2|0,0:0|0:0,0:0:0:0:
69,76,128096,5,2,0:0:0:0:
69,76,128336,2,0,B|46:53|17:66|17:66|19:96|-5:104,1,100,2|0,0:0|0:0,0:0:0:0:
25,175,128696,2,0,B|48:198|77:185|77:185|75:155|99:146,1,100,2|0,0:0|0:0,0:0:0:0:
155,83,129056,5,0,1:0:0:0:
158,95,129116,1,0,1:0:0:0:
145,91,129176,2,0,B|180:81|200:84|200:84|220:62|246:45|306:46,1,150,0|0,1:0|1:0,0:0:0:0:
273,143,129776,5,0,1:0:0:0:
340,238,130016,5,0,1:0:0:0:
479,251,130256,6,0,B|465:203|519:232|507:135|454:119,1,150.000005722046,10|0,0:3|1:0,0:0:0:0:
283,137,130616,2,0,B|330:149|278:181|368:220|409:181,1,150.000005722046,2|0,0:0|0:0,0:0:0:0:
477,26,130976,2,0,B|442:60|440:0|362:58|375:113,1,150.000005722046,2|6,0:0|1:2,0:0:0:0:
213,322,131456,5,2,0:0:0:0:
227,286,131576,1,2,0:0:0:0:
270,277,131696,1,2,3:2:0:0:
311,244,131816,1,2,0:0:0:0:
327,187,131936,1,2,1:2:0:0:
286,130,132056,1,2,1:2:0:0:
208,132,132176,6,0,B|190:43|190:43|128:111,1,179.999994506836,10|0,3:2|0:0,0:0:0:0:
121,118,132416,2,0,B|34:89|34:89|62:176,1,179.999994506836,2|0,0:0|0:0,0:0:0:0:
65,185,132656,2,0,B|-3:245|-3:245|86:264,1,179.999994506836,2|2,3:2|1:2,0:0:0:0:
92,266,132956,1,0,1:0:0:0:
100,268,133016,2,0,P|144:246|140:198,1,89.9999972534181,0|0,1:0|3:0,0:0:0:0:
93,3,133376,5,2,1:2:0:0:
129,5,133496,1,2,0:0:0:0:
165,37,133616,1,2,3:2:0:0:
176,88,133736,1,2,0:0:0:0:
229,112,133856,1,2,1:2:0:0:
296,96,133976,1,2,1:2:0:0:
361,141,134096,5,10,3:2:0:0:
350,179,134216,1,2,0:0:0:0:
307,190,134336,1,2,0:0:0:0:
285,236,134456,1,2,0:0:0:0:
207,252,134576,6,0,B|210:291|261:318|261:318|205:309|177:344,1,179.999994506836,2|0,3:1|0:0,0:0:0:0:
165,338,134816,2,0,B|161:298|110:271|110:271|166:280|194:245,1,179.999994506836,2|4,0:0|1:0,0:0:0:0:
335,348,135296,5,2,0:0:0:0:
39,244,135536,1,2,3:2:0:0:
335,348,135776,5,2,1:2:0:0:
406,370,135896,1,2,1:2:0:0:
453,312,136016,2,0,B|456:288|446:273|446:273|441:243|511:255|506:165,2,150.000005722046,8|2|2,3:2|0:0|3:2,0:0:0:0:
402,113,136736,5,2,1:2:0:0:
408,109,136796,1,0,1:0:0:0:
401,105,136856,2,0,P|404:150|439:176,1,75.0000028610231,2|2,1:2|3:2,0:0:0:0:
468,46,137216,5,2,1:2:0:0:
443,17,137336,1,2,0:0:0:0:
400,7,137456,1,2,3:2:0:0:
353,16,137576,1,2,0:0:0:0:
315,53,137696,1,2,1:2:0:0:
304,114,137816,1,2,1:2:0:0:
234,143,137936,5,10,3:2:0:0:
266,187,138056,1,2,0:0:0:0:
314,190,138176,1,2,0:0:0:0:
344,222,138296,1,2,0:0:0:0:
342,259,138416,1,2,3:1:0:0:
41,89,138656,5,2,0:0:0:0:
154,38,138776,1,2,0:0:0:0:
75,12,138896,2,0,B|93:80|49:63|68:129|108:148|133:143|133:143|161:154|159:182,1,200,6|0,1:0|3:0,0:0:0:0:
76,365,139616,5,0,1:0:0:0:
149,384,139736,1,0,1:0:0:0:
186,318,139856,2,0,B|197:311|206:298|206:298|196:234|246:171,1,150,8|0,3:2|0:0,0:0:0:0:
161,160,140336,2,0,P|125:161|114:224,1,100,0|0,3:0|1:0,0:0:0:0:
110,222,140636,1,0,1:0:0:0:
113,228,140696,2,0,P|84:234|51:253,1,50,0|0,1:0|3:0,0:0:0:0:
265,363,141056,6,0,B|218:352|256:326|186:305,2,100,2|0|0,1:2|3:0|1:0,0:0:0:0:
340,384,141656,1,0,1:0:0:0:
360,368,141776,2,0,B|357:338|357:338|343:325|343:325|331:314|337:255|299:169,1,200,8|2,3:2|0:1,0:0:0:0:
338,0,142496,5,0,3:0:0:0:
344,44,142616,1,0,3:0:0:0:
305,67,142736,2,0,B|242:136|289:177|267:201|244:214|244:214|229:241|248:259,1,200,4|0,1:0|3:0,0:0:0:0:
477,160,143456,5,0,1:0:0:0:
433,220,143576,1,0,1:0:0:0:
364,190,143696,2,0,B|343:181|326:194|326:194|319:189|319:189|311:156|275:134|237:145,1,150,8|0,3:2|0:0,0:0:0:0:
186,86,144176,2,0,P|180:57|237:29,1,100,0|0,3:0|1:0,0:0:0:0:
238,32,144476,1,0,1:0:0:0:
243,37,144536,2,0,P|272:31|299:16,1,50,0|0,1:0|3:0,0:0:0:0:
172,215,144896,6,0,P|134:185|86:193,2,100,2|0|0,1:2|3:2|1:0,0:0:0:0:
121,271,145496,1,0,1:0:0:0:
101,266,145616,1,8,3:2:0:0:
256,137,145856,6,0,B|237:192|280:170|255:235,2,100,2|2|2,0:0|0:0|0:0,0:0:0:0:
256,130,146396,1,0,3:0:0:0:
256,123,146456,1,0,3:0:0:0:
256,116,146516,1,0,3:0:0:0:
256,109,146576,1,6,0:1:0:0:
2,18,146936,5,0,3:0:0:0:
55,70,147056,1,0,3:0:0:0:
71,126,147176,1,0,3:0:0:0:
120,141,147296,1,0,3:0:0:0:
146,182,147416,1,0,3:0:0:0:
188,180,147536,1,0,3:0:0:0:
212,212,147656,1,0,3:0:0:0:
202,245,147776,2,0,P|184:266|182:294,1,50,0|0,3:0|3:0,0:0:0:0:
185,295,147956,1,0,3:0:0:0:
192,300,148016,2,0,P|217:305|235:322,1,50,0|0,3:0|3:0,0:0:0:0:
114,369,148256,5,0,3:0:0:0:
172,378,148376,1,8,0:1:0:0:
97,296,148496,1,2,1:0:0:0:
97,296,148856,5,0,3:0:0:0:
32,264,148976,1,0,3:0:0:0:
15,210,149096,1,0,3:0:0:0:
26,159,149216,1,0,3:0:0:0:
66,132,149336,1,0,3:0:0:0:
108,131,149456,1,0,3:0:0:0:
136,105,149576,1,0,3:0:0:0:
134,75,149696,2,0,P|116:52|123:14,1,50,0|0,3:0|3:0,0:0:0:0:
118,25,149876,1,0,3:0:0:0:
122,19,149936,2,0,P|145:1|183:8,1,50,0|0,3:0|3:0,0:0:0:0:
277,84,150176,5,0,3:0:0:0:
261,29,150296,1,8,0:1:0:0:
222,133,150416,1,6,1:0:0:0:
222,133,150776,5,0,3:0:0:0:
293,112,150896,1,0,3:0:0:0:
343,147,151016,1,0,3:0:0:0:
358,197,151136,1,0,3:0:0:0:
335,240,151256,1,0,3:0:0:0:
341,282,151376,1,0,3:0:0:0:
373,300,151496,1,0,3:0:0:0:
406,290,151616,2,0,P|422:304|423:339,1,50,0|0,3:0|3:0,0:0:0:0:
424,340,151796,1,0,3:0:0:0:
421,349,151856,2,0,P|437:331|462:327,1,50,0|0,3:0|3:0,0:0:0:0:
512,168,152096,5,0,3:0:0:0:
496,223,152216,1,8,0:1:0:0:
457,119,152336,1,2,1:0:0:0:
457,119,152696,5,0,3:0:0:0:
385,136,152816,1,0,3:0:0:0:
368,190,152936,1,0,3:0:0:0:
325,219,153056,1,0,3:0:0:0:
282,207,153176,1,0,3:0:0:0:
254,238,153296,1,0,3:0:0:0:
266,272,153416,1,0,3:0:0:0:
248,295,153536,2,0,P|230:311|195:308,1,50,0|0,3:0|3:0,0:0:0:0:
195,308,153716,1,0,3:0:0:0:
185,303,153776,2,0,P|169:321|172:356,1,50,0|0,3:0|3:0,0:0:0:0:
19,329,154016,5,0,3:0:0:0:
35,384,154136,1,8,0:1:0:0:
74,280,154256,1,6,1:0:0:0:
74,280,154616,5,0,3:0:0:0:
20,228,154736,1,0,3:0:0:0:
20,172,154856,1,0,3:0:0:0:
60,138,154976,1,0,3:0:0:0:
106,146,155096,1,0,3:0:0:0:
112,188,155216,1,0,3:0:0:0:
136,213,155336,1,0,3:0:0:0:
167,217,155456,2,0,P|196:212|213:180,1,50,0|0,3:0|3:0,0:0:0:0:
214,188,155636,1,0,3:0:0:0:
215,178,155696,2,0,P|210:149|178:132,1,50,0|0,3:0|3:0,0:0:0:0:
150,8,155936,5,0,3:0:0:0:
118,58,156056,1,8,0:1:0:0:
226,9,156176,1,2,1:0:0:0:
226,9,156536,5,0,3:0:0:0:
243,76,156656,1,0,3:0:0:0:
196,105,156776,1,0,3:0:0:0:
182,152,156896,1,0,3:0:0:0:
144,174,157016,1,0,3:0:0:0:
144,213,157136,1,0,3:0:0:0:
167,238,157256,1,0,3:0:0:0:
159,268,157376,2,0,P|141:288|144:328,1,50,0|0,3:0|3:0,0:0:0:0:
139,320,157556,1,0,3:0:0:0:
142,329,157616,2,0,P|162:347|202:344,1,50,0|0,3:0|3:0,0:0:0:0:
338,352,157856,5,0,3:2:0:0:
288,384,157976,1,8,0:1:0:0:
337,276,158096,1,2,1:0:0:0:
337,276,158456,5,0,3:0:0:0:
363,344,158576,1,0,3:0:0:0:
419,351,158696,1,0,3:0:0:0:
460,320,158816,1,0,3:0:0:0:
461,273,158936,1,0,3:0:0:0:
431,242,159056,1,0,3:0:0:0:
426,202,159176,1,0,3:0:0:0:
447,178,159296,2,0,P|475:179|499:157,1,50,0|0,3:0|3:0,0:0:0:0:
496,159,159476,1,0,3:0:0:0:
497,149,159536,2,0,P|490:125|471:109,1,50,0|0,3:0|3:0,0:0:0:0:
400,44,159776,5,0,1:0:0:0:
399,51,159836,1,0,1:0:0:0:
406,48,159896,1,0,1:0:0:0:
493,344,160256,5,0,1:0:0:0:
511,264,160496,5,0,1:0:0:0:
493,344,160736,6,0,B|460:350|475:363|440:370,1,50,2|0,1:2|0:0,0:0:0:0:
448,207,160976,6,0,B|423:229|443:232|416:257,1,59.9999981689454,2|0,1:2|0:0,0:0:0:0:
326,141,161216,6,0,B|315:179|336:170|323:211,1,69.9999978637696,2|0,1:2|0:0,0:0:0:0:
173,171,161456,6,0,B|183:215|200:194|210:242,1,80,10|0,1:3|0:0,0:0:0:0:
56,14,161696,6,0,B|28:21|19:-8|19:-8|0:5|0:5|39:16|37:70,1,134.999995880127,2|0,0:0|0:0,0:0:0:0:
71,44,161936,5,2,1:2:0:0:
154,35,162056,6,0,B|175:44|186:21|186:21|217:40|245:17,1,100,8|0,0:0|0:0,0:0:0:0:
53,124,162296,2,0,B|55:146|30:150|30:150|40:186|11:206,1,100,8|0,0:0|0:0,0:0:0:0:
65,384,162656,5,2,0:0:0:0:
109,320,162776,1,2,0:0:0:0:
173,357,162896,6,0,B|133:328|133:328|183:333,1,100,2|0,0:0|0:0,0:0:0:0:
127,189,163136,2,0,B|106:234|106:234|147:204,1,100,2|0,0:0|0:0,0:0:0:0:
2,307,163376,6,0,B|20:310|20:310|41:290|41:290|64:297|64:297|344:220,1,359.999989013672,6|0,0:3|0:0,0:0:0:0:
442,124,163856,5,2,1:2:0:0:
392,62,163976,2,0,B|418:17|418:17|462:49,1,100,8|2,0:0|0:0,0:0:0:0:
432,204,164216,1,8,0:0:0:0:
432,204,164336,2,0,B|396:219|352:186|350:136|350:136|317:93|258:116,1,220.000006713867,2|2,0:0|0:0,0:0:0:0:
264,113,164816,6,0,B|204:162|257:308|361:241|347:299|347:299|348:303|348:303|320:329|354:352,1,300,10|8,0:0|0:0,0:0:0:0:
355,361,165236,1,8,0:0:0:0:
373,369,165296,2,0,B|408:323|413:372|459:315,1,100,10|0,0:0|0:0,0:0:0:0:
339,169,165536,2,0,B|346:111|375:151|386:79,1,100,2|8,0:0|0:0,0:0:0:0:
154,110,165776,5,2,1:2:0:0:
101,168,165896,2,0,B|80:165|66:184|66:184|28:169|27:136,1,100,8|0,0:0|0:0,0:0:0:0:
139,31,166136,2,0,B|119:23|116:0|116:0|75:-7|57:21,1,100,8|0,0:0|0:0,0:0:0:0:
330,166,166496,5,2,0:0:0:0:
243,136,166736,5,2,0:0:0:0:
321,121,166856,1,2,0:0:0:0:
300,199,166976,1,2,0:0:0:0:
300,199,167216,6,0,B|473:214|473:214|476:204|476:204|320:120,1,359.999989013672,6|0,0:3|0:0,0:0:0:0:
269,288,167696,6,0,B|222:271|222:271|211:220,1,100,2|8,1:2|0:0,0:0:0:0:
335,25,167936,2,0,B|286:16|286:16|251:55,1,100,2|8,0:0|0:0,0:0:0:0:
474,207,168176,5,2,0:0:0:0:
184,122,168416,1,2,0:0:0:0:
74,340,168656,6,0,B|83:305|83:305|201:249|201:249|212:213,1,200,6|2,0:3|0:0,0:0:0:0:
183,378,169016,5,8,0:0:0:0:
168,382,169076,1,8,0:0:0:0:
172,367,169136,2,0,B|181:332|181:332|107:224|107:224|115:188,1,200,6|2,0:3|0:0,0:0:0:0:
4,26,169616,6,0,B|26:60|26:60|38:66|38:66|69:48|69:48|190:109,2,220.000006713867,6|8|0,1:2|0:0|1:0,0:0:0:0:
78,0,170216,1,0,1:0:0:0:
20,107,170336,5,10,0:0:0:0:
20,107,170456,2,0,B|39:195|39:195|58:188|58:188|120:66,1,220.000006713867,2|0,0:0|0:0,0:0:0:0:
246,229,170816,5,10,0:2:0:0:
172,191,170936,1,2,1:2:0:0:
133,264,171056,2,0,B|143:324|143:324|159:340|159:340|165:371,1,110.000003356934,2|0,0:0|1:0,0:0:0:0:
43,313,171296,5,10,0:0:0:0:
198,43,171536,6,0,B|217:59|250:44|250:44|227:70|243:94,1,110.000003356934,2|0,1:2|0:0,0:0:0:0:
490,79,171776,2,0,B|474:98|489:131|489:131|463:108|439:124,1,110.000003356934,10|0,0:2|0:0,0:0:0:0:
352,0,172016,2,0,B|354:24|388:37|388:37|353:39|347:67,1,110.000003356934,2|0,1:2|1:0,0:0:0:0:
512,235,172256,2,0,B|487:237|474:271|474:271|472:236|444:230,1,110.000003356934,10|0,0:0|0:0,0:0:0:0:
244,313,172496,5,2,1:2:0:0:
244,313,172736,5,8,0:0:0:0:
308,363,172856,1,0,1:0:0:0:
323,281,172976,2,0,B|318:246|351:230|351:230|349:209|358:181,1,110.000003356934,2|0,0:0|1:0,0:0:0:0:
485,372,173216,2,0,B|450:376|434:343|434:343|413:345|385:336,1,110.000003356934,10|0,0:0|0:0,0:0:0:0:
439,113,173456,6,0,B|498:120|531:184|512:242|497:243|497:243|479:222|454:237,2,220.000006713867,6|8|0,1:0|0:0|1:0,0:0:0:0:
439,113,174176,5,10,0:0:0:0:
492,50,174296,1,2,0:0:0:0:
411,34,174416,2,0,B|367:39|355:70|355:70|366:98|338:117,1,110.000003356934,2|0,1:2|0:0,0:0:0:0:
95,206,174656,2,0,B|133:227|161:209|161:209|169:180|202:181,1,110.000003356934,10|0,0:0|1:0,0:0:0:0:
451,252,174896,2,0,B|432:211|399:209|399:209|376:228|349:208,1,110.000003356934,2|0,0:0|1:0,0:0:0:0:
191,4,175136,2,0,B|182:47|207:68|207:68|237:66|247:99,1,110.000003356934,10|0,0:0|0:0,0:0:0:0:
258,362,175376,2,0,B|290:332|282:299|282:299|256:283|268:251,1,110.000003356934,2|0,1:2|0:0,0:0:0:0:
283,172,175616,5,8,0:0:0:0:
283,172,175856,5,2,1:2:0:0:
188,182,175976,1,0,1:0:0:0:
126,114,176096,2,0,B|100:105|79:107|79:107|63:74|28:78,1,110.000003356934,8|0,0:0|0:0,0:0:0:0:
182,1,176336,2,0,B|177:17|177:17|159:24|159:24|117:62|67:183|129:135|78:223,1,239.999992675781,2|8,1:2|0:0,0:0:0:0:
47,363,176696,5,0,1:0:0:0:
6,336,176816,1,2,0:0:0:0:
195,267,176936,5,0,1:0:0:0:
111,312,177056,1,8,0:0:0:0:
111,312,177296,6,0,P|106:253|84:216,1,100,6|0,1:2|0:0,0:0:0:0:
217,371,177536,2,0,P|276:336|340:338,1,100,2|0,0:0|0:0,0:0:0:0:
198,143,177776,2,0,P|254:178|295:178,1,100,2|0,3:2|0:0,0:0:0:0:
431,339,178016,5,0,1:2:0:0:
453,265,178136,1,0,1:2:0:0:
387,233,178256,2,0,B|348:179|404:189|368:136,1,100,10|0,3:2|0:0,0:0:0:0:
496,33,178496,2,0,P|477:101|445:106,1,100,2|0,0:0|0:0,0:0:0:0:
294,82,178736,2,0,B|340:70|436:98|478:150|392:175|517:198,1,239.999992675781,2|2,3:2|1:2,0:0:0:0:
150,0,179216,6,0,P|190:29|197:128,1,119.999996337891,2|0,3:2|0:0,0:0:0:0:
205,245,179456,2,0,P|244:183|292:187,1,100,2|0,1:2|0:0,0:0:0:0:
57,122,179696,2,0,P|122:159|160:148,1,100,2|0,3:2|0:0,0:0:0:0:
293,265,179936,5,2,1:2:0:0:
307,337,180056,1,0,1:0:0:0:
247,384,180176,2,0,B|145:314|-3:301|-3:301|90:303|129:216,1,400,10|2,3:2|0:1,0:0:0:0:
0,63,180896,1,0,3:0:0:0:
0,63,181016,1,0,3:0:0:0:
0,63,181136,6,0,P|32:60|51:131,1,100,6|0,1:0|0:0,0:0:0:0:
182,9,181376,2,0,P|176:75|133:101,1,100,2|0,0:0|0:0,0:0:0:0:
268,203,181616,2,0,P|197:200|169:165,1,100,2|0,3:2|0:0,0:0:0:0:
185,360,181856,5,2,1:2:0:0:
113,360,181976,1,0,1:0:0:0:
100,290,182096,2,0,B|121:239|58:255|88:184,1,100,10|0,3:2|0:0,0:0:0:0:
173,0,182336,2,0,P|141:36|144:85,1,100,2|0,0:0|0:0,0:0:0:0:
0,156,182576,2,0,B|1:147|-9:128|-9:128|103:138|168:195|168:195|190:179,1,239.999992675781,2|0,3:2|1:0,0:0:0:0:
492,122,183056,6,0,P|438:107|390:59,1,119.999996337891,2|0,3:2|0:0,0:0:0:0:
261,201,183296,2,0,P|292:157|367:135,1,100,2|0,1:2|0:0,0:0:0:0:
429,280,183536,2,0,P|443:236|406:193,1,100,2|0,3:2|0:0,0:0:0:0:
253,0,183776,5,2,1:2:0:0:
197,46,183896,1,0,1:0:0:0:
226,113,184016,2,0,B|303:128|418:-7|450:10|450:10|426:46|423:126|500:121,1,400,10|2,3:2|0:1,0:0:0:0:
366,341,184736,5,0,3:0:0:0:
277,324,184856,1,0,3:0:0:0:
331,277,184976,1,4,1:0:0:0:
