osu file format v14

[General]
AudioFilename: audio.mp3
AudioLeadIn: 0
PreviewTime: 60836
Countdown: 0
SampleSet: Soft
StackLeniency: 0.7
Mode: 0
LetterboxInBreaks: 0
WidescreenStoryboard: 1

[Editor]
Bookmarks: 23696,54416,85136,92816,100496,112016,115856,131216,146576,161936,169616,184976
DistanceSpacing: 1
BeatDivisor: 2
GridSize: 16
TimelineZoom: 1.4

[Metadata]
Title:Atonement Twins
TitleUnicode:Atonement Twins
Artist:La priere
ArtistUnicode:La prière
Creator:iBell
Version:Normal
Source:
Tags:mg j-rock jpop j-pop female vocal vocals vocalist c97 comiket 97 metal なゆた bellicose mappers' guild mpg featured artist fa Feryquitous 棗いつき natsume itsuki 藍月なくる aitsuki nakuru nayuta japanese rock jrock Gemini Syndrome mbc 2023 November monthly beatmap contest
BeatmapID:4545389
BeatmapSetID:2135397

[Difficulty]
HPDrainRate:4
CircleSize:3.5
OverallDifficulty:4
ApproachRate:5.5
SliderMultiplier:0.8
SliderTickRate:1

[Events]
//Background and Video events
0,0,"bg.jpg",0,0
//Break Periods
2,85335,91691
2,112016,114731
//Storyboard Layer 0 (Background)
//Storyboard Layer 1 (Fail)
//Storyboard Layer 2 (Pass)
//Storyboard Layer 3 (Foreground)
//Storyboard Layer 4 (Overlay)
//Storyboard Sound Samples

[TimingPoints]
656,240,4,2,1,50,1,0
1736,-100,4,2,1,50,0,0
2036,-100,4,2,1,5,0,0
2096,-100,4,2,1,50,0,0
5576,-100,4,2,1,50,0,0
5876,-100,4,2,1,5,0,0
5936,-100,4,2,1,50,0,0
7856,-100,4,2,1,50,0,0
8336,-100,4,2,1,60,0,0
8576,-100,4,2,1,60,0,0
9296,-100,4,2,1,60,0,0
10016,-100,4,2,1,60,0,0
13136,-100,4,2,1,60,0,0
14096,-100,4,2,1,60,0,0
16976,-100,4,2,1,60,0,0
17936,-100,4,2,1,60,0,0
20816,-100,4,2,1,60,0,0
21536,-100,4,2,1,60,0,0
23696,-100,4,2,1,45,0,0
24416,-100,4,2,1,45,0,0
24776,-100,4,2,1,45,0,0
25016,-100,4,2,2,45,0,0
25256,-100,4,2,1,45,0,0
25616,-100,4,2,1,45,0,0
26216,-100,4,2,2,45,0,0
26576,-100,4,2,1,45,0,0
26936,-100,4,2,1,45,0,0
27536,-100,4,2,1,45,0,0
28496,-100,4,2,1,45,0,0
28976,-100,4,2,2,45,0,0
29096,-100,4,2,1,45,0,0
29456,-100,4,2,1,45,0,0
29816,-100,4,2,1,45,0,0
30176,-100,4,2,1,45,0,0
31376,-100,4,2,1,55,0,0
32276,-100,4,2,1,5,0,0
32336,-100,4,2,1,55,0,0
33236,-100,4,2,1,5,0,0
33296,-100,4,2,1,55,0,0
37076,-100,4,2,1,5,0,0
37136,-100,4,2,1,55,0,0
38096,-100,4,2,1,55,0,0
38336,-100,4,2,1,55,0,0
38816,-100,4,2,1,55,0,0
39056,-100,4,2,2,60,0,0
41216,-100,4,2,1,60,0,0
41936,-100,4,2,2,60,0,0
44816,-100,4,2,2,60,0,0
45056,-100,4,2,1,60,0,0
45296,-100,4,2,2,60,0,0
45776,-100,4,2,2,60,0,0
48656,-100,4,2,2,60,0,0
48896,-100,4,2,1,60,0,0
49136,-100,4,2,2,60,0,0
52496,-100,4,2,2,60,0,0
52736,-100,4,2,1,60,0,0
52976,-100,4,2,2,60,0,0
53696,-100,4,2,1,45,0,0
54416,-100,4,2,2,45,0,0
54776,-100,4,2,1,45,0,0
56336,-100,4,2,2,45,0,0
56696,-100,4,2,1,45,0,0
58256,-100,4,2,2,45,0,0
58616,-100,4,2,1,45,0,0
60416,-100,4,2,1,30,0,0
60656,-100,4,2,1,35,0,0
60896,-100,4,2,1,40,0,0
61136,-100,4,2,1,45,0,0
61376,-100,4,2,1,50,0,0
61616,-100,4,2,1,55,0,0
61856,-100,4,2,1,60,0,0
62036,-100,4,2,1,5,0,0
62096,-100,4,2,1,65,0,0
62576,-100,4,2,1,65,0,0
62816,-100,4,2,1,65,0,0
63536,-100,4,2,1,65,0,0
63896,-100,4,2,1,65,0,0
64496,-100,4,2,1,65,0,0
64736,-100,4,2,1,65,0,0
66416,-100,4,2,1,65,0,0
66656,-100,4,2,1,65,0,0
67376,-100,4,2,1,65,0,0
67736,-100,4,2,1,65,0,0
69776,-86.9565217391304,4,2,1,70,0,1
77456,-100,4,2,1,60,0,0
77936,-100,4,2,2,60,0,0
78176,-100,4,2,1,60,0,0
78896,-100,4,2,2,60,0,0
79136,-100,4,2,1,60,0,0
79376,-100,4,2,2,60,0,0
79616,-100,4,2,1,60,0,0
79856,-100,4,2,2,60,0,0
80096,-100,4,2,1,60,0,0
80336,-100,4,2,2,60,0,0
80816,-100,4,2,2,60,0,0
81056,-100,4,2,1,60,0,0
81776,-100,4,2,2,60,0,0
82016,-100,4,2,1,60,0,0
82256,-100,4,2,2,60,0,0
82736,-100,4,2,2,60,0,0
82976,-100,4,2,1,60,0,0
83216,-100,4,2,2,60,0,0
83456,-100,4,2,1,60,0,0
83696,-100,4,2,2,60,0,0
83936,-100,4,2,1,60,0,0
84176,-100,4,2,2,60,0,0
84656,-100,4,2,2,60,0,0
84896,-100,4,2,1,60,0,0
92816,-100,4,2,1,45,0,0
93536,-100,4,2,1,35,0,0
94256,-100,4,2,1,45,0,0
94736,-100,4,2,1,45,0,0
96176,-100,4,2,1,45,0,0
96656,-100,4,2,1,45,0,0
100016,-100,4,2,1,50,0,0
100496,-100,4,2,1,55,0,0
100976,-100,4,2,2,55,0,0
101216,-100,4,2,2,55,0,0
101936,-100,4,2,2,60,0,0
102176,-100,4,2,2,60,0,0
103976,-100,4,2,1,60,0,0
104336,-100,4,2,2,60,0,0
105776,-100,4,2,2,60,0,0
106016,-100,4,2,2,60,0,0
107816,-100,4,2,1,60,0,0
108176,-100,4,2,2,60,0,0
109616,-100,4,2,2,60,0,0
109856,-100,4,2,2,60,0,0
111656,-100,4,2,1,60,0,0
112016,-100,4,2,2,60,0,0
113456,-100,4,2,2,60,0,0
113696,-100,4,2,2,60,0,0
115496,-100,4,2,1,60,0,0
115856,-117.647058823529,4,2,1,45,0,0
122036,-117.647058823529,4,2,1,5,0,0
122096,-117.647058823529,4,2,1,45,0,0
123056,-117.647058823529,4,2,1,45,0,0
123536,-117.647058823529,4,2,1,45,0,0
124016,-117.647058823529,4,2,1,45,0,0
126176,-117.647058823529,4,2,1,45,0,0
126656,-117.647058823529,4,2,1,45,0,0
129056,-100,4,2,1,45,0,0
129536,-100,4,2,1,30,0,0
129776,-100,4,2,1,35,0,0
130016,-100,4,2,1,40,0,0
130256,-100,4,2,1,45,0,0
130496,-100,4,2,1,50,0,0
130736,-100,4,2,1,55,0,0
131216,-100,4,2,1,60,0,0
131696,-100,4,2,2,60,0,0
131816,-100,4,2,1,60,0,0
132176,-100,4,2,2,60,0,0
132356,-100,4,2,1,5,0,0
132416,-100,4,2,1,60,0,0
132596,-100,4,2,1,5,0,0
132656,-100,4,2,2,60,0,0
132896,-100,4,2,1,60,0,0
133136,-100,4,2,2,60,0,0
133376,-100,4,2,1,60,0,0
133616,-100,4,2,2,60,0,0
133736,-100,4,2,1,60,0,0
134096,-100,4,2,2,60,0,0
134216,-100,4,2,1,60,0,0
134576,-100,4,2,2,60,0,0
134756,-100,4,2,1,5,0,0
134816,-100,4,2,1,60,0,0
135296,-100,4,2,1,60,0,0
135536,-100,4,2,2,60,0,0
135776,-100,4,2,2,60,0,0
138896,-100,4,2,2,60,0,0
142496,-100,4,2,1,60,0,0
142736,-100,4,2,2,60,0,0
145856,-100,4,2,1,45,0,0
146576,-100,4,2,2,45,0,0
146936,-100,4,2,1,45,0,0
148496,-100,4,2,2,45,0,0
148856,-100,4,2,1,45,0,0
150416,-100,4,2,2,45,0,0
150776,-100,4,2,1,45,0,0
152336,-100,4,2,2,45,0,0
152696,-100,4,2,1,45,0,0
154256,-100,4,2,2,45,0,0
154616,-100,4,2,1,45,0,0
156176,-100,4,2,2,45,0,0
156536,-100,4,2,1,45,0,0
158096,-100,4,2,2,45,0,0
158456,-100,4,2,1,45,0,0
160256,-100,4,2,1,30,0,0
160496,-100,4,2,1,35,0,0
160736,-100,4,2,1,40,0,0
160976,-100,4,2,1,45,0,0
161216,-100,4,2,1,50,0,0
161456,-100,4,2,1,55,0,0
161696,-100,4,2,1,60,0,0
161876,-100,4,2,1,5,0,0
161936,-100,4,2,1,65,0,0
162416,-100,4,2,1,65,0,0
162656,-100,4,2,1,65,0,0
163376,-100,4,2,1,65,0,0
163736,-100,4,2,1,65,0,0
164336,-100,4,2,1,65,0,0
164576,-100,4,2,1,65,0,0
166256,-100,4,2,1,65,0,0
166496,-100,4,2,1,65,0,0
167216,-100,4,2,1,65,0,0
167576,-100,4,2,1,65,0,0
169616,-86.9565217391304,4,2,1,70,0,1
176336,-86.9565217391304,4,2,1,70,0,1
176576,-86.9565217391304,4,2,1,70,0,1
177296,-100,4,2,2,60,0,0
177476,-100,4,2,1,5,0,0
177536,-100,4,2,2,60,0,0
177716,-100,4,2,1,5,0,0
177776,-100,4,2,2,60,0,0
177956,-100,4,2,1,5,0,0
178016,-100,4,2,2,60,0,0
178436,-100,4,2,1,5,0,0
178496,-100,4,2,2,60,0,0
178676,-100,4,2,1,5,0,0
178736,-100,4,2,2,60,0,0
179396,-100,4,2,1,5,0,0
179456,-100,4,2,2,60,0,0
179636,-100,4,2,1,5,0,0
179696,-100,4,2,2,60,0,0
179876,-100,4,2,1,5,0,0
179936,-100,4,2,2,60,0,0
180896,-100,4,2,1,60,0,0
181136,-100,4,2,1,60,0,0
181316,-100,4,2,1,5,0,0
181376,-100,4,2,2,60,0,0
181556,-100,4,2,1,5,0,0
181616,-100,4,2,2,60,0,0
181796,-100,4,2,1,5,0,0
181856,-100,4,2,2,60,0,0
182276,-100,4,2,1,5,0,0
182336,-100,4,2,2,60,0,0
182516,-100,4,2,1,5,0,0
182576,-100,4,2,2,60,0,0
183236,-100,4,2,1,5,0,0
183296,-100,4,2,2,60,0,0
183476,-100,4,2,1,5,0,0
183536,-100,4,2,2,60,0,0
183716,-100,4,2,1,5,0,0
183776,-100,4,2,2,60,0,0
184736,-100,4,2,1,60,0,0

[Colours]
Combo1 : 255,100,123
Combo2 : 67,222,250
Combo3 : 129,95,248
Combo4 : 254,126,232

[HitObjects]
193,52,656,6,0,L|98:31,2,80,2|2|2,1:2|0:0|0:0,0:0:0:0:
262,9,1376,1,2,0:0:0:0:
262,9,1616,2,0,P|235:64|311:153,1,160,2|4,0:0|0:3,0:0:0:0:
439,127,2576,2,0,L|466:35,2,80,2|2|2,1:2|0:0|0:0,0:0:0:0:
483,199,3296,1,2,0:0:0:0:
483,199,3536,2,0,B|507:272|507:272|453:335,1,160,10|10,0:0|0:0,0:0:0:0:
297,298,4496,6,0,L|314:384,2,80,2|2|2,1:2|0:0|0:0,0:0:0:0:
349,238,5216,1,2,0:0:0:0:
349,238,5456,2,0,P|286:253|216:179,1,160,2|4,0:0|0:3,0:0:0:0:
184,38,6416,2,0,P|225:14|269:23,2,80,2|2|2,1:2|0:0|0:0,0:0:0:0:
150,112,7136,1,2,0:0:0:0:
150,112,7376,2,0,B|77:143|77:143|13:83,1,160,6|6,0:3|0:3,0:0:0:0:
18,251,8336,5,4,1:2:0:0:
18,251,8576,2,0,P|14:314|65:341,1,120,10|2,0:0|1:2,0:0:0:0:
173,371,9296,1,2,1:2:0:0:
152,252,9656,2,0,L|129:118,1,120,2|8,1:2|0:0,0:0:0:0:
106,57,10256,2,0,L|187:24,1,80,0|8,1:0|0:0,0:0:0:0:
256,2,10736,2,0,L|332:72,1,80,0|8,1:0|0:0,0:0:0:0:
396,40,11216,1,2,1:2:0:0:
396,40,11456,1,10,0:0:0:0:
448,100,11696,2,0,B|455:141|455:141|412:176,1,80,2|10,0:0|0:0,0:0:0:0:
351,151,12176,5,4,1:0:0:0:
351,151,12416,2,0,P|290:148|256:195,1,120,10|2,0:0|1:2,0:0:0:0:
234,308,13136,1,2,1:2:0:0:
329,380,13496,2,0,L|452:341,1,120,2|8,1:2|0:0,0:0:0:0:
487,276,14096,2,0,L|396:248,1,80,0|8,1:0|0:0,0:0:0:0:
337,285,14576,2,0,L|298:209,1,80,0|8,1:0|0:0,0:0:0:0:
366,167,15056,1,2,1:2:0:0:
366,167,15296,1,10,0:2:0:0:
357,87,15536,2,0,B|324:62|324:62|282:76,1,80,2|10,0:2|0:2,0:0:0:0:
223,26,16016,5,4,1:2:0:0:
223,26,16256,2,0,P|232:92|183:136,1,120,10|2,0:0|1:2,0:0:0:0:
99,63,16976,1,2,1:2:0:0:
22,155,17336,2,0,L|55:275,1,120,2|8,1:2|0:0,0:0:0:0:
34,348,17936,2,0,L|121:375,1,80,0|8,1:0|0:0,0:0:0:0:
147,300,18416,2,0,L|206:221,1,80,0|8,1:0|0:0,0:0:0:0:
164,167,18896,1,2,1:2:0:0:
164,167,19136,1,10,0:0:0:0:
85,184,19376,2,0,P|43:179|21:144,1,80,2|10,0:0|0:0,0:0:0:0:
12,74,19856,5,4,1:0:0:0:
12,74,20096,2,0,P|41:30|112:23,1,120,10|2,0:0|1:2,0:0:0:0:
197,95,20816,1,2,1:2:0:0:
313,64,21176,2,0,L|434:32,1,120,2|8,1:2|0:0,0:0:0:0:
506,52,21776,2,0,L|477:139,1,80,0|8,1:0|0:0,0:0:0:0:
401,140,22256,2,0,L|431:226,1,80,0|8,1:0|0:0,0:0:0:0:
459,294,22736,1,2,1:2:0:0:
459,294,22976,1,10,0:2:0:0:
396,343,23216,2,0,B|357:353|357:353|312:311,1,80,2|10,0:2|0:2,0:0:0:0:
315,246,23696,5,6,1:3:0:0:
210,305,24056,1,6,1:3:0:0:
106,366,24416,1,2,0:0:0:0:
106,366,24656,2,0,B|114:265|34:326|56:194,1,160,2|10,3:2|0:0,0:0:0:0:
131,201,25376,1,2,0:0:0:0:
131,201,25616,2,0,P|193:161|187:103,1,120,2|10,1:2|0:0,0:0:0:0:
154,9,26336,1,2,0:0:0:0:
154,9,26576,2,0,L|61:40,1,80,2|10,1:2|0:3,0:0:0:0:
3,64,27056,2,0,L|31:161,1,80,2|2,1:2|0:0,0:0:0:0:
9,219,27536,5,6,1:3:0:0:
122,258,27896,1,6,1:3:0:0:
233,301,28256,1,2,0:0:0:0:
233,301,28496,2,0,B|256:288|267:266|267:266|329:282|384:244,1,160,2|10,3:2|0:0,0:0:0:0:
401,178,29216,1,2,0:0:0:0:
401,178,29456,1,2,1:2:0:0:
319,89,29816,2,0,P|312:38|371:9,1,120,10|2,0:0|0:0,0:0:0:0:
445,14,30416,2,0,L|466:92,1,80,2|4,1:2|0:3,0:0:0:0:
486,168,30896,1,10,0:0:0:0:
493,327,31376,6,0,P|449:367|385:362,1,120,6|2,1:2|0:0,0:0:0:0:
284,301,32096,1,10,0:0:0:0:
284,301,32336,2,0,L|309:215,1,80,2|10,1:2|0:0,0:0:0:0:
359,164,32816,2,0,L|331:73,1,80,2|10,0:0|0:0,0:0:0:0:
364,15,33296,1,2,1:2:0:0:
364,15,33536,1,10,0:0:0:0:
284,9,33776,2,0,L|201:34,1,80,2|10,1:2|0:2,0:0:0:0:
143,81,34256,2,0,P|217:85|251:166,1,160,6|10,1:0|0:0,0:0:0:0:
92,167,35216,6,0,P|34:182|20:239,1,120,6|2,1:2|0:0,0:0:0:0:
31,354,35936,1,10,0:0:0:0:
31,354,36176,2,0,L|111:329,1,80,2|10,1:2|0:2,0:0:0:0:
179,364,36656,2,0,L|218:274,1,80,2|10,1:2|0:0,0:0:0:0:
154,233,37136,1,2,1:2:0:0:
2,268,37616,2,0,B|7:177|55:232|70:129,1,160,2|2,1:2|1:2,0:0:0:0:
23,71,38336,1,8,0:0:0:0:
23,71,38576,2,0,B|19:30|19:30|61:6,1,80,2|8,0:0|0:0,0:0:0:0:
132,2,39056,6,0,L|172:249,1,240,6|0,1:2|1:0,0:0:0:0:
231,299,40016,1,8,3:2:0:0:
231,299,40256,2,0,L|201:394,2,80,2|2|2,0:0|3:2|1:2,0:0:0:0:
380,356,41216,2,0,P|487:329|491:260,1,160,2|0,1:2|1:0,0:0:0:0:
509,214,41936,2,0,P|478:185|440:191,1,80,10|0,3:2|0:0,0:0:0:0:
400,257,42416,2,0,L|307:280,1,80,2|0,3:2|0:0,0:0:0:0:
244,258,42896,6,0,L|288:13,1,240,4|0,1:0|1:0,0:0:0:0:
365,7,43856,1,8,3:2:0:0:
483,114,44336,2,0,B|449:137|449:137|393:123,1,80,0|0,3:0|1:0,0:0:0:0:
393,205,44816,2,0,P|354:144|255:152,1,160,0|0,3:0|3:0,0:0:0:0:
234,212,45536,1,0,1:0:0:0:
234,212,45776,1,10,3:2:0:0:
240,371,46256,1,0,3:0:0:0:
78,376,46736,6,0,L|41:211,1,160,6|0,1:0|3:0,0:0:0:0:
23,147,47456,1,0,1:0:0:0:
23,147,47696,2,0,B|84:97|84:97|128:178,1,160,8|0,3:2|3:0,0:0:0:0:
141,250,48416,1,0,1:0:0:0:
141,250,48656,1,0,3:0:0:0:
291,195,49136,1,0,3:0:0:0:
188,72,49616,2,0,L|345:27,1,160,10|2,3:2|0:1,0:0:0:0:
425,22,50336,1,0,3:0:0:0:
425,22,50576,6,0,B|471:85|471:85|391:117,1,160,4|0,1:0|3:0,0:0:0:0:
319,132,51296,1,0,1:0:0:0:
319,132,51536,2,0,P|381:148|405:244,1,160,8|0,3:2|3:0,0:0:0:0:
249,250,52496,2,0,B|181:291|181:291|225:372,1,160,0|0,3:0|3:0,0:0:0:0:
294,328,53216,1,0,1:0:0:0:
294,328,53456,2,0,L|378:350,1,80,8|2,3:2|0:0,0:0:0:0:
445,378,53936,2,0,L|515:306,1,80,2|2,0:0|0:0,0:0:0:0:
491,240,54416,5,6,3:1:0:0:
378,199,54776,2,0,B|379:83|301:139|317:6,1,200,0|0,3:0|3:0,0:0:0:0:
399,27,55616,1,0,3:0:0:0:
399,27,55856,2,0,P|426:48|483:42,2,80,0|0|2,3:0|3:0|1:0,0:0:0:0:
351,137,56696,2,0,B|229:121|298:219|168:204,1,200,0|0,3:0|3:0,0:0:0:0:
194,129,57536,1,0,3:0:0:0:
194,129,57776,2,0,P|169:67|142:61,2,80,0|0|2,3:0|3:0|1:0,0:0:0:0:
75,147,58616,6,0,B|135:251|22:241|107:348,1,200,0|0,3:0|3:0,0:0:0:0:
165,376,59456,1,0,3:0:0:0:
165,376,59696,2,0,L|194:290,1,80,0|0,3:0|1:0,0:0:0:0:
0,135,60896,1,2,1:2:0:0:
0,135,61136,2,0,P|39:109|79:114,1,80,2|2,1:2|1:2,0:0:0:0:
105,182,61616,2,0,P|144:208|184:203,1,80,10|2,1:3|0:0,0:0:0:0:
206,132,62096,6,0,P|172:97|193:20,1,120,2|8,1:2|0:0,0:0:0:0:
302,4,62816,1,2,0:0:0:0:
302,4,63056,2,0,L|335:107,1,80,2|2,0:0|0:0,0:0:0:0:
295,154,63536,2,0,L|380:180,1,80,6|0,0:3|0:0,0:0:0:0:
451,155,64016,1,2,1:2:0:0:
451,155,64256,2,0,B|476:187|476:187|463:232,1,80,2|2,0:0|0:0,0:0:0:0:
412,376,64976,2,0,P|380:308|297:307,1,160,10|10,0:0|0:0,0:0:0:0:
245,359,65696,1,2,0:0:0:0:
245,359,65936,2,0,P|186:336|208:274,1,120,2|8,1:2|0:0,0:0:0:0:
242,180,66656,6,0,L|336:203,2,80,2|2|2,0:0|0:0|0:0,0:0:0:0:
257,101,67376,2,0,L|227:2,1,80,6|0,0:3|0:0,0:0:0:0:
159,10,67856,1,2,1:2:0:0:
159,10,68096,1,2,0:0:0:0:
162,89,68336,2,0,L|132:187,1,80,2|2,0:0|0:0,0:0:0:0:
60,150,68816,2,0,B|13:210|13:210|85:276,1,160,6|6,0:3|0:3,0:0:0:0:
196,382,69776,5,6,1:2:0:0:
196,382,70016,2,0,L|227:291,1,92.0000017547608,8|0,0:0|1:0,0:0:0:0:
317,305,70496,2,0,L|269:126,1,184.000003509522,8|10,0:0|0:0,0:0:0:0:
344,72,71216,1,2,0:0:0:0:
344,72,71456,1,8,0:0:0:0:
263,25,71696,2,0,L|168:1,1,92.0000017547608,2|8,1:2|0:2,0:0:0:0:
154,92,72176,2,0,L|55:120,1,92.0000017547608,2|10,1:2|0:0,0:0:0:0:
0,48,72656,1,2,1:2:0:0:
18,231,73136,2,0,B|65:240|65:240|108:203,1,92.0000017547608,2|10,0:0|0:0,0:0:0:0:
152,292,73616,5,6,1:0:0:0:
152,292,73856,2,0,P|158:218|256:199,1,184.000003509522,8|10,0:0|0:0,0:0:0:0:
239,110,74576,1,2,1:2:0:0:
239,110,74816,1,10,0:0:0:0:
310,51,75056,2,0,P|360:63|377:105,1,92.0000017547608,2|10,0:0|0:0,0:0:0:0:
350,185,75536,1,2,1:2:0:0:
506,88,76016,2,0,B|507:194|446:144|455:265,1,184.000003509522,2|2,1:2|1:2,0:0:0:0:
437,352,76736,1,8,0:0:0:0:
437,352,76976,2,0,P|388:354|363:320,1,92.0000017547608,2|8,0:0|0:0,0:0:0:0:
293,361,77456,6,0,P|338:306|344:211,1,160,6|0,1:2|3:0,0:0:0:0:
317,152,78176,1,0,1:0:0:0:
317,152,78416,1,10,0:0:0:0:
398,14,78896,2,0,B|363:38|363:38|324:26,1,80,0|0,3:0|1:0,0:0:0:0:
249,7,79376,2,0,B|232:46|232:46|109:72,1,160,0|0,3:0|3:0,0:0:0:0:
62,128,80096,1,0,1:0:0:0:
62,128,80336,2,0,P|84:185|171:160,1,160,10|2,3:2|3:2,0:0:0:0:
214,104,81056,1,0,3:0:0:0:
214,104,81296,5,6,1:0:0:0:
179,260,81776,2,0,L|156:349,1,80,0|0,3:0|1:0,0:0:0:0:
230,373,82256,2,0,B|332:374|270:312|381:324,1,160,10|0,3:2|3:0,0:0:0:0:
447,366,82976,1,0,1:0:0:0:
447,366,83216,2,0,B|484:289|484:289|414:246,1,160,0|0,3:0|3:0,0:0:0:0:
345,238,83936,1,0,1:0:0:0:
345,238,84176,2,0,L|325:152,1,80,10|0,3:2|0:0,0:0:0:0:
305,83,84656,2,0,P|392:105|427:26,1,160,2|4,3:2|1:2,0:0:0:0:
349,79,92816,5,6,1:3:0:0:
235,42,93176,1,6,1:3:0:0:
235,42,94736,1,2,1:2:0:0:
349,79,95096,2,0,P|405:32|458:47,1,120,10|0,0:0|0:0,0:0:0:0:
511,86,95696,1,0,1:2:0:0:
414,206,96176,2,0,P|391:177|338:175,1,80,2|0,1:2|0:0,0:0:0:0:
277,203,96656,5,6,1:3:0:0:
312,317,97016,1,6,1:3:0:0:
213,383,97376,1,2,0:0:0:0:
213,383,97616,2,0,B|176:363|176:363|146:239,1,160,2|10,3:2|0:1,0:0:0:0:
211,198,98336,1,2,0:0:0:0:
211,198,98576,2,0,P|252:169|239:100,1,120,2|10,1:2|0:0,0:0:0:0:
175,13,99296,1,2,0:0:0:0:
175,13,99536,2,0,L|85:42,1,80,2|4,0:0|0:3,0:0:0:0:
19,24,100016,2,0,B|0:59|0:59|30:96,1,80,10|2,0:0|0:0,0:0:0:0:
8,168,100496,6,0,P|41:227|135:228,1,160,6|0,1:2|3:0,0:0:0:0:
92,166,101216,1,0,1:0:0:0:
92,166,101456,1,8,3:2:0:0:
203,51,101936,2,0,L|293:31,1,80,2|0,3:2|1:0,0:0:0:0:
358,52,102416,2,0,B|344:111|344:111|312:132|312:132|295:205,1,160,2|0,3:2|3:0,0:0:0:0:
231,232,103136,1,0,1:0:0:0:
231,232,103376,1,8,3:2:0:0:
292,379,103856,2,0,L|207:356,1,80,2|2,0:1|3:2,0:0:0:0:
138,383,104336,6,0,P|167:311|105:253,1,160,4|0,1:0|3:0,0:0:0:0:
43,239,105056,1,0,1:0:0:0:
43,239,105296,1,8,3:2:0:0:
193,183,105776,2,0,P|239:185|273:151,1,80,2|0,3:2|1:0,0:0:0:0:
253,86,106256,2,0,B|356:86|305:149|400:149,1,160,2|0,3:2|3:0,0:0:0:0:
459,104,106976,1,0,1:0:0:0:
459,104,107216,2,0,L|413:285,1,160,10|2,3:2|0:1,0:0:0:0:
432,341,107936,1,0,3:0:0:0:
432,341,108176,1,4,1:0:0:0:
256,192,108416,12,4,111056,0:2:0:0:
448,90,115856,6,0,B|420:28|420:28|349:79,1,136.000002593994,6|0,1:0|0:0,0:0:0:0:
294,41,116576,1,2,0:0:0:0:
294,41,116816,2,0,P|242:72|260:129,1,102.000001945496,2|2,0:0|0:0,0:0:0:0:
337,158,117536,1,2,0:0:0:0:
337,158,117776,2,0,P|387:185|382:237,1,102.000001945496,2|2,0:0|0:0,0:0:0:0:
367,328,118496,1,2,0:0:0:0:
367,328,118736,2,0,L|280:295,1,68.0000012969971,2|2,0:0|0:0,0:0:0:0:
235,279,119216,2,0,L|147:308,1,68.0000012969971,2|2,0:0|0:0,0:0:0:0:
116,350,119696,2,0,P|127:289|58:227,1,136.000002593994,2|0,0:0|0:0,0:0:0:0:
177,135,120656,6,0,L|135:51,1,68.0000012969971,2|2,0:0|0:0,0:0:0:0:
198,19,121136,2,0,L|294:35,1,68.0000012969971,2|2,0:0|0:0,0:0:0:0:
300,97,121616,1,2,0:0:0:0:
433,125,122096,1,2,0:0:0:0:
309,181,122576,1,2,0:0:0:0:
374,61,123056,1,2,0:0:0:0:
389,196,123536,2,0,B|395:276|320:241|340:324,1,136.000002593994,2|0,0:0|0:0,0:0:0:0:
282,367,124256,1,2,0:0:0:0:
282,367,124496,6,0,P|236:328|252:288,1,102.000001945496,2|2,0:0|0:0,0:0:0:0:
296,207,125216,1,2,0:0:0:0:
296,207,125456,2,0,P|235:199|210:157,2,102.000001945496,2|2|2,0:0|0:0|0:0,0:0:0:0:
12,206,127136,1,2,0:0:0:0:
12,206,127376,2,0,P|89:214|126:254,1,136.000002593994,2|0,0:0|0:0,0:0:0:0:
79,321,128096,1,2,0:0:0:0:
79,321,128336,2,0,L|204:355,1,102.000001945496,2|2,0:0|0:0,0:0:0:0:
299,384,129056,1,0,1:0:0:0:
299,384,129296,6,0,L|278:300,1,80,2|0,0:0|1:0,0:0:0:0:
213,266,129776,2,0,L|237:182,1,80,2|0,1:2|1:0,0:0:0:0:
315,189,130256,2,0,P|388:192|417:147,1,120,10|2,0:3|0:0,0:0:0:0:
406,39,130976,1,2,0:0:0:0:
406,39,131216,6,0,B|352:21|352:21|308:34|308:34|218:4,1,160,6|2,1:2|3:2,0:0:0:0:
179,36,131936,1,2,1:2:0:0:
179,36,132176,2,0,L|212:117,1,80,10|2,3:2|0:0,0:0:0:0:
291,128,132656,1,2,3:2:0:0:
291,128,132896,1,2,1:2:0:0:
233,277,133376,2,0,P|195:226|98:242,1,160,2|2,1:2|1:2,0:0:0:0:
45,286,134096,2,0,P|22:264|30:214,1,80,10|2,3:2|0:0,0:0:0:0:
78,159,134576,1,2,3:1:0:0:
78,159,134816,1,2,0:0:0:0:
178,283,135296,6,0,L|157:360,1,80,2|2,0:0|3:2,0:0:0:0:
238,382,135776,1,2,1:2:0:0:
238,382,136016,2,0,L|347:354,1,80,8|2,3:2|0:0,0:0:0:0:
392,340,136496,2,0,B|401:299|401:299|373:269,1,80,2|2,3:2|1:2,0:0:0:0:
298,248,136976,1,2,3:2:0:0:
202,119,137456,2,0,L|222:38,1,80,2|2,3:2|1:2,0:0:0:0:
296,13,137936,1,10,3:2:0:0:
296,13,138176,2,0,B|328:35|328:35|383:24,1,80,2|2,0:0|3:1,0:0:0:0:
451,19,138656,1,2,0:0:0:0:
451,19,138896,6,0,P|485:78|413:91,1,160,6|0,1:0|3:0,0:0:0:0:
344,122,139616,1,0,1:0:0:0:
344,122,139856,1,8,3:2:0:0:
482,201,140336,2,0,L|459:289,1,80,0|0,3:0|1:0,0:0:0:0:
491,352,140816,2,0,B|482:315|482:315|364:270,1,160,0|0,3:0|3:0,0:0:0:0:
306,321,141536,1,0,1:0:0:0:
306,321,141776,2,0,B|244:369|244:369|217:283,1,160,8|2,3:2|0:1,0:0:0:0:
282,241,142496,1,0,3:0:0:0:
282,241,142736,5,4,1:0:0:0:
132,296,143216,2,0,L|105:215,1,80,0|0,3:0|1:0,0:0:0:0:
43,171,143696,2,0,P|94:189|168:108,1,160,8|0,3:2|3:0,0:0:0:0:
158,50,144416,1,0,1:0:0:0:
158,50,144656,1,0,3:0:0:0:
311,5,145136,2,0,L|288:97,1,80,0|0,3:2|1:0,0:0:0:0:
355,139,145616,1,8,3:2:0:0:
355,139,145856,2,0,L|443:109,2,80,2|2|2,0:0|0:0|0:0,0:0:0:0:
278,163,146576,5,6,0:1:0:0:
317,276,146936,2,0,B|442:272|372:362|502:356,1,200,0|0,3:0|3:0,0:0:0:0:
477,281,147776,1,0,3:0:0:0:
477,281,148016,2,0,P|500:247|480:203,2,80,0|0|2,3:0|3:0|1:0,0:0:0:0:
388,198,148856,2,0,B|375:83|468:151|455:3,1,200,0|0,3:0|3:0,0:0:0:0:
381,11,149696,1,0,3:0:0:0:
381,11,149936,2,0,P|351:32|288:14,2,80,0|0|6,3:0|3:0|1:0,0:0:0:0:
448,110,150776,6,0,B|327:89|395:193|249:169,1,200,0|0,3:0|3:0,0:0:0:0:
220,235,151616,1,0,3:0:0:0:
220,235,151856,2,0,P|190:212|131:226,2,80,0|0|2,3:0|3:0|1:0,0:0:0:0:
201,116,152696,2,0,B|71:115|167:33|3:32,1,200,0|0,3:0|3:0,0:0:0:0:
13,114,153536,1,0,3:0:0:0:
13,114,153776,2,0,P|8:161|39:183,2,80,0|0|6,3:0|3:0|1:0,0:0:0:0:
117,172,154616,6,0,B|122:297|41:222|63:361,1,200,0|0,3:0|3:0,0:0:0:0:
140,328,155456,1,0,3:0:0:0:
140,328,155696,2,0,P|184:336|205:370,2,80,0|0|2,3:0|3:0|1:0,0:0:0:0:
209,229,156536,2,0,B|334:245|249:149|408:177,1,200,0|0,3:0|3:0,0:0:0:0:
441,115,157376,1,0,3:0:0:0:
441,115,157616,2,0,P|442:68|393:48,2,80,0|0|2,3:0|3:0|1:0,0:0:0:0:
326,78,158456,6,0,B|199:91|280:5|134:10,1,200,0|0,3:0|3:0,0:0:0:0:
98,71,159296,1,0,3:0:0:0:
98,71,159536,2,0,B|83:109|83:109|124:160,1,80,0|0,3:0|1:0,0:0:0:0:
178,358,160736,1,2,1:2:0:0:
178,358,160976,2,0,L|203:271,1,80,2|2,1:2|1:2,0:0:0:0:
125,251,161456,2,0,L|35:277,1,80,10|2,1:3|0:0,0:0:0:0:
13,201,161936,6,0,P|12:140|68:118,1,120,2|8,1:2|0:0,0:0:0:0:
172,169,162656,1,2,0:0:0:0:
172,169,162896,2,0,L|268:144,1,80,2|2,0:0|0:0,0:0:0:0:
279,222,163376,2,0,L|372:245,1,80,6|0,0:3|0:0,0:0:0:0:
408,309,163856,1,2,1:2:0:0:
408,309,164096,2,0,B|432:340|432:340|414:394,1,80,2|2,0:0|0:0,0:0:0:0:
345,363,164576,1,2,0:0:0:0:
345,363,164816,1,10,0:0:0:0:
246,237,165296,2,0,L|278:141,1,80,10|2,0:0|0:0,0:0:0:0:
262,81,165776,6,0,P|298:121|374:119,1,120,2|8,1:2|0:0,0:0:0:0:
473,167,166496,2,0,P|482:208|443:239,2,80,2|2|2,0:0|0:0|0:0,0:0:0:0:
503,93,167216,2,0,L|477:6,1,80,6|0,0:3|0:0,0:0:0:0:
404,8,167696,1,2,1:2:0:0:
404,8,167936,1,2,0:0:0:0:
340,56,168176,2,0,P|297:59|265:31,1,80,2|2,0:0|0:0,0:0:0:0:
190,23,168656,2,0,P|247:58|233:149,1,160,6|6,0:3|0:3,0:0:0:0:
181,319,169616,5,6,1:2:0:0:
181,319,169856,2,0,B|151:286|151:286|91:310,1,92.0000017547608,8|0,0:0|1:0,0:0:0:0:
26,258,170336,2,0,B|6:225|6:225|61:83,1,184.000003509522,10|10,0:0|0:2,0:0:0:0:
127,28,171056,1,2,0:0:0:0:
127,28,171296,1,10,0:0:0:0:
144,118,171536,2,0,L|169:220,1,92.0000017547608,2|10,1:2|0:2,0:0:0:0:
243,257,172016,2,0,L|335:223,1,92.0000017547608,2|10,1:2|0:0,0:0:0:0:
398,285,172496,1,2,1:2:0:0:
507,137,172976,2,0,P|513:98|468:62,1,92.0000017547608,2|10,0:0|0:0,0:0:0:0:
402,19,173456,5,6,1:0:0:0:
402,19,173696,2,0,L|364:203,1,184.000003509522,8|10,0:0|0:0,0:0:0:0:
456,231,174416,1,2,1:2:0:0:
456,231,174656,1,10,0:0:0:0:
495,314,174896,2,0,B|511:356|511:356|470:387,1,92.0000017547608,2|10,0:0|0:0,0:0:0:0:
398,330,175376,1,2,1:2:0:0:
221,382,175856,2,0,L|180:194,1,184.000003509522,2|2,1:2|1:2,0:0:0:0:
273,176,176576,1,8,0:0:0:0:
273,176,176816,2,0,L|291:82,1,92.0000017547608,2|8,0:0|0:0,0:0:0:0:
293,5,177296,6,0,P|253:50|141:26,1,160,6|2,1:2|3:2,0:0:0:0:
87,23,178016,1,0,1:2:0:0:
87,23,178256,1,10,3:2:0:0:
2,158,178736,2,0,P|25:185|83:171,1,80,2|2,3:2|1:2,0:0:0:0:
142,210,179216,2,0,B|115:188|115:188|154:65,1,160,2|2,3:2|3:2,0:0:0:0:
218,23,179936,1,2,1:2:0:0:
218,23,180176,2,0,P|275:15|282:101,1,160,10|2,3:2|0:1,0:0:0:0:
226,152,180896,1,0,3:0:0:0:
226,152,181136,5,6,1:0:0:0:
379,198,181616,2,0,L|465:177,1,80,2|2,3:2|1:2,0:0:0:0:
505,242,182096,2,0,B|493:282|493:282|375:311,1,160,10|2,3:2|3:2,0:0:0:0:
320,366,182816,1,0,1:0:0:0:
320,366,183056,2,0,B|247:334|247:334|313:263,1,160,2|2,3:2|3:2,0:0:0:0:
355,216,183776,1,2,1:2:0:0:
355,216,184016,2,0,L|334:131,1,80,10|0,3:2|0:0,0:0:0:0:
340,58,184496,2,0,B|244:52|297:123|186:110,1,160,2|4,0:1|1:0,0:0:0:0:
