osu file format v14

[General]
AudioFilename: audio.mp3
AudioLeadIn: 0
PreviewTime: 60836
Countdown: 0
SampleSet: Soft
StackLeniency: 0.7
Mode: 0
LetterboxInBreaks: 0
WidescreenStoryboard: 1

[Editor]
Bookmarks: 23696,54416,85136,92816,100496,112016,115856,131216,146576,161936,169616,184976
DistanceSpacing: 1.3
BeatDivisor: 4
GridSize: 16
TimelineZoom: 1.7

[Metadata]
Title:Atonement Twins
TitleUnicode:Atonement Twins
Artist:La priere
ArtistUnicode:La prière
Creator:iBell
Version:Hard
Source:
Tags:mg j-rock jpop j-pop female vocal vocals vocalist c97 comiket 97 metal なゆた bellicose mappers' guild mpg featured artist fa Feryquitous 棗いつき natsume itsuki 藍月なくる aitsuki nakuru nayuta japanese rock jrock Gemini Syndrome mbc 2023 November monthly beatmap contest
BeatmapID:4539035
BeatmapSetID:2135397

[Difficulty]
HPDrainRate:5
CircleSize:3.8
OverallDifficulty:6.5
ApproachRate:8
SliderMultiplier:1.4
SliderTickRate:1

[Events]
//Background and Video events
0,0,"bg.jpg",0,0
//Break Periods
2,85335,92066
2,112016,114626
//Storyboard Layer 0 (Background)
//Storyboard Layer 1 (Fail)
//Storyboard Layer 2 (Pass)
//Storyboard Layer 3 (Foreground)
//Storyboard Layer 4 (Overlay)
//Storyboard Sound Samples

[TimingPoints]
656,240,4,2,1,50,1,0
1736,-100,4,2,1,50,0,0
2036,-100,4,2,1,5,0,0
2096,-100,4,2,1,50,0,0
5576,-100,4,2,1,50,0,0
5876,-100,4,2,1,5,0,0
5936,-100,4,2,1,50,0,0
7856,-100,4,2,1,50,0,0
8336,-100,4,2,1,60,0,0
8576,-100,4,2,1,60,0,0
9296,-100,4,2,1,60,0,0
10016,-100,4,2,1,60,0,0
13136,-100,4,2,1,60,0,0
14096,-100,4,2,1,60,0,0
16976,-100,4,2,1,60,0,0
17936,-100,4,2,1,60,0,0
20816,-100,4,2,1,60,0,0
21536,-100,4,2,1,60,0,0
23696,-100,4,2,1,45,0,0
24416,-100,4,2,1,45,0,0
24776,-100,4,2,1,45,0,0
25016,-100,4,2,2,45,0,0
25256,-100,4,2,1,45,0,0
25616,-100,4,2,1,45,0,0
26216,-100,4,2,2,45,0,0
26576,-100,4,2,1,45,0,0
26936,-100,4,2,1,45,0,0
27536,-100,4,2,1,45,0,0
28496,-100,4,2,1,45,0,0
28976,-100,4,2,2,45,0,0
29096,-100,4,2,1,45,0,0
29456,-100,4,2,1,45,0,0
29816,-100,4,2,1,45,0,0
30176,-100,4,2,1,45,0,0
31376,-100,4,2,1,55,0,0
32276,-100,4,2,1,5,0,0
32336,-100,4,2,1,55,0,0
33236,-100,4,2,1,5,0,0
33296,-100,4,2,1,55,0,0
37076,-100,4,2,1,5,0,0
37136,-100,4,2,1,55,0,0
38096,-100,4,2,1,55,0,0
38336,-100,4,2,1,55,0,0
38816,-100,4,2,1,55,0,0
39056,-133.333333333333,4,2,2,60,0,0
41216,-133.333333333333,4,2,1,60,0,0
41936,-133.333333333333,4,2,2,60,0,0
44816,-133.333333333333,4,2,2,60,0,0
45056,-133.333333333333,4,2,1,60,0,0
45776,-133.333333333333,4,2,2,60,0,0
48656,-133.333333333333,4,2,2,60,0,0
48896,-133.333333333333,4,2,1,60,0,0
49136,-133.333333333333,4,2,2,60,0,0
52496,-133.333333333333,4,2,2,60,0,0
52736,-133.333333333333,4,2,1,60,0,0
52976,-133.333333333333,4,2,2,60,0,0
53696,-133.333333333333,4,2,1,45,0,0
54416,-133.333333333333,4,2,2,45,0,0
54776,-133.333333333333,4,2,1,45,0,0
56336,-133.333333333333,4,2,2,45,0,0
56696,-133.333333333333,4,2,1,45,0,0
58256,-133.333333333333,4,2,2,45,0,0
58616,-133.333333333333,4,2,1,45,0,0
60416,-133.333333333333,4,2,1,30,0,0
60656,-133.333333333333,4,2,1,35,0,0
60896,-133.333333333333,4,2,1,40,0,0
61136,-133.333333333333,4,2,1,45,0,0
61376,-133.333333333333,4,2,1,50,0,0
61616,-133.333333333333,4,2,1,55,0,0
61856,-133.333333333333,4,2,1,60,0,0
62036,-100,4,2,1,5,0,0
62096,-100,4,2,1,65,0,0
62576,-100,4,2,3,65,0,0
62816,-100,4,2,1,65,0,0
63536,-100,4,2,1,65,0,0
63896,-100,4,2,1,65,0,0
64496,-100,4,2,1,65,0,0
64736,-100,4,2,1,65,0,0
66416,-100,4,2,3,65,0,0
66656,-100,4,2,1,65,0,0
67376,-100,4,2,1,65,0,0
67736,-100,4,2,1,65,0,0
69776,-90.9090909090909,4,2,1,70,0,1
77456,-133.333333333333,4,2,1,60,0,0
77936,-133.333333333333,4,2,2,60,0,0
78176,-133.333333333333,4,2,1,60,0,0
78896,-133.333333333333,4,2,2,60,0,0
79136,-133.333333333333,4,2,1,60,0,0
79376,-133.333333333333,4,2,2,60,0,0
79616,-133.333333333333,4,2,1,60,0,0
79856,-133.333333333333,4,2,2,60,0,0
80096,-133.333333333333,4,2,1,60,0,0
80336,-133.333333333333,4,2,2,60,0,0
80816,-133.333333333333,4,2,2,60,0,0
81056,-133.333333333333,4,2,1,60,0,0
81776,-133.333333333333,4,2,2,60,0,0
82016,-133.333333333333,4,2,1,60,0,0
82256,-133.333333333333,4,2,2,60,0,0
82736,-133.333333333333,4,2,2,60,0,0
82976,-133.333333333333,4,2,1,60,0,0
83216,-133.333333333333,4,2,2,60,0,0
83456,-133.333333333333,4,2,1,60,0,0
83696,-133.333333333333,4,2,2,60,0,0
83936,-133.333333333333,4,2,1,60,0,0
84176,-133.333333333333,4,2,2,60,0,0
84656,-133.333333333333,4,2,2,60,0,0
84896,-133.333333333333,4,2,1,60,0,0
92816,-111.111111111111,4,2,1,45,0,0
93536,-111.111111111111,4,2,1,35,0,0
94256,-111.111111111111,4,2,1,45,0,0
94736,-111.111111111111,4,2,1,45,0,0
96176,-111.111111111111,4,2,1,45,0,0
96656,-111.111111111111,4,2,1,45,0,0
100016,-111.111111111111,4,2,1,50,0,0
100496,-133.333333333333,4,2,1,55,0,0
100976,-133.333333333333,4,2,2,55,0,0
101216,-133.333333333333,4,2,2,55,0,0
101936,-133.333333333333,4,2,2,60,0,0
102176,-133.333333333333,4,2,2,60,0,0
103976,-133.333333333333,4,2,1,60,0,0
104336,-133.333333333333,4,2,2,60,0,0
105776,-133.333333333333,4,2,2,60,0,0
106016,-133.333333333333,4,2,2,60,0,0
107816,-133.333333333333,4,2,1,60,0,0
108176,-133.333333333333,4,2,2,60,0,0
109616,-133.333333333333,4,2,2,60,0,0
109856,-133.333333333333,4,2,2,60,0,0
111656,-133.333333333333,4,2,1,60,0,0
112016,-133.333333333333,4,2,2,60,0,0
113456,-133.333333333333,4,2,2,60,0,0
113696,-133.333333333333,4,2,2,60,0,0
115496,-133.333333333333,4,2,1,60,0,0
115856,-133.333333333333,4,2,1,45,0,0
122036,-133.333333333333,4,2,1,5,0,0
122096,-133.333333333333,4,2,1,45,0,0
123056,-133.333333333333,4,2,1,45,0,0
123536,-133.333333333333,4,2,1,45,0,0
124016,-133.333333333333,4,2,1,45,0,0
126176,-133.333333333333,4,2,1,45,0,0
126656,-133.333333333333,4,2,1,45,0,0
129536,-133.333333333333,4,2,1,30,0,0
129776,-133.333333333333,4,2,1,35,0,0
130016,-133.333333333333,4,2,1,40,0,0
130256,-133.333333333333,4,2,1,45,0,0
130496,-133.333333333333,4,2,1,50,0,0
130736,-133.333333333333,4,2,1,55,0,0
131216,-100,4,2,1,60,0,0
131696,-100,4,2,2,60,0,0
131816,-100,4,2,1,60,0,0
132176,-100,4,2,2,60,0,0
132356,-100,4,2,1,5,0,0
132416,-100,4,2,1,60,0,0
132596,-100,4,2,1,5,0,0
132656,-100,4,2,2,60,0,0
132896,-100,4,2,1,60,0,0
133136,-100,4,2,2,60,0,0
133376,-100,4,2,1,60,0,0
133616,-100,4,2,2,60,0,0
133736,-100,4,2,1,60,0,0
134096,-100,4,2,2,60,0,0
134216,-100,4,2,1,60,0,0
134576,-100,4,2,2,60,0,0
134756,-100,4,2,1,5,0,0
134816,-100,4,2,1,60,0,0
135296,-100,4,2,1,60,0,0
135536,-100,4,2,2,60,0,0
135776,-100,4,2,2,60,0,0
138896,-133.333333333333,4,2,2,60,0,0
142496,-133.333333333333,4,2,1,60,0,0
142736,-133.333333333333,4,2,2,60,0,0
145856,-133.333333333333,4,2,1,45,0,0
146576,-133.333333333333,4,2,2,45,0,0
146936,-133.333333333333,4,2,1,45,0,0
148496,-133.333333333333,4,2,2,45,0,0
148856,-133.333333333333,4,2,1,45,0,0
150416,-133.333333333333,4,2,2,45,0,0
150776,-133.333333333333,4,2,1,45,0,0
152336,-133.333333333333,4,2,2,45,0,0
152696,-133.333333333333,4,2,1,45,0,0
154256,-133.333333333333,4,2,2,45,0,0
154616,-133.333333333333,4,2,1,45,0,0
156176,-133.333333333333,4,2,2,45,0,0
156536,-133.333333333333,4,2,1,45,0,0
158096,-133.333333333333,4,2,2,45,0,0
158456,-133.333333333333,4,2,1,45,0,0
160256,-133.333333333333,4,2,1,30,0,0
160496,-133.333333333333,4,2,1,35,0,0
160736,-133.333333333333,4,2,1,40,0,0
160976,-133.333333333333,4,2,1,45,0,0
161216,-133.333333333333,4,2,1,50,0,0
161456,-133.333333333333,4,2,1,55,0,0
161696,-133.333333333333,4,2,1,60,0,0
161876,-133.333333333333,4,2,1,5,0,0
161936,-100,4,2,1,65,0,0
162416,-100,4,2,3,65,0,0
162656,-100,4,2,1,65,0,0
163376,-100,4,2,1,65,0,0
163736,-100,4,2,1,65,0,0
164336,-100,4,2,1,65,0,0
164576,-100,4,2,1,65,0,0
166256,-100,4,2,3,65,0,0
166496,-100,4,2,1,65,0,0
167216,-100,4,2,1,65,0,0
167576,-100,4,2,1,65,0,0
169616,-90.9090909090909,4,2,1,70,0,1
176336,-100,4,2,1,70,0,1
176576,-100,4,2,1,70,0,1
177296,-133.333333333333,4,2,2,60,0,0
177476,-133.333333333333,4,2,1,5,0,0
177536,-133.333333333333,4,2,2,60,0,0
177716,-133.333333333333,4,2,1,5,0,0
177776,-133.333333333333,4,2,2,60,0,0
177956,-133.333333333333,4,2,1,5,0,0
178016,-133.333333333333,4,2,2,60,0,0
178436,-133.333333333333,4,2,1,5,0,0
178496,-133.333333333333,4,2,2,60,0,0
178676,-133.333333333333,4,2,1,5,0,0
178736,-133.333333333333,4,2,2,60,0,0
179396,-133.333333333333,4,2,1,5,0,0
179456,-133.333333333333,4,2,2,60,0,0
179636,-133.333333333333,4,2,1,5,0,0
179696,-133.333333333333,4,2,2,60,0,0
179876,-133.333333333333,4,2,1,5,0,0
179936,-133.333333333333,4,2,2,60,0,0
180896,-133.333333333333,4,2,1,60,0,0
181136,-133.333333333333,4,2,1,60,0,0
181316,-133.333333333333,4,2,1,5,0,0
181376,-133.333333333333,4,2,2,60,0,0
181556,-133.333333333333,4,2,1,5,0,0
181616,-133.333333333333,4,2,2,60,0,0
181796,-133.333333333333,4,2,1,5,0,0
181856,-133.333333333333,4,2,2,60,0,0
182276,-133.333333333333,4,2,1,5,0,0
182336,-133.333333333333,4,2,2,60,0,0
182516,-133.333333333333,4,2,1,5,0,0
182576,-133.333333333333,4,2,2,60,0,0
183236,-133.333333333333,4,2,1,5,0,0
183296,-133.333333333333,4,2,2,60,0,0
183476,-133.333333333333,4,2,1,5,0,0
183536,-133.333333333333,4,2,2,60,0,0
183716,-133.333333333333,4,2,1,5,0,0
183776,-133.333333333333,4,2,2,60,0,0
184736,-133.333333333333,4,2,1,60,0,0

[Colours]
Combo1 : 255,100,123
Combo2 : 67,222,250
Combo3 : 129,95,248
Combo4 : 254,126,232

[HitObjects]
92,74,656,5,0,1:0:0:0:
109,90,776,2,0,L|194:64,1,70,8|0,0:0|0:0,0:0:0:0:
248,14,1016,2,0,B|328:74|328:74|236:143,1,210,8|0,0:0|0:0,0:0:0:0:
196,316,1616,2,0,B|169:293|169:293|181:260,1,70,2|0,0:0|3:0,0:0:0:0:
264,230,1856,2,0,L|340:251,1,70,2|0,0:0|0:0,0:0:0:0:
355,337,2096,2,0,B|393:362|393:362|506:306,1,140,4|0,0:3|0:0,0:0:0:0:
510,140,2576,5,0,1:0:0:0:
503,119,2696,2,0,L|474:37,1,70,8|0,0:0|0:0,0:0:0:0:
401,6,2936,2,0,B|304:34|304:34|383:115,1,210,8|0,0:0|0:0,0:0:0:0:
512,245,3536,2,0,P|480:188|406:210,1,140,10|0,0:0|0:0,0:0:0:0:
342,241,3896,1,8,0:0:0:0:
342,241,4016,2,0,B|324:271|324:271|191:304|191:304|162:348,1,210,10|8,0:0|0:0,0:0:0:0:
65,384,4496,5,0,1:0:0:0:
84,369,4616,2,0,L|53:293,1,70,8|0,0:0|0:0,0:0:0:0:
23,219,4856,2,0,B|135:157|135:157|122:244,1,210,8|0,0:0|0:0,0:0:0:0:
268,129,5456,2,0,B|298:110|298:110|287:61,1,70,2|0,0:0|3:0,0:0:0:0:
203,68,5696,2,0,L|123:37,1,70,2|0,0:0|0:0,0:0:0:0:
55,2,5936,2,0,B|2:64|2:64|43:105,1,140,4|0,0:3|0:0,0:0:0:0:
6,283,6416,5,0,1:0:0:0:
12,256,6536,2,0,L|82:234,1,70,8|0,0:0|0:0,0:0:0:0:
124,155,6776,2,0,B|147:137|147:137|134:63|188:0|247:5,1,210,8|0,0:0|0:0,0:0:0:0:
412,55,7376,2,0,P|366:79|260:84,1,140,6|0,0:3|0:0,0:0:0:0:
191,97,7736,1,8,0:0:0:0:
191,97,7856,2,0,P|282:120|357:296,1,280,6|4,0:3|1:2,0:0:0:0:
205,373,8576,6,0,P|196:306|262:258,1,140,10|0,0:0|1:0,0:0:0:0:
286,179,8936,2,0,B|306:192|306:192|364:169,1,70,2|8,1:2|0:0,0:0:0:0:
348,174,9296,2,0,B|362:69|362:69|413:36,1,140,2|8,1:2|0:0,0:0:0:0:
457,113,9656,2,0,B|475:190|475:190|495:206|495:206|509:261,1,140,2|0,1:2|1:0,0:0:0:0:
495,330,10016,2,0,L|425:375,1,70,8|0,0:0|0:0,0:0:0:0:
345,363,10256,6,0,B|320:341|320:341|331:290,1,70,0|0,1:0|0:0,0:0:0:0:
413,277,10496,2,0,L|256:232,1,140,8|0,0:0|1:0,0:0:0:0:
313,154,10856,1,0,1:0:0:0:
313,154,10976,2,0,L|286:72,1,70,8|0,0:0|0:0,0:0:0:0:
327,4,11216,2,0,P|262:56|202:50,1,140,2|10,1:2|0:0,0:0:0:0:
205,147,11576,1,0,1:0:0:0:
205,147,11696,2,0,P|189:193|152:202,1,70,2|0,0:0|1:0,0:0:0:0:
113,131,11936,2,0,P|42:133|65:199,1,140,10|4,0:0|1:0,0:0:0:0:
152,383,12416,6,0,B|154:305|101:342|103:250,1,140,10|0,0:0|1:0,0:0:0:0:
45,186,12776,2,0,L|66:118,1,70,2|8,1:2|0:0,0:0:0:0:
65,119,13136,2,0,B|13:69|13:69|54:8,1,140,2|8,1:2|0:0,0:0:0:0:
141,0,13496,2,0,L|280:36,1,140,2|0,1:2|1:0,0:0:0:0:
344,106,13856,2,0,L|267:131,1,70,8|0,0:0|0:0,0:0:0:0:
158,154,14096,6,0,B|184:134|184:134|174:98,1,70,0|0,1:0|0:0,0:0:0:0:
274,141,14336,2,0,L|314:300,1,140,8|0,0:0|1:0,0:0:0:0:
281,366,14696,1,0,1:0:0:0:
281,366,14816,2,0,L|197:335,1,70,8|0,0:0|0:0,0:0:0:0:
126,366,15056,2,0,P|93:317|167:287,1,140,2|10,1:2|0:2,0:0:0:0:
200,203,15416,1,2,1:2:0:0:
200,203,15536,2,0,P|173:175|179:128,1,70,2|2,0:2|1:2,0:0:0:0:
129,63,15776,2,0,P|156:90|262:113,1,140,10|4,0:2|1:2,0:0:0:0:
397,5,16256,6,0,B|370:36|370:36|413:131,1,140,10|0,0:0|1:0,0:0:0:0:
502,169,16616,2,0,B|498:204|498:204|462:214,1,70,2|8,1:2|0:0,0:0:0:0:
464,213,16976,2,0,P|425:262|433:346,1,140,2|8,1:2|0:0,0:0:0:0:
348,382,17336,2,0,B|280:361|280:361|326:301,1,140,2|0,1:2|1:0,0:0:0:0:
343,217,17696,2,0,L|320:147,1,70,8|0,0:0|0:0,0:0:0:0:
257,248,17936,6,0,L|173:221,1,70,0|0,1:0|0:0,0:0:0:0:
129,158,18176,2,0,B|113:193|113:193|12:222,1,140,8|0,0:0|1:0,0:0:0:0:
44,121,18536,1,0,1:0:0:0:
44,121,18656,2,0,P|29:92|51:43,1,70,8|0,0:0|0:0,0:0:0:0:
109,1,18896,2,0,L|251:40,1,140,2|10,1:2|0:0,0:0:0:0:
331,6,19256,1,0,1:0:0:0:
331,6,19376,2,0,L|353:89,1,70,2|0,0:0|1:0,0:0:0:0:
393,180,19616,2,0,B|289:153|289:153|270:117,1,140,10|4,0:0|1:0,0:0:0:0:
122,247,20096,6,0,P|99:302|162:351,1,140,10|0,0:0|1:0,0:0:0:0:
236,384,20456,2,0,P|243:343|270:317,1,70,2|8,1:2|0:0,0:0:0:0:
261,322,20816,2,0,P|240:282|325:274,1,140,2|8,1:2|0:0,0:0:0:0:
351,332,21176,2,0,L|499:282,1,140,2|0,1:2|1:0,0:0:0:0:
502,197,21536,2,0,L|425:171,1,70,8|0,0:0|0:0,0:0:0:0:
470,87,21776,6,0,L|448:9,1,70,0|0,1:0|0:0,0:0:0:0:
320,5,22016,2,0,P|365:59|359:125,1,140,8|0,0:0|1:0,0:0:0:0:
435,174,22376,1,0,1:0:0:0:
435,174,22496,2,0,P|407:209|372:214,1,70,8|0,0:0|0:0,0:0:0:0:
369,305,22736,2,0,P|312:285|299:204,1,140,2|10,1:2|0:2,0:0:0:0:
267,130,23096,1,2,1:2:0:0:
267,130,23216,2,0,L|191:102,1,70,2|2,0:2|1:2,0:0:0:0:
205,210,23456,2,0,L|135:239,1,70,10|2,0:2|0:2,0:0:0:0:
58,196,23696,5,6,1:3:0:0:
259,379,24056,1,6,1:3:0:0:
259,379,24416,2,0,B|270:343|270:343|231:312,1,70,2|0,0:0|0:0,0:0:0:0:
146,331,24656,2,0,P|49:284|59:194,1,210,2|2,3:2|0:3,0:0:0:0:
140,236,25136,2,0,L|172:152,2,70,10|2|2,0:0|0:0|0:0,0:0:0:0:
22,89,25616,5,2,1:2:0:0:
39,110,25736,2,0,L|128:87,1,70,8|0,0:0|0:0,0:0:0:0:
162,164,25976,2,0,B|140:128|140:128|183:18,1,140,10|2,0:0|0:3,0:0:0:0:
262,6,26336,2,0,P|301:28|300:68,1,70,2|0,0:0|0:0,0:0:0:0:
255,126,26576,2,0,P|253:196|312:247,1,140,2|10,1:2|0:3,0:0:0:0:
367,311,26936,1,8,0:0:0:0:
367,311,27056,2,0,P|329:370|288:319,1,140,2|2,1:2|0:0,0:0:0:0:
478,335,27536,5,6,1:3:0:0:
214,278,27896,1,6,1:3:0:0:
214,278,28256,2,0,L|182:204,1,70,2|0,0:0|0:0,0:0:0:0:
261,163,28496,2,0,L|286:86,1,70,2|0,3:2|3:0,0:0:0:0:
244,5,28736,2,0,P|296:51|366:50,1,140,2|10,3:2|0:0,0:0:0:0:
439,0,29096,1,2,0:0:0:0:
439,0,29216,2,0,P|464:25|456:61,1,70,2|0,0:0|0:0,0:0:0:0:
512,184,29456,5,2,1:2:0:0:
502,158,29576,2,0,L|412:136,1,70,8|0,0:0|0:0,0:0:0:0:
370,57,29816,2,0,B|381:88|381:88|374:112|374:112|419:266,1,210,10|0,0:0|0:0,0:0:0:0:
281,379,30416,2,0,B|342:340|342:340|296:279,1,140,2|4,1:2|0:3,0:0:0:0:
231,228,30776,1,0,0:0:0:0:
231,228,30896,2,0,P|295:239|346:186,1,140,10|0,0:0|0:0,0:0:0:0:
211,317,31376,6,0,L|138:299,1,70,6|0,1:2|0:0,0:0:0:0:
74,361,31616,2,0,B|59:352|59:352|37:254|37:254|14:240,1,140,8|0,0:0|1:0,0:0:0:0:
25,153,31976,1,0,1:0:0:0:
25,153,32096,2,0,L|99:132,1,70,10|0,0:0|0:0,0:0:0:0:
128,208,32336,2,0,L|163:52,1,140,2|10,1:2|0:0,0:0:0:0:
229,14,32696,1,2,1:2:0:0:
229,14,32816,2,0,P|253:41|245:78,1,70,2|2,0:0|1:2,0:0:0:0:
332,115,33056,2,0,P|313:149|277:158,1,70,10|0,0:0|0:0,0:0:0:0:
222,228,33296,6,0,L|244:306,1,70,2|0,1:2|0:0,0:0:0:0:
277,164,33536,2,0,L|414:213,1,140,10|2,0:0|1:2,0:0:0:0:
488,161,33896,1,2,1:2:0:0:
488,161,34016,2,0,L|512:87,1,70,10|0,0:2|0:0,0:0:0:0:
512,257,34256,2,0,P|460:246|401:369,1,210,6|0,1:0|0:0,0:0:0:0:
298,382,34736,2,0,B|285:297|230:350|212:227|268:188,1,210,10|0,0:0|0:0,0:0:0:0:
355,180,35216,6,0,P|383:151|373:108,1,70,6|0,1:2|0:0,0:0:0:0:
435,56,35456,2,0,L|270:101,1,140,8|0,0:0|1:0,0:0:0:0:
252,21,35816,1,0,1:0:0:0:
252,21,35936,2,0,L|173:-2,1,70,10|0,0:0|0:0,0:0:0:0:
79,14,36176,2,0,B|121:57|114:123|114:123|142:137,1,140,2|10,1:2|0:2,0:0:0:0:
158,225,36536,1,0,0:0:0:0:
158,225,36656,2,0,P|114:255|78:242,1,70,2|2,1:2|1:2,0:0:0:0:
24,202,36896,2,0,P|16:170|34:136,1,70,10|0,0:0|0:0,0:0:0:0:
136,121,37136,6,0,B|187:113|187:113|207:149|207:149|262:168,1,140,2|8,1:2|0:0,0:0:0:0:
226,384,37616,2,0,P|269:257|335:248,1,210,2|0,1:2|0:0,0:0:0:0:
259,169,38096,2,0,P|215:119|256:49,1,140,2|8,1:2|0:0,0:0:0:0:
322,16,38456,1,0,1:0:0:0:
322,16,38576,2,0,P|364:42|370:73,1,70,2|0,0:0|1:0,0:0:0:0:
350,149,38816,2,0,L|433:171,1,70,8|0,0:0|0:0,0:0:0:0:
512,104,39056,6,0,B|473:120|473:120|428:347|428:347|379:373,1,315.000012016297,6|0,1:2|1:0,0:0:0:0:
312,372,39896,1,0,1:0:0:0:
312,372,40016,2,0,B|220:330|220:330|340:287,1,210.000008010865,8|0,3:2|0:0,0:0:0:0:
453,255,40736,2,0,P|457:197|417:163,1,105.000004005432,0|0,1:0|3:0,0:0:0:0:
453,29,41216,2,0,P|447:76|298:139,1,210.000008010865,2|0,1:2|1:0,0:0:0:0:
241,183,41816,1,0,1:0:0:0:
241,183,41936,2,0,B|265:88|298:155|310:32,1,157.500006008148,10|0,3:2|0:0,0:0:0:0:
233,8,42416,2,0,P|159:38|182:93,1,157.500006008148,2|0,3:2|0:0,0:0:0:0:
126,155,42896,6,0,B|141:131|141:131|236:115|343:171|356:283,1,315.000012016297,4|0,1:0|1:0,0:0:0:0:
435,240,43736,1,0,1:0:0:0:
435,240,43856,2,0,P|445:279|323:363,1,210.000008010865,8|0,3:2|3:0,0:0:0:0:
183,341,44576,2,0,P|212:305|277:303,1,105.000004005432,0|0,1:0|3:0,0:0:0:0:
350,189,45056,2,0,B|336:183|320:181|320:181|290:125|297:43|297:43|282:22|255:12,1,210.000008010865,2|0,1:2|1:0,0:0:0:0:
186,2,45656,1,0,1:0:0:0:
186,2,45776,2,0,P|142:38|149:86,1,105.000004005432,10|0,3:2|0:0,0:0:0:0:
79,135,46136,2,0,P|39:127|29:111,1,52.5000020027161,2|0,0:0|3:0,0:0:0:0:
234,116,46496,5,2,0:0:0:0:
234,116,46616,1,2,0:0:0:0:
234,116,46736,2,0,B|128:97|71:202|71:202|145:189|176:261,1,315.000012016297,6|0,1:0|1:0,0:0:0:0:
96,285,47576,1,0,1:0:0:0:
96,285,47696,2,0,B|115:319|115:319|245:351|245:351|262:385,1,210.000008010865,8|0,3:2|3:0,0:0:0:0:
174,248,48416,2,0,B|182:214|182:214|207:195|207:195|222:141,1,105.000004005432,0|0,1:0|3:0,0:0:0:0:
110,71,48896,2,0,L|6:107,2,105.000004005432,2|0|0,0:0|3:0|1:0,0:0:0:0:
171,16,49496,1,0,1:0:0:0:
171,16,49616,2,0,P|134:69|230:158,1,210.000008010865,10|2,3:2|0:1,0:0:0:0:
320,318,50336,2,0,L|269:308,1,52.5000020027161,0|0,3:0|3:0,0:0:0:0:
217,376,50576,6,0,L|291:55,1,315.000012016297,4|0,1:0|1:0,0:0:0:0:
349,0,51416,1,0,1:0:0:0:
349,0,51536,2,0,B|451:36|451:36|363:114,1,210.000008010865,8|0,3:2|3:0,0:0:0:0:
275,198,52256,2,0,B|337:201|306:237|372:241,1,105.000004005432,0|0,1:0|3:0,0:0:0:0:
503,286,52736,2,0,L|459:404,2,105.000004005432,2|0|0,0:0|3:0|1:0,0:0:0:0:
480,208,53336,1,0,1:0:0:0:
480,208,53456,1,8,3:2:0:0:
361,139,53696,2,0,L|405:257,2,105.000004005432,2|2|2,0:0|0:0|0:0,0:0:0:0:
384,61,54296,1,0,3:0:0:0:
384,61,54416,1,6,3:1:0:0:
186,6,54776,6,0,B|117:43|117:43|166:115,1,157.500006008148,0|0,3:0|3:0,0:0:0:0:
238,73,55256,1,0,3:0:0:0:
238,73,55376,2,0,L|309:53,1,52.5000020027161,0|0,3:0|3:0,0:0:0:0:
337,127,55616,2,0,L|305:181,1,52.5000020027161,0|0,3:0|3:0,0:0:0:0:
223,167,55856,2,0,L|255:273,1,105.000004005432,0|0,3:0|3:0,0:0:0:0:
256,273,56216,1,8,0:1:0:0:
258,279,56336,1,2,1:0:0:0:
71,378,56696,6,0,P|25:348|29:251,1,157.500006008148,0|0,3:0|3:0,0:0:0:0:
99,301,57176,1,0,3:0:0:0:
99,301,57296,2,0,L|171:273,1,52.5000020027161,0|0,3:0|3:0,0:0:0:0:
101,211,57536,2,0,L|118:149,1,52.5000020027161,0|0,3:0|3:0,0:0:0:0:
135,79,57776,2,0,B|86:64|86:64|52:105,1,105.000004005432,0|0,3:0|3:0,0:0:0:0:
49,112,58136,1,8,0:1:0:0:
46,118,58256,1,2,1:0:0:0:
215,3,58616,6,0,B|328:33|328:33|350:84,1,157.500006008148,0|0,3:0|3:0,0:0:0:0:
419,114,59096,1,0,3:0:0:0:
419,114,59216,2,0,L|389:180,1,52.5000020027161,0|0,3:0|3:0,0:0:0:0:
315,150,59456,2,0,L|257:173,1,52.5000020027161,0|0,3:0|3:0,0:0:0:0:
341,232,59696,2,0,L|454:269,1,105.000004005432,0|0,3:0|1:0,0:0:0:0:
512,226,60056,1,0,1:0:0:0:
318,145,60416,2,0,L|218:113,1,105.000004005432,0|0,1:0|1:0,0:0:0:0:
117,20,60896,5,2,1:2:0:0:
8,97,61136,1,2,1:2:0:0:
42,226,61376,1,2,1:2:0:0:
175,236,61616,1,10,1:3:0:0:
224,111,61856,1,2,0:0:0:0:
118,12,62096,5,2,1:2:0:0:
147,0,62216,2,0,B|247:29|247:29|307:0,1,140,8|8,0:0|0:0,0:0:0:0:
286,195,62816,1,2,0:0:0:0:
286,195,62936,1,2,0:0:0:0:
286,195,63056,2,0,P|261:218|263:256,1,70,2|2,0:0|0:0,0:0:0:0:
330,308,63296,2,0,P|382:291|393:275,1,70,2|0,0:0|0:0,0:0:0:0:
414,379,63536,2,0,B|395:354|395:354|442:181,1,210,6|0,0:3|0:0,0:0:0:0:
507,117,64016,5,2,1:2:0:0:
483,106,64136,2,0,B|465:69|465:69|500:37|500:37|462:-8,1,140,8|8,0:0|0:0,0:0:0:0:
377,10,64496,2,0,P|339:80|218:98,1,210,2|0,0:0|0:0,0:0:0:0:
262,9,64976,2,0,P|342:152|323:205,1,210,10|8,0:0|0:0,0:0:0:0:
411,231,65456,2,0,P|447:218|461:192,1,70,10|0,0:0|0:0,0:0:0:0:
335,274,65696,2,0,P|331:300|380:337,1,70,2|8,0:0|0:0,0:0:0:0:
257,229,65936,5,2,1:2:0:0:
238,250,66056,2,0,B|161:298|249:323|169:371,1,140,8|8,0:0|0:0,0:0:0:0:
142,156,66656,1,2,0:0:0:0:
9,248,66896,1,2,0:0:0:0:
9,248,67016,1,2,0:0:0:0:
9,248,67136,2,0,L|36:181,1,70,2|0,0:0|0:0,0:0:0:0:
99,294,67376,2,0,B|44:146|44:146|77:90,1,210,6|0,0:3|0:0,0:0:0:0:
12,30,67856,5,2,1:2:0:0:
31,12,67976,2,0,B|44:43|44:43|175:77,1,140,8|10,0:0|0:0,0:0:0:0:
208,0,68336,2,0,P|183:55|250:88,1,140,2|2,0:0|0:0,0:0:0:0:
203,271,68816,2,0,P|269:233|263:157,1,140,6|0,0:3|0:0,0:0:0:0:
246,99,69176,1,8,0:0:0:0:
246,99,69296,2,0,L|271:29,1,70,6|0,0:3|0:0,0:0:0:0:
186,163,69536,2,0,L|103:192,1,70,2|0,0:0|0:0,0:0:0:0:
270,182,69776,6,0,L|323:242,1,77.0000023498536,6|0,1:2|0:0,0:0:0:0:
275,321,70016,2,0,B|291:341|291:341|393:365|393:365|409:387,1,154.000004699707,8|0,0:0|1:0,0:0:0:0:
493,332,70376,1,0,1:0:0:0:
493,332,70496,2,0,B|520:302|520:302|499:254,1,77.0000023498536,8|2,0:0|0:0,0:0:0:0:
412,284,70736,2,0,L|377:117,1,154.000004699707,0|10,1:0|0:0,0:0:0:0:
476,96,71096,1,2,1:2:0:0:
476,96,71216,2,0,L|508:16,1,77.0000023498536,2|0,0:0|1:0,0:0:0:0:
398,26,71456,2,0,P|366:47|306:27,1,77.0000023498536,8|0,0:0|0:0,0:0:0:0:
380,133,71696,6,0,P|414:173|407:213,1,77.0000023498536,2|0,1:2|0:0,0:0:0:0:
313,194,71936,2,0,L|155:151,1,154.000004699707,8|2,0:2|1:2,0:0:0:0:
213,74,72296,1,0,1:0:0:0:
213,74,72416,2,0,L|189:-1,1,77.0000023498536,10|0,0:0|0:0,0:0:0:0:
115,79,72656,2,0,B|39:99|39:99|92:184,1,154.000004699707,2|8,1:2|0:0,0:0:0:0:
161,345,73136,2,0,L|79:382,1,77.0000023498536,2|0,0:0|1:0,0:0:0:0:
89,275,73376,2,0,L|17:246,1,77.0000023498536,10|0,0:0|0:0,0:0:0:0:
177,248,73616,6,0,L|219:167,1,77.0000023498536,6|0,1:0|0:0,0:0:0:0:
104,183,73856,2,0,B|109:99|42:141|58:34,1,154.000004699707,8|0,0:0|1:0,0:0:0:0:
152,11,74216,1,0,1:0:0:0:
152,11,74336,2,0,P|157:60|190:77,1,77.0000023498536,10|2,0:0|0:0,0:0:0:0:
215,167,74576,2,0,P|253:146|263:109,1,77.0000023498536,2|0,1:2|0:0,0:0:0:0:
246,16,74816,2,0,L|397:64,1,154.000004699707,10|2,0:0|0:0,0:0:0:0:
481,14,75176,1,0,1:0:0:0:
481,14,75296,2,0,L|510:107,1,77.0000023498536,10|0,0:0|0:0,0:0:0:0:
508,188,75536,6,0,B|436:245|436:245|374:203,1,154.000004699707,2|8,1:2|0:0,0:0:0:0:
281,382,76016,2,0,P|255:347|268:303,1,77.0000023498536,2|0,1:2|1:0,0:0:0:0:
358,317,76256,2,0,L|443:340,1,77.0000023498536,8|0,0:0|0:0,0:0:0:0:
507,271,76496,2,0,P|477:216|389:211,1,154.000004699707,2|8,1:2|0:0,0:0:0:0:
421,115,76856,1,0,1:0:0:0:
421,115,76976,2,0,P|421:77|383:44,1,77.0000023498536,2|0,0:0|1:0,0:0:0:0:
299,19,77216,2,0,L|320:120,1,77.0000023498536,8|0,0:0|0:0,0:0:0:0:
270,206,77456,6,0,B|252:168|252:168|334:109|334:109|150:59,1,315.000012016297,6|0,1:2|1:0,0:0:0:0:
102,20,78296,1,0,1:0:0:0:
102,20,78416,2,0,P|2:77|132:128,1,315.000012016297,10|0,0:0|1:0,0:0:0:0:
126,234,79256,1,0,1:0:0:0:
126,234,79376,2,0,B|172:221|223:263|223:263|188:209|206:160,1,210.000008010865,0|0,3:0|3:0,0:0:0:0:
248,39,80096,1,0,1:0:0:0:
248,39,80216,1,0,1:0:0:0:
248,39,80336,6,0,P|180:120|146:330,1,315.000012016297,10|0,3:2|3:0,0:0:0:0:
220,363,81176,1,0,3:0:0:0:
220,363,81296,2,0,P|332:343|248:224,1,315.000012016297,6|0,1:0|1:0,0:0:0:0:
178,188,82136,1,0,1:0:0:0:
178,188,82256,2,0,B|225:35|225:35|333:160,1,315.000012016297,10|0,3:2|1:0,0:0:0:0:
389,92,83096,1,0,1:0:0:0:
389,92,83216,6,0,B|428:83|428:83|445:58|445:58|494:46,1,105.000004005432,0|0,3:0|1:0,0:0:0:0:
512,202,83696,2,0,L|479:328,1,105.000004005432,0|0,3:0|1:0,0:0:0:0:
425,371,84056,1,0,1:0:0:0:
425,371,84176,2,0,B|347:354|347:354|405:284,1,157.500006008148,10|0,3:2|0:0,0:0:0:0:
415,212,84656,2,0,P|405:127|305:165,1,210.000008010865,2|4,3:2|1:2,0:0:0:0:
455,216,92816,5,6,1:3:0:0:
359,20,93176,1,6,1:3:0:0:
359,20,94256,2,0,P|311:57|324:124,1,125.999996154785,8|0,0:1|3:0,0:0:0:0:
158,26,94736,5,2,1:2:0:0:
173,47,94856,2,0,L|255:23,1,62.9999980773926,8|0,0:0|0:0,0:0:0:0:
219,123,95096,2,0,B|350:110|271:203|402:185,1,188.999994232178,10|0,0:0|0:0,0:0:0:0:
441,129,95576,1,0,0:0:0:0:
441,129,95696,2,0,B|417:163|417:163|462:259|462:259|435:301,1,188.999994232178,2|8,1:2|0:0,0:0:0:0:
416,372,96176,2,0,P|384:279|296:310,1,188.999994232178,2|2,1:2|0:0,0:0:0:0:
254,351,96656,5,6,1:3:0:0:
292,194,96896,1,2,0:0:0:0:
292,194,97016,2,0,L|311:108,1,62.9999980773926,6|0,1:3|0:0,0:0:0:0:
178,235,97376,2,0,L|121:208,1,62.9999980773926,2|0,0:0|0:0,0:0:0:0:
121,126,97616,2,0,L|-8:162,1,125.999996154785,2|2,3:2|0:0,0:0:0:0:
82,18,98096,2,0,L|210:70,1,125.999996154785,10|2,0:1|0:0,0:0:0:0:
121,208,98576,5,2,1:2:0:0:
101,228,98696,2,0,L|118:305,1,62.9999980773926,8|2,0:0|0:0,0:0:0:0:
45,347,98936,2,0,B|-12:321|-12:321|33:265,1,125.999996154785,10|0,0:0|0:0,0:0:0:0:
118,298,99296,2,0,L|197:320,1,62.9999980773926,2|0,0:0|0:0,0:0:0:0:
232,377,99536,2,0,L|369:331,1,125.999996154785,2|4,0:0|0:3,0:0:0:0:
307,256,99896,1,0,0:0:0:0:
307,256,100016,2,0,P|235:246|216:179,1,125.999996154785,10|2,0:0|0:0,0:0:0:0:
238,24,100496,6,0,B|243:120|295:69|293:179,1,157.500006008148,6|0,1:2|0:0,0:0:0:0:
319,89,100976,2,0,P|346:51|416:53,1,105.000004005432,0|0,3:0|1:0,0:0:0:0:
477,95,101336,1,0,1:0:0:0:
477,95,101456,2,0,B|513:128|513:128|394:163,1,157.500006008148,8|0,3:2|0:0,0:0:0:0:
358,227,101936,2,0,L|469:262,1,105.000004005432,2|0,3:2|1:0,0:0:0:0:
474,342,102296,1,0,1:0:0:0:
474,342,102416,6,0,L|517:170,1,157.500006008148,2|0,3:2|0:0,0:0:0:0:
509,106,102896,2,0,P|479:66|422:80,1,105.000004005432,0|0,3:0|1:0,0:0:0:0:
377,11,103256,1,0,1:0:0:0:
377,11,103376,2,0,P|322:20|361:95,1,157.500006008148,8|0,3:2|0:0,0:0:0:0:
413,156,103856,2,0,L|355:188,1,52.5000020027161,2|0,0:1|3:0,0:0:0:0:
355,262,104096,2,0,L|304:244,1,52.5000020027161,2|0,3:2|3:0,0:0:0:0:
236,286,104336,6,0,B|286:240|286:240|218:172,1,157.500006008148,4|0,1:0|0:0,0:0:0:0:
143,195,104816,2,0,P|92:186|83:134,1,105.000004005432,0|0,3:0|1:0,0:0:0:0:
74,61,105176,1,0,1:0:0:0:
74,61,105296,2,0,L|234:26,1,157.500006008148,8|0,3:2|0:0,0:0:0:0:
309,1,105776,2,0,B|331:42|331:42|283:102,1,105.000004005432,2|0,3:2|1:0,0:0:0:0:
218,116,106136,1,0,1:0:0:0:
218,116,106256,6,0,B|236:182|236:182|269:200|269:200|286:260,1,157.500006008148,2|0,3:2|0:0,0:0:0:0:
358,282,106736,2,0,P|298:308|295:362,1,105.000004005432,0|0,3:0|1:0,0:0:0:0:
213,372,107096,1,0,1:0:0:0:
213,372,107216,2,0,P|149:363|139:277,1,157.500006008148,10|0,3:2|0:0,0:0:0:0:
81,218,107696,2,0,P|58:204|21:210,1,52.5000020027161,2|0,0:1|3:0,0:0:0:0:
161,201,107936,2,0,P|179:169|169:136,1,52.5000020027161,0|0,3:0|3:0,0:0:0:0:
97,122,108176,5,4,1:0:0:0:
256,192,108296,12,4,111056,0:2:0:0:
46,31,115376,6,0,B|59:67|59:67|190:94,1,157.500006008148,2|0,0:1|3:0,0:0:0:0:
215,162,115856,2,0,P|235:60|325:69,1,210.000008010865,6|0,1:0|0:0,0:0:0:0:
450,10,116576,1,2,0:0:0:0:
450,10,116696,1,2,0:0:0:0:
450,10,116816,2,0,P|476:50|477:112,1,105.000004005432,2|2,0:0|0:0,0:0:0:0:
449,178,117176,1,2,0:0:0:0:
361,38,117536,1,2,0:0:0:0:
361,38,117656,1,2,0:0:0:0:
361,38,117776,2,0,P|358:85|388:139,1,105.000004005432,2|2,0:0|0:0,0:0:0:0:
449,178,118136,1,2,0:0:0:0:
372,367,118496,5,2,0:0:0:0:
279,268,118736,1,2,0:0:0:0:
413,293,118976,1,2,0:0:0:0:
289,351,119216,1,2,0:0:0:0:
355,232,119456,1,2,0:0:0:0:
372,367,119696,2,0,B|353:245|306:304|296:153,1,210.000008010865,2|0,0:0|0:0,0:0:0:0:
360,52,120416,5,2,0:0:0:0:
360,52,120536,1,2,0:0:0:0:
360,52,120656,2,0,P|319:21|261:17,1,105.000004005432,2|2,0:0|0:0,0:0:0:0:
217,143,121136,2,0,P|177:174|117:169,1,105.000004005432,2|2,0:0|0:0,0:0:0:0:
26,77,121616,2,0,B|117:73|53:11|167:11,1,157.500006008148,2|0,0:0|0:0,0:0:0:0:
249,25,122096,2,0,P|221:67|217:128,1,105.000004005432,2|0,0:0|0:0,0:0:0:0:
348,153,122576,2,0,B|416:194|416:194|355:260,1,157.500006008148,2|0,0:0|0:0,0:0:0:0:
428,301,123056,2,0,P|367:291|316:364,1,157.500006008148,2|0,0:0|0:0,0:0:0:0:
233,370,123536,2,0,B|141:342|141:342|261:300,1,210.000008010865,2|0,0:0|0:0,0:0:0:0:
138,240,124256,5,2,0:0:0:0:
138,240,124376,1,2,0:0:0:0:
138,240,124496,2,0,L|30:216,1,105.000004005432,2|2,0:0|0:0,0:0:0:0:
0,141,124856,2,0,B|12:113|12:113|100:92,1,105.000004005432,2|0,0:0|0:0,0:0:0:0:
150,154,125216,2,0,L|170:92,1,52.5000020027161,2|0,0:0|0:0,0:0:0:0:
143,23,125456,2,0,P|198:14|245:112,1,157.500006008148,2|2,0:0|0:0,0:0:0:0:
222,226,126056,1,0,0:0:0:0:
222,226,126176,2,0,B|256:254|256:254|422:190,1,210.000008010865,2|0,0:0|0:0,0:0:0:0:
410,194,127136,1,2,0:0:0:0:
492,269,127376,6,0,B|468:371|468:371|384:298,1,210.000008010865,2|0,0:0|0:0,0:0:0:0:
268,366,128096,1,2,0:0:0:0:
309,235,128336,2,0,B|300:262|300:262|213:284,1,105.000004005432,2|0,0:0|0:0,0:0:0:0:
168,339,128696,2,0,P|140:302|159:240,1,105.000004005432,2|0,0:0|0:0,0:0:0:0:
217,198,129056,2,0,L|191:142,1,52.5000020027161,0|0,1:0|1:0,0:0:0:0:
162,78,129296,5,2,0:0:0:0:
112,167,129536,1,2,1:2:0:0:
11,145,129776,1,2,1:2:0:0:
0,42,130016,1,2,1:2:0:0:
94,1,130256,2,0,B|98:68|140:23|160:97,1,105.000004005432,10|0,0:3|1:0,0:0:0:0:
223,43,130616,2,0,L|193:154,1,105.000004005432,2|0,0:0|0:0,0:0:0:0:
274,168,130976,2,0,B|270:235|228:190|208:264,1,105.000004005432,2|6,0:0|1:2,0:0:0:0:
84,376,131456,6,0,P|68:290|15:269,1,140,2|2,0:0|3:2,0:0:0:0:
6,185,131816,1,2,0:0:0:0:
6,185,131936,2,0,P|27:154|63:166,1,70,2|2,1:2|1:2,0:0:0:0:
128,214,132176,2,0,L|147:144,1,70,10|0,3:2|0:0,0:0:0:0:
221,94,132416,2,0,L|186:18,1,70,2|0,0:0|0:0,0:0:0:0:
285,8,132656,2,0,B|353:43|353:43|305:97,1,140,2|2,3:2|1:2,0:0:0:0:
308,99,133016,1,0,1:0:0:0:
305,107,133136,1,0,3:0:0:0:
213,264,133376,6,0,P|234:304|345:310,1,140,2|2,1:2|3:2,0:0:0:0:
399,371,133736,1,2,0:0:0:0:
399,371,133856,2,0,P|437:358|447:329,1,70,2|2,1:2|1:2,0:0:0:0:
510,265,134096,2,0,L|435:238,1,70,10|2,3:2|0:0,0:0:0:0:
353,244,134336,2,0,L|333:169,1,70,2|2,0:0|0:0,0:0:0:0:
423,151,134576,2,0,L|451:69,1,70,2|0,3:1|0:0,0:0:0:0:
384,16,134816,2,0,B|311:37|311:37|353:91,1,140,2|4,0:0|1:0,0:0:0:0:
261,246,135296,6,0,P|239:227|187:224,1,70,2|0,0:0|0:0,0:0:0:0:
108,229,135536,2,0,P|176:188|182:121,1,140,2|2,3:2|1:2,0:0:0:0:
221,48,135896,1,2,1:2:0:0:
221,48,136016,2,0,P|199:29|147:26,1,70,8|0,3:2|0:0,0:0:0:0:
68,11,136256,2,0,L|87:84,1,70,2|0,0:0|0:0,0:0:0:0:
10,130,136496,2,0,B|19:166|19:166|140:198,1,140,2|2,3:2|1:2,0:0:0:0:
125,195,136856,1,2,1:2:0:0:
132,198,136976,1,2,3:2:0:0:
158,378,137216,6,0,B|163:292|207:350|222:243,1,140,2|2,1:2|3:2,0:0:0:0:
288,198,137576,2,0,P|312:238|309:267,1,70,2|2,0:0|1:2,0:0:0:0:
274,345,137816,1,2,1:2:0:0:
274,345,137936,2,0,L|116:296,1,140,10|2,3:2|0:0,0:0:0:0:
65,355,138296,2,0,L|-8:381,1,70,2|2,0:0|3:1,0:0:0:0:
39,201,138656,1,2,0:0:0:0:
39,201,138776,1,2,0:0:0:0:
39,201,138896,6,0,B|10:151|10:151|116:180,1,157.500006008148,6|0,1:0|0:0,0:0:0:0:
184,202,139376,2,0,P|152:169|172:96,1,105.000004005432,0|0,3:0|1:0,0:0:0:0:
76,78,139736,1,0,1:0:0:0:
76,78,139856,2,0,P|113:31|210:47,1,157.500006008148,8|0,3:2|0:0,0:0:0:0:
280,3,140336,2,0,B|296:29|296:29|268:103,1,105.000004005432,0|0,3:0|1:0,0:0:0:0:
319,165,140696,2,0,L|358:216,1,52.5000020027161,0|0,1:0|3:0,0:0:0:0:
407,79,141056,6,0,L|431:205,2,105.000004005432,2|0|0,1:2|3:0|1:0,0:0:0:0:
348,15,141656,1,0,1:0:0:0:
348,15,141776,2,0,B|304:99|280:26|227:119,1,157.500006008148,8|0,3:2|0:0,0:0:0:0:
152,103,142256,2,0,P|149:140|169:162,1,52.5000020027161,2|0,0:1|0:0,0:0:0:0:
101,212,142496,2,0,P|133:234|156:232,1,52.5000020027161,0|0,3:0|3:0,0:0:0:0:
161,315,142736,6,0,P|163:289|273:224,1,157.500006008148,4|0,1:0|0:0,0:0:0:0:
317,160,143216,2,0,B|364:185|364:185|342:232,1,105.000004005432,0|0,3:0|1:0,0:0:0:0:
294,305,143576,1,0,1:0:0:0:
294,305,143696,2,0,B|306:341|306:341|423:375,1,157.500006008148,8|0,3:2|0:0,0:0:0:0:
501,338,144176,2,0,P|475:302|499:240,1,105.000004005432,0|0,3:0|1:0,0:0:0:0:
512,167,144536,2,0,L|486:102,1,52.5000020027161,0|0,1:0|3:0,0:0:0:0:
356,105,144896,6,0,L|436:18,2,105.000004005432,2|0|0,1:2|3:2|1:0,0:0:0:0:
384,181,145496,1,0,1:0:0:0:
384,181,145616,1,8,3:2:0:0:
291,281,145856,2,0,L|211:194,2,105.000004005432,2|2|2,0:0|0:0|0:0,0:0:0:0:
263,357,146456,1,0,3:0:0:0:
263,357,146576,1,6,0:1:0:0:
114,216,146936,6,0,B|162:120|162:120|136:60,1,157.500006008148,0|0,3:0|3:0,0:0:0:0:
204,22,147416,1,0,3:0:0:0:
204,22,147536,2,0,L|268:5,1,52.5000020027161,0|0,3:0|3:0,0:0:0:0:
238,95,147776,2,0,L|291:126,1,52.5000020027161,0|0,3:0|3:0,0:0:0:0:
187,161,148016,2,0,L|70:194,1,105.000004005432,0|0,3:0|3:0,0:0:0:0:
79,192,148376,1,8,0:1:0:0:
72,195,148496,1,2,1:0:0:0:
274,221,148856,6,0,P|334:275|309:343,1,157.500006008148,0|0,3:0|3:0,0:0:0:0:
246,384,149336,1,0,3:0:0:0:
246,384,149456,2,0,L|217:332,1,52.5000020027161,0|0,3:0|3:0,0:0:0:0:
142,361,149696,2,0,L|136:297,1,52.5000020027161,0|0,3:0|3:0,0:0:0:0:
56,294,149936,2,0,L|97:190,1,105.000004005432,0|0,3:0|3:0,0:0:0:0:
99,190,150296,1,8,0:1:0:0:
103,183,150416,1,6,1:0:0:0:
3,7,150776,6,0,B|11:35|11:35|108:64|108:64|121:100,1,157.500006008148,0|0,3:0|3:0,0:0:0:0:
195,54,151256,1,0,3:0:0:0:
195,54,151376,2,0,L|214:-6,1,52.5000020027161,0|0,3:0|3:0,0:0:0:0:
187,131,151616,2,0,L|212:186,1,52.5000020027161,0|0,3:0|3:0,0:0:0:0:
264,102,151856,2,0,P|321:98|344:43,1,105.000004005432,0|0,3:0|3:0,0:0:0:0:
343,53,152216,1,8,0:1:0:0:
339,46,152336,1,2,1:0:0:0:
503,167,152696,6,0,B|473:178|473:178|448:304,1,157.500006008148,0|0,3:0|3:0,0:0:0:0:
403,369,153176,1,0,3:0:0:0:
403,369,153296,2,0,L|352:321,1,52.5000020027161,0|0,3:0|3:0,0:0:0:0:
375,251,153536,2,0,L|363:183,1,52.5000020027161,0|0,3:0|3:0,0:0:0:0:
298,153,153776,2,0,P|267:155|253:231,1,105.000004005432,0|0,3:0|3:0,0:0:0:0:
245,223,154136,1,8,0:1:0:0:
247,230,154256,1,6,1:0:0:0:
98,371,154616,6,0,P|42:360|75:280,1,157.500006008148,0|0,3:0|3:0,0:0:0:0:
140,245,155096,1,0,3:0:0:0:
140,245,155216,2,0,P|123:212|96:211,1,52.5000020027161,0|0,3:0|3:0,0:0:0:0:
28,202,155456,2,0,P|10:175|12:147,1,52.5000020027161,0|0,3:0|3:0,0:0:0:0:
79,104,155696,2,0,L|187:136,1,105.000004005432,0|0,3:0|3:0,0:0:0:0:
187,136,156056,1,8,0:1:0:0:
194,139,156176,1,2,1:0:0:0:
352,9,156536,6,0,B|427:29|427:29|359:105,1,157.500006008148,0|0,3:0|3:0,0:0:0:0:
295,69,157016,1,0,3:0:0:0:
295,69,157136,2,0,L|272:126,1,52.5000020027161,0|0,3:0|3:0,0:0:0:0:
330,186,157376,2,0,L|394:171,1,52.5000020027161,0|0,3:0|3:0,0:0:0:0:
458,135,157616,2,0,P|487:158|474:229,1,105.000004005432,0|0,3:0|3:0,0:0:0:0:
479,228,157976,1,8,0:1:0:0:
474,234,158096,1,2,1:0:0:0:
307,380,158456,6,0,B|318:291|242:326|260:226,1,157.500006008148,0|0,3:0|3:0,0:0:0:0:
178,207,158936,1,0,3:0:0:0:
178,207,159056,2,0,P|191:175|220:165,1,52.5000020027161,0|0,3:0|3:0,0:0:0:0:
212,83,159296,2,0,P|247:90|266:112,1,52.5000020027161,0|0,3:0|3:0,0:0:0:0:
312,170,159536,2,0,P|369:175|403:123,1,105.000004005432,0|0,3:0|1:0,0:0:0:0:
398,60,159896,1,0,1:0:0:0:
496,239,160256,2,0,P|499:304|455:325,1,105.000004005432,0|0,1:0|1:0,0:0:0:0:
341,367,160736,5,2,1:2:0:0:
412,257,160976,1,2,1:2:0:0:
358,133,161216,1,2,1:2:0:0:
226,120,161456,1,10,1:3:0:0:
143,221,161696,1,2,0:0:0:0:
294,243,161936,5,2,1:2:0:0:
271,266,162056,2,0,B|231:254|231:254|214:217|214:217|157:198,1,140,8|8,0:0|0:0,0:0:0:0:
142,42,162656,1,2,0:0:0:0:
142,42,162776,1,2,0:0:0:0:
142,42,162896,2,0,L|72:17,1,70,2|0,0:0|0:0,0:0:0:0:
224,62,163136,2,0,L|311:29,1,70,2|0,0:0|0:0,0:0:0:0:
255,147,163376,2,0,B|129:125|191:228|55:207,1,210,6|0,0:3|0:0,0:0:0:0:
0,280,163856,5,2,1:2:0:0:
7,309,163976,2,0,B|34:315|39:364|39:364|63:321|124:329,1,140,8|10,0:0|0:0,0:0:0:0:
177,361,164336,2,0,P|131:311|153:248,1,140,2|2,0:0|0:0,0:0:0:0:
311,337,164816,2,0,B|348:357|348:357|456:287|456:287|499:306,1,210,10|8,0:0|0:0,0:0:0:0:
504,213,165296,2,0,L|475:145,1,70,10|0,0:0|0:0,0:0:0:0:
417,79,165536,2,0,L|446:9,1,70,2|8,0:0|0:0,0:0:0:0:
334,33,165776,5,2,1:2:0:0:
321,57,165896,2,0,B|294:114|294:114|363:184,1,140,8|8,0:0|0:0,0:0:0:0:
117,201,166496,1,2,0:0:0:0:
226,61,166736,1,2,0:0:0:0:
226,61,166856,1,2,0:0:0:0:
226,61,166976,2,0,P|202:32|162:35,1,70,2|0,0:0|0:0,0:0:0:0:
219,143,167216,2,0,B|191:257|191:257|164:275|164:275|144:349,1,210,6|0,0:3|0:0,0:0:0:0:
65,383,167696,5,2,1:2:0:0:
41,363,167816,2,0,B|11:333|11:333|30:293|30:293|-5:217,1,140,8|10,0:0|0:0,0:0:0:0:
96,221,168176,2,0,B|51:167|51:167|126:139,1,140,2|2,0:0|0:0,0:0:0:0:
143,330,168656,2,0,P|198:268|268:292,1,140,6|2,0:3|0:0,0:0:0:0:
327,232,169016,1,8,0:0:0:0:
327,232,169136,2,0,P|310:182|280:177,1,70,6|0,0:3|0:0,0:0:0:0:
322,318,169376,2,0,P|344:353|380:353,1,70,2|0,0:0|0:0,0:0:0:0:
246,268,169616,6,0,L|141:242,1,77.0000023498536,6|0,1:2|0:0,0:0:0:0:
214,158,169856,2,0,B|227:104|227:104|257:84|257:84|270:16,1,154.000004699707,8|0,0:0|1:0,0:0:0:0:
165,38,170216,1,0,1:0:0:0:
165,38,170336,2,0,B|130:54|130:54|144:89,1,77.0000023498536,10|2,0:0|0:0,0:0:0:0:
217,166,170576,2,0,P|289:184|339:107,1,154.000004699707,0|10,1:0|0:2,0:0:0:0:
419,69,170936,1,2,1:2:0:0:
419,69,171056,2,0,P|387:28|354:26,1,77.0000023498536,2|0,0:0|1:0,0:0:0:0:
430,164,171296,2,0,B|443:187|443:187|420:255,1,77.0000023498536,10|0,0:0|0:0,0:0:0:0:
356,352,171536,6,0,L|339:269,1,77.0000023498536,2|0,1:2|0:0,0:0:0:0:
434,247,171776,2,0,L|256:201,1,154.000004699707,10|2,0:2|1:2,0:0:0:0:
262,313,172136,1,0,1:0:0:0:
262,313,172256,2,0,L|179:338,1,77.0000023498536,10|0,0:0|0:0,0:0:0:0:
345,360,172496,2,0,B|380:377|380:377|504:332,1,154.000004699707,2|8,1:2|0:0,0:0:0:0:
449,140,172976,2,0,L|504:54,1,77.0000023498536,2|0,0:0|1:0,0:0:0:0:
406,18,173216,2,0,L|301:51,1,77.0000023498536,10|0,0:0|0:0,0:0:0:0:
291,133,173456,6,0,L|363:171,1,77.0000023498536,6|0,1:0|0:0,0:0:0:0:
277,228,173696,2,0,B|275:143|216:185|217:77,1,154.000004699707,8|0,0:0|1:0,0:0:0:0:
170,9,174056,1,0,1:0:0:0:
170,9,174176,2,0,P|134:31|131:70,1,77.0000023498536,10|2,0:0|0:0,0:0:0:0:
148,159,174416,2,0,P|99:164|76:130,1,77.0000023498536,2|0,1:2|0:0,0:0:0:0:
215,98,174656,2,0,L|177:276,1,154.000004699707,10|2,0:0|0:0,0:0:0:0:
280,273,175016,1,0,1:0:0:0:
280,273,175136,2,0,L|296:360,1,77.0000023498536,10|0,0:0|0:0,0:0:0:0:
199,382,175376,6,0,B|181:353|181:353|90:337|90:337|70:304,1,154.000004699707,2|8,1:2|0:0,0:0:0:0:
247,191,175856,2,0,L|347:166,1,77.0000023498536,2|0,1:2|1:0,0:0:0:0:
348,75,176096,2,0,P|336:25|290:18,1,77.0000023498536,8|0,0:0|0:0,0:0:0:0:
226,3,176336,2,0,P|197:69|119:54,1,140,2|8,1:2|0:0,0:0:0:0:
59,19,176696,1,0,1:0:0:0:
59,19,176816,2,0,L|33:101,1,70,2|0,0:0|1:0,0:0:0:0:
31,176,177056,2,0,P|76:175|98:152,1,70,8|0,0:0|0:0,0:0:0:0:
115,253,177296,6,0,P|155:273|169:186,1,157.500006008148,6|0,1:2|0:0,0:0:0:0:
164,108,177776,2,0,B|175:45|210:87|220:16,1,105.000004005432,2|0,3:2|1:2,0:0:0:0:
300,1,178136,1,0,1:2:0:0:
300,1,178256,2,0,L|344:164,1,157.500006008148,10|0,3:2|0:0,0:0:0:0:
405,218,178736,2,0,L|435:100,1,105.000004005432,2|2,3:2|1:2,0:0:0:0:
485,50,179096,1,0,1:0:0:0:
485,50,179216,6,0,P|456:10|412:32,1,105.000004005432,2|2,3:2|1:2,0:0:0:0:
341,153,179696,2,0,B|282:153|317:113|240:110,1,105.000004005432,2|2,3:2|1:2,0:0:0:0:
172,145,180056,1,0,1:0:0:0:
172,145,180176,2,0,B|183:180|164:224|164:224|197:188|250:199,1,157.500006008148,10|0,3:2|0:0,0:0:0:0:
228,283,180656,2,0,P|241:318|258:324,1,52.5000020027161,2|0,0:1|0:0,0:0:0:0:
319,377,180896,2,0,P|351:374|377:351,1,52.5000020027161,0|0,3:0|3:0,0:0:0:0:
453,369,181136,6,0,P|427:363|390:240,1,157.500006008148,6|0,1:0|0:0,0:0:0:0:
465,231,181616,2,0,P|511:209|483:153,1,105.000004005432,2|2,3:2|1:2,0:0:0:0:
499,73,181976,1,0,1:0:0:0:
499,73,182096,2,0,B|396:43|396:43|415:108,1,157.500006008148,10|0,3:2|0:0,0:0:0:0:
379,169,182576,2,0,L|262:201,1,105.000004005432,2|0,3:2|1:0,0:0:0:0:
203,164,182936,1,0,1:0:0:0:
203,164,183056,6,0,P|149:170|128:112,1,105.000004005432,2|2,3:2|1:2,0:0:0:0:
291,14,183536,2,0,B|252:66|301:66|264:121,1,105.000004005432,2|2,3:2|1:2,0:0:0:0:
277,196,183896,1,0,1:0:0:0:
277,196,184016,2,0,P|360:217|348:295,1,157.500006008148,10|0,3:2|0:0,0:0:0:0:
408,349,184496,2,0,L|352:375,1,52.5000020027161,2|0,0:1|0:0,0:0:0:0:
289,322,184736,2,0,L|239:299,1,52.5000020027161,0|0,3:0|3:0,0:0:0:0:
177,351,184976,1,4,1:0:0:0:
