osu file format v14

[General]
AudioFilename: audio.mp3
AudioLeadIn: 0
PreviewTime: 115796
Countdown: 0
SampleSet: Drum
StackLeniency: 0.7
Mode: 2
LetterboxInBreaks: 0
WidescreenStoryboard: 1

[Editor]
Bookmarks: 176,8336,23696,39056,54416,62096,77456,92816,100496,115856,131216,146576,161936,177296,192656
DistanceSpacing: 1
BeatDivisor: 4
GridSize: 16
TimelineZoom: 2.7

[Metadata]
Title:Atonement Twins
TitleUnicode:Atonement Twins
Artist:La priere
ArtistUnicode:La prière
Creator:bigh
Version:Team Various Countries 3's Overdose
Source:
Tags:Feryquitous 棗いつき Natsume Itsuki 藍月なくる Aitsuki Nakuru nayuta Gemini Syndrome featured artist FA osu!catch Mapping World Cup o!cMWC cmwc 2021 cmwc2021 Rock Metal Japanese priere team_poland team_philippines team_various_countries_2 team_various_countries_3 VC2 VC#2 VC3 VC#3 alienflybot AFB AutoLs Deif Hanik Hanikawa Kurose ajamez jemzuu crowley -rustyy bastian stardust prism mniam verti kukkai bighzonda
BeatmapID:3372610
BeatmapSetID:1652079

[Difficulty]
HPDrainRate:6
CircleSize:4
OverallDifficulty:9.5
ApproachRate:9.5
SliderMultiplier:1.6
SliderTickRate:1

[Events]
//Background and Video events
0,0,"bg.jpg",0,0
//Break Periods
2,116056,123011
//Storyboard Layer 0 (Background)
//Storyboard Layer 1 (Fail)
//Storyboard Layer 2 (Pass)
//Storyboard Layer 3 (Foreground)
//Storyboard Layer 4 (Overlay)
//Storyboard Sound Samples

[TimingPoints]
-304,240,4,3,72,40,1,0
536,-100,4,3,72,10,0,0
656,-100,4,3,72,50,0,0
776,-100,4,3,71,50,0,0
1376,-100,4,2,71,50,0,0
2096,-100,4,3,71,50,0,0
3536,-85.4700854700855,4,3,71,50,0,0
4376,-100,4,3,71,50,0,0
5216,-100,4,2,71,50,0,0
5936,-100,4,3,71,50,0,0
7376,-66.6666666666667,4,3,71,50,0,0
8216,-100,4,3,71,50,0,0
8336,-83.3333333333333,4,3,71,60,0,1
9656,-52.0833333333333,4,3,71,60,0,1
10016,-83.3333333333333,4,3,71,60,0,1
10256,-83.3333333333333,4,2,71,60,0,1
12176,-83.3333333333333,4,3,71,60,0,1
13496,-52.0833333333333,4,3,71,60,0,1
13856,-83.3333333333333,4,3,71,60,0,1
14096,-83.3333333333333,4,2,71,60,0,1
16016,-83.3333333333333,4,3,72,60,0,1
16136,-83.3333333333333,4,3,71,60,0,1
17336,-52.0833333333333,4,3,71,60,0,1
17696,-83.3333333333333,4,3,71,60,0,1
17936,-83.3333333333333,4,2,71,60,0,1
19856,-83.3333333333333,4,3,71,60,0,1
21176,-52.0833333333333,4,3,71,60,0,1
21536,-83.3333333333333,4,3,71,60,0,1
21776,-83.3333333333333,4,2,71,60,0,1
23696,-100,4,3,72,40,0,0
24416,-100,4,2,71,40,0,0
25136,-100,4,2,72,40,0,0
25256,-100,4,2,71,40,0,0
25616,-100,4,3,71,40,0,0
26336,-100,4,2,71,40,0,0
26576,-100,4,3,71,40,0,0
27536,-100,4,3,72,40,0,0
28016,-100,4,3,71,40,0,0
28256,-100,4,2,71,40,0,0
28976,-100,4,2,72,40,0,0
29096,-100,4,2,71,40,0,0
29456,-100,4,3,71,40,0,0
30176,-100,4,2,71,40,0,0
30416,-100,4,3,71,40,0,0
31016,-100,4,3,71,20,0,0
31136,-100,4,2,71,40,0,0
31256,-100,4,3,71,20,0,0
31376,-100,4,3,71,50,0,0
34256,-100,4,3,72,50,0,0
34376,-100,4,2,71,50,0,0
34736,-100,4,2,72,50,0,0
34856,-100,4,3,71,50,0,0
35096,-100,4,2,71,50,0,0
35216,-100,4,3,72,50,0,0
35336,-100,4,3,71,50,0,0
37616,-83.3333333333333,4,3,71,50,0,0
39056,-100,4,3,71,45,0,0
39176,-100,4,2,71,45,0,0
43136,-100,4,3,72,45,0,0
43256,-100,4,2,71,45,0,0
46736,-100,4,3,72,45,0,0
46856,-100,4,2,71,45,0,0
50576,-100,4,3,72,45,0,0
50696,-100,4,2,71,45,0,0
54416,-100,4,2,71,40,0,0
54896,-100,4,2,72,40,0,0
55016,-100,4,2,71,40,0,0
55616,-100,4,2,72,40,0,0
55736,-100,4,2,71,40,0,0
55856,-100,4,2,72,40,0,0
55976,-100,4,2,71,40,0,0
56216,-100,4,2,72,40,0,0
56336,-100,4,2,71,40,0,0
56816,-100,4,2,72,40,0,0
56936,-100,4,2,71,40,0,0
57536,-100,4,2,72,40,0,0
57656,-100,4,2,71,40,0,0
57776,-100,4,2,72,40,0,0
57896,-100,4,2,71,40,0,0
58136,-100,4,2,72,40,0,0
58256,-100,4,3,72,40,0,0
58376,-100,4,2,71,40,0,0
58736,-100,4,2,72,40,0,0
58856,-100,4,2,71,40,0,0
59456,-100,4,2,72,40,0,0
59576,-100,4,2,71,40,0,0
59696,-100,4,2,72,40,0,0
59816,-100,4,2,71,40,0,0
60416,-83.3333333333333,4,3,71,40,0,0
61136,-83.3333333333333,4,3,71,45,0,0
61616,-50,4,3,71,45,0,0
61856,-83.3333333333333,4,3,71,45,0,0
62096,-100,4,3,71,50,0,0
62816,-100,4,2,71,50,0,0
63656,-100,4,3,71,50,0,0
66656,-100,4,2,71,50,0,0
67496,-100,4,3,71,50,0,0
69056,-100,4,3,71,55,0,0
69296,-100,4,3,71,60,0,0
69536,-100,4,3,71,65,0,0
69776,-83.3333333333333,4,3,71,70,0,1
71696,-83.3333333333333,4,2,71,70,0,1
73616,-83.3333333333333,4,3,71,70,0,1
75536,-83.3333333333333,4,2,71,70,0,1
77456,-100,4,3,72,50,0,0
77696,-100,4,3,71,50,0,0
85136,-100,4,2,72,45,0,0
85256,-100,4,2,71,45,0,0
88976,-100,4,2,72,45,0,0
89096,-100,4,2,71,45,0,0
92816,-100,4,3,72,40,0,0
93296,-100,4,3,71,40,0,0
93536,-100,4,2,71,40,0,0
94256,-100,4,2,72,40,0,0
94376,-100,4,2,71,40,0,0
94736,-100,4,3,71,40,0,0
95456,-100,4,2,71,40,0,0
95696,-52.0833333333333,4,2,71,40,0,0
95816,-52.0833333333333,4,3,71,40,0,0
96056,-100,4,3,71,40,0,0
96176,-100,4,2,71,40,0,0
96296,-100,4,3,71,40,0,0
96656,-100,4,3,72,40,0,0
97136,-100,4,3,71,40,0,0
97376,-100,4,2,71,40,0,0
98096,-100,4,2,72,40,0,0
98216,-100,4,2,71,40,0,0
98576,-100,4,3,71,40,0,0
99296,-100,4,2,71,40,0,0
99536,-100,4,3,71,40,0,0
100136,-100,4,3,71,20,0,0
100256,-100,4,3,71,40,0,0
100376,-100,4,3,71,20,0,0
100496,-100,4,2,72,50,0,0
100616,-100,4,2,71,50,0,0
104336,-100,4,2,72,50,0,0
104456,-100,4,2,71,50,0,0
108176,-100,4,2,72,50,0,0
108296,-100,4,2,71,50,0,0
112016,-100,4,2,72,50,0,0
112136,-100,4,2,71,50,0,0
115856,-100,4,2,72,40,0,0
123656,-100,4,3,71,40,0,0
123896,-100,4,2,71,40,0,0
124256,-100,4,2,72,40,0,0
124376,-100,4,2,71,40,0,0
124856,-100,4,2,72,40,0,0
124976,-100,4,2,71,40,0,0
125216,-100,4,2,72,40,0,0
125336,-100,4,2,71,40,0,0
125456,-100,4,2,72,40,0,0
125576,-100,4,3,71,40,0,0
125816,-100,4,2,71,40,0,0
126416,-100,4,2,72,40,0,0
126776,-100,4,2,71,40,0,0
127376,-100,4,2,72,40,0,0
127496,-100,4,3,71,40,0,0
127736,-100,4,2,71,40,0,0
128096,-100,4,2,72,40,0,0
128216,-100,4,2,71,40,0,0
129056,-100,4,3,71,40,0,0
130256,-100,4,3,71,45,0,0
130736,-71.4285714285714,4,3,71,45,0,0
131216,-100,4,3,71,50,0,0
131336,-100,4,2,71,50,0,0
135056,-83.3333333333333,4,2,71,50,0,0
135296,-83.3333333333333,4,3,72,50,0,0
135416,-83.3333333333333,4,2,71,50,0,0
136016,-100,4,2,71,50,0,0
138896,-100,4,3,72,50,0,0
139016,-100,4,3,71,50,0,0
139256,-100,4,2,71,50,0,0
142736,-100,4,3,72,50,0,0
142856,-100,4,2,71,50,0,0
146576,-100,4,2,71,40,0,0
147056,-100,4,2,72,40,0,0
147176,-100,4,2,71,40,0,0
147776,-100,4,2,72,40,0,0
147896,-100,4,2,71,40,0,0
148016,-100,4,2,72,40,0,0
148136,-100,4,2,71,40,0,0
148376,-100,4,2,72,40,0,0
148496,-100,4,2,71,40,0,0
148976,-100,4,2,72,40,0,0
149096,-100,4,2,71,40,0,0
149696,-100,4,2,72,40,0,0
149816,-100,4,2,71,40,0,0
149936,-100,4,2,72,40,0,0
150056,-100,4,2,71,40,0,0
150296,-100,4,2,72,40,0,0
150416,-100,4,2,71,40,0,0
150896,-100,4,2,72,40,0,0
151016,-100,4,2,71,40,0,0
151616,-100,4,2,72,40,0,0
151736,-100,4,2,71,40,0,0
151856,-100,4,2,72,40,0,0
151976,-100,4,2,71,40,0,0
152216,-100,4,2,72,40,0,0
152336,-100,4,2,71,40,0,0
152816,-100,4,2,72,40,0,0
152936,-100,4,2,71,40,0,0
153536,-100,4,2,72,40,0,0
153656,-100,4,2,71,40,0,0
153776,-100,4,2,72,40,0,0
153896,-100,4,2,71,40,0,0
154136,-100,4,2,72,40,0,0
154256,-100,4,2,71,45,0,0
154736,-100,4,2,72,45,0,0
154856,-100,4,2,71,45,0,0
155456,-100,4,2,72,45,0,0
155576,-100,4,2,71,45,0,0
155696,-100,4,2,72,45,0,0
155816,-100,4,2,71,45,0,0
156056,-100,4,2,72,45,0,0
156176,-100,4,2,71,45,0,0
156656,-100,4,2,72,45,0,0
156776,-100,4,2,71,45,0,0
157376,-100,4,2,72,45,0,0
157496,-100,4,2,71,45,0,0
157616,-100,4,2,72,45,0,0
157736,-100,4,2,71,45,0,0
157976,-100,4,2,72,45,0,0
158096,-100,4,2,71,45,0,0
158576,-100,4,2,72,45,0,0
158696,-100,4,2,71,45,0,0
159296,-100,4,2,72,45,0,0
159416,-100,4,2,71,45,0,0
159536,-100,4,2,72,45,0,0
159656,-100,4,2,71,45,0,0
160256,-100,4,3,71,45,0,0
161456,-50,4,3,71,45,0,0
161696,-100,4,3,71,45,0,0
161936,-100,4,3,71,50,0,0
162656,-100,4,2,71,50,0,0
163496,-100,4,3,71,50,0,0
166496,-100,4,2,71,50,0,0
167336,-100,4,3,71,50,0,0
168896,-100,4,3,71,55,0,0
169136,-100,4,3,71,60,0,0
169376,-100,4,3,71,65,0,0
169616,-83.3333333333333,4,3,71,70,0,1
171536,-83.3333333333333,4,2,71,70,0,1
172496,-52.0833333333333,4,2,71,70,0,1
173216,-83.3333333333333,4,2,71,70,0,1
173456,-83.3333333333333,4,3,71,70,0,1
175376,-83.3333333333333,4,2,71,70,0,1
177296,-100,4,3,72,50,0,0
177416,-100,4,3,71,50,0,0
184976,-100,4,2,72,45,0,0
185096,-100,4,3,71,45,0,0
185336,-100,4,2,72,45,0,0
185936,-100,4,2,71,45,0,0
186056,-100,4,3,71,45,0,0
186296,-100,4,2,72,45,0,0
187856,-100,4,2,71,45,0,0
187976,-100,4,2,72,45,0,0
188576,-100,4,2,71,45,0,0
188816,-100,4,2,72,40,0,0
188936,-100,4,3,71,40,0,0
189176,-100,4,2,72,40,0,0
189776,-100,4,2,71,40,0,0
189896,-100,4,3,71,40,0,0
190136,-100,4,2,72,40,0,0
191696,-125,4,2,71,40,0,0
191816,-125,4,3,71,40,0,0
192176,-100,4,2,72,40,0,0
192416,-100,4,2,71,40,0,0

[Colours]
Combo1 : 128,255,255
Combo2 : 85,170,255
Combo3 : 192,192,192
Combo4 : 164,164,255

[HitObjects]
360,372,176,6,0,P|400:352|360:200,1,240,4|4,0:1|0:1,0:0:0:0:
256,196,656,5,2,0:0:0:0:
440,116,776,1,8,0:0:0:0:
136,276,1016,2,0,P|96:256|136:104,1,240,8|0,0:0|0:0,0:0:0:0:
216,100,1496,1,2,0:0:0:0:
352,180,1616,6,0,L|368:144,2,40,0|0|0,0:0|0:0|0:0,0:0:0:0:
264,176,1856,2,0,L|260:96,1,80,0|0,0:0|0:0,0:0:0:0:
452,336,2096,2,0,L|460:176,1,160,2|0,0:0|0:0,0:0:0:0:
268,256,2576,5,2,0:0:0:0:
452,176,2696,1,8,0:0:0:0:
148,336,2936,2,0,L|136:96,1,240,8|2,0:0|2:0,0:0:0:0:
240,92,3416,1,2,0:0:0:0:
16,252,3536,6,0,L|296:240,1,280.800001071167,8|2,0:0|0:0,0:0:0:0:
256,236,3956,1,2,0:0:0:0:
216,232,4016,2,0,L|496:220,1,280.800001071167,8|2,0:0|0:0,0:0:0:0:
392,216,4496,5,2,0:0:0:0:
192,136,4616,1,8,0:0:0:0:
496,296,4856,2,0,P|456:184|352:136,1,240,8|0,0:0|0:0,0:0:0:0:
432,132,5336,1,2,0:0:0:0:
296,212,5456,5,0,0:0:0:0:
256,210,5516,1,0,0:0:0:0:
216,208,5576,1,0,0:0:0:0:
304,128,5696,2,0,L|224:124,1,80,2|0,0:0|0:0,0:0:0:0:
32,204,5936,2,0,L|24:44,1,160,2|0,0:0|0:0,0:0:0:0:
216,124,6416,5,2,0:0:0:0:
32,204,6536,1,8,0:0:0:0:
336,364,6776,2,0,L|348:124,1,240,8|2,0:0|2:0,0:0:0:0:
244,120,7256,1,2,0:0:0:0:
472,280,7376,6,0,P|344:192|472:124,1,360.000013732911,8|2,0:0|0:0,0:0:0:0:
484,164,7796,1,2,0:0:0:0:
472,204,7856,2,0,P|344:116|472:48,1,360.000013732911,8|2,0:0|0:0,0:0:0:0:
260,240,8336,2,0,L|252:144,1,95.9999970703126,6|0,0:0|0:0,0:0:0:0:
44,336,8576,6,0,L|236:328,1,191.999994140625,12|2,0:1|0:0,0:0:0:0:
352,232,8936,2,0,L|160:224,1,191.999994140625,4|0,0:1|0:0,0:0:0:0:
392,128,9296,2,0,L|200:120,1,191.999994140625,6|8,0:1|0:0,0:0:0:0:
84,24,9656,2,0,B|392:24|392:24|292:140,1,460.80001125,4|8,0:1|0:0,0:0:0:0:
288,48,10136,1,0,0:0:0:0:
480,240,10256,6,0,L|500:196,2,47.9999985351563,2|0|2,0:0|0:0|0:3,0:0:0:0:
296,336,10496,2,0,L|392:332,1,95.9999970703126,8|0,0:0|0:0,0:0:0:0:
296,336,10736,1,2,0:0:0:0:
112,240,10856,2,0,L|92:196,2,47.9999985351563,4|0|8,0:0|0:0|0:0,0:0:0:0:
208,236,11096,1,0,0:0:0:0:
16,332,11216,6,0,L|20:236,1,95.9999970703126,2|0,0:0|0:0,0:0:0:0:
136,232,11456,2,0,L|140:136,1,95.9999970703126,8|2,0:0|0:3,0:0:0:0:
332,132,11696,2,0,L|428:128,1,95.9999970703126,10|2,0:0|0:3,0:0:0:0:
236,32,11936,2,0,L|140:28,1,95.9999970703126,8|0,0:0|0:0,0:0:0:0:
332,220,12176,2,0,L|236:216,1,95.9999970703126,2|0,0:0|0:0,0:0:0:0:
444,312,12416,6,0,P|508:256|444:200,1,191.999994140625,12|2,0:1|0:0,0:0:0:0:
328,104,12776,2,0,L|136:96,1,191.999994140625,4|0,0:1|0:0,0:0:0:0:
368,192,13136,2,0,L|176:184,1,191.999994140625,6|8,0:1|0:0,0:0:0:0:
60,280,13496,2,0,B|368:280|368:280|464:160,1,460.80001125,4|8,0:1|0:0,0:0:0:0:
368,156,13976,1,0,0:0:0:0:
176,252,14096,6,0,L|156:208,2,47.9999985351563,2|0|2,0:0|0:0|0:3,0:0:0:0:
368,348,14336,1,8,0:0:0:0:
272,352,14456,2,0,L|268:256,1,95.9999970703126,0|2,0:0|0:0,0:0:0:0:
460,160,14696,1,4,0:0:0:0:
412,158,14756,1,0,0:0:0:0:
364,156,14816,1,8,0:0:0:0:
268,152,14936,1,0,0:0:0:0:
460,56,15056,5,2,0:0:0:0:
492,148,15176,1,0,0:0:0:0:
460,240,15296,1,8,0:0:0:0:
380,292,15416,1,2,0:3:0:0:
264,288,15536,1,2,0:0:0:0:
456,192,15656,1,4,0:0:0:0:
264,96,15776,2,0,L|168:92,1,95.9999970703126,12|0,0:0|0:0,0:0:0:0:
388,188,16016,2,0,L|392:92,1,95.9999970703126,6|0,0:0|0:0,0:0:0:0:
184,284,16256,6,0,L|376:276,1,191.999994140625,12|2,0:1|0:0,0:0:0:0:
260,180,16616,2,0,L|452:172,1,191.999994140625,4|0,0:1|0:0,0:0:0:0:
224,364,16976,2,0,P|160:308|224:252,1,191.999994140625,6|8,0:1|0:0,0:0:0:0:
340,156,17336,2,0,B|32:156|32:156|132:40,1,460.80001125,4|8,0:1|0:0,0:0:0:0:
228,44,17816,1,0,0:0:0:0:
36,236,17936,6,0,L|16:192,2,47.9999985351563,2|0|2,0:0|0:0|0:3,0:0:0:0:
220,332,18176,2,0,L|124:336,1,95.9999970703126,8|0,0:0|0:0,0:0:0:0:
220,332,18416,1,2,0:0:0:0:
412,236,18536,1,4,0:0:0:0:
460,238,18596,1,0,0:0:0:0:
508,240,18656,1,8,0:0:0:0:
412,236,18776,1,0,0:0:0:0:
220,332,18896,6,0,L|216:236,1,95.9999970703126,2|0,0:0|0:0,0:0:0:0:
332,232,19136,2,0,L|328:136,1,95.9999970703126,8|2,0:0|0:3,0:0:0:0:
136,40,19376,2,0,L|40:36,1,95.9999970703126,10|2,0:0|0:3,0:0:0:0:
232,132,19616,2,0,L|328:128,1,95.9999970703126,8|0,0:0|0:0,0:0:0:0:
136,320,19856,2,0,L|232:316,1,95.9999970703126,2|0,0:0|0:0,0:0:0:0:
440,220,20096,6,0,L|248:212,1,191.999994140625,12|2,0:1|0:0,0:0:0:0:
132,116,20456,2,0,L|324:108,1,191.999994140625,4|0,0:1|0:0,0:0:0:0:
96,300,20816,2,0,L|288:292,1,191.999994140625,6|8,0:1|0:0,0:0:0:0:
404,196,21176,2,0,B|96:196|96:196|0:76,1,460.80001125,4|8,0:1|0:0,0:0:0:0:
96,72,21656,1,0,0:0:0:0:
324,168,21776,5,2,0:0:0:0:
276,166,21836,1,0,0:0:0:0:
228,164,21896,1,2,0:3:0:0:
420,260,22016,1,8,0:0:0:0:
324,264,22136,2,0,L|320:168,1,95.9999970703126,0|2,0:0|0:0,0:0:0:0:
128,360,22376,1,4,0:0:0:0:
176,358,22436,1,0,0:0:0:0:
224,356,22496,2,0,L|228:260,1,95.9999970703126,8|0,0:0|0:0,0:0:0:0:
36,356,22736,5,2,0:0:0:0:
4,264,22856,1,0,0:0:0:0:
36,172,22976,1,8,0:0:0:0:
116,120,23096,1,2,0:3:0:0:
232,124,23216,1,10,0:0:0:0:
40,220,23336,1,4,0:0:0:0:
252,316,23456,2,0,L|256:220,1,95.9999970703126,12|0,0:0|0:0,0:0:0:0:
468,124,23696,5,4,0:1:0:0:
476,246,23816,1,0,0:0:0:0:
76,304,24056,1,4,0:1:0:0:
196,281,24416,1,2,0:0:0:0:
357,301,24656,5,0,0:0:0:0:
358,261,24716,1,0,0:0:0:0:
360,221,24776,1,2,0:0:0:0:
280,193,24896,1,0,0:0:0:0:
392,160,25016,1,0,0:0:0:0:
208,132,25136,2,0,L|301:122,1,80,8|0,0:0|0:0,0:0:0:0:
400,121,25376,1,2,0:0:0:0:
240,254,25616,5,2,0:0:0:0:
440,308,25736,1,8,0:0:0:0:
72,324,25976,1,8,0:0:0:0:
232,316,26216,1,0,0:0:0:0:
120,272,26336,2,0,L|111:171,1,80,2|0,0:0|0:0,0:0:0:0:
297,201,26576,6,0,L|190:194,1,80,2|0,0:0|0:0,0:0:0:0:
104,171,26816,2,0,L|206:167,1,80,0|2,0:0|0:0,0:0:0:0:
224,167,26996,1,2,0:0:0:0:
364,153,27056,2,0,P|384:202|339:258,1,120,2|0,0:0|0:0,0:0:0:0:
309,268,27296,2,0,L|201:269,1,80,0|2,0:0|0:0,0:0:0:0:
413,346,27536,6,0,P|433:300|347:232,1,160,4|0,0:1|0:0,0:0:0:0:
125,220,27896,1,4,0:1:0:0:
366,254,28256,2,0,L|373:155,1,80,2|0,0:0|0:0,0:0:0:0:
188,192,28496,6,0,L|177:104,1,80,0|2,0:0|0:0,0:0:0:0:
290,328,28736,2,0,L|305:222,1,80,0|0,0:0|0:0,0:0:0:0:
116,311,28976,2,0,L|234:316,2,80,8|0|2,0:0|0:0|0:0,0:0:0:0:
340,210,29456,5,2,0:0:0:0:
156,224,29576,1,8,0:0:0:0:
476,301,29816,1,8,0:0:0:0:
316,298,30056,1,0,0:0:0:0:
420,263,30176,2,0,L|428:167,1,80,2|0,0:0|0:0,0:0:0:0:
243,174,30416,6,0,L|339:167,2,80,2|0|2,0:0|0:0|0:0,0:0:0:0:
189,223,30736,1,2,0:0:0:0:
243,271,30816,1,2,0:0:0:0:
82,331,30896,2,0,L|82:217,1,80,12|0,0:1|0:0,0:0:0:0:
186,225,31136,2,0,L|186:113,1,80,2|0,0:0|0:0,0:0:0:0:
408,216,31376,6,0,L|292:206,1,80,6|0,0:0|0:0,0:0:0:0:
143,290,31616,1,8,0:0:0:0:
327,292,31736,2,0,L|228:283,2,80,0|2|2,0:0|0:0|0:0,0:0:0:0:
141,217,32096,2,0,L|136:111,1,80,8|0,0:0|0:0,0:0:0:0:
357,103,32336,6,0,L|361:190,1,80,2|0,0:0|0:0,0:0:0:0:
264,251,32576,2,0,L|358:260,1,80,8|2,0:0|0:3,0:0:0:0:
214,325,32816,1,2,0:0:0:0:
398,328,32936,1,2,0:0:0:0:
214,325,33056,2,0,L|134:321,1,80,8|0,0:0|0:0,0:0:0:0:
318,254,33296,6,0,L|321:175,1,80,2|2,0:0|0:3,0:0:0:0:
137,222,33536,2,0,L|135:143,1,80,8|0,0:0|0:0,0:0:0:0:
264,82,33776,1,2,0:0:0:0:
136,27,33896,1,2,0:0:0:0:
320,192,34016,2,0,L|323:112,1,80,8|0,0:0|0:0,0:0:0:0:
106,306,34256,5,6,0:0:0:0:
78,233,34376,1,0,0:0:0:0:
115,165,34496,1,0,0:0:0:0:
191,149,34616,1,2,0:0:0:0:
375,278,34736,2,0,P|426:241|321:125,1,240,8|0,0:0|0:0,0:0:0:0:
115,294,35216,6,0,L|-2:285,1,80,6|0,0:0|0:0,0:0:0:0:
219,271,35456,1,8,0:0:0:0:
403,256,35576,1,0,0:0:0:0:
307,211,35696,2,0,L|304:130,1,80,2|2,0:0|0:0,0:0:0:0:
488,154,35936,2,0,L|493:45,1,80,8|0,0:0|0:0,0:0:0:0:
271,338,36176,6,0,L|265:252,1,80,2|0,0:0|0:0,0:0:0:0:
362,222,36416,2,0,L|254:208,1,80,8|2,0:0|0:3,0:0:0:0:
154,159,36656,1,2,0:0:0:0:
338,125,36776,1,2,0:0:0:0:
154,60,36896,2,0,L|234:57,1,80,8|0,0:0|0:0,0:0:0:0:
455,326,37136,6,0,P|456:255|365:214,1,160,2|8,0:0|0:0,0:0:0:0:
162,188,37616,2,0,L|390:180,1,191.999994140625,6|8,0:1|0:0,0:0:0:0:
47,304,38096,6,0,L|283:294,1,191.999994140625,6|8,0:1|0:0,0:0:0:0:
142,258,38456,1,2,0:3:0:0:
382,250,38576,2,0,L|260:234,1,95.9999970703126,6|2,0:1|0:0,0:0:0:0:
93,326,38816,1,8,0:0:0:0:
413,340,39056,6,0,P|433:252|358:221,1,160,6|2,0:0|0:3,0:0:0:0:
290,173,39416,2,0,L|281:72,1,80,0|0,0:0|0:0,0:0:0:0:
387,80,39656,1,0,0:0:0:0:
203,259,39776,2,0,L|318:253,1,80,2|2,0:3|0:3,0:0:0:0:
81,318,40016,6,0,L|72:207,1,80,8|0,0:3|0:0,0:0:0:0:
187,201,40256,2,0,L|196:101,1,80,2|0,0:0|0:0,0:0:0:0:
306,315,40496,2,0,L|298:221,1,80,2|0,0:0|0:0,0:0:0:0:
115,240,40736,1,8,0:3:0:0:
112,200,40796,1,0,0:0:0:0:
109,160,40856,1,0,0:0:0:0:
213,140,40976,6,0,L|311:138,1,80,2|0,0:3|0:0,0:0:0:0:
107,270,41216,2,0,L|19:271,2,80,2|0|0,0:3|0:0|0:0,0:0:0:0:
220,331,41576,1,0,0:0:0:0:
116,327,41696,2,0,L|106:238,1,80,2|2,0:3|0:3,0:0:0:0:
347,300,41936,6,0,L|357:193,1,80,8|0,0:3|0:0,0:0:0:0:
242,202,42176,2,0,L|227:100,1,80,0|0,0:0|0:0,0:0:0:0:
118,232,42416,2,0,L|120:134,1,80,2|0,0:0|0:0,0:0:0:0:
305,326,42656,2,0,L|317:235,1,80,2|0,0:0|0:0,0:0:0:0:
75,327,42896,6,0,L|257:324,1,160,2|6,0:3|0:3,0:0:0:0:
75,237,43376,1,0,0:0:0:0:
395,187,43616,1,2,0:3:0:0:
75,149,43856,6,0,P|26:205|102:257,1,160,8|2,0:3|0:0,0:0:0:0:
170,270,44216,1,0,0:0:0:0:
271,264,44336,2,0,L|183:272,1,80,2|0,0:0|0:0,0:0:0:0:
303,323,44576,1,8,0:3:0:0:
305,283,44636,1,0,0:0:0:0:
307,243,44696,1,0,0:0:0:0:
89,287,44816,5,2,0:3:0:0:
275,171,45056,1,2,0:3:0:0:
195,210,45176,1,0,0:0:0:0:
307,243,45296,1,0,0:0:0:0:
227,282,45416,1,0,0:0:0:0:
427,331,45536,2,0,L|335:317,1,80,2|2,0:3|0:3,0:0:0:0:
108,335,45776,6,0,L|100:223,1,80,8|0,0:3|0:0,0:0:0:0:
182,228,46016,1,2,0:3:0:0:
366,234,46136,2,0,L|357:128,1,80,2|2,0:0|0:0,0:0:0:0:
279,136,46376,1,0,0:0:0:0:
167,116,46496,2,0,L|256:111,1,80,2|2,0:0|0:0,0:0:0:0:
471,108,46736,6,0,P|470:155|250:283,1,320,6|2,0:0|0:3,0:0:0:0:
42,184,47456,1,2,0:0:0:0:
394,290,47696,6,0,L|201:275,1,160,8|2,0:3|0:2,0:0:0:0:
459,223,48176,2,0,L|275:205,1,160,2|8,0:2|0:3,0:0:0:0:
259,202,48476,2,0,L|186:199,1,40
35,266,48656,5,2,0:3:0:0:
259,286,48896,1,2,0:3:0:0:
483,314,49136,1,0,0:0:0:0:
131,219,49376,1,2,0:3:0:0:
483,143,49616,6,0,L|489:317,1,160,8|0,0:3|0:0,0:0:0:0:
265,273,50096,2,0,L|429:266,1,160,2|2,0:0|0:0,0:0:0:0:
328,223,50456,1,0,0:0:0:0:
105,314,50576,6,0,L|95:136,1,160,6|0,0:0|0:0,0:0:0:0:
320,301,51056,2,0,L|129:281,1,160,2|2,0:3|0:0,0:0:0:0:
481,202,51536,5,8,0:3:0:0:
257,185,51776,1,2,0:2:0:0:
33,177,52016,1,2,0:2:0:0:
257,208,52256,1,8,0:3:0:0:
297,208,52316,1,0,0:0:0:0:
337,208,52376,1,0,0:0:0:0:
137,303,52496,5,2,0:3:0:0:
361,301,52736,1,2,0:3:0:0:
153,268,52976,1,2,0:3:0:0:
345,261,53216,1,2,0:3:0:0:
25,183,53456,5,8,0:3:0:0:
25,183,53696,1,2,0:3:0:0:
249,279,53936,1,2,0:3:0:0:
249,279,54176,1,2,0:3:0:0:
153,245,54296,2,0,L|210:244,1,40,2|0,0:2|0:0,0:0:0:0:
400,240,54416,6,0,P|440:196|400:116,1,160,4|0,0:3|0:0,0:0:0:0:
264,196,54776,1,2,0:0:0:0:
352,200,54896,2,0,L|360:280,1,80,8|0,0:0|0:0,0:0:0:0:
352,200,55136,2,0,L|360:280,1,80,0|0,0:0|0:0,0:0:0:0:
240,40,55376,6,0,L|240:120,1,80,2|0,0:0|0:0,0:0:0:0:
120,280,55616,2,0,L|112:200,1,80,8|0,0:0|0:0,0:0:0:0:
208,196,55856,2,0,L|208:116,1,80,8|0,0:0|0:0,0:0:0:0:
304,112,56096,2,0,L|312:32,1,80,2|8,0:0|0:0,0:0:0:0:
120,192,56336,6,0,P|80:148|120:68,1,160,2|0,0:0|0:0,0:0:0:0:
240,148,56696,1,2,0:0:0:0:
152,152,56816,2,0,L|144:232,1,80,8|0,0:0|0:0,0:0:0:0:
152,152,57056,2,0,L|144:232,1,80,0|0,0:0|0:0,0:0:0:0:
264,232,57296,6,0,L|344:236,1,80,2|0,0:0|0:0,0:0:0:0:
256,316,57536,2,0,L|336:320,1,80,8|0,0:0|0:0,0:0:0:0:
456,320,57776,2,0,L|464:240,1,80,8|0,0:0|0:0,0:0:0:0:
344,236,58016,2,0,L|336:156,1,80,2|8,0:0|0:0,0:0:0:0:
156,76,58256,6,0,L|316:68,1,160,6|0,0:0|0:0,0:0:0:0:
196,148,58616,1,2,0:0:0:0:
284,152,58736,2,0,L|292:72,1,80,8|0,0:0|0:0,0:0:0:0:
284,152,58976,2,0,L|292:72,1,80
172,232,59216,6,0,L|172:152,1,80,2|0,0:0|0:0,0:0:0:0:
52,312,59456,2,0,L|44:232,1,80,8|0,0:0|0:0,0:0:0:0:
164,232,59696,2,0,L|244:228,1,80,8|2,0:0|0:0,0:0:0:0:
156,148,59936,2,0,L|140:112,2,40,2|2|2,0:3|0:3|0:3,0:0:0:0:
352,144,60176,5,2,0:0:0:0:
160,304,60416,2,0,L|352:312,2,191.999994140625,2|2|2,0:3|0:3|0:3,0:0:0:0:
480,224,61136,6,0,L|288:216,1,191.999994140625,2|2,0:3|0:3,0:0:0:0:
96,136,61616,2,0,L|416:128,1,320,2|6,0:3|0:1,0:0:0:0:
224,320,62096,5,2,0:0:0:0:
408,240,62216,1,8,0:0:0:0:
104,48,62456,2,0,L|92:288,1,240,8|2,0:0|0:0,0:0:0:0:
172,236,62936,5,0,0:0:0:0:
204,144,63056,1,0,0:0:0:0:
172,52,63176,1,0,0:0:0:0:
92,0,63296,1,2,0:0:0:0:
396,160,63536,2,0,L|156:148,1,240,4|0,0:0|0:0,0:0:0:0:
260,152,64016,5,2,0:0:0:0:
444,232,64136,1,8,0:0:0:0:
140,312,64376,2,0,L|128:72,1,240,8|2,0:0|0:2,0:0:0:0:
208,68,64856,1,0,0:0:0:0:
392,148,64976,6,0,P|432:168|392:320,1,240,8|2,0:0|0:0,0:0:0:0:
352,318,65396,1,2,0:0:0:0:
312,316,65456,2,0,L|308:236,1,80,8|0,0:0|0:0,0:0:0:0:
444,232,65696,2,0,L|448:152,1,80,2|8,0:0|0:0,0:0:0:0:
344,148,65936,5,2,0:0:0:0:
160,68,66056,1,8,0:0:0:0:
464,308,66296,2,0,L|476:68,1,240,8|2,0:0|0:0,0:0:0:0:
396,72,66776,5,0,0:0:0:0:
484,152,66896,2,0,L|404:156,1,80,0|0,0:0|0:0,0:0:0:0:
316,160,67136,1,2,0:0:0:0:
16,320,67376,2,0,L|256:308,1,240,4|0,0:0|0:0,0:0:0:0:
360,228,67856,5,2,0:0:0:0:
176,148,67976,1,8,0:0:0:0:
480,68,68216,2,0,L|240:56,1,240,8|2,0:0|0:2,0:0:0:0:
320,52,68696,1,0,0:0:0:0:
104,212,68816,6,0,L|100:132,1,80,2|0,0:0|0:0,0:0:0:0:
284,292,69056,2,0,L|204:288,1,80,0|2,0:0|0:0,0:0:0:0:
264,286,69236,1,2,0:0:0:0:
324,284,69296,2,0,L|328:204,1,80,2|0,0:0|0:0,0:0:0:0:
144,124,69536,2,0,L|140:44,1,80,8|0,0:0|0:0,0:0:0:0:
332,140,69776,6,0,L|428:136,1,95.9999970703126,6|0,0:0|0:0,0:0:0:0:
236,328,70016,2,0,L|232:232,1,95.9999970703126,8|0,0:0|0:0,0:0:0:0:
328,136,70256,2,0,L|232:132,1,95.9999970703126,2|2,0:0|0:0,0:0:0:0:
116,128,70496,1,8,0:0:0:0:
308,32,70616,1,4,0:1:0:0:
116,128,70736,6,0,L|112:32,1,95.9999970703126,2|0,0:0|0:0,0:0:0:0:
208,36,70976,1,8,0:0:0:0:
16,132,71096,1,2,0:3:0:0:
208,228,71216,2,0,L|304:224,1,95.9999970703126,6|2,0:1|0:3,0:0:0:0:
112,320,71456,2,0,L|108:224,1,95.9999970703126,8|0,0:0|0:0,0:0:0:0:
348,128,71696,6,0,L|352:32,1,95.9999970703126,2|0,0:0|0:0,0:0:0:0:
236,224,71936,2,0,L|232:128,1,95.9999970703126,8|0,0:0|0:0,0:0:0:0:
40,320,72176,2,0,L|36:224,1,95.9999970703126,2|2,0:0|0:3,0:0:0:0:
228,128,72416,2,0,L|324:124,1,95.9999970703126,10|0,0:0|0:0,0:0:0:0:
132,220,72656,6,0,L|324:212,1,191.999994140625,2|8,0:0|0:0,0:0:0:0:
208,208,73016,1,2,0:3:0:0:
400,112,73136,2,0,L|304:108,1,95.9999970703126,2|2,0:0|0:3,0:0:0:0:
112,300,73376,2,0,L|16:296,1,95.9999970703126,10|0,0:0|0:0,0:0:0:0:
212,200,73616,6,0,L|216:104,1,95.9999970703126,2|0,0:0|0:0,0:0:0:0:
412,296,73856,2,0,L|416:200,1,95.9999970703126,8|0,0:0|0:0,0:0:0:0:
320,104,74096,2,0,L|224:100,1,95.9999970703126,2|2,0:0|0:3,0:0:0:0:
340,4,74336,1,8,0:0:0:0:
148,100,74456,1,0,0:0:0:0:
340,4,74576,5,6,0:1:0:0:
372,96,74696,1,0,0:0:0:0:
340,188,74816,1,8,0:0:0:0:
260,240,74936,1,2,0:3:0:0:
68,336,75056,2,0,L|164:332,1,95.9999970703126,6|2,0:1|0:3,0:0:0:0:
356,236,75296,2,0,L|260:232,1,95.9999970703126,8|0,0:0|0:0,0:0:0:0:
68,336,75536,6,0,P|16:264|68:188,1,191.999994140625,2|8,2:0|0:0,0:0:0:0:
164,184,75896,1,0,0:0:0:0:
356,88,76016,2,0,L|164:80,1,191.999994140625,2|8,0:0|0:0,0:0:0:0:
160,176,76376,1,0,0:0:0:0:
352,272,76496,6,0,P|424:248|472:148,1,191.999994140625,2|8,0:0|0:0,0:0:0:0:
376,144,76856,1,2,0:3:0:0:
184,240,76976,2,0,L|88:236,1,95.9999970703126,2|10,0:0|0:3,0:0:0:0:
280,332,77216,2,0,L|376:328,1,95.9999970703126,8|0,0:0|0:0,0:0:0:0:
184,144,77456,6,0,L|176:64,1,80,6|0,0:0|0:0,0:0:0:0:
256,48,77696,1,0,0:0:0:0:
448,192,77936,2,0,L|456:112,1,80,2|0,0:2|0:0,0:0:0:0:
352,96,78176,1,2,0:0:0:0:
48,192,78416,6,0,L|40:112,1,80,8|0,0:0|0:0,0:0:0:0:
144,192,78656,2,0,L|64:192,1,80,2|0,0:0|0:0,0:0:0:0:
256,112,78896,2,0,L|96:112,1,160,2|2,0:2|0:0,0:0:0:0:
80,144,79196,1,0,0:0:0:0:
96,176,79256,1,0,0:0:0:0:
288,192,79376,6,0,L|296:112,1,80,2|0,0:0|0:0,0:0:0:0:
160,192,79616,2,0,L|152:112,1,80,2|0,0:0|0:0,0:0:0:0:
288,192,79856,2,0,L|280:272,1,80,2|0,0:2|0:0,0:0:0:0:
416,192,80096,2,0,L|336:192,1,80,2|0,0:0|0:0,0:0:0:0:
96,192,80336,6,0,B|-28:66|123:32|240:32,1,320,8|2,0:0|0:2,0:0:0:0:
304,32,80936,1,0,0:0:0:0:
239,32,81056,1,2,0:0:0:0:
128,144,81176,1,0,0:0:0:0:
328,144,81296,6,0,L|336:64,1,80,2|0,0:0|0:0,0:0:0:0:
256,48,81536,1,0,0:0:0:0:
64,192,81776,2,0,L|56:112,1,80,2|0,0:2|0:0,0:0:0:0:
160,96,82016,1,2,0:0:0:0:
464,192,82256,6,0,L|472:112,1,80,8|0,0:0|0:0,0:0:0:0:
368,192,82496,2,0,L|448:192,1,80,2|0,0:0|0:0,0:0:0:0:
256,112,82736,2,0,L|416:112,1,160,2|2,0:2|0:0,0:0:0:0:
400,144,83036,1,0,0:0:0:0:
416,176,83096,1,0,0:0:0:0:
224,192,83216,6,0,L|216:112,1,80,2|0,0:0|0:0,0:0:0:0:
336,64,83456,2,0,L|256:64,1,80,2|0,0:0|0:0,0:0:0:0:
376,112,83696,2,0,L|384:192,1,80,2|0,0:2|0:0,0:0:0:0:
264,240,83936,2,0,L|344:240,1,80,2|0,0:0|0:0,0:0:0:0:
112,240,84176,6,0,L|32:240,2,80,8|0|2,0:0|0:0|0:0,0:0:0:0:
320,192,84656,1,2,0:2:0:0:
192,192,84776,1,0,0:0:0:0:
304,192,84896,1,2,0:0:0:0:
208,192,85016,1,0,0:0:0:0:
464,192,85136,6,0,L|472:112,1,80,6|0,0:3|0:0,0:0:0:0:
384,96,85376,1,2,0:3:0:0:
208,96,85616,1,2,0:0:0:0:
304,96,85736,2,0,L|304:176,1,80,2|2,0:3|0:3,0:0:0:0:
208,176,85976,1,0,0:0:0:0:
416,192,86096,6,0,L|424:272,1,80,8|0,0:3|0:0,0:0:0:0:
320,272,86336,1,2,0:3:0:0:
416,272,86456,1,2,0:3:0:0:
192,272,86576,1,2,0:0:0:0:
96,272,86696,1,0,0:0:0:0:
208,272,86816,1,2,0:3:0:0:
144,272,86876,1,0,0:0:0:0:
80,272,86936,1,0,0:0:0:0:
304,192,87056,6,0,L|312:112,1,80,2|0,0:0|0:0,0:0:0:0:
224,96,87296,1,2,0:3:0:0:
48,96,87536,1,2,0:0:0:0:
144,96,87656,2,0,L|144:176,1,80,2|2,0:3|0:3,0:0:0:0:
48,176,87896,1,0,0:0:0:0:
256,192,88016,5,8,0:3:0:0:
360,192,88136,1,0,0:0:0:0:
256,192,88256,2,0,L|256:272,1,80,2|2,0:3|0:3,0:0:0:0:
152,192,88496,1,2,0:0:0:0:
256,192,88616,1,0,0:0:0:0:
464,192,88736,1,2,0:0:0:0:
256,128,88856,1,0,0:0:0:0:
48,192,88976,6,0,L|40:112,1,80,4|0,0:3|0:0,0:0:0:0:
128,96,89216,1,2,0:3:0:0:
304,96,89456,1,2,0:0:0:0:
208,96,89576,2,0,L|208:176,1,80,2|2,0:3|0:3,0:0:0:0:
304,176,89816,1,0,0:0:0:0:
96,192,89936,6,0,L|88:272,1,80,8|0,0:3|0:0,0:0:0:0:
192,272,90176,1,2,0:3:0:0:
96,272,90296,1,2,0:3:0:0:
304,272,90416,1,2,0:0:0:0:
208,272,90536,1,0,0:0:0:0:
320,272,90656,1,2,0:3:0:0:
256,272,90716,1,0,0:0:0:0:
192,272,90776,1,0,0:0:0:0:
416,192,90896,6,0,L|424:112,1,80,2|0,0:0|0:0,0:0:0:0:
336,96,91136,1,2,0:3:0:0:
240,96,91256,1,0,0:0:0:0:
240,192,91376,1,2,0:0:0:0:
336,192,91496,2,0,L|336:272,1,80,2|2,0:3|0:3,0:0:0:0:
240,288,91736,1,0,0:0:0:0:
448,288,91856,5,8,0:3:0:0:
344,288,91976,1,0,0:0:0:0:
448,288,92096,2,0,L|456:208,1,80,2|2,0:3|0:3,0:0:0:0:
240,192,92336,1,2,0:0:0:0:
160,192,92456,1,0,0:0:0:0:
376,192,92576,1,2,0:0:0:0:
192,192,92696,1,0,0:0:0:0:
408,192,92816,5,4,0:1:0:0:
408,192,92936,1,0,0:0:0:0:
88,268,93176,1,4,0:1:0:0:
254,192,94256,1,8,0:0:0:0:
415,177,94736,5,2,0:0:0:0:
175,134,94856,1,8,0:0:0:0:
479,232,95096,1,8,0:0:0:0:
246,225,95456,2,0,L|349:217,1,80,2|2,0:0|0:0,0:0:0:0:
93,264,95696,6,0,B|396:193|396:193|397:13,1,460.80001125,4|2,0:0|0:0,0:0:0:0:
189,78,96176,2,0,P|129:138|197:254,1,240,4|0,0:0|0:0,0:0:0:0:
408,297,96656,5,4,0:1:0:0:
488,328,96776,1,0,0:0:0:0:
168,327,97016,1,4,0:1:0:0:
336,190,97376,2,0,L|336:294,1,80
152,269,97616,6,0,L|72:269,1,80,2|2,0:0|0:0,0:0:0:0:
184,104,97856,2,0,L|184:199,1,80
296,310,98096,2,0,L|296:197,1,80,8|0,0:0|0:0,0:0:0:0:
184,194,98336,2,0,L|285:194,1,80
160,280,98576,5,2,0:0:0:0:
360,237,98696,1,8,0:0:0:0:
40,185,98936,1,8,0:0:0:0:
232,175,99176,2,0,L|126:173,2,80,0|2|0,0:0|0:0|0:0,0:0:0:0:
416,282,99536,6,0,L|420:177,1,80,2|0,0:0|0:0,0:0:0:0:
307,170,99776,1,0,0:0:0:0:
253,167,99856,1,0,0:0:0:0:
199,166,99936,1,0,0:0:0:0:
427,278,100016,2,0,L|450:177,1,80,2|0,0:0|0:0,0:0:0:0:
333,177,100256,2,0,L|431:162,1,80,2|0,0:0|0:0,0:0:0:0:
216,112,100496,5,4,0:3:0:0:
104,92,100616,1,0,0:0:0:0:
216,112,100736,2,0,P|252:152|180:224,1,160,2|2,0:3|0:0,0:0:0:0:
112,220,101096,1,2,0:3:0:0:
232,216,101216,2,0,L|240:124,1,80,2|0,0:3|0:0,0:0:0:0:
56,148,101456,6,0,L|248:116,1,160,8|2,0:3|0:3,0:0:0:0:
376,136,101936,2,0,L|200:108,1,160,2|2,0:0|0:3,0:0:0:0:
252,104,102236,1,0,0:0:0:0:
300,96,102296,1,0,0:0:0:0:
116,80,102416,5,2,0:0:0:0:
228,81,102536,1,0,0:0:0:0:
116,80,102656,2,0,L|116:248,1,160,2|2,0:3|0:0,0:0:0:0:
192,240,103016,1,2,0:3:0:0:
312,244,103136,2,0,L|412:244,1,80,2|0,0:3|0:0,0:0:0:0:
208,244,103376,6,0,P|172:192|240:140,1,160,8|2,0:3|0:3,0:0:0:0:
440,124,103856,2,0,L|252:124,1,160,2|2,0:0|0:0,0:0:0:0:
200,120,104216,1,0,0:0:0:0:
16,128,104336,6,0,L|16:232,1,80,4|0,0:3|0:0,0:0:0:0:
136,204,104576,2,0,L|316:204,1,160,2|2,0:3|0:0,0:0:0:0:
224,204,104936,1,2,0:3:0:0:
104,208,105056,2,0,L|104:308,1,80,2|0,0:3|0:0,0:0:0:0:
308,296,105296,6,0,L|396:296,1,80,8|0,0:3|0:0,0:0:0:0:
268,256,105536,2,0,L|188:256,1,80,2|2,0:3|0:3,0:0:0:0:
68,256,105776,2,0,P|64:208|172:140,1,160,2|2,0:0|0:3,0:0:0:0:
180,136,106076,1,0,0:0:0:0:
220,132,106136,1,0,0:0:0:0:
404,144,106256,6,0,L|404:40,1,80,2|0,0:0|0:0,0:0:0:0:
284,40,106496,2,0,L|188:40,1,80,2|0,0:3|0:0,0:0:0:0:
284,40,106736,2,0,L|384:40,1,80,0|2,0:0|0:3,0:0:0:0:
444,36,106976,2,0,L|444:140,1,80,2|0,0:3|0:0,0:0:0:0:
244,128,107216,6,0,P|196:144|256:216,1,160,8|2,0:3|0:3,0:0:0:0:
412,240,107696,2,0,L|324:240,3,80,2|0|2|0,0:0|0:0|0:0|0:0,0:0:0:0:
148,252,108176,6,0,L|148:80,1,160,4|2,0:3|0:3,0:0:0:0:
228,92,108536,1,0,0:0:0:0:
348,100,108656,2,0,L|348:208,1,80,2|2,0:0|0:3,0:0:0:0:
228,172,108896,2,0,L|228:76,1,80,2|0,0:3|0:0,0:0:0:0:
428,96,109136,6,0,L|256:96,1,160,8|2,0:3|0:3,0:0:0:0:
188,96,109496,1,2,0:3:0:0:
308,96,109616,2,0,L|308:256,1,160,2|2,0:2|0:3,0:0:0:0:
256,256,109916,1,0,0:0:0:0:
212,256,109976,1,0,0:0:0:0:
28,256,110096,6,0,L|116:256,1,80,2|0,0:0|0:0,0:0:0:0:
228,256,110336,2,0,P|252:232|192:136,1,160,2|2,0:3|0:0,0:0:0:0:
124,136,110696,1,2,0:3:0:0:
244,136,110816,2,0,L|344:136,1,80,2|0,0:3|0:0,0:0:0:0:
140,132,111056,6,0,P|108:172|156:264,1,160,8|2,0:3|0:3,0:0:0:0:
228,260,111416,1,2,0:3:0:0:
412,256,111536,2,0,L|320:256,1,80,2|0,0:0|0:0,0:0:0:0:
204,256,111776,2,0,L|296:256,1,80,2|0,0:0|0:0,0:0:0:0:
468,260,112016,6,0,L|468:152,1,80,4|0,0:3|0:0,0:0:0:0:
348,168,112256,2,0,L|248:168,3,80,2|0|2|2,0:3|0:0|0:0|0:3,0:0:0:0:
388,171,112736,2,0,L|388:63,1,80,2|0,0:3|0:0,0:0:0:0:
188,88,112976,6,0,L|188:175,1,80,8|0,0:3|0:0,0:0:0:0:
268,88,113216,2,0,L|172:88,1,80,2|2,0:3|0:3,0:0:0:0:
308,88,113456,2,0,L|404:88,2,80,2|0|2,0:0|0:0|0:3,0:0:0:0:
248,88,113756,1,2,0:3:0:0:
188,88,113816,1,2,0:3:0:0:
372,88,113936,6,0,L|372:196,1,80,2|0,0:0|0:0,0:0:0:0:
252,168,114176,2,0,L|152:168,1,80,2|0,0:3|0:0,0:0:0:0:
252,168,114416,1,2,0:0:0:0:
132,168,114536,1,2,0:3:0:0:
252,168,114656,2,0,L|344:168,1,80,2|0,0:3|0:0,0:0:0:0:
148,168,114896,6,0,L|148:268,1,80,8|0,0:3|0:0,0:0:0:0:
28,260,115136,2,0,L|28:356,1,80,2|2,0:3|0:3,0:0:0:0:
216,332,115376,2,0,L|304:332,2,80,2|0|2,0:0|0:0|0:0,0:0:0:0:
96,333,115736,1,0,0:0:0:0:
296,192,115856,1,4,0:3:0:0:
80,336,123536,6,0,P|48:192|160:80,1,320,4|2,0:0|0:0,0:0:0:0:
336,80,124256,2,0,L|336:160,1,80,8|0,0:3|0:0,0:0:0:0:
256,80,124496,2,0,P|224:96|256:192,1,160,2|0,0:0|0:0,0:0:0:0:
336,192,124856,1,2,0:1:0:0:
80,192,125216,1,2,0:1:0:0:
336,192,125456,6,0,P|368:96|272:16,1,240,4|2,0:0|0:0,0:0:0:0:
64,32,126056,1,0,0:0:0:0:
144,32,126176,2,0,L|16:160,2,160,2|4|2,0:0|0:0|0:1,0:0:0:0:
448,32,127136,1,2,0:0:0:0:
192,32,127376,6,0,P|81:137|111:288,1,320,8|2,0:1|0:0,0:0:0:0:
272,288,128096,1,8,0:3:0:0:
64,288,128336,2,0,L|48:128,1,160,2|0,0:0|0:0,0:0:0:0:
128,112,128696,1,2,0:0:0:0:
384,288,129056,2,0,L|400:240,2,40,2|2|2,0:0|0:0|0:0,0:0:0:0:
304,288,129296,5,2,0:0:0:0:
112,192,129536,1,2,0:0:0:0:
320,208,129776,1,2,0:0:0:0:
96,112,130016,1,2,0:0:0:0:
336,128,130256,1,2,0:0:0:0:
80,32,130496,1,2,0:0:0:0:
384,32,130736,2,0,L|160:32,1,223.999993164063,2|6,0:0|0:1,0:0:0:0:
464,192,131216,5,6,0:0:0:0:
240,314,131456,2,0,L|240:219,1,80,2|0,0:3|0:0,0:0:0:0:
344,224,131696,2,0,L|438:224,2,80,0|0|2,0:0|0:0|0:3,0:0:0:0:
160,192,132056,1,2,0:3:0:0:
384,323,132176,6,0,L|214:316,2,160,8|2|2,0:3|0:0|0:0,0:0:0:0:
160,262,132896,1,8,0:3:0:0:
160,262,132956,1,0,0:0:0:0:
160,262,133016,1,0,0:0:0:0:
376,224,133136,5,2,0:3:0:0:
216,330,133376,2,0,L|216:232,1,80,2|0,0:3|0:0,0:0:0:0:
320,224,133616,2,0,L|206:224,1,80
136,217,133856,1,2,0:3:0:0:
240,188,133976,1,2,0:3:0:0:
464,296,134096,6,0,L|464:186,1,80,8|0,0:3|0:0,0:0:0:0:
360,182,134336,2,0,L|360:68,1,80,0|0,0:0|0:0,0:0:0:0:
176,77,134576,1,2,0:0:0:0:
400,256,134816,1,2,0:0:0:0:
48,329,135056,6,0,P|69:229|171:204,1,191.999994140625,2|6,0:3|0:3,0:0:0:0:
337,203,135536,2,0,L|112:191,1,191.999994140625,0|2,0:0|0:3,0:0:0:0:
490,309,136016,5,8,0:3:0:0:
330,283,136256,2,0,L|330:178,1,80,2|0,0:0|0:0,0:0:0:0:
434,192,136496,2,0,L|434:98,1,80,2|0,0:0|0:0,0:0:0:0:
330,97,136736,2,0,L|392:97,2,40,8|0|0,0:3|0:0|0:0,0:0:0:0:
146,157,136976,6,0,L|146:275,1,80,2|0,0:3|0:0,0:0:0:0:
250,274,137216,2,0,L|141:273,2,80,2|0|0,0:3|0:0|0:0,0:0:0:0:
146,350,137576,1,0,0:0:0:0:
226,328,137696,1,2,0:3:0:0:
330,325,137816,1,2,0:3:0:0:
138,266,137936,6,0,L|21:260,2,80,8|0|2,0:3|0:0|0:3,0:0:0:0:
322,251,138296,1,2,0:0:0:0:
242,243,138416,2,0,L|238:163,1,80,2|0,0:0|0:0,0:0:0:0:
350,152,138656,2,0,L|440:147,1,80,2|2,0:0|0:0,0:0:0:0:
170,64,138896,6,0,P|115:113|262:250,1,320,6|2,0:0|0:3,0:0:0:0:
398,176,139616,1,2,0:0:0:0:
78,328,139856,6,0,L|78:138,1,160,8|2,0:3|0:2,0:0:0:0:
238,204,140336,2,0,L|238:23,1,160,2|8,0:2|0:3,0:0:0:0:
238,44,140636,2,0,L|238:98,1,40,0|0,0:0|0:0,0:0:0:0:
478,160,140816,5,2,0:3:0:0:
254,157,141056,1,2,0:3:0:0:
30,153,141296,1,0,0:0:0:0:
254,157,141536,1,2,0:3:0:0:
174,196,141656,1,2,0:3:0:0:
430,325,141776,6,0,P|453:244|430:159,1,160,8|0,0:3|0:0,0:0:0:0:
269,47,142256,2,0,L|268:245,1,160,2|2,0:0|0:0,0:0:0:0:
164,215,142616,1,0,0:0:0:0:
420,138,142736,6,0,P|465:185|304:306,1,320,6|2,0:0|0:3,0:0:0:0:
118,240,143456,1,2,0:0:0:0:
438,331,143696,6,0,L|438:141,1,160,8|2,0:3|0:2,0:0:0:0:
278,207,144176,2,0,L|278:26,1,160,2|8,0:2|0:3,0:0:0:0:
278,47,144476,2,0,L|278:88,1,40
30,227,144656,5,2,0:3:0:0:
254,222,144896,1,2,0:3:0:0:
478,214,145136,1,2,0:3:0:0:
254,222,145376,1,2,0:3:0:0:
358,218,145496,1,0,0:0:0:0:
118,328,145616,5,8,0:3:0:0:
342,139,145856,1,2,0:3:0:0:
342,139,146096,1,2,0:3:0:0:
182,136,146336,1,2,0:3:0:0:
278,67,146456,2,0,L|320:64,1,40,2|0,0:2|0:0,0:0:0:0:
132,68,146576,6,0,P|96:100|172:188,1,160,4|0,0:3|0:0,0:0:0:0:
217,194,146936,1,2,0:0:0:0:
136,196,147056,2,0,L|24:196,1,80,8|0,0:0|0:0,0:0:0:0:
136,196,147296,2,0,L|24:196,1,80
166,195,147536,6,0,L|266:195,1,80,2|0,0:0|0:0,0:0:0:0:
246,195,147776,2,0,L|154:195,1,80,8|0,0:0|0:0,0:0:0:0:
80,200,148016,2,0,L|80:93,1,80,8|0,0:0|0:0,0:0:0:0:
144,120,148256,2,0,L|240:120,1,80,2|8,0:0|0:0,0:0:0:0:
408,116,148496,6,0,P|452:160|372:224,1,160,2|0,0:0|0:0,0:0:0:0:
323,228,148856,1,2,0:0:0:0:
403,228,148976,2,0,L|307:228,1,80,8|0,0:0|0:0,0:0:0:0:
243,228,149216,2,0,L|343:228,1,80
443,230,149456,6,0,L|443:330,1,80,2|0,0:0|0:0,0:0:0:0:
359,310,149696,2,0,L|243:310,3,80,8|0|8|0,0:0|0:0|0:0|0:0,0:0:0:0:
199,310,150176,2,0,L|307:310,1,80,2|8,0:0|0:0,0:0:0:0:
462,300,150416,6,0,P|442:224|358:184,1,160,4|0,0:3|0:0,0:0:0:0:
306,184,150776,1,2,0:0:0:0:
226,184,150896,2,0,L|317:183,1,80,8|0,0:0|0:0,0:0:0:0:
375,184,151136,2,0,L|375:280,1,80,0|0,0:0|0:0,0:0:0:0:
255,277,151376,6,0,L|175:277,1,80,2|0,0:0|0:0,0:0:0:0:
175,277,151616,2,0,L|275:277,1,80,8|0,0:0|0:0,0:0:0:0:
375,277,151856,2,0,L|471:277,1,80,8|0,0:0|0:0,0:0:0:0:
375,277,152096,2,0,L|455:277,1,80,2|8,0:0|0:0,0:0:0:0:
271,277,152336,6,0,L|175:277,3,80,2|0|0|2,0:0|0:0|0:0|0:0,0:0:0:0:
111,279,152816,2,0,L|31:279,2,80,8|0|0,0:0|0:0|0:0,0:0:0:0:
191,277,153176,1,0,0:0:0:0:
311,279,153296,6,0,L|316:199,1,80,2|0,0:0|0:0,0:0:0:0:
219,187,153536,2,0,L|107:187,1,80,8|0,0:0|0:0,0:0:0:0:
219,187,153776,2,0,L|139:187,1,80,8|0,0:0|0:0,0:0:0:0:
219,187,154016,2,0,L|323:187,1,80,2|8,0:0|0:0,0:0:0:0:
115,188,154256,6,0,P|87:208|151:292,1,160,4|0,0:3|0:0,0:0:0:0:
243,184,154616,1,2,0:0:0:0:
151,183,154736,2,0,L|71:183,1,80,8|0,0:0|0:0,0:0:0:0:
71,183,154976,2,0,L|151:183,1,80,0|0,0:0|0:0,0:0:0:0:
271,208,155216,6,0,L|351:208,3,80,2|0|8|0,0:0|0:0|0:0|0:0,0:0:0:0:
195,216,155696,2,0,L|195:128,1,80,8|0,0:0|0:0,0:0:0:0:
279,136,155936,2,0,L|279:48,1,80,2|8,0:0|0:0,0:0:0:0:
95,71,156176,6,0,P|42:111|114:167,1,160,2|0,0:0|0:0,0:0:0:0:
169,172,156536,1,2,0:0:0:0:
89,172,156656,2,0,L|173:172,1,80,8|0,0:0|0:0,0:0:0:0:
249,172,156896,2,0,L|169:172,1,80
49,154,157136,6,0,L|145:154,1,80,2|0,0:0|0:0,0:0:0:0:
217,154,157376,1,8,0:0:0:0:
129,154,157496,1,0,0:0:0:0:
217,154,157616,2,0,L|217:250,1,80,8|0,0:0|0:0,0:0:0:0:
129,230,157856,1,2,0:0:0:0:
217,234,157976,1,8,0:0:0:0:
411,238,158096,6,0,P|447:202|371:130,1,160,4|0,0:3|0:0,0:0:0:0:
299,126,158456,1,2,0:0:0:0:
394,125,158576,2,0,L|487:122,3,80,8|0|0|0,0:0|0:0|0:0|0:0,0:0:0:0:
288,114,159056,6,0,L|192:114,1,80,2|0,0:0|0:0,0:0:0:0:
208,114,159296,2,0,L|312:114,1,80,8|0,0:0|0:0,0:0:0:0:
416,114,159536,2,0,L|520:114,1,80,8|2,0:0|0:0,0:0:0:0:
416,30,159776,1,2,0:3:0:0:
356,26,159836,1,2,0:3:0:0:
300,18,159896,1,2,0:3:0:0:
483,25,160016,5,2,0:0:0:0:
292,64,160256,1,2,0:0:0:0:
484,104,160496,1,2,0:0:0:0:
324,64,160736,1,2,0:0:0:0:
16,96,160976,5,2,0:0:0:0:
208,96,161216,1,2,0:0:0:0:
16,39,161456,2,0,L|351:36,1,320,2|6,0:0|0:1,0:0:0:0:
176,197,161936,5,2,0:0:0:0:
368,209,162056,1,8,0:0:0:0:
48,323,162296,2,0,P|54:274|192:157,1,240,8|2,0:0|0:0,0:0:0:0:
295,129,162776,5,0,0:0:0:0:
191,115,162896,1,0,0:0:0:0:
415,208,163136,1,2,0:0:0:0:
415,208,163256,1,0,0:0:0:0:
175,313,163376,2,0,L|166:116,1,160,4|2,0:0|0:0,0:0:0:0:
360,101,163856,5,2,0:0:0:0:
119,86,163976,1,8,0:0:0:0:
432,235,164216,2,0,P|378:146|230:115,1,240,8|2,0:0|0:2,0:0:0:0:
149,131,164696,1,0,0:0:0:0:
368,328,164816,6,0,P|406:252|378:185,1,160,8|0,0:0|0:0,0:0:0:0:
276,145,165176,1,2,0:0:0:0:
315,143,165236,1,2,0:0:0:0:
355,142,165296,1,8,0:0:0:0:
459,210,165416,1,0,0:0:0:0:
275,306,165536,2,0,L|266:204,1,80,2|8,0:0|0:0,0:0:0:0:
164,191,165776,5,2,0:0:0:0:
404,166,165896,1,8,0:0:0:0:
96,319,166136,2,0,P|58:296|121:156,1,240,8|2,0:0|0:0,0:0:0:0:
224,148,166616,1,0,0:0:0:0:
328,139,166736,5,0,0:0:0:0:
224,84,166856,1,0,0:0:0:0:
120,60,166976,1,2,0:0:0:0:
477,293,167216,2,0,L|486:96,1,160,4|2,0:0|0:0,0:0:0:0:
292,100,167696,5,2,0:0:0:0:
476,61,167816,1,8,0:0:0:0:
168,304,168056,2,0,L|158:65,1,240,8|2,0:0|0:2,0:0:0:0:
478,302,168656,6,0,L|481:194,1,80,2|0,0:0|0:0,0:0:0:0:
380,199,168896,1,0,0:0:0:0:
282,162,169016,1,2,0:0:0:0:
342,159,169076,1,2,0:0:0:0:
402,160,169136,2,0,L|405:81,1,80,2|0,0:0|0:0,0:0:0:0:
220,323,169376,2,0,L|217:210,1,80,8|0,0:0|0:0,0:0:0:0:
460,299,169616,6,0,L|361:283,1,95.9999970703126,6|0,0:0|0:0,0:0:0:0:
135,285,169856,2,0,L|120:173,1,95.9999970703126,8|0,0:0|0:0,0:0:0:0:
247,181,170096,2,0,L|250:72,1,95.9999970703126,2|2,0:0|0:3,0:0:0:0:
374,121,170336,1,8,0:0:0:0:
153,190,170456,1,4,0:1:0:0:
393,289,170576,6,0,L|296:283,1,95.9999970703126,2|0,0:0|0:0,0:0:0:0:
172,303,170816,1,8,0:0:0:0:
220,303,170876,1,0,0:0:0:0:
268,303,170936,1,2,0:3:0:0:
47,283,171056,2,0,L|40:158,1,95.9999970703126,6|2,0:1|0:3,0:0:0:0:
166,171,171296,2,0,L|54:158,1,95.9999970703126,8|0,0:0|0:0,0:0:0:0:
311,223,171536,6,0,L|417:220,1,95.9999970703126,2|0,0:0|0:0,0:0:0:0:
282,295,171776,2,0,L|176:285,1,95.9999970703126,8|0,0:0|0:0,0:0:0:0:
407,335,172016,2,0,L|407:197,1,95.9999970703126,2|2,0:0|0:3,0:0:0:0:
215,202,172256,2,0,L|216:81,1,95.9999970703126,10|0,0:0|0:0,0:0:0:0:
416,148,172496,6,0,L|81:190,1,307.2000075,2|8,0:0|0:0,0:0:0:0:
344,272,172976,2,0,L|9:314,1,307.2000075,2|10,0:0|0:0,0:0:0:0:
429,171,173456,6,0,L|299:167,1,95.9999970703126,2|0,0:0|0:0,0:0:0:0:
208,280,173696,2,0,L|214:175,1,95.9999970703126,8|0,0:0|0:0,0:0:0:0:
338,165,173936,2,0,L|215:155,1,95.9999970703126,2|2,0:0|0:3,0:0:0:0:
50,325,174176,1,8,0:0:0:0:
265,302,174296,1,0,0:0:0:0:
44,267,174416,6,0,L|50:137,1,95.9999970703126,6|0,0:1|0:0,0:0:0:0:
270,197,174656,2,0,L|264:92,1,95.9999970703126,8|2,0:0|0:3,0:0:0:0:
140,98,174896,2,0,L|257:90,1,95.9999970703126,6|2,0:1|0:3,0:0:0:0:
457,184,175136,2,0,L|461:69,1,95.9999970703126,8|0,0:0|0:0,0:0:0:0:
172,276,175376,6,0,L|385:294,1,191.999994140625,2|8,0:0|0:0,0:0:0:0:
268,313,175736,1,0,0:0:0:0:
57,333,175856,1,6,0:1:0:0:
57,333,175976,1,2,0:3:0:0:
278,223,176096,1,8,0:0:0:0:
278,223,176216,1,0,0:0:0:0:
86,248,176336,6,0,L|195:241,1,95.9999970703126,6|0,0:1|0:0,0:0:0:0:
308,187,176576,2,0,L|182:173,1,95.9999970703126,8|2,0:0|0:3,0:0:0:0:
21,150,176816,2,0,L|245:133,1,191.999994140625,6|8,0:1|0:0,0:0:0:0:
116,200,177176,1,0,0:0:0:0:
352,284,177296,6,0,L|432:276,1,80,6|0,0:0|0:0,0:0:0:0:
352,284,177536,1,0,0:0:0:0:
160,204,177776,2,0,L|80:196,1,80,2|0,0:2|0:0,0:0:0:0:
160,204,178016,1,2,0:0:0:0:
468,284,178256,6,0,L|476:204,1,80,8|0,0:0|0:0,0:0:0:0:
372,200,178496,2,0,L|372:120,1,80,2|0,0:0|0:0,0:0:0:0:
268,116,178736,2,0,L|260:36,1,80,2|0,0:2|0:0,0:0:0:0:
380,196,178976,1,2,0:0:0:0:
340,198,179036,1,0,0:0:0:0:
300,200,179096,1,0,0:0:0:0:
88,360,179216,6,0,L|80:280,1,80,2|0,0:0|0:0,0:0:0:0:
200,276,179456,2,0,L|196:196,1,80,2|0,0:0|0:0,0:0:0:0:
316,196,179696,2,0,L|320:116,1,80,2|0,0:2|0:0,0:0:0:0:
440,112,179936,2,0,L|448:32,1,80,2|0,0:0|0:0,0:0:0:0:
256,352,180176,6,0,B|416:344|416:344|256:352,1,320,8|2,0:0|0:2,0:0:0:0:
192,348,180776,1,0,0:0:0:0:
256,352,180896,1,2,0:0:0:0:
368,272,181016,1,0,0:0:0:0:
160,192,181136,6,0,L|80:188,1,80,2|0,0:0|0:0,0:0:0:0:
160,192,181376,1,0,0:0:0:0:
352,32,181616,2,0,L|432:28,1,80,2|0,0:2|0:0,0:0:0:0:
352,32,181856,1,2,0:0:0:0:
44,352,182096,6,0,L|36:272,1,80,8|0,0:0|0:0,0:0:0:0:
140,268,182336,2,0,L|148:188,1,80,2|0,0:0|0:0,0:0:0:0:
252,28,182576,2,0,L|332:24,1,80,2|0,0:2|0:0,0:0:0:0:
228,104,182816,2,0,L|220:64,2,40,2|0|0,0:0|0:0|0:0,0:0:0:0:
420,184,183056,6,0,L|500:188,1,80,2|0,0:0|0:0,0:0:0:0:
380,268,183296,2,0,L|300:272,1,80,2|0,0:0|0:0,0:0:0:0:
420,112,183536,2,0,L|340:116,1,80,2|0,0:2|0:0,0:0:0:0:
220,196,183776,2,0,L|300:200,1,80,2|0,0:0|0:0,0:0:0:0:
116,360,184016,6,0,L|108:280,1,80,8|0,0:0|0:0,0:0:0:0:
196,276,184256,1,2,0:0:0:0:
400,116,184496,1,2,0:2:0:0:
304,112,184616,1,0,0:0:0:0:
208,108,184736,1,2,0:0:0:0:
112,104,184856,1,0,0:0:0:0:
304,24,184976,6,0,P|408:116|304:220,1,320,6|2,0:3|0:2,0:0:0:0:
144,380,185696,2,0,L|136:300,1,80,2|2,0:3|0:3,0:0:0:0:
256,296,185936,2,0,P|360:204|256:100,1,320,8|2,0:3|0:2,0:0:0:0:
416,20,186656,1,2,0:3:0:0:
376,18,186716,1,2,0:3:0:0:
336,16,186776,1,2,0:3:0:0:
216,96,186896,6,0,L|208:256,1,160,2|2,0:2|0:3,0:0:0:0:
400,176,187376,2,0,L|408:336,1,160,2|2,0:2|0:3,0:0:0:0:
216,328,187856,2,0,P|112:236|216:132,1,320,8|2,0:3|0:2,0:0:0:0:
376,52,188576,2,0,L|296:48,1,80,2|2,0:0|0:0,0:0:0:0:
68,128,188816,6,0,P|112:276|256:332,1,320,6|2,0:3|0:2,0:0:0:0:
96,252,189536,2,0,L|176:248,1,80,2|2,0:3|0:3,0:0:0:0:
296,168,189776,2,0,P|440:223|484:372,1,320,8|2,0:3|0:2,0:0:0:0:
324,292,190496,2,0,L|316:252,2,40,2|2|2,0:3|0:3|0:3,0:0:0:0:
444,212,190736,6,0,L|452:52,1,160,2|2,0:2|0:3,0:0:0:0:
260,372,191216,2,0,L|252:212,1,160,2|2,0:2|0:3,0:0:0:0:
60,52,191696,2,0,L|316:68,1,256,8|2,0:3|0:2,0:0:0:0:
156,228,192416,2,0,L|236:232,1,80,2|2,0:0|0:0,0:0:0:0:
44,312,192656,1,6,0:3:0:0:
