osu file format v14

[General]
AudioFilename: audio.mp3
AudioLeadIn: 0
PreviewTime: 115796
Countdown: 0
SampleSet: Soft
StackLeniency: 0.7
Mode: 2
LetterboxInBreaks: 0
WidescreenStoryboard: 1

[Editor]
DistanceSpacing: 1
BeatDivisor: 4
GridSize: 4
TimelineZoom: 2.7

[Metadata]
Title:Atonement Twins
TitleUnicode:Atonement Twins
Artist:La priere
ArtistUnicode:La prière
Creator:bigh
Version:Platter
Source:
Tags:Feryquitous 棗いつき Natsume Itsuki 藍月なくる Aitsuki Nakuru nayuta Gemini Syndrome featured artist FA osu!catch Mapping World Cup o!cMWC cmwc 2021 cmwc2021 Rock Metal Japanese priere team_poland team_philippines team_various_countries_2 team_various_countries_3 VC2 VC#2 VC3 VC#3 alienflybot AFB AutoLs Deif Hanik Hanikawa Kurose ajamez jemzuu crowley -rustyy bastian stardust prism mniam verti kukkai bighzonda
BeatmapID:3372605
BeatmapSetID:1652079

[Difficulty]
HPDrainRate:4
CircleSize:3.5
OverallDifficulty:8
ApproachRate:8
SliderMultiplier:1
SliderTickRate:1

[Events]
//Background and Video events
0,0,"bg.jpg",0,0
//Break Periods
2,116056,128546
//Storyboard Layer 0 (Background)
//Storyboard Layer 1 (Fail)
//Storyboard Layer 2 (Pass)
//Storyboard Layer 3 (Foreground)
//Storyboard Layer 4 (Overlay)
//Storyboard Sound Samples

[TimingPoints]
-304,240,4,2,11,75,1,0
656,-100,4,2,11,70,0,0
8576,-100,4,2,11,70,0,0
10256,-100,4,2,11,60,0,0
12416,-100,4,2,11,70,0,0
14096,-100,4,2,11,60,0,0
16256,-100,4,2,11,70,0,0
17936,-100,4,2,11,60,0,0
20096,-100,4,2,11,70,0,0
21776,-100,4,2,11,60,0,0
39056,-100,4,2,11,60,0,0
41936,-100,4,2,11,60,0,0
42656,-100,4,2,11,60,0,0
43856,-100,4,2,11,80,0,0
44816,-100,4,2,11,80,0,0
46736,-100,4,2,11,60,0,0
54416,-100,4,2,11,45,0,0
54776,-100,4,2,12,45,0,0
55736,-100,4,2,11,45,0,0
56096,-100,4,2,12,45,0,0
56216,-100,4,2,11,45,0,0
56696,-100,4,2,12,45,0,0
57656,-100,4,2,11,45,0,0
58016,-100,4,2,12,45,0,0
58136,-100,4,2,11,45,0,0
58616,-100,4,2,12,45,0,0
59576,-100,4,2,11,45,0,0
60176,-100,4,2,11,50,0,0
60416,-100,4,2,11,55,0,0
60656,-100,4,2,11,60,0,0
60896,-100,4,2,11,65,0,0
61136,-100,4,2,11,70,0,0
61376,-100,4,2,11,75,0,0
61616,-100,4,2,11,80,0,0
61856,-100,4,2,11,90,0,0
62216,-100,4,2,11,70,0,0
69776,-100,4,2,11,80,0,1
77456,-100,4,2,11,80,0,0
86576,-100,4,2,11,80,0,0
86816,-100,4,2,11,80,0,0
89216,-100,4,2,11,80,0,0
89456,-100,4,2,11,80,0,0
92816,-100,4,2,11,90,0,0
94256,-100,4,2,11,65,0,0
103376,-100,4,2,11,80,0,0
103616,-100,4,2,11,80,0,0
110336,-100,4,2,11,80,0,0
110576,-100,4,2,11,80,0,0
115856,-100,4,2,12,50,0,0
129296,-100,4,2,12,40,0,0
129536,-100,4,2,12,50,0,0
129776,-100,4,2,12,60,0,0
130016,-100,4,2,12,70,0,0
130256,-100,4,2,12,80,0,0
130496,-100,4,2,12,90,0,0
130736,-100,4,3,12,95,0,0
131216,-100,4,2,11,80,0,0
131696,-100,4,2,11,80,0,0
136016,-100,4,2,11,80,0,0
138896,-100,4,2,11,70,0,0
146576,-100,4,2,11,80,0,0
146816,-100,4,2,11,45,0,0
146936,-100,4,2,12,45,0,0
147896,-100,4,2,11,45,0,0
148856,-100,4,2,12,45,0,0
149816,-100,4,2,11,45,0,0
149936,-100,4,2,12,45,0,0
150296,-100,4,2,11,45,0,0
150776,-100,4,2,12,45,0,0
151736,-100,4,2,11,45,0,0
152096,-100,4,2,12,45,0,0
152216,-100,4,2,11,45,0,0
152696,-100,4,2,12,45,0,0
153176,-100,4,2,11,45,0,0
153296,-100,4,2,12,45,0,0
153656,-100,4,2,11,45,0,0
153776,-100,4,2,12,45,0,0
154136,-100,4,2,11,45,0,0
155216,-100,4,2,12,45,0,0
155576,-100,4,2,11,45,0,0
155696,-100,4,2,12,45,0,0
156056,-100,4,2,11,45,0,0
156536,-100,4,2,12,45,0,0
157496,-100,4,2,11,45,0,0
157616,-100,4,2,12,45,0,0
157976,-100,4,2,11,45,0,0
159056,-100,4,2,12,45,0,0
159416,-100,4,2,11,45,0,0
159536,-100,4,2,12,45,0,0
159656,-100,4,2,11,45,0,0
160016,-100,4,2,11,50,0,0
160256,-100,4,2,11,55,0,0
160496,-100,4,2,11,60,0,0
160736,-100,4,2,11,65,0,0
160976,-100,4,2,11,70,0,0
161216,-100,4,2,11,75,0,0
161456,-100,4,2,11,80,0,0
161696,-100,4,2,11,90,0,0
161936,-100,4,2,11,65,0,0
162056,-100,4,2,11,70,0,0
169616,-100,4,2,11,80,0,1
177296,-100,4,2,11,70,0,0
184976,-100,4,2,11,45,0,0
193136,-100,4,2,11,30,0,0
193616,-100,4,2,11,20,0,0
194096,-100,4,2,11,10,0,0
194576,-100,4,2,11,5,0,0

[Colours]
Combo1 : 0,206,206
Combo2 : 85,170,255
Combo3 : 192,192,192
Combo4 : 164,164,255

[HitObjects]
144,292,656,6,0,L|144:228,1,50,2|8,3:2|3:2,0:0:0:0:
244,212,1016,1,8,3:2:0:0:
396,188,1376,1,0,0:0:0:0:
296,92,1616,2,0,P|244:92|160:212,1,200,2|2,0:2|3:2,0:0:0:0:
260,244,2336,1,2,0:0:0:0:
488,224,2576,5,2,3:2:0:0:
488,224,2696,1,8,3:2:0:0:
388,164,2936,1,8,3:2:0:0:
236,132,3296,1,0,0:0:0:0:
336,68,3536,2,0,P|348:120|244:204,1,200,8|8,3:2|3:2,0:0:0:0:
148,200,4256,1,0,3:0:0:0:
452,284,4496,6,0,L|402:284,1,50,2|8,3:2|3:2,0:0:0:0:
302,213,4856,1,8,3:2:0:0:
453,163,5216,1,2,0:0:0:0:
353,105,5456,2,0,L|137:103,1,200,2|2,0:0|3:2,0:0:0:0:
253,98,6176,1,2,0:0:0:0:
24,188,6416,5,2,3:2:0:0:
24,188,6536,1,8,3:2:0:0:
128,276,6776,1,8,3:2:0:0:
278,328,7136,1,2,0:0:0:0:
176,244,7376,2,0,P|160:204|260:96,1,200,2|2,3:2|3:2,0:0:0:0:
348,120,8096,1,2,0:0:0:0:
18,96,8336,5,4,3:2:0:0:
133,88,8576,2,0,L|297:92,1,150,10|2,3:2|3:2,0:0:0:0:
226,145,9056,1,8,3:2:0:0:
111,214,9296,2,0,L|275:218,1,150,2|2,3:2|3:2,0:0:0:0:
319,220,9776,1,0,0:0:0:0:
262,183,9896,1,0,3:0:0:0:
204,154,10016,1,8,3:2:0:0:
262,183,10136,1,2,0:0:0:0:
430,84,10256,6,0,L|426:184,1,100,2|8,3:2|3:2,0:0:0:0:
311,248,10736,1,2,3:3:0:0:
246,242,10856,1,0,3:0:0:0:
181,235,10976,1,8,3:2:0:0:
399,204,11216,2,0,L|500:204,1,100,2|10,3:2|3:2,0:0:0:0:
280,132,11696,2,0,L|173:132,1,100,2|10,3:3|3:2,0:0:0:0:
496,103,12176,5,6,3:2:0:0:
381,106,12416,2,0,L|217:110,1,150,10|2,3:2|3:2,0:0:0:0:
288,163,12896,1,8,3:2:0:0:
403,232,13136,2,0,L|239:236,1,150,2|2,3:2|3:2,0:0:0:0:
195,238,13616,1,0,0:0:0:0:
137,232,13736,1,0,3:0:0:0:
80,225,13856,1,8,3:2:0:0:
137,232,13976,1,2,0:0:0:0:
308,84,14096,6,0,L|308:184,1,100,2|8,3:2|3:2,0:0:0:0:
193,91,14576,1,2,3:3:0:0:
258,104,14696,1,2,3:2:0:0:
323,114,14816,1,10,3:2:0:0:
208,188,15056,1,2,3:2:0:0:
93,219,15296,1,8,3:2:0:0:
208,188,15536,1,2,3:0:0:0:
93,219,15776,1,10,3:2:0:0:
399,300,16016,5,6,3:2:0:0:
284,295,16256,2,0,P|219:248|227:176,1,150,8|2,3:2|3:2,0:0:0:0:
280,167,16736,1,8,3:2:0:0:
395,212,16976,2,0,P|460:165|452:93,1,150,2|2,3:2|3:2,0:0:0:0:
432,86,17456,1,0,0:0:0:0:
387,75,17576,1,0,3:0:0:0:
337,70,17696,1,8,3:2:0:0:
279,65,17816,1,0,0:0:0:0:
119,281,17936,6,0,L|164:171,1,100,2|8,3:0|3:2,0:0:0:0:
272,216,18416,1,2,3:0:0:0:
336,176,18536,1,0,3:0:0:0:
272,128,18656,1,10,3:2:0:0:
40,96,18896,2,0,L|144:88,1,100,2|10,3:2|3:2,0:0:0:0:
372,112,19376,2,0,L|472:108,1,100,2|10,3:0|3:2,0:0:0:0:
164,194,19856,5,6,3:2:0:0:
48,268,20096,2,0,L|207:270,1,150,10|2,3:2|3:2,0:0:0:0:
255,272,20576,1,8,3:2:0:0:
370,168,20816,2,0,L|211:170,1,150,2|2,3:2|3:2,0:0:0:0:
278,170,21296,1,0,0:0:0:0:
336,166,21416,1,0,3:0:0:0:
394,161,21536,1,8,3:2:0:0:
336,166,21656,1,2,0:0:0:0:
168,92,21776,6,0,L|68:92,1,100,2|8,3:2|3:2,0:0:0:0:
183,213,22256,1,2,3:3:0:0:
248,216,22376,1,0,3:0:0:0:
312,220,22496,1,8,3:2:0:0:
197,76,22736,2,0,L|297:78,1,100,2|10,3:2|3:2,0:0:0:0:
419,154,23216,2,0,L|319:154,1,100,2|10,3:0|3:2,0:0:0:0:
12,264,23696,5,2,3:2:0:0:
12,184,24056,1,2,3:2:0:0:
160,156,24416,1,0,0:0:0:0:
260,144,24656,2,0,P|308:144|399:262,1,200,2|2,0:0|0:1,0:0:0:0:
374,290,25256,1,0,0:0:0:0:
324,305,25376,1,2,0:0:0:0:
94,234,25616,5,2,1:2:0:0:
159,232,25736,1,8,3:2:0:0:
259,198,25976,1,8,3:2:0:0:
109,141,26336,1,2,0:0:0:0:
209,98,26576,2,0,L|208:199,1,100,2|2,3:2|3:2,0:0:0:0:
108,208,27056,2,0,L|8:208,1,100,2|0,3:2|0:0,0:0:0:0:
316,204,27536,5,2,3:2:0:0:
316,76,27896,1,2,3:2:0:0:
164,68,28256,1,2,0:0:0:0:
264,116,28496,2,0,L|264:216,1,100,2|0,0:0|0:0,0:0:0:0:
164,212,28976,1,2,0:1:0:0:
139,267,29096,1,0,0:0:0:0:
189,323,29216,1,2,0:0:0:0:
420,212,29456,5,2,3:2:0:0:
370,203,29576,1,8,3:2:0:0:
256,175,29816,2,0,L|98:171,1,150,10|2,3:2|0:0,0:0:0:0:
207,264,30416,2,0,P|246:260|275:194,1,100,2|2,3:2|0:0,0:0:0:0:
226,184,30776,1,8,0:1:0:0:
176,174,30896,2,0,P|146:161|140:95,1,100,8|2,3:2|1:2,0:0:0:0:
448,80,31376,6,0,L|448:200,1,100,6|8,3:2|3:2,0:0:0:0:
380,214,31736,2,0,L|219:213,1,150,2|10,0:0|3:2,0:0:0:0:
120,205,32336,2,0,P|120:154|168:121,1,100,2|8,3:2|3:2,0:0:0:0:
205,115,32696,1,2,3:2:0:0:
262,108,32816,1,2,0:0:0:0:
297,77,32936,1,2,3:2:0:0:
307,35,33056,1,8,3:2:0:0:
76,152,33296,6,0,L|176:152,1,100,2|10,3:2|3:2,0:0:0:0:
286,153,33776,1,2,3:2:0:0:
219,166,33896,1,2,3:2:0:0:
152,175,34016,1,10,3:2:0:0:
382,72,34256,2,0,P|426:76|477:210,1,200,10|10,3:2|3:2,0:0:0:0:
381,230,34976,1,2,0:3:0:0:
72,236,35216,6,0,L|72:128,1,100,6|10,3:2|3:2,0:0:0:0:
140,124,35576,2,0,L|300:124,1,150,2|8,0:0|3:2,0:0:0:0:
180,220,36176,2,0,L|180:336,1,100,2|8,3:2|3:2,0:0:0:0:
292,328,36656,2,0,L|396:328,1,100,2|10,0:0|3:2,0:0:0:0:
164,228,37136,6,0,L|64:228,1,100,2|8,3:0|3:2,0:0:0:0:
292,140,37616,2,0,L|408:140,1,100,2|8,3:3|3:2,0:0:0:0:
502,163,38096,2,0,L|479:263,1,100,2|8,3:3|3:2,0:0:0:0:
252,283,38576,2,0,L|143:283,1,100,2|8,3:3|3:2,0:0:0:0:
460,212,39056,6,0,P|460:172|328:92,1,200,6|2,3:2|0:0,0:0:0:0:
236,120,39776,1,2,3:2:0:0:
336,84,40016,2,0,L|336:184,1,100,10|2,3:2|0:0,0:0:0:0:
236,256,40496,2,0,L|136:256,1,100,2|2,0:0|3:2,0:0:0:0:
368,164,40976,6,0,L|168:164,1,200,2|2,1:2|0:0,0:0:0:0:
68,164,41696,1,2,3:2:0:0:
168,96,41936,2,0,L|372:96,1,200,10|2,3:2|0:3,0:0:0:0:
268,188,42656,1,2,0:0:0:0:
32,124,42896,6,0,P|32:168|144:264,1,200,6|2,3:2|1:2,0:0:0:0:
240,257,43616,1,0,3:0:0:0:
140,242,43856,2,0,L|139:128,1,100,10|2,3:2|0:0,0:0:0:0:
39,92,44336,2,0,L|39:198,1,100,2|2,1:2|3:2,0:0:0:0:
272,80,44816,5,10,3:2:0:0:
372,72,45056,1,2,3:2:0:0:
472,64,45296,1,2,1:2:0:0:
372,72,45536,1,2,3:2:0:0:
272,80,45776,2,0,L|204:80,1,50,10|0,3:2|0:0,0:0:0:0:
122,162,46136,2,0,L|54:162,1,50,0|2,0:0|1:3,0:0:0:0:
172,237,46496,1,0,0:0:0:0:
480,328,46736,6,0,P|496:260|400:192,1,200,6|2,3:2|0:0,0:0:0:0:
302,206,47456,1,2,3:0:0:0:
202,192,47696,2,0,L|93:186,1,100,8|2,3:2|0:0,0:0:0:0:
202,100,48176,2,0,L|320:101,1,100,2|0,1:2|3:0,0:0:0:0:
71,219,48656,6,0,L|271:219,1,200,10|2,1:2|1:2,0:0:0:0:
371,219,49376,1,2,3:2:0:0:
271,287,49616,2,0,L|67:287,1,200,10|2,3:2|1:3,0:0:0:0:
171,195,50336,1,2,0:0:0:0:
404,52,50576,6,0,P|319:119|327:201,1,200,6|2,3:2|1:2,0:0:0:0:
428,235,51296,1,2,3:0:0:0:
328,352,51536,2,0,L|328:248,1,100,10|2,3:2|0:0,0:0:0:0:
228,240,52016,2,0,L|228:136,1,100,2|0,1:2|3:0,0:0:0:0:
460,60,52496,5,8,1:2:0:0:
510,127,52736,1,2,3:2:0:0:
460,60,52976,1,8,1:2:0:0:
360,55,53216,1,2,3:2:0:0:
260,60,53456,2,0,L|160:60,1,100,8|2,3:2|0:0,0:0:0:0:
260,136,53936,2,0,L|372:136,1,100,2|2,0:0|0:0,0:0:0:0:
56,208,54416,5,6,3:2:0:0:
156,198,54896,1,0,0:0:0:0:
256,192,55376,1,2,1:2:0:0:
356,198,55856,1,2,1:2:0:0:
56,208,56336,1,2,3:0:0:0:
156,198,56816,1,2,1:2:0:0:
256,192,57296,1,2,1:2:0:0:
156,198,57776,1,2,1:2:0:0:
456,208,58256,5,6,3:2:0:0:
356,198,58736,1,2,1:2:0:0:
256,192,59216,1,2,1:2:0:0:
156,198,59696,1,2,1:2:0:0:
256,192,60176,12,2,61616,3:2:0:0:
388,140,62096,5,6,3:2:0:0:
320,136,62216,1,8,3:2:0:0:
210,219,62456,1,8,3:2:0:0:
276,216,62576,2,0,L|276:116,1,100,2|2,0:3|0:0,0:0:0:0:
208,112,62936,1,2,0:0:0:0:
140,108,63056,5,2,1:2:0:0:
110,103,63176,1,2,0:2:0:0:
140,108,63296,1,2,0:2:0:0:
372,120,63536,2,0,L|472:120,1,100,2|2,3:2|0:0,0:0:0:0:
140,304,64016,5,2,3:2:0:0:
208,308,64136,1,8,3:2:0:0:
318,225,64376,1,8,3:2:0:0:
252,228,64496,2,0,L|252:328,1,100,2|2,1:2|0:0,0:0:0:0:
484,144,64976,6,0,L|272:136,1,200,10|10,3:2|3:2,0:0:0:0:
395,128,65696,1,2,0:0:0:0:
92,88,65936,5,2,3:2:0:0:
160,96,66056,1,8,3:2:0:0:
270,168,66296,1,8,3:2:0:0:
202,177,66416,2,0,L|202:279,1,100,2|2,1:3|0:0,0:0:0:0:
270,288,66776,1,2,0:0:0:0:
338,303,66896,5,2,1:2:0:0:
338,303,67016,1,2,0:2:0:0:
270,288,67136,1,2,0:2:0:0:
36,196,67376,2,0,L|156:196,1,100,2|2,3:2|0:0,0:0:0:0:
468,192,67856,5,2,3:2:0:0:
436,192,67976,1,8,3:2:0:0:
326,125,68216,1,8,3:2:0:0:
258,124,68336,2,0,L|148:125,1,100,2|2,1:2|0:0,0:0:0:0:
380,128,68816,5,2,3:2:0:0:
490,136,69056,1,2,0:0:0:0:
258,124,69296,1,8,3:2:0:0:
148,112,69536,1,4,3:1:0:0:
488,76,69776,6,0,L|488:180,1,100,4|8,3:0|3:2,0:0:0:0:
368,224,70256,2,0,L|256:224,1,100,0|10,3:0|3:2,0:0:0:0:
201,225,70616,1,2,0:0:0:0:
268,224,70736,2,0,P|288:208|272:132,1,100,2|10,3:2|3:2,0:0:0:0:
256,124,71096,1,2,3:2:0:0:
215,96,71216,1,2,0:0:0:0:
165,81,71336,1,0,3:0:0:0:
114,78,71456,1,10,3:2:0:0:
344,56,71696,6,0,L|344:160,1,100,2|10,3:3|3:2,0:0:0:0:
224,192,72176,2,0,L|224:292,1,100,2|10,3:2|3:2,0:0:0:0:
456,124,72656,2,0,L|252:124,1,200,2|2,3:3|3:2,0:0:0:0:
376,76,73376,1,10,3:2:0:0:
36,64,73616,6,0,L|36:176,1,100,2|8,3:3|3:2,0:0:0:0:
156,224,74096,2,0,L|52:224,1,100,0|10,3:0|3:2,0:0:0:0:
124,224,74456,1,2,0:0:0:0:
184,224,74576,2,0,L|288:224,1,100,2|10,3:3|3:2,0:0:0:0:
334,164,75056,1,2,0:0:0:0:
254,132,75296,1,10,3:2:0:0:
24,104,75536,6,0,L|24:208,1,100,2|8,3:3|3:2,0:0:0:0:
252,272,76016,2,0,L|356:272,1,100,2|10,0:3|3:2,0:0:0:0:
232,208,76496,2,0,L|232:104,1,100,2|10,3:3|3:2,0:0:0:0:
460,64,76976,2,0,L|352:64,1,100,2|10,0:3|3:2,0:0:0:0:
20,180,77456,6,0,L|240:180,1,200,4|2,3:2|1:2,0:0:0:0:
320,180,78176,1,2,3:2:0:0:
92,260,78416,2,0,L|108:160,1,100,10|2,3:2|0:0,0:0:0:0:
208,132,78896,2,0,L|100:124,1,100,2|0,1:2|3:0,0:0:0:0:
208,92,79376,6,0,L|308:88,1,100,2|0,1:2|3:0,0:0:0:0:
407,84,79856,2,0,L|307:88,1,100,2|2,1:2|3:2,0:0:0:0:
76,232,80336,2,0,L|288:240,1,200,10|2,3:2|1:3,0:0:0:0:
376,260,81056,1,2,0:0:0:0:
68,140,81296,6,0,L|68:40,1,100,6|2,3:2|0:0,0:0:0:0:
168,56,81776,2,0,L|64:56,1,100,2|2,1:2|3:2,0:0:0:0:
296,104,82256,2,0,L|400:104,1,100,10|2,3:2|0:0,0:0:0:0:
296,104,82736,2,0,L|280:204,1,100,2|2,1:2|3:2,0:0:0:0:
379,205,83216,6,0,L|363:303,1,100,2|2,1:2|3:2,0:0:0:0:
262,303,83696,2,0,L|362:303,1,100,2|2,1:2|3:2,0:0:0:0:
128,236,84176,2,0,L|344:236,1,200,10|2,3:2|0:3,0:0:0:0:
432,236,84896,1,2,0:0:0:0:
128,80,85136,5,6,3:2:0:0:
28,145,85376,2,0,P|28:185|156:277,1,200,2|2,0:0|3:2,0:0:0:0:
242,256,86096,1,8,3:2:0:0:
242,167,86576,1,2,1:3:0:0:
142,157,86816,1,2,3:2:0:0:
372,92,87056,5,2,1:2:0:0:
472,144,87296,2,0,P|472:200|352:272,1,200,2|0,3:2|3:0,0:0:0:0:
262,272,88016,1,10,3:2:0:0:
60,208,88496,1,2,1:3:0:0:
160,208,88736,1,2,0:0:0:0:
464,252,88976,5,6,3:2:0:0:
361,252,89216,2,0,L|153:252,1,200,2|2,0:0|3:2,0:0:0:0:
260,48,89936,1,10,3:2:0:0:
260,48,90416,1,2,1:3:0:0:
360,48,90656,1,2,3:2:0:0:
132,84,90896,5,2,1:2:0:0:
232,140,91136,2,0,P|376:192|412:236,1,200,2|2,3:2|3:2,0:0:0:0:
308,244,91856,1,10,3:2:0:0:
107,223,92336,1,2,1:3:0:0:
72,220,92576,1,2,0:0:0:0:
379,149,92816,5,2,3:2:0:0:
379,234,93176,1,2,3:2:0:0:
380,116,94256,2,0,L|264:116,1,100,2|0,1:0|1:0,0:0:0:0:
48,112,94736,6,0,L|48:180,1,50,2|8,3:2|3:2,0:0:0:0:
148,112,95096,1,10,3:2:0:0:
400,112,95696,2,0,P|416:176|344:208,1,150,2|8,3:2|0:1,0:0:0:0:
282,206,96176,2,0,L|159:207,1,100,10|2,3:2|3:2,0:0:0:0:
488,288,96656,5,2,3:2:0:0:
488,192,97016,1,2,3:2:0:0:
338,150,97376,1,2,0:0:0:0:
238,133,97616,2,0,L|131:128,1,100,2|2,0:0|0:0,0:0:0:0:
239,218,98096,2,0,L|344:222,1,100,2|2,1:0|0:0,0:0:0:0:
108,200,98576,6,0,L|108:261,1,50,2|8,3:2|3:2,0:0:0:0:
208,210,98936,1,10,3:2:0:0:
358,238,99296,1,2,0:0:0:0:
258,315,99536,2,0,P|219:311|190:245,1,100,2|2,3:2|1:2,0:0:0:0:
239,235,99896,1,8,0:1:0:0:
289,225,100016,2,0,P|319:212|325:146,1,100,10|2,3:2|0:0,0:0:0:0:
20,76,100496,6,0,L|328:72,1,300,6|2,3:2|3:0,0:0:0:0:
220,136,101456,1,8,3:2:0:0:
220,232,101936,1,2,1:2:0:0:
120,228,102176,1,0,3:0:0:0:
348,320,102416,6,0,P|396:308|336:136,1,300,2|0,1:2|3:0,0:0:0:0:
243,132,103376,1,8,3:2:0:0:
44,256,103856,1,2,1:3:0:0:
144,260,104096,1,2,0:0:0:0:
452,192,104336,6,0,P|293:90|165:79,1,300,6|2,3:2|3:0,0:0:0:0:
84,100,105296,1,8,3:2:0:0:
84,216,105776,1,2,0:0:0:0:
184,216,106016,1,0,3:0:0:0:
414,289,106256,6,0,L|99:291,1,300,2|0,1:2|3:0,0:0:0:0:
232,228,107216,2,0,P|256:164|88:64,1,300,8|2,3:2|0:0,0:0:0:0:
408,288,108176,6,0,L|88:276,1,300,6|2,3:2|3:0,0:0:0:0:
208,240,109136,1,8,3:2:0:0:
208,144,109616,1,2,1:2:0:0:
108,134,109856,1,0,3:0:0:0:
336,116,110096,6,0,P|260:220|192:112,1,300,2|0,1:2|3:0,0:0:0:0:
292,72,111056,2,0,L|496:64,1,200,10|2,3:2|1:3,0:0:0:0:
392,69,111776,1,2,0:0:0:0:
88,80,112016,5,6,3:2:0:0:
188,144,112256,2,0,L|188:352,1,200,2|2,0:0|3:0,0:0:0:0:
88,352,112976,1,10,3:2:0:0:
88,352,113456,1,2,1:2:0:0:
188,296,113696,1,2,3:2:0:0:
416,208,113936,5,2,1:2:0:0:
316,355,114176,2,0,P|293:273|349:175,1,200,2|2,3:2|3:2,0:0:0:0:
446,153,114896,1,10,3:2:0:0:
496,97,115136,1,2,0:2:0:0:
446,41,115376,1,2,1:2:0:0:
346,28,115616,1,2,0:0:0:0:
16,64,115856,5,4,3:2:0:0:
160,68,129296,6,0,L|144:176,1,100,2|2,3:3|3:2,0:0:0:0:
250,173,129776,2,0,L|355:177,1,100,2|2,3:2|3:2,0:0:0:0:
456,183,130256,1,2,3:3:0:0:
476,283,130496,1,2,3:2:0:0:
456,183,130736,1,10,3:3:0:0:
17,190,131216,6,0,P|45:226|190:307,1,200,6|2,3:2|3:2,0:0:0:0:
276,288,131936,1,2,3:0:0:0:
176,304,132176,2,0,L|176:204,1,100,10|2,3:2|0:0,0:0:0:0:
276,128,132656,2,0,L|172:128,1,100,2|2,0:0|3:2,0:0:0:0:
404,220,133136,6,0,L|204:220,1,200,6|2,3:2|1:2,0:0:0:0:
104,220,133856,1,2,3:2:0:0:
204,302,134096,2,0,P|268:268|197:204,1,200,10|2,3:2|1:2,0:0:0:0:
97,211,134816,1,2,0:0:0:0:
404,72,135056,6,0,P|392:160|284:184,1,200,6|2,3:2|1:2,0:0:0:0:
195,177,135776,1,2,3:3:0:0:
295,194,136016,2,0,L|296:308,1,100,10|2,3:2|0:0,0:0:0:0:
396,344,136496,2,0,L|396:238,1,100,2|2,1:2|3:2,0:0:0:0:
164,240,136976,5,6,3:2:0:0:
264,248,137216,1,2,3:2:0:0:
164,240,137456,1,10,3:2:0:0:
64,232,137696,1,2,3:2:0:0:
296,236,137936,2,0,L|356:236,1,50,10|0,3:2|0:0,0:0:0:0:
446,166,138296,2,0,L|495:165,1,50,2|2,0:0|0:3,0:0:0:0:
396,109,138656,1,2,0:0:0:0:
92,225,138896,6,0,P|63:288|160:365,1,200,6|2,3:2|1:2,0:0:0:0:
248,351,139616,1,2,3:0:0:0:
348,337,139856,2,0,L|347:235,1,100,8|2,3:2|0:0,0:0:0:0:
247,236,140336,2,0,L|365:237,1,100,2|0,1:2|3:0,0:0:0:0:
116,222,140816,6,0,L|316:222,1,200,2|2,1:2|1:2,0:0:0:0:
416,222,141536,1,0,3:0:0:0:
316,290,141776,2,0,L|112:290,1,200,10|2,3:2|1:2,0:0:0:0:
16,287,142496,1,2,0:0:0:0:
324,340,142736,6,0,P|348:255|269:165,1,200,6|2,3:2|1:2,0:0:0:0:
185,89,143456,1,2,3:0:0:0:
285,97,143696,2,0,L|285:201,1,100,10|2,3:2|0:0,0:0:0:0:
387,203,144176,2,0,L|284:203,1,100,2|0,1:2|3:0,0:0:0:0:
57,301,144656,5,10,3:2:0:0:
7,234,144896,1,0,3:0:0:0:
57,301,145136,1,2,1:2:0:0:
157,306,145376,1,2,3:2:0:0:
257,301,145616,2,0,L|357:301,1,100,10|2,3:2|0:0,0:0:0:0:
252,301,146096,2,0,L|140:301,1,100,2|2,1:2|1:2,0:0:0:0:
456,208,146576,5,6,3:2:0:0:
356,198,147056,1,2,0:0:0:0:
256,192,147536,1,0,1:0:0:0:
356,198,148016,1,0,1:0:0:0:
56,208,148496,1,2,3:0:0:0:
156,198,148976,1,2,0:0:0:0:
256,192,149456,1,0,1:0:0:0:
156,198,149936,1,2,1:2:0:0:
456,208,150416,5,6,3:2:0:0:
356,198,150896,1,2,0:0:0:0:
256,192,151376,1,0,1:0:0:0:
156,198,151856,1,2,1:2:0:0:
456,208,152336,1,2,3:0:0:0:
356,198,152816,1,2,0:0:0:0:
456,208,153296,1,2,1:2:0:0:
356,198,153776,1,2,1:2:0:0:
56,208,154256,5,6,3:2:0:0:
156,198,154736,1,2,0:0:0:0:
256,192,155216,1,0,1:0:0:0:
156,198,155696,1,2,1:2:0:0:
456,208,156176,1,6,3:2:0:0:
356,198,156656,1,2,0:0:0:0:
256,192,157136,1,0,1:0:0:0:
356,198,157616,1,2,1:2:0:0:
56,208,158096,5,6,3:2:0:0:
156,198,158576,1,2,0:0:0:0:
256,192,159056,1,0,1:0:0:0:
356,198,159536,1,2,1:2:0:0:
256,192,160016,12,2,161456,3:2:0:0:
124,296,161936,5,6,3:2:0:0:
192,300,162056,1,8,3:2:0:0:
302,217,162296,1,8,3:2:0:0:
236,220,162416,2,0,L|236:320,1,100,2|2,0:3|0:0,0:0:0:0:
304,324,162776,1,2,0:0:0:0:
372,328,162896,5,2,1:2:0:0:
405,330,163016,1,2,0:2:0:0:
372,328,163136,1,2,0:2:0:0:
140,316,163376,2,0,L|40:316,1,100,2|2,3:2|0:0,0:0:0:0:
372,132,163856,5,2,3:2:0:0:
304,128,163976,1,8,3:2:0:0:
194,211,164216,1,8,3:2:0:0:
260,208,164336,2,0,L|260:108,1,100,2|2,1:2|0:0,0:0:0:0:
28,292,164816,6,0,L|240:300,1,200,10|10,3:2|3:2,0:0:0:0:
117,308,165536,1,2,0:0:0:0:
420,348,165776,5,2,3:2:0:0:
352,340,165896,1,8,3:2:0:0:
242,268,166136,1,8,3:2:0:0:
310,259,166256,2,0,L|310:157,1,100,2|2,1:3|0:0,0:0:0:0:
242,148,166616,1,2,0:0:0:0:
174,133,166736,5,2,1:2:0:0:
174,133,166856,1,2,0:2:0:0:
242,148,166976,1,2,0:2:0:0:
476,240,167216,2,0,L|356:240,1,100,2|2,3:2|0:0,0:0:0:0:
44,244,167696,5,2,3:2:0:0:
76,244,167816,1,8,3:2:0:0:
186,311,168056,1,8,3:2:0:0:
254,312,168176,2,0,L|364:311,1,100,2|2,1:2|0:0,0:0:0:0:
128,312,168656,5,2,3:2:0:0:
18,304,168896,1,2,0:0:0:0:
254,312,169136,1,8,3:2:0:0:
364,324,169376,1,4,3:1:0:0:
25,228,169616,6,0,L|25:124,1,100,4|8,3:0|3:2,0:0:0:0:
145,84,170096,2,0,L|253:84,1,100,0|10,3:0|3:2,0:0:0:0:
312,83,170456,1,2,0:0:0:0:
379,85,170576,2,0,P|388:120|344:168,1,100,2|10,3:2|3:2,0:0:0:0:
284,188,170936,1,2,3:2:0:0:
216,212,171056,1,2,0:0:0:0:
265,213,171176,1,0,3:0:0:0:
315,214,171296,1,10,3:2:0:0:
76,264,171536,6,0,L|52:160,1,100,2|10,3:3|3:2,0:0:0:0:
174,95,172016,2,0,L|292:98,1,100,2|10,3:2|3:2,0:0:0:0:
44,184,172496,2,0,L|256:188,1,200,2|2,3:3|3:2,0:0:0:0:
123,255,173216,1,10,3:2:0:0:
468,200,173456,6,0,L|468:94,1,100,2|8,3:3|3:2,0:0:0:0:
348,80,173936,2,0,L|232:76,1,100,0|10,3:0|3:2,0:0:0:0:
181,74,174296,1,2,0:0:0:0:
248,76,174416,2,0,L|249:190,1,100,2|10,3:3|3:2,0:0:0:0:
309,215,174776,1,0,3:0:0:0:
369,244,174896,2,0,P|375:211|326:171,1,100,2|10,0:0|3:2,0:0:0:0:
96,312,175376,6,0,L|96:208,1,100,2|8,3:3|3:2,0:0:0:0:
404,164,175856,2,0,L|296:164,1,100,2|10,0:3|3:2,0:0:0:0:
424,233,176336,2,0,L|424:337,1,100,2|10,3:3|3:2,0:0:0:0:
116,252,176816,2,0,L|16:252,1,100,2|10,0:3|3:2,0:0:0:0:
360,176,177296,6,0,L|148:172,1,200,6|2,3:2|1:2,0:0:0:0:
60,160,178016,1,2,3:0:0:0:
292,88,178256,2,0,L|360:168,1,100,10|2,3:2|0:0,0:0:0:0:
256,40,178736,2,0,L|136:40,1,100,2|0,0:0|3:0,0:0:0:0:
464,160,179216,6,0,L|464:264,1,100,2|0,1:2|3:0,0:0:0:0:
364,245,179696,2,0,L|364:349,1,100,2|2,1:2|3:2,0:0:0:0:
132,248,180176,2,0,L|340:241,1,200,10|2,3:2|0:3,0:0:0:0:
432,237,180896,1,2,0:0:0:0:
92,80,181136,6,0,L|192:80,1,100,2|2,3:2|0:0,0:0:0:0:
92,204,181616,2,0,P|32:248|16:292,1,100,2|2,1:2|3:2,0:0:0:0:
324,310,182096,1,10,3:2:0:0:
424,270,182336,1,2,0:0:0:0:
424,170,182576,1,2,1:2:0:0:
324,130,182816,1,2,3:2:0:0:
16,116,183056,6,0,L|120:120,3,100,2|2|2|2,1:2|3:2|1:2|3:2,0:0:0:0:
424,128,184016,2,0,L|464:332,1,200,10|2,3:2|1:3,0:0:0:0:
362,283,184736,1,2,0:0:0:0:
57,266,184976,6,0,L|57:66,1,200,6|2,3:2|1:2,0:0:0:0:
256,24,185936,2,0,L|256:224,1,200,8|2,3:2|1:2,0:0:0:0:
455,118,186896,6,0,L|455:318,1,200,6|2,3:2|1:2,0:0:0:0:
256,360,187856,2,0,L|256:160,1,200,10|2,3:2|1:3,0:0:0:0:
151,133,188576,1,2,1:2:0:0:
455,118,188816,6,0,L|455:318,1,200,6|2,3:2|1:2,0:0:0:0:
256,24,189776,2,0,L|256:224,1,200,10|2,3:2|1:2,0:0:0:0:
57,318,190736,6,0,L|57:118,1,200,6|2,3:2|1:2,0:0:0:0:
256,360,191696,2,0,L|256:160,1,200,10|2,3:2|1:3,0:0:0:0:
361,156,192416,1,2,0:0:0:0:
16,120,192656,5,6,3:2:0:0:
256,192,192896,12,0,196376,0:0:0:0:
