osu file format v14

[General]
AudioFilename: audio.mp3
AudioLeadIn: 0
PreviewTime: 115796
Countdown: 0
SampleSet: Soft
StackLeniency: 0.7
Mode: 2
LetterboxInBreaks: 0
WidescreenStoryboard: 1

[Editor]
DistanceSpacing: 1
BeatDivisor: 4
GridSize: 4
TimelineZoom: 2.7

[Metadata]
Title:Atonement Twins
TitleUnicode:Atonement Twins
Artist:La priere
ArtistUnicode:La prière
Creator:bigh
Version:Cup
Source:
Tags:Feryquitous 棗いつき Natsume Itsuki 藍月なくる Aitsuki Nakuru nayuta Gemini Syndrome featured artist FA osu!catch Mapping World Cup o!cMWC cmwc 2021 cmwc2021 Rock Metal Japanese priere team_poland team_philippines team_various_countries_2 team_various_countries_3 VC2 VC#2 VC3 VC#3 alienflybot AFB AutoLs Deif Hanik Hanikawa Kurose ajamez jemzuu crowley -rustyy bastian stardust prism mniam verti kukkai bighzonda
BeatmapID:3372603
BeatmapSetID:1652079

[Difficulty]
HPDrainRate:2
CircleSize:2.5
OverallDifficulty:6
ApproachRate:6
SliderMultiplier:0.95
SliderTickRate:0.5

[Events]
//Background and Video events
0,0,"bg.jpg",0,0
//Break Periods
2,54616,59126
2,116056,128246
2,146776,158966
//Storyboard Layer 0 (Background)
//Storyboard Layer 1 (Fail)
//Storyboard Layer 2 (Pass)
//Storyboard Layer 3 (Foreground)
//Storyboard Layer 4 (Overlay)
//Storyboard Sound Samples

[TimingPoints]
-304,240,4,2,11,75,1,0
656,-100,4,2,11,70,0,0
8576,-100,4,2,11,70,0,0
10256,-100,4,2,11,60,0,0
12416,-100,4,2,11,70,0,0
14096,-100,4,2,11,60,0,0
16256,-100,4,2,11,70,0,0
17936,-100,4,2,11,60,0,0
20096,-100,4,2,11,70,0,0
21776,-100,4,2,11,60,0,0
39056,-100,4,2,11,60,0,0
41936,-100,4,2,11,60,0,0
42656,-100,4,2,11,60,0,0
43856,-100,4,2,11,80,0,0
44816,-100,4,2,11,80,0,0
46736,-100,4,2,11,60,0,0
54416,-100,4,2,11,45,0,0
54776,-100,4,2,12,45,0,0
55736,-100,4,2,11,45,0,0
56096,-100,4,2,12,45,0,0
56216,-100,4,2,11,45,0,0
56696,-100,4,2,12,45,0,0
57656,-100,4,2,11,45,0,0
58016,-100,4,2,12,45,0,0
58136,-100,4,2,11,45,0,0
58616,-100,4,2,12,45,0,0
59576,-100,4,2,11,45,0,0
60176,-100,4,2,11,50,0,0
60416,-100,4,2,11,55,0,0
60656,-100,4,2,11,60,0,0
60896,-100,4,2,11,65,0,0
61136,-100,4,2,11,70,0,0
61376,-100,4,2,11,75,0,0
61616,-100,4,2,11,80,0,0
61856,-100,4,2,11,90,0,0
62216,-100,4,2,11,70,0,0
69776,-100,4,2,11,80,0,1
77456,-100,4,2,11,80,0,0
86576,-100,4,2,11,80,0,0
86816,-100,4,2,11,80,0,0
89216,-100,4,2,11,80,0,0
89456,-100,4,2,11,80,0,0
92816,-100,4,2,11,90,0,0
94256,-100,4,2,11,65,0,0
103376,-100,4,2,11,80,0,0
103616,-100,4,2,11,80,0,0
110336,-100,4,2,11,80,0,0
110576,-100,4,2,11,80,0,0
115856,-100,4,2,12,50,0,0
129296,-100,4,2,12,40,0,0
129536,-100,4,2,12,50,0,0
129776,-100,4,2,12,60,0,0
130016,-100,4,2,12,70,0,0
130256,-100,4,2,12,80,0,0
130496,-100,4,2,12,90,0,0
130736,-100,4,3,12,95,0,0
131216,-100,4,2,11,80,0,0
131696,-100,4,2,11,80,0,0
138896,-100,4,2,11,70,0,0
146576,-100,4,2,11,80,0,0
146816,-100,4,2,11,45,0,0
146936,-100,4,2,12,45,0,0
147896,-100,4,2,11,45,0,0
148856,-100,4,2,12,45,0,0
149816,-100,4,2,11,45,0,0
149936,-100,4,2,12,45,0,0
150296,-100,4,2,11,45,0,0
150776,-100,4,2,12,45,0,0
151736,-100,4,2,11,45,0,0
152096,-100,4,2,12,45,0,0
152216,-100,4,2,11,45,0,0
152696,-100,4,2,12,45,0,0
153176,-100,4,2,11,45,0,0
153296,-100,4,2,12,45,0,0
153656,-100,4,2,11,45,0,0
153776,-100,4,2,12,45,0,0
154136,-100,4,2,11,45,0,0
155216,-100,4,2,12,45,0,0
155576,-100,4,2,11,45,0,0
155696,-100,4,2,12,45,0,0
156056,-100,4,2,11,45,0,0
156536,-100,4,2,12,45,0,0
157496,-100,4,2,11,45,0,0
157616,-100,4,2,12,45,0,0
157976,-100,4,2,11,45,0,0
159056,-100,4,2,12,45,0,0
159416,-100,4,2,11,45,0,0
159536,-100,4,2,12,45,0,0
159656,-100,4,2,11,45,0,0
160016,-100,4,2,11,50,0,0
160256,-100,4,2,11,55,0,0
160496,-100,4,2,11,60,0,0
160736,-100,4,2,11,65,0,0
160976,-100,4,2,11,70,0,0
161216,-100,4,2,11,75,0,0
161456,-100,4,2,11,80,0,0
161696,-100,4,2,11,90,0,0
161936,-100,4,2,11,65,0,0
162056,-100,4,2,11,70,0,0
169616,-100,4,2,11,80,0,1
177296,-100,4,2,11,70,0,0
184976,-100,4,2,11,45,0,0
193136,-100,4,2,11,30,0,0
193616,-100,4,2,11,20,0,0
194096,-100,4,2,11,10,0,0
194576,-100,4,2,11,5,0,0

[Colours]
Combo1 : 0,206,206
Combo2 : 85,170,255
Combo3 : 192,192,192
Combo4 : 164,164,255

[HitObjects]
104,280,656,6,0,L|104:136,1,142.5,2|8,3:2|3:2,0:0:0:0:
256,280,2576,2,0,L|256:136,1,142.5,2|8,3:2|3:2,0:0:0:0:
408,280,3536,1,8,3:2:0:0:
216,276,4016,1,8,3:2:0:0:
408,132,4496,6,0,L|408:276,1,142.5,2|8,3:2|3:2,0:0:0:0:
256,132,6416,2,0,L|256:276,1,142.5,2|8,3:2|3:2,0:0:0:0:
104,132,7376,1,2,3:2:0:0:
296,136,7856,1,2,3:2:0:0:
104,216,8336,5,4,3:2:0:0:
200,228,8576,1,10,3:2:0:0:
388,224,9056,1,8,3:2:0:0:
292,232,9296,1,2,3:2:0:0:
147,186,9656,2,0,L|89:183,1,47.5,2|0,3:2|0:0,0:0:0:0:
195,91,10016,1,8,3:2:0:0:
292,80,10256,6,0,P|388:140|284:220,1,285,2|8,3:2|3:2,0:0:0:0:
192,254,11216,2,0,L|389:254,1,190,2|2,3:2|3:3,0:0:0:0:
477,255,11936,1,10,3:2:0:0:
381,193,12176,5,6,3:2:0:0:
286,141,12416,1,10,3:2:0:0:
95,94,12896,1,8,3:2:0:0:
190,70,13136,1,2,3:2:0:0:
333,82,13496,2,0,L|389:87,1,47.5,2|0,3:2|0:0,0:0:0:0:
285,172,13856,1,8,3:2:0:0:
380,214,14096,6,0,P|367:258|163:357,1,285,2|10,3:2|3:2,0:0:0:0:
75,248,15056,2,0,L|74:133,2,95,2|8|2,3:2|3:2|3:0,0:0:0:0:
170,253,15776,1,10,3:2:0:0:
265,242,16016,5,6,3:2:0:0:
361,230,16256,1,8,3:2:0:0:
171,162,16736,1,8,3:2:0:0:
267,154,16976,1,2,3:2:0:0:
409,78,17336,2,0,L|351:81,1,47.5,2|0,3:2|0:0,0:0:0:0:
266,85,17696,1,8,3:2:0:0:
175,225,17936,6,0,P|286:219|262:80,1,285,2|10,3:0|3:2,0:0:0:0:
169,142,18896,2,0,P|139:181|219:273,1,190,2|2,3:2|3:0,0:0:0:0:
311,275,19616,1,10,3:2:0:0:
406,327,19856,5,6,3:2:0:0:
311,275,20096,1,10,3:2:0:0:
120,228,20576,1,8,3:2:0:0:
215,204,20816,1,2,3:2:0:0:
358,216,21176,2,0,L|414:221,1,47.5,2|0,3:2|0:0,0:0:0:0:
310,306,21536,1,8,3:2:0:0:
216,288,21776,6,0,P|176:248|288:104,1,285,2|8,3:2|3:2,0:0:0:0:
380,112,22736,2,0,L|381:227,2,95,2|10|2,3:2|3:2|3:0,0:0:0:0:
285,205,23456,1,10,3:2:0:0:
190,202,23696,5,2,3:2:0:0:
190,202,24656,2,0,P|148:193|199:108,1,190,2|2,0:0|0:1,0:0:0:0:
295,119,25376,1,2,0:0:0:0:
390,153,25616,5,2,1:2:0:0:
390,153,26576,2,0,L|184:152,1,190,2|2,3:2|3:2,0:0:0:0:
105,150,27296,1,0,0:0:0:0:
200,148,27536,5,2,3:2:0:0:
200,148,28496,2,0,P|238:147|336:43,1,190,2|2,0:0|0:1,0:0:0:0:
241,35,29216,1,2,0:0:0:0:
336,92,29456,5,2,3:2:0:0:
336,92,30416,2,0,L|139:93,1,190,2|8,3:2|3:2,0:0:0:0:
336,173,31376,6,0,P|340:219|219:295,1,190,6|0,3:2|0:0,0:0:0:0:
142,286,32096,1,10,3:2:0:0:
47,238,32336,2,0,P|48:141|126:90,1,190,2|2,3:2|0:0,0:0:0:0:
309,85,33296,6,0,L|107:94,2,190,2|2|10,3:2|3:2|3:2,0:0:0:0:
499,74,34736,1,10,3:2:0:0:
309,143,35216,6,0,P|300:220|395:284,1,190,6|0,3:2|0:0,0:0:0:0:
287,297,35936,1,8,3:2:0:0:
192,245,36176,2,0,L|396:239,2,190,2|2|2,3:2|0:0|3:0,0:0:0:0:
192,102,37616,5,2,3:3:0:0:
401,100,38096,1,2,3:3:0:0:
173,102,38576,1,2,3:3:0:0:
382,100,39056,6,0,P|382:141|171:95,1,380,6|10,3:2|3:2,0:0:0:0:
360,84,40976,2,0,P|201:52|47:191,2,380,2|10|6,1:2|3:2|3:2,0:0:0:0:
168,216,43856,6,0,P|352:220|424:52,1,380,10|10,3:2|3:2,0:0:0:0:
236,44,45296,1,2,1:2:0:0:
44,96,45776,6,0,P|40:144|148:224,1,190,10|2,3:2|1:3,0:0:0:0:
236,215,46496,1,0,0:0:0:0:
331,209,46736,6,0,B|372:197|441:148|387:41|142:36,1,380,6|8,3:2|3:2,0:0:0:0:
332,120,48656,2,0,B|380:132|432:236|384:340|184:340,2,380,10|10|6,1:2|3:2|3:2,0:0:0:0:
140,96,51536,6,0,P|100:112|176:352,1,380,10|8,3:2|1:2,0:0:0:0:
358,349,52976,1,8,1:2:0:0:
168,287,53456,6,0,P|256:154|338:293,1,380,8|6,3:2|3:2,0:0:0:0:
256,192,60176,12,2,61616,3:2:0:0:
396,312,62096,6,0,P|392:252|284:164,1,190,6|2,3:2|0:3,0:0:0:0:
112,128,63056,2,0,L|320:124,1,190,2|2,1:2|3:2,0:0:0:0:
112,128,64016,6,0,P|116:188|224:276,1,190,2|2,3:2|1:2,0:0:0:0:
396,312,64976,2,0,L|188:316,1,190,10|10,3:2|3:2,0:0:0:0:
396,232,65936,6,0,L|395:37,1,190,2|2,3:2|1:3,0:0:0:0:
205,84,66896,2,0,L|205:290,1,190,2|2,1:2|3:2,0:0:0:0:
396,272,67856,6,0,L|200:272,1,190,2|2,3:2|1:2,0:0:0:0:
16,192,68816,2,0,L|216:192,1,190,2|8,3:2|3:2,0:0:0:0:
396,200,69776,6,0,P|400:152|288:60,1,190,4|0,3:0|3:0,0:0:0:0:
211,65,70496,1,10,3:2:0:0:
112,92,70736,2,0,P|47:131|119:194,1,190,2|2,3:2|0:0,0:0:0:0:
287,258,71696,6,0,P|330:250|405:132,2,190,2|2|2,3:3|3:2|3:3,0:0:0:0:
97,261,73136,1,2,3:2:0:0:
287,96,73616,6,0,L|289:288,1,190,2|0,3:3|3:0,0:0:0:0:
385,286,74336,1,10,3:2:0:0:
480,237,74576,2,0,P|478:201|359:106,2,190,2|2|2,3:3|0:0|3:3,0:0:0:0:
480,223,76016,6,0,L|276:223,2,190,2|2|2,0:3|3:3|0:3,0:0:0:0:
290,79,77456,6,0,P|232:79|124:335,1,380,4|10,3:2|3:2,0:0:0:0:
311,225,79376,2,0,P|252:228|47:9,1,380,2|10,1:2|3:2,0:0:0:0:
239,67,81296,6,0,P|294:77|276:325,1,380,6|10,3:2|3:2,0:0:0:0:
88,204,83216,2,0,B|300:204|300:56|88:56|88:204,1,380,2|10,1:2|3:2,0:0:0:0:
468,308,85136,6,0,P|472:224|252:48,1,380,6|8,3:2|3:2,0:0:0:0:
265,47,86576,1,2,1:3:0:0:
456,176,87056,6,0,L|85:72,1,380,2|10,1:2|3:2,0:0:0:0:
281,126,88496,1,2,1:3:0:0:
91,102,88976,6,0,P|177:234|280:98,1,380,6|10,3:2|3:2,0:0:0:0:
281,102,90416,1,2,1:3:0:0:
91,211,90896,6,0,L|472:199,1,380,2|10,1:2|3:2,0:0:0:0:
280,180,92336,1,2,1:3:0:0:
90,157,92816,5,2,3:2:0:0:
90,157,94256,1,2,1:0:0:0:
280,162,94736,5,2,3:2:0:0:
280,162,95696,2,0,L|74:157,1,190,2|10,3:2|3:2,0:0:0:0:
280,81,96656,5,2,3:2:0:0:
280,81,97616,2,0,L|469:86,1,190,2|2,0:0|1:0,0:0:0:0:
279,164,98576,5,2,3:2:0:0:
279,164,99536,2,0,L|69:154,1,190,2|10,3:2|3:2,0:0:0:0:
280,213,100496,6,0,P|224:352|80:240,1,380,6|8,3:2|3:2,0:0:0:0:
269,130,101936,1,2,1:2:0:0:
459,91,102416,2,0,P|340:200|464:336,1,380,2|8,1:2|3:2,0:0:0:0:
270,331,103856,1,2,1:3:0:0:
80,255,104336,6,0,P|281:233|399:110,1,380,6|8,3:2|3:2,0:0:0:0:
209,64,105776,1,2,0:0:0:0:
399,185,106256,2,0,P|48:205|20:214,1,380,2|8,1:2|3:2,0:0:0:0:
404,360,108176,6,0,P|460:328|392:80,1,380,6|8,3:2|3:2,0:0:0:0:
204,60,109616,1,2,1:2:0:0:
14,4,110096,2,0,P|81:192|233:283,1,380,2|10,1:2|3:2,0:0:0:0:
418,268,111536,1,2,1:3:0:0:
228,351,112016,6,0,P|169:310|215:42,1,380,6|10,3:2|3:2,0:0:0:0:
399,93,113456,1,2,1:2:0:0:
209,66,113936,2,0,B|390:145|390:145|195:152,1,380,2|10,1:2|3:2,0:0:0:0:
18,167,115376,1,2,1:2:0:0:
208,189,115856,5,4,3:2:0:0:
256,192,129296,12,8,130736,3:3:0:0:
130,284,131216,6,0,P|130:243|341:289,1,380,6|10,3:2|3:2,0:0:0:0:
152,300,133136,2,0,P|311:332|465:193,2,380,6|10|6,3:2|3:2|3:2,0:0:0:0:
344,168,136016,6,0,P|192:200|296:324,1,380,10|6,3:2|3:2,0:0:0:0:
484,320,137456,1,10,3:2:0:0:
294,324,137936,6,0,P|290:276|398:196,1,190,10|2,3:2|0:3,0:0:0:0:
296,168,138656,1,2,0:0:0:0:
200,148,138896,6,0,P|52:184|88:372,1,380,6|8,3:2|3:2,0:0:0:0:
468,216,140816,2,0,P|372:224|92:128,2,380,2|10|6,1:2|3:2|3:2,0:0:0:0:
88,284,143696,6,0,L|472:284,1,380,10|10,3:2|3:2,0:0:0:0:
280,212,145136,1,2,1:2:0:0:
92,104,145616,6,0,P|180:237|262:98,1,380,10|6,3:2|3:2,0:0:0:0:
256,192,160016,12,2,161456,3:2:0:0:
112,336,161936,6,0,B|112:240|112:240|208:240,1,190,6|2,3:2|0:3,0:0:0:0:
396,224,162896,2,0,P|348:224|240:120,1,190,2|2,1:2|3:2,0:0:0:0:
434,127,163856,6,0,B|434:223|434:223|338:223,1,190,2|2,3:2|1:2,0:0:0:0:
150,239,164816,2,0,P|198:239|306:343,1,190,10|10,3:2|3:2,0:0:0:0:
112,304,165776,6,0,P|68:288|64:152,1,190,2|2,3:2|1:3,0:0:0:0:
244,256,166736,2,0,P|288:240|292:104,1,190,2|2,1:2|3:2,0:0:0:0:
112,64,167696,6,0,L|308:64,1,190,2|2,3:2|1:2,0:0:0:0:
492,144,168656,2,0,L|292:144,1,190,2|8,3:2|3:2,0:0:0:0:
112,172,169616,6,0,P|48:224|112:284,1,190,4|0,3:0|3:0,0:0:0:0:
204,280,170336,1,10,3:2:0:0:
300,268,170576,2,0,L|96:264,1,190,2|2,3:2|0:0,0:0:0:0:
300,176,171536,6,0,P|340:168|432:48,2,190,2|2|2,3:3|3:2|3:3,0:0:0:0:
109,103,172976,1,2,3:2:0:0:
300,152,173456,6,0,P|352:156|432:264,1,190,2|0,3:3|3:0,0:0:0:0:
337,240,174176,1,10,3:2:0:0:
242,226,174416,2,0,L|49:214,2,190,2|2|2,3:3|0:0|3:3,0:0:0:0:
242,341,175856,5,2,3:3:0:0:
33,343,176336,1,2,3:3:0:0:
261,341,176816,1,2,3:3:0:0:
470,266,177296,6,0,P|488:206|276:33,1,380,6|10,3:2|3:2,0:0:0:0:
92,144,179216,2,0,P|148:112|440:168,1,380,2|10,1:2|3:2,0:0:0:0:
232,328,181136,6,0,B|152:328|152:248|256:248|376:248|376:88|256:96,1,380,2|10,3:2|3:2,0:0:0:0:
448,232,183056,2,0,P|344:232|88:112,1,380,2|10,1:2|3:2,0:0:0:0:
476,120,184976,5,6,3:2:0:0:
476,120,185936,1,8,3:2:0:0:
96,140,186896,1,6,3:2:0:0:
96,140,187856,1,10,3:2:0:0:
476,116,188816,5,6,3:2:0:0:
96,108,189776,1,10,3:2:0:0:
95,208,190736,1,6,3:2:0:0:
475,216,191696,1,10,3:2:0:0:
96,252,192656,5,6,3:2:0:0:
256,192,193136,12,0,196376,0:0:0:0:
