osu file format v14

[General]
AudioFilename: audio.mp3
AudioLeadIn: 0
PreviewTime: 61299
Countdown: 0
SampleSet: Soft
StackLeniency: 0.7
Mode: 0
LetterboxInBreaks: 0
WidescreenStoryboard: 1

[Editor]
Bookmarks: 3900,18445,32991,47536,62082,76640,85718,100264,114822,129367,143913,162095,180277,198458,215731
DistanceSpacing: 0.8
BeatDivisor: 4
GridSize: 4
TimelineZoom: 0.8999997

[Metadata]
Title:Dulce Locura
TitleUnicode:Dulce Locura
Artist:La Oreja de Van Gogh
ArtistUnicode:La Oreja de Van Gogh
Creator:MkGuh
Version:Avanzado
Source:
Tags:LODVG LOVG female vocalist Krisom Madness Craziness Collab Collaboration Spanish Español Latin Pop LatinPop Latino Espanol Guapa The Sims 2 Two Pets EA Games Electronic Arts Simlish Spain España Amaia Montero
BeatmapID:2580769
BeatmapSetID:1241389

[Difficulty]
HPDrainRate:5
CircleSize:4.5
OverallDifficulty:6.5
ApproachRate:7
SliderMultiplier:1.82
SliderTickRate:1

[Events]
//Background and Video events
0,0,"memories-wallpaper-1600x1200.jpg",0,0
//Break Periods
2,85931,92104
//Storyboard Layer 0 (Background)
//Storyboard Layer 1 (Fail)
//Storyboard Layer 2 (Pass)
//Storyboard Layer 3 (Foreground)
//Storyboard Layer 4 (Overlay)
//Storyboard Sound Samples

[TimingPoints]
277,454.545454545455,4,2,1,45,1,0
3913,-181.818181818181,4,2,1,45,0,0
5731,-133.333333333333,4,2,1,45,0,0
7549,-250,4,2,1,45,0,0
9367,-166.666666666667,4,2,1,45,0,0
11186,-222.222222222222,4,2,1,45,0,0
13004,-142.857142857143,4,2,1,45,0,0
14822,-166.666666666667,4,2,1,45,0,0
33004,-125,4,2,1,45,0,0
47549,-100,4,2,1,45,0,0
48913,-100,4,2,1,45,0,0
58458,-86.9565217391304,4,2,1,45,0,0
61867,-100,4,2,1,45,0,0
62095,-86.9565217391304,4,2,1,70,0,1
76640,-90.9090909090909,4,2,1,70,0,0
85163,-111.111111111111,4,2,1,50,0,0
100277,-100,4,2,1,50,0,0
114254,-100,4,2,1,50,0,0
114822,-100,4,2,1,50,0,0
125731,-86.9565217391304,4,2,1,50,0,0
129367,-83.3333333333333,4,2,1,70,0,1
143458,-100,4,2,1,70,0,0
143913,-83.3333333333333,4,2,1,70,0,1
155277,-83.3333333333333,4,2,1,70,0,1
156640,-90.9090909090909,4,2,1,70,0,0
165731,-83.3333333333333,4,2,1,82,0,0
168458,-100,4,2,1,75,0,0
169367,-90.9090909090909,4,2,1,70,0,0
182095,-100,4,2,1,82,0,0
183913,-76.9230769230769,4,2,1,85,0,1
212095,-100,4,2,1,70,0,0
214367,-133.333333333333,4,2,1,70,0,0
214822,-100,4,2,1,70,0,0
215017,-200,4,2,1,70,0,0
215163,-100,4,2,1,5,0,0
215674,-100,4,2,1,70,0,0
216640,-100,4,2,1,65,0,0
217095,-100,4,2,1,55,0,0
217549,-100,4,2,1,45,0,0
218004,-100,4,2,1,35,0,0
218458,-100,4,2,1,5,0,0

[Colours]
Combo1 : 255,51,51
Combo2 : 0,204,204
Combo3 : 255,162,117
Combo4 : 176,88,0

[HitObjects]
404,76,3913,6,0,B|376:124|320:144|268:112|256:76|244:40|192:8|136:28|108:76,1,350.350010691834,2|0,0:0|0:0,0:0:0:0:
108,75,5731,1,2,0:0:0:0:
310,294,7549,6,0,B|309:317|322:339|322:339|275:347|256:377|256:377|238:345|186:335|186:335|206:312|202:281,1,254.8,2|2,0:0|0:0,0:0:0:0:
152,230,9367,2,0,P|257:201|365:233,1,218.399993334961,2|0,0:0|0:0,0:0:0:0:
27,324,11186,6,0,B|-9:284|-1:208|79:240|79:144|-1:176|-9:100|27:60,1,286.649991252136,2|0,0:0|0:0,0:0:0:0:
101,30,13004,2,0,P|175:103|414:24,1,382.199988336182,2|2,0:0|0:0,0:0:0:0:
211,347,14822,2,0,P|255:191|298:347,1,436.799986669922,2|2,0:0|0:0,0:0:0:0:
210,246,18458,6,0,P|198:182|214:134,1,109.199996667481,2|0,0:0|0:0,0:0:0:0:
256,88,19140,1,0,0:0:0:0:
297,140,19367,2,0,P|310:193|298:246,1,109.199996667481,2|0,0:0|0:0,0:0:0:0:
256,300,20049,1,0,0:0:0:0:
299,246,20277,2,0,L|367:246,2,54.5999983337403,2|0|0,0:0|0:0|0:0,0:0:0:0:
256,192,20958,1,0,0:0:0:0:
213,246,21186,2,0,L|145:246,2,54.5999983337403,2|0|0,0:0|0:0|3:0,0:0:0:0:
256,192,21867,1,0,0:0:0:0:
300,140,22095,6,0,L|324:88,2,54.5999983337403,2|0|0,0:0|0:0|0:0,0:0:0:0:
256,192,22777,1,0,0:0:0:0:
212,140,23004,2,0,L|188:88,2,54.5999983337403,2|0|0,0:0|0:0|0:0,0:0:0:0:
256,192,23686,1,0,0:0:0:0:
300,140,23913,1,2,0:0:0:0:
160,128,25731,6,0,B|120:128|120:128|88:140|88:140|48:140,1,109.199996667481,2|0,0:0|0:0,0:0:0:0:
8,192,26413,1,0,0:0:0:0:
52,244,26640,2,0,B|88:244|88:244|120:256|120:256|160:256,1,109.199996667481,2|0,0:0|0:0,0:0:0:0:
220,296,27322,1,0,0:0:0:0:
200,364,27549,2,0,L|136:376,2,54.5999983337403,2|0|0,0:0|0:0|0:0,0:0:0:0:
220,296,28231,1,2,0:0:0:0:
292,296,28458,1,0,0:0:0:0:
312,364,28686,2,0,L|376:376,2,54.5999983337403,0|2|0,0:0|0:0|0:0,0:0:0:0:
292,296,29367,6,0,B|292:268|292:268|304:244,2,54.5999983337403,2|0|2,0:0|0:0|0:0,0:0:0:0:
256,356,30049,1,0,0:0:0:0:
220,296,30277,2,0,B|220:268|220:268|208:244,2,54.5999983337403,2|0|2,0:0|0:0|0:0,0:0:0:0:
214,47,31186,6,0,P|243:20|302:58,1,109.199996667481,2|0,0:0|0:0,0:0:0:0:
348,100,31867,1,0,0:0:0:0:
320,164,32095,1,2,0:0:0:0:
256,136,32322,1,2,0:0:0:0:
192,164,32549,1,2,0:0:0:0:
164,100,32777,1,0,0:0:0:0:
119,157,33004,6,0,P|83:197|53:203,1,72.8,2|0,0:0|0:0,0:0:0:0:
16,255,33458,1,0,0:0:0:0:
70,303,33686,1,2,0:0:0:0:
123,254,33913,2,0,B|159:254|159:254|185:285,1,72.8,0|0,0:0|0:0,0:0:0:0:
219,344,34367,1,2,0:0:0:0:
292,344,34595,1,0,0:0:0:0:
329,282,34822,2,0,B|353:254|353:254|389:254,1,72.8,2|0,0:0|0:0,0:0:0:0:
442,303,35277,1,0,0:0:0:0:
496,255,35505,1,2,0:0:0:0:
445,202,35732,2,0,P|413:186|393:157,1,72.8,0|2,0:0|0:0,0:0:0:0:
341,105,36186,1,0,0:0:0:0:
395,56,36413,1,2,0:0:0:0:
341,105,36640,6,0,L|285:44,1,72.8,0|2,0:0|0:0,0:0:0:0:
256,116,37095,2,0,L|256:188,1,72.8,0|2,0:0|0:0,0:0:0:0:
171,105,37549,2,0,L|227:44,1,72.8,0|2,0:0|0:0,0:0:0:0:
256,116,38004,1,2,0:0:0:0:
291,51,38231,1,0,0:0:0:0:
220,51,38458,2,0,B|172:51|172:51|148:59|148:59|64:59,1,145.6,2|0,0:0|0:0,0:0:0:0:
4,60,39140,2,0,B|4:152|4:152|40:192,1,145.6,2|0,1:2|0:0,0:0:0:0:
112,192,39822,1,2,0:0:0:0:
112,192,40277,6,0,L|88:272,1,72.8,2|0,0:0|0:0,0:0:0:0:
64,328,40731,1,2,0:0:0:0:
128,360,40958,1,0,0:0:0:0:
180,312,41186,2,0,B|180:272|180:272|204:240,1,72.8,2|0,0:0|0:0,0:0:0:0:
220,176,41640,1,0,0:0:0:0:
292,176,41867,1,2,0:0:0:0:
312,245,42095,2,0,B|332:272|332:272|332:312,1,72.8,2|0,0:0|0:0,0:0:0:0:
384,360,42550,1,0,0:0:0:0:
448,328,42777,1,2,0:0:0:0:
420,261,43004,2,0,L|400:192,1,72.8,0|2,0:0|0:0,0:0:0:0:
380,120,43458,1,0,0:0:0:0:
452,100,43686,1,0,0:0:0:0:
380,120,43913,6,0,P|352:88|348:60,1,72.8,2|0,0:0|0:0,0:0:0:0:
296,156,44367,2,0,L|316:225,1,72.8,0|2,0:0|0:0,0:0:0:0:
195,225,44822,2,0,L|216:156,1,72.8,2|0,0:0|0:0,0:0:0:0:
163,59,45276,2,0,P|157:94|132:120,1,72.8,0|2,0:0|0:0,0:0:0:0:
88,56,45731,5,2,0:0:0:0:
92,60,46186,5,0,0:0:0:0:
183,81,46413,1,0,0:0:0:0:
269,101,46640,1,2,0:0:0:0:
388,176,46867,5,0,0:0:0:0:
297,197,47094,1,2,0:0:0:0:
211,217,47321,1,2,0:0:0:0:
256,312,47549,6,0,P|176:344|80:304,1,182,4|2,0:0|0:3,0:0:0:0:
20,252,48231,1,0,0:0:0:0:
88,192,48458,2,0,B|72:140|104:104|112:112|144:72|128:20,1,182,0|2,1:3|3:0,0:0:0:0:
36,24,49140,1,0,0:0:0:0:
128,22,49367,2,0,P|172:42|208:20,1,91,2|0,3:0|0:0,0:0:0:0:
305,22,49822,2,0,P|345:42|384:22,1,91,0|0,1:3|0:0,0:0:0:0:
476,20,50277,1,2,0:0:0:0:
383,22,50504,2,0,B|368:72|400:112|408:104|440:140|424:192,1,182,0|0,0:0|0:0,0:0:0:0:
428,284,51186,5,4,1:3:0:0:
504,336,51413,2,0,P|460:376|408:372,1,91,0|2,0:0|0:3,0:0:0:0:
352,336,51867,1,0,0:0:0:0:
300,260,52095,2,0,B|256:248|256:248|212:260,1,91,4|0,1:3|0:0,0:0:0:0:
160,336,52549,1,2,0:3:0:0:
81,378,52777,2,0,P|37:369|8:336,2,91,0|6|0,0:0|0:3|0:0,0:0:0:0:
164,340,53458,1,2,3:0:0:0:
164,340,53913,1,4,1:3:0:0:
92,276,54140,2,0,P|120:191|93:105,1,182,2|0,0:0|0:0,0:0:0:0:
20,48,54822,6,0,B|72:76|108:48|116:48|152:20|196:44,1,182,4|2,0:0|0:3,0:0:0:0:
256,112,55504,1,2,0:0:0:0:
316,44,55731,2,0,B|360:20|396:48|404:48|440:76|492:48,1,182,2|2,3:0|0:3,0:0:0:0:
380,192,56640,2,0,B|336:224|336:224|336:268|336:268|320:296|320:296|320:360,1,182,4|2,0:3|0:3,0:0:0:0:
192,347,57322,2,0,B|192:296|192:296|176:268|176:268|176:224|176:224|132:192,1,182,2|0,0:0|0:3,0:0:0:0:
212,152,58004,2,0,B|256:164|256:164|300:152,1,91,0|0,0:0|0:0,0:0:0:0:
352,60,58458,6,0,B|256:88|256:88|140:56,2,209.300003992081,4|0|4,3:0|1:0|3:0,0:0:0:0:
508,192,59822,1,0,1:0:0:0:
361,325,60277,2,0,B|256:296|256:296|160:324,1,209.300003992081,4|0,3:0|1:0,0:0:0:0:
79,256,60958,1,0,0:0:0:0:
152,191,61186,1,4,3:0:0:0:
80,128,61413,1,0,3:0:0:0:
0,192,61640,1,0,1:0:0:0:
80,128,61867,1,2,0:0:0:0:
80,128,61981,1,0,0:0:0:0:
80,128,62095,6,0,B|112:96|112:96|124:96|124:96|160:60,1,104.65000199604,4|0,0:0|0:0,0:0:0:0:
256,104,62549,1,0,1:0:0:0:
354,62,62777,2,0,B|388:96|388:96|400:96|400:96|432:128,1,104.65000199604,2|0,0:0|0:0,0:0:0:0:
508,200,63231,1,0,0:0:0:0:
452,288,63458,1,0,1:0:0:0:
392,376,63686,1,0,0:0:0:0:
307,323,63913,6,0,B|258:333|258:333|202:301,1,104.65000199604,2|0,3:0|0:0,0:0:0:0:
205,300,64254,2,0,B|160:276|160:276|105:289,1,104.65000199604,2|0,3:0|0:0,0:0:0:0:
102,290,64595,1,0,0:0:0:0:
12,246,64822,2,0,B|-2:196|-2:196|28:145,1,104.65000199604,2|0,3:0|0:0,0:0:0:0:
31,144,65163,2,0,B|55:99|55:99|45:45,1,104.65000199604,2|0,3:0|0:0,0:0:0:0:
44,38,65504,1,2,0:0:0:0:
160,48,65731,6,0,B|192:80|236:80|260:60|252:48|276:20|316:20|348:48,1,209.300003992081,4|0,3:0|1:0,0:0:0:0:
444,92,66413,1,2,0:0:0:0:
444,92,66527,1,0,0:0:0:0:
444,92,66640,1,4,3:0:0:0:
408,192,66867,1,0,0:0:0:0:
376,292,67095,2,0,P|424:320|472:300,1,104.65000199604,0|2,1:0|0:0,0:0:0:0:
408,192,67549,6,0,L|288:216,1,104.65000199604,4|0,3:0|0:0,0:0:0:0:
301,220,67890,2,0,L|185:244,1,104.65000199604,2|0,3:0|0:0,0:0:0:0:
193,250,68231,1,2,0:0:0:0:
122,327,68458,2,0,P|83:280|102:226,1,104.65000199604,4|0,3:0|0:0,0:0:0:0:
98,232,68799,2,0,P|102:181|66:145,1,104.65000199604,2|0,0:0|0:0,0:0:0:0:
58,142,69140,1,2,0:0:0:0:
51,41,69367,5,4,3:0:0:0:
51,41,69595,1,2,0:0:0:0:
155,69,69822,1,0,1:0:0:0:
155,69,70049,2,0,B|217:69|256:92|256:92|294:70|358:68,1,209.300003992081,2|4,0:0|3:0,0:0:0:0:
437,110,70731,2,0,L|420:229,1,104.65000199604,0|0,1:0|0:0,0:0:0:0:
466,348,71186,6,0,B|477:283|477:283|494:260|494:260|506:197,2,156.975002994061,4|2|2,3:0|0:0|0:0,0:0:0:0:
365,314,72095,1,4,3:0:0:0:
365,314,72322,2,0,B|333:286|293:286|269:314|277:326|253:346|209:346|177:314,1,209.300003992081,2|0,0:0|0:0,0:0:0:0:
113,229,73004,5,4,3:0:0:0:
34,297,73231,1,0,0:0:0:0:
19,193,73458,1,0,1:0:0:0:
97,123,73686,1,2,0:0:0:0:
110,19,73913,1,4,3:0:0:0:
203,66,74140,1,0,0:0:0:0:
309,66,74367,1,0,1:0:0:0:
402,19,74594,1,0,0:0:0:0:
494,67,74822,6,0,P|455:138|388:111,1,156.975002994061,4|0,3:0|0:0,0:0:0:0:
393,119,75277,1,0,1:0:0:0:
309,66,75504,1,0,0:0:0:0:
256,156,75731,1,4,3:0:0:0:
256,156,75845,1,0,3:0:0:0:
256,156,75958,1,4,3:0:0:0:
344,212,76186,1,0,1:0:0:0:
436,260,76413,1,2,0:0:0:0:
348,308,76640,6,0,B|317:335|278:335|255:308|262:296|239:277|196:277|166:308,1,200.200006109619,4|0,0:0|1:0,0:0:0:0:
76,348,77322,2,0,B|44:344|16:312|16:312|60:188,1,200.200006109619,2|4,0:0|3:0,0:0:0:0:
89,97,78004,1,0,1:0:0:0:
89,97,78231,1,0,3:0:0:0:
184,83,78458,2,0,B|208:31|256:19|256:19|304:31|328:87,1,200.200006109619,2|0,0:0|1:0,0:0:0:0:
423,97,79140,2,0,P|466:86|488:29,2,100.10000305481,2|4|0,0:0|3:0|0:0,0:0:0:0:
399,194,79822,1,0,1:0:0:0:
399,194,80049,1,2,0:0:0:0:
454,277,80277,6,0,P|428:350|294:348,1,200.200006109619,4|0,3:0|1:0,0:0:0:0:
310,266,80958,2,0,P|256:197|200:264,1,200.200006109619,2|0,0:0|0:0,0:0:0:0:
194,366,81640,2,0,P|99:362|58:277,2,200.200006109619,0|4|0,1:0|3:0|1:0,0:0:0:0:
257,288,82777,2,0,L|357:288,1,100.10000305481,2|4,0:0|3:0,0:0:0:0:
457,290,83231,1,0,0:0:0:0:
430,193,83458,2,0,L|330:193,1,100.10000305481,0|0,1:0|0:0,0:0:0:0:
256,124,83913,6,0,P|304:49|412:93,1,200.200006109619,4|0,3:0|1:0,0:0:0:0:
345,156,84595,1,0,0:0:0:0:
256,124,84822,1,2,0:0:0:0:
183,188,85049,1,0,0:0:0:0:
277,226,85277,1,0,1:0:0:0:
333,309,85504,1,0,0:0:0:0:
255,371,85731,5,4,0:0:0:0:
40,272,93004,6,0,B|104:272|104:272|160:272|184:324,1,163.799995001221,2|0,0:0|0:0,0:0:0:0:
256,364,93686,1,2,0:0:0:0:
328,324,93913,2,0,B|351:273|407:273|407:273|471:273,1,163.799995001221,0|2,0:0|0:0,0:0:0:0:
493,194,94595,1,0,0:0:0:0:
493,194,94822,2,0,P|480:152|501:115,1,81.8999975006104,2|0,0:0|0:0,0:0:0:0:
427,74,95277,1,0,0:0:0:0:
357,117,95504,1,2,0:0:0:0:
294,63,95731,2,0,B|255:48|255:48|217:63,1,81.8999975006104
155,117,96186,1,2,0:0:0:0:
85,74,96413,1,0,0:0:0:0:
84,155,96640,6,0,P|64:250|-10:229,1,163.799995001221,2|0,0:0|0:0,0:0:0:0:
15,331,97322,1,2,0:0:0:0:
85,372,97549,1,0,0:0:0:0:
166,350,97777,1,0,0:0:0:0:
180,272,98004,1,2,0:0:0:0:
180,272,98458,2,0,B|220:260|256:292|256:292|288:260|332:272,1,163.799995001221,2|0,0:0|0:0,0:0:0:0:
412,252,99140,1,0,0:0:0:0:
468,192,99367,1,2,0:0:0:0:
412,132,99595,1,0,0:0:0:0:
356,192,99822,1,2,0:0:0:0:
412,132,100049,1,0,0:0:0:0:
480,68,100277,6,0,B|448:88|416:88|396:72|396:64|376:44|340:44|308:68,1,182,4|0,3:0|0:0,0:0:0:0:
256,140,100958,1,4,3:0:0:0:
202,66,101186,2,0,B|172:44|136:44|116:64|116:72|96:88|64:88|32:68,1,182,0|0,1:0|0:0,0:0:0:0:
32,160,101867,1,2,0:0:0:0:
88,232,102095,2,0,B|132:232|132:232|160:280,1,91,8|0,3:0|0:0,0:0:0:0:
104,348,102549,2,0,B|60:348|60:348|32:300,1,91,4|0,3:0|0:0,0:0:0:0:
88,232,103004,1,0,1:0:0:0:
132,152,103231,1,0,0:0:0:0:
212,192,103458,1,0,3:0:0:0:
304,192,103686,1,2,0:0:0:0:
384,152,103913,6,0,P|420:188|424:240,1,91,8|0,0:3|0:0,0:0:0:0:
346,266,104367,2,0,P|310:230|306:178,1,91,0|4,0:3|3:0,0:0:0:0:
384,152,104822,1,0,1:0:0:0:
464,108,105049,2,0,L|428:16,2,91,0|0|0,0:0|0:0|3:0,0:0:0:0:
384,152,105731,2,0,P|294:116|255:44,1,182,4|4,3:0|3:0,0:0:0:0:
166,66,106413,1,0,0:0:0:0:
134,151,106640,1,0,1:0:0:0:
44,120,106867,1,0,0:0:0:0:
56,212,107095,1,2,0:0:0:0:
140,244,107322,1,0,1:0:0:0:
67,300,107549,6,0,B|67:368|139:368|139:368|215:368,1,182,4|0,3:0|0:0,0:0:0:0:
256,292,108231,1,4,3:0:0:0:
303,368,108458,2,0,B|372:368|372:368|444:368|444:300,1,182,0|0,1:0|0:0,0:0:0:0:
372,244,109140,1,0,0:0:0:0:
456,212,109367,1,0,3:0:0:0:
384,152,109595,2,0,P|432:120|488:132,2,91,2|0|0,0:0|0:0|3:0,0:0:0:0:
304,108,110277,1,0,1:0:0:0:
208,108,110504,1,0,0:0:0:0:
128,152,110731,2,0,P|80:120|24:132,1,91,0|0,0:0|0:0,0:0:0:0:
60,212,111186,5,8,0:3:0:0:
92,296,111413,2,0,L|204:280,1,91
256,232,111867,1,4,3:0:0:0:
302,307,112095,1,0,1:0:0:0:
364,244,112322,2,0,L|476:228,1,91,0|2,0:0|0:3,0:0:0:0:
512,315,112777,2,0,P|481:368|383:324,1,182,2|0,0:0|1:0,0:0:0:0:
302,307,113458,1,4,3:0:0:0:
256,232,113686,1,0,3:0:0:0:
182,283,113913,1,0,1:0:0:0:
221,364,114140,1,0,1:0:0:0:
182,283,114367,2,0,B|126:299|126:299|122:315|122:315|58:335,1,136.5,8|0,0:3|0:0,0:0:0:0:
8,236,114822,6,0,B|28:252|76:260|104:204|104:204|132:144,1,182,6|0,1:2|0:0,0:0:0:0:
172,64,115504,1,4,3:0:0:0:
88,28,115731,2,0,B|48:28|48:28|40:36|40:36|-8:36,2,91,2|0|2,1:2|0:0|0:0,0:0:0:0:
172,64,116413,1,0,0:0:0:0:
256,100,116640,2,0,B|287:127|326:127|349:100|342:88|365:69|408:69|436:98,1,182,4|4,3:0|3:0,0:0:0:0:
480,260,117549,1,2,1:2:0:0:
464,348,117777,2,0,P|408:312|412:200,1,182,2|0,0:0|0:0,0:0:0:0:
480,152,118458,5,4,3:0:0:0:
422,87,118686,2,0,L|316:116,1,91,0|2,0:0|0:0,0:0:0:0:
244,132,119140,1,4,3:0:0:0:
300,204,119367,1,0,1:0:0:0:
244,276,119595,2,0,L|138:305,1,91,0|2,0:0|0:0,0:0:0:0:
72,264,120049,1,0,0:0:0:0:
40,348,120277,2,0,L|64:152,1,182,4|4,3:0|3:0,0:0:0:0:
204,56,121186,1,0,1:0:0:0:
192,148,121413,2,0,P|168:144|120:88,2,91,0|2|0,0:0|0:0|0:0,0:0:0:0:
204,56,122095,6,0,B|235:29|274:29|297:56|290:68|313:87|356:87|384:58,1,182,4|0,3:0|1:0,0:0:0:0:
447,129,122777,1,2,0:0:0:0:
376,192,123004,2,0,P|356:236|372:288,1,91,0|0,1:0|0:0,0:0:0:0:
340,364,123458,1,2,0:0:0:0:
255,330,123686,1,2,0:0:0:0:
176,284,123913,2,0,B|156:300|112:296|92:268|100:256|80:228|36:224|16:244,1,182,4|4,3:0|3:0,0:0:0:0:
40,332,124595,2,0,L|152:184,1,182,2|0,0:0|0:0,0:0:0:0:
84,124,125277,1,2,3:0:0:0:
152,64,125504,1,0,0:0:0:0:
256,136,125731,6,0,B|272:208|272:208|236:252|236:252|256:328,2,209.300003992081,4|0|4,3:0|1:0|3:0,0:0:0:0:
452,192,127095,1,0,1:0:0:0:
512,280,127322,1,0,3:0:0:0:
455,363,127549,2,0,B|389:365|389:365|324:328|324:328|252:328,1,209.300003992081,0|0,1:0|1:0,0:0:0:0:
152,328,128231,1,0,3:0:0:0:
80,252,128458,1,0,1:0:0:0:
168,192,128686,1,0,3:0:0:0:
80,132,128913,1,0,1:0:0:0:
168,76,129140,1,2,0:0:0:0:
168,76,129254,1,0,1:0:0:0:
167,76,129367,6,0,P|220:85|254:127,1,109.199996667481,4|0,0:0|0:0,0:0:0:0:
256,236,129822,1,0,1:0:0:0:
256,344,130049,2,0,P|296:380|368:376,1,109.199996667481,0|2,0:0|3:2,0:0:0:0:
444,332,130504,1,0,3:0:0:0:
356,264,130731,1,0,1:0:0:0:
456,220,130958,1,2,0:0:0:0:
380,140,131186,6,0,B|364:88|364:88|396:28,1,109.199996667481,4|0,0:3|0:0,0:0:0:0:
400,32,131527,2,0,B|352:56|352:56|280:36,1,109.199996667481,2|0,0:3|0:0,0:0:0:0:
288,36,131867,1,2,0:3:0:0:
180,16,132095,2,0,B|164:68|164:68|196:128,1,109.199996667481,4|0,0:3|0:0,0:0:0:0:
200,124,132436,2,0,B|152:100|152:100|80:120,1,109.199996667481,2|0,0:3|0:0,0:0:0:0:
88,120,132776,1,2,0:3:0:0:
4,192,133004,6,0,B|16:240|60:252|96:236|92:228|124:212|168:224|176:272,1,218.399993334961,4|0,3:0|1:0,0:0:0:0:
256,348,133686,1,0,3:0:0:0:
256,348,133799,1,0,0:0:0:0:
256,348,133913,1,2,3:2:0:0:
360,312,134140,1,0,3:0:0:0:
460,272,134367,2,0,P|424:212|448:156,1,109.199996667481,0|0,1:2|3:0,0:0:0:0:
432,68,134822,6,0,P|368:108|324:84,1,109.199996667481,4|0,0:3|0:0,0:0:0:0:
332,92,135163,2,0,P|279:86|241:123,1,109.199996667481,2|0,0:3|0:0,0:0:0:0:
240,136,135504,1,2,0:3:0:0:
256,260,135731,2,0,P|192:220|148:244,1,109.199996667481,4|0,0:3|0:0,0:0:0:0:
156,236,136072,2,0,P|103:241|65:204,1,109.199996667481,2|0,0:3|0:0,0:0:0:0:
64,192,136413,1,2,0:3:0:0:
20,76,136640,5,4,0:3:0:0:
124,104,136867,1,2,0:0:0:0:
200,24,137095,1,0,1:0:0:0:
308,24,137322,1,0,3:0:0:0:
384,104,137549,1,2,3:2:0:0:
488,76,137776,1,0,3:0:0:0:
464,184,138004,1,0,1:2:0:0:
356,208,138231,1,0,3:0:0:0:
356,316,138458,6,0,B|396:352|432:328|432:316|468:296|508:332,2,163.799995001221,4|2|2,0:3|0:3|0:3,0:0:0:0:
259,273,139367,1,4,3:0:0:0:
259,273,139595,2,0,L|43:245,1,218.399993334961,2|0,0:0|3:0,0:0:0:0:
20,352,140277,1,4,3:0:0:0:
124,324,140504,2,0,P|160:284|160:220,1,109.199996667481,2|0,0:0|1:0,0:0:0:0:
120,132,140958,2,0,L|8:144,2,109.199996667481,0|2|0,3:0|3:2|3:0,0:0:0:0:
200,62,141640,1,0,1:0:0:0:
308,62,141867,1,0,0:0:0:0:
256,152,142095,6,0,B|296:192|336:168|332:160|368:136|408:168,1,163.799995001221,4|2,0:3|0:3,0:0:0:0:
416,176,142549,1,0,1:0:0:0:
504,112,142777,1,2,0:3:0:0:
416,176,143004,2,0,B|440:232|440:232|464:252|464:252|492:320,1,163.799995001221,4|4,0:3|0:3,0:0:0:0:
456,376,143458,5,0,1:0:0:0:
440,372,143572,1,0,1:0:0:0:
424,368,143686,1,0,1:0:0:0:
408,364,143799,1,0,1:0:0:0:
392,360,143913,6,0,P|336:344|312:288,1,109.199996667481,4|0,0:0|0:0,0:0:0:0:
256,212,144367,1,0,1:0:0:0:
348,200,144595,2,0,B|336:256|288:264|268:244|268:240|220:200|172:224|168:292,1,218.399993334961,2|0,0:1|0:0,0:0:0:0:
173,264,145163,1,0,0:0:0:0:
173,264,145277,1,0,1:0:0:0:
228,356,145504,1,2,0:1:0:0:
120,352,145731,6,0,P|80:300|84:236,1,109.199996667481,2|0,3:0|0:0,0:0:0:0:
80,248,146072,2,0,P|72:194|37:154,1,109.199996667481,2|0,3:0|0:0,0:0:0:0:
28,144,146413,1,0,0:0:0:0:
24,36,146640,2,0,P|80:64|124:40,1,109.199996667481,4|0,3:0|0:0,0:0:0:0:
128,36,146981,2,0,P|177:18|222:46,1,109.199996667481,2|0,0:0|0:0,0:0:0:0:
232,56,147322,1,0,0:0:0:0:
332,12,147549,6,0,B|380:28|388:76|372:108|368:108|352:132|364:176|400:200,1,218.399993334961,4|0,3:0|1:0,0:0:0:0:
488,264,148231,1,2,0:0:0:0:
488,264,148345,1,0,0:0:0:0:
488,264,148458,1,4,3:0:0:0:
392,320,148686,1,0,0:0:0:0:
304,256,148913,1,0,1:0:0:0:
200,292,149140,1,0,0:0:0:0:
116,360,149367,6,0,P|92:316|116:232,1,109.199996667481,4|0,3:0|0:0,0:0:0:0:
181,190,149822,2,0,P|205:234|181:318,1,109.199996667481,0|0,1:0|0:0,0:0:0:0:
84,144,150277,1,4,3:0:0:0:
84,144,150504,2,0,B|100:192|148:196|176:168|172:160|204:128|248:136|264:176,1,218.399993334961,2|2,0:0|0:1,0:0:0:0:
352,304,151186,5,4,3:0:0:0:
456,264,151413,1,2,0:0:0:0:
372,196,151640,2,0,P|392:132|452:116,1,109.199996667481,0|0,1:0|0:0,0:0:0:0:
420,4,152095,1,4,3:0:0:0:
320,44,152322,1,2,0:0:0:0:
256,136,152549,1,0,1:0:0:0:
192,48,152777,1,2,0:0:0:0:
88,8,153004,6,0,P|64:56|84:120,1,109.199996667481,4|0,3:0|0:0,0:0:0:0:
80,120,153345,2,0,P|91:172|67:220,1,109.199996667481,2|0,0:0|0:0,0:0:0:0:
56,228,153686,1,2,0:0:0:0:
32,336,153913,2,0,P|80:360|144:340,1,109.199996667481,4|0,3:0|0:0,0:0:0:0:
144,344,154254,2,0,P|196:332|244:356,1,109.199996667481,2|0,0:0|0:0,0:0:0:0:
252,365,154595,1,2,0:0:0:0:
316,280,154822,5,4,3:0:0:0:
316,280,155277,2,0,B|344:316|392:308|408:264|400:264|412:220|460:204|496:236,1,218.399993334961,2|4,1:0|3:0,0:0:0:0:
448,332,155958,1,0,0:0:0:0:
352,200,156186,2,0,P|396:160|472:144,1,109.199996667481,0|2,1:0|0:0,0:0:0:0:
448,44,156640,5,4,3:0:0:0:
352,20,156867,2,0,B|288:36|288:36|228:12|228:12|128:32,1,200.200006109619,2|0,0:0|0:0,0:0:0:0:
76,80,157549,1,4,0:3:0:0:
156,140,157777,2,0,B|224:153|224:153|284:129|284:129|348:145,1,200.200006109619,4|2,3:0|0:0,0:0:0:0:
436,192,158458,6,0,B|448:228|428:268|392:272|392:264|356:268|328:308|348:348,1,200.200006109619,4|0,3:0|1:0,0:0:0:0:
76,192,159367,2,0,B|64:228|84:268|120:272|120:264|156:268|184:308|164:348,1,200.200006109619,6|0,3:0|1:0,0:0:0:0:
256,304,160049,1,2,0:0:0:0:
346,345,160277,2,0,P|258:381|152:332,1,200.200006109619,4|0,3:0|1:0,0:0:0:0:
128,44,161186,5,0,1:0:0:0:
256,44,161413,1,4,3:0:0:0:
384,44,161640,1,0,1:0:0:0:
252,192,162095,6,0,L|200:156,3,50.0500015274048,4|0|0|0,0:0|0:0|0:0|3:0,0:0:0:0:
188,148,162549,2,0,L|146:176,3,50.0500015274048,0|0|0|0,1:0|0:0|0:0|0:0,0:0:0:0:
124,192,163004,2,0,L|72:156,3,50.0500015274048,2|0|0|0,0:0|0:0|0:0|0:0,0:0:0:0:
60,148,163458,2,0,L|18:176,3,50.0500015274048,0|0|0|0,1:0|0:0|0:0|0:0,0:0:0:0:
16,222,163913,2,0,B|56:210|92:242|80:274|88:282|80:314|112:346|156:330,1,200.200006109619,2|0,0:0|1:0,0:0:0:0:
218,255,164595,2,0,P|255:182|292:255,1,200.200006109619,2|0,0:0|0:0,0:0:0:0:
256,349,165277,1,0,1:0:0:0:
444,300,165731,5,4,0:1:0:0:
488,200,165958,1,2,0:0:0:0:
412,124,166186,1,0,1:0:0:0:
460,24,166413,1,2,0:0:0:0:
352,24,166640,2,0,B|296:36|256:72|256:72|216:36|148:24,1,218.399993334961,2|0,0:0|1:0,0:1:0:0:
52,24,167322,1,2,0:0:0:0:
100,124,167549,1,0,0:2:0:0:
24,200,167777,1,0,0:0:0:0:
68,300,168004,1,2,1:2:0:0:
68,300,168458,6,0,L|192:272,1,91,2|4,0:0|3:0,0:0:0:0:
208,204,168913,1,0,1:0:0:0:
300,204,169140,1,2,0:0:0:0:
356,280,169367,1,6,3:2:0:0:
480,64,170277,6,0,B|448:95|405:95|382:75|390:64|366:36|327:36|296:64,1,200.200006109619,2|0,3:0|1:0,0:0:0:0:
256,152,170958,1,2,0:0:0:0:
212,61,171186,2,0,B|184:36|145:36|121:64|129:75|106:95|63:95|32:64,1,200.200006109619,4|0,3:0|1:0,0:0:0:0:
28,164,171867,2,0,B|84:168|100:232|84:264|84:264|56:328,1,200.200006109619,2|0,0:0|0:0,0:0:0:0:
148,368,172549,1,0,1:0:0:0:
240,332,172777,1,2,0:1:0:0:
256,232,173004,1,4,3:0:0:0:
487,361,174367,5,0,1:0:0:0:
413,293,174595,1,0,0:0:0:0:
341,222,174822,2,0,P|356:164|330:110,2,100.10000305481,4|0|0,3:0|0:0|1:0,0:0:0:0:
257,168,175504,2,0,B|227:198|190:198|166:174|170:170|147:148|107:148|76:186,1,200.200006109619,2|0,0:0|0:0,0:0:0:0:
4,255,176186,1,0,1:0:0:0:
57,339,176413,1,0,0:0:0:0:
163,320,176640,6,0,B|219:320|255:356|255:356|291:320|343:320,1,200.200006109619,4|0,3:0|1:0,0:0:0:0:
368,120,177549,1,4,3:0:0:0:
308,40,177777,1,0,3:0:0:0:
204,40,178004,1,0,1:0:0:0:
144,120,178232,1,0,0:0:0:0:
188,196,178458,6,0,B|208:172|240:172|256:188|256:196|272:208|300:208|324:184,2,150.150004582214,4|2|0,3:0|0:0|0:0,0:0:0:0:
112,264,179367,1,4,3:0:0:0:
164,347,179595,2,0,B|199:369|235:369|257:351|257:342|279:320|319:320|353:344,1,200.200006109619,4|0,3:0|0:0,0:0:0:0:
460,340,180277,5,0,1:0:0:0:
460,340,180504,1,2,0:0:0:0:
404,256,180731,1,4,1:0:0:0:
404,256,180958,1,2,0:0:0:0:
484,192,181186,1,4,3:0:0:0:
484,192,181413,1,2,0:0:0:0:
404,128,181640,1,4,1:0:0:0:
404,128,181867,1,2,0:0:0:0:
460,48,182095,5,0,1:0:0:0:
372,32,182322,1,4,3:0:0:0:
284,16,182549,1,4,3:0:0:0:
264,92,182777,5,0,1:0:0:0:
176,108,183004,1,4,3:0:0:0:
88,124,183231,1,4,3:0:0:0:
32,24,183458,2,0,P|88:24|136:60,1,91,0|2,1:0|0:0,0:0:0:0:
148,192,183913,5,4,0:0:0:0:
96,272,184140,1,2,0:0:0:0:
144,352,184367,2,0,B|204:352|256:316|256:316|304:352|368:352,1,236.599989169312,0|4,1:0|0:3,0:0:0:0:
428,280,185049,1,0,0:0:0:0:
396,192,185277,1,0,1:0:0:0:
300,192,185504,1,0,0:0:0:0:
356,104,185731,6,0,P|416:92|468:128,1,118.299994584656,2|0,3:0|0:0,0:0:0:0:
468,126,186072,1,2,3:0:0:0:
473,131,186186,1,0,1:0:0:0:
396,192,186413,1,2,0:0:0:0:
462,263,186640,2,0,P|412:292|356:280,1,118.299994584656,4|0,3:0|0:0,0:0:0:0:
349,276,186981,1,0,0:0:0:0:
342,272,187095,1,0,1:0:0:0:
300,192,187322,1,0,0:0:0:0:
208,192,187549,6,0,B|208:264|144:280|144:280|80:260|80:192,1,236.599989169312,4|0,3:0|1:0,0:0:0:0:
20,120,188231,1,2,0:0:0:0:
20,120,188345,1,0,0:0:0:0:
20,120,188458,2,0,B|20:48|84:32|84:32|148:52|148:120,1,236.599989169312,4|0,3:0|1:0,0:0:0:0:
208,192,189140,1,2,0:0:0:0:
253,48,189367,6,0,P|301:24|358:50,1,118.299994584656,4|0,3:0|0:0,0:0:0:0:
363,54,189708,2,0,P|411:78|468:52,1,118.299994584656,2|0,0:0|0:0,0:0:0:0:
472,47,190049,1,2,0:0:0:0:
464,148,190277,2,0,P|440:196|466:253,1,118.299994584656,4|0,3:0|0:0,0:0:0:0:
470,258,190618,2,0,P|494:306|468:363,1,118.299994584656,2|0,0:0|0:0,0:0:0:0:
463,367,190959,1,2,0:0:0:0:
387,310,191186,5,4,3:0:0:0:
319,376,191413,1,2,0:0:0:0:
304,282,191640,1,0,1:0:0:0:
209,283,191867,1,0,0:0:0:0:
192,376,192095,1,4,3:0:0:0:
120,314,192322,1,2,0:0:0:0:
31,267,192549,2,0,P|95:271|115:343,1,118.299994584656,0|2,1:0|0:0,0:0:0:0:
164,196,193004,6,0,B|164:136|164:136|200:88,1,118.299994584656,4|0,3:0|0:0,0:0:0:0:
203,82,193345,1,2,0:0:0:0:
208,75,193458,1,0,1:0:0:0:
255,152,193686,1,2,0:0:0:0:
300,69,193913,2,0,B|335:116|335:116|335:176,1,118.299994584656,4|2,3:0|0:0,0:0:0:0:
339,183,194254,1,0,0:0:0:0:
343,190,194367,1,0,1:0:0:0:
301,276,194595,1,2,0:0:0:0:
388,324,194822,5,4,3:0:0:0:
304,368,195049,1,2,0:0:0:0:
208,368,195277,1,0,1:0:0:0:
124,324,195504,1,2,0:0:0:0:
156,236,195731,2,0,P|92:236|44:276,1,118.299994584656,4|0,3:0|0:0,0:0:0:0:
156,148,196186,2,0,P|92:148|44:108,1,118.299994584656,0|0,1:0|0:0,0:0:0:0:
124,58,196640,5,4,3:0:0:0:
256,116,196981,1,2,0:0:0:0:
384,56,197322,1,2,0:0:0:0:
384,56,197549,2,0,P|440:64|468:124,1,118.299994584656,0|0,1:0|0:0,0:0:0:0:
468,114,197890,1,0,0:0:0:0:
468,114,198004,2,0,L|452:188,3,59.149997292328,0|0|0|0,1:0|0:0|0:0|1:0,0:0:0:0:
444,216,198458,5,4,0:0:0:0:
492,300,198686,1,2,0:0:0:0:
420,364,198913,1,0,1:0:0:0:
360,292,199140,2,0,B|312:240|256:228|192:240|152:296,1,236.599989169312,2|0,0:0|3:0,0:0:0:0:
92,364,199822,1,0,1:0:0:0:
20,300,200049,1,2,3:0:0:0:
68,216,200277,5,4,0:3:0:0:
24,132,200504,1,0,3:0:0:0:
24,132,200617,1,2,0:3:0:0:
24,132,200731,2,0,L|136:96,1,118.299994584656,0|2,1:0|0:1,0:0:0:0:
220,48,201186,1,4,0:3:0:0:
292,108,201413,1,0,3:0:0:0:
356,36,201640,2,0,L|468:0,1,118.299994584656,0|2,1:0|0:1,0:0:0:0:
512,84,202095,6,0,B|552:132|516:192|516:192|552:248|512:304,1,236.599989169312,4|0,3:0|1:3,0:0:0:0:
432,356,202777,1,0,3:0:0:0:
432,356,202890,1,0,3:0:0:0:
432,356,203004,2,0,B|392:300|428:244|428:244|392:184|432:136,1,236.599989169312,2|0,0:0|1:0,0:0:0:0:
368,68,203686,1,0,0:0:0:0:
320,148,203913,5,4,0:3:0:0:
256,80,204140,1,0,0:0:0:0:
188,148,204367,1,0,1:0:0:0:
256,216,204595,1,0,3:0:0:0:
324,280,204822,1,2,0:0:0:0:
324,280,205049,2,0,B|256:376|256:376|180:268,1,236.599989169312,2|0,0:0|3:0,0:0:0:0:
140,196,205731,5,4,0:3:0:0:
56,240,205958,1,0,3:0:0:0:
56,144,206186,1,0,1:0:0:0:
140,96,206413,1,2,0:0:0:0:
104,8,206640,2,0,P|172:8|216:44,1,118.299994584656,2|0,0:0|3:0,0:0:0:0:
301,36,207095,2,0,P|349:4|408:8,1,118.299994584656,0|2,1:0|0:0,0:0:0:0:
376,96,207549,5,4,0:3:0:0:
480,192,207890,1,2,0:0:0:0:
376,288,208231,1,2,0:0:0:0:
280,288,208458,1,4,0:3:0:0:
184,288,208686,2,0,B|120:288|120:288|72:312|72:312|0:312,1,177.449991876984,2|0,0:0|0:0,0:0:0:0:
12,312,209140,1,2,0:3:0:0:
8,216,209367,6,0,P|36:124|84:108,1,118.299994584656,4|0,3:0|0:0,0:0:0:0:
136,76,209822,1,0,1:0:0:0:
208,136,210049,1,0,0:0:0:0:
304,136,210277,1,2,3:2:0:0:
376,76,210504,1,0,0:0:0:0:
462,116,210732,2,0,P|502:158|504:216,1,118.299994584656,0|0,1:0|0:0,0:0:0:0:
392,256,211186,5,0,0:0:0:0:
392,256,211413,2,0,B|356:208|288:224|272:276|272:276|252:376,1,236.599989169312,2|0,0:0|1:0,0:0:0:0:
255,359,211981,1,0,1:0:0:0:
255,359,212095,1,4,1:2:0:0:
198,34,214432,5,2,0:0:0:0:
206,41,215049,2,0,P|255:80|305:40,1,136.5,0|2,0:0|0:0,0:0:0:0:
256,192,215845,12,2,218458,0:0:0:0:
