osu file format v14

[General]
AudioFilename: audio.mp3
AudioLeadIn: 0
PreviewTime: 107989
Countdown: 0
SampleSet: Soft
StackLeniency: 0.4
Mode: 0
LetterboxInBreaks: 0
WidescreenStoryboard: 1

[Editor]
DistanceSpacing: 1.18
BeatDivisor: 4
GridSize: 4
TimelineZoom: 1.9

[Metadata]
Title:Pop
TitleUnicode:Pop
Artist:La Oreja De Van Gogh
ArtistUnicode:La Oreja De Van Gogh
Creator:Krisom
Version:Dificil
Source:
Tags:El Viaje de Copperpot EspaƱol Spanish La Reina Del LODVG LOVG
BeatmapID:2769864
BeatmapSetID:1337089

[Difficulty]
HPDrainRate:6
CircleSize:4
OverallDifficulty:7
ApproachRate:8
SliderMultiplier:2
SliderTickRate:2

[Events]
//Background and Video events
0,0,"Reina del Pop.jpg",0,0
//Break Periods
2,57908,62347
//Storyboard Layer 0 (Background)
//Storyboard Layer 1 (Fail)
//Storyboard Layer 2 (Pass)
//Storyboard Layer 3 (Foreground)
//Storyboard Layer 4 (Overlay)
//Storyboard Sound Samples

[TimingPoints]
223,449.101796407186,4,2,1,60,1,0
48389,-133.333333333333,4,2,1,60,0,0
50522,-90.9090909090909,4,2,1,60,0,1
57708,-100,4,2,1,60,0,0
98688,-133.333333333333,4,2,1,60,0,0
100821,-90.9090909090909,4,2,1,60,0,1
122041,-90.9090909090909,4,2,0,60,0,1
122266,-90.9090909090909,4,2,0,60,0,0
122378,-83.3333333333333,4,2,1,60,0,1
143935,-100,4,2,1,60,0,0
144160,-100,4,2,1,50,0,0
144609,-100,4,2,1,45,0,0
145058,-100,4,2,1,40,0,0
145507,-100,4,2,1,35,0,0
145956,-100,4,2,1,30,0,0
146405,-100,4,2,1,25,0,0
146854,-100,4,2,1,20,0,0
147303,-100,4,2,1,15,0,0
147752,-100,4,2,1,10,0,0
148202,-100,4,2,1,5,0,0

[Colours]
Combo1 : 4,206,19
Combo2 : 255,4,186
Combo3 : 88,255,17
Combo4 : 255,0,77
Combo5 : 34,106,227
Combo6 : 249,204,28

[HitObjects]
92,288,223,6,0,P|68:192|92:96,1,200,0|0,3:3|3:3,0:0:0:0:
148,12,896,1,2,0:3:0:0:
204,96,1121,1,0,3:3:0:0:
256,12,1345,1,2,0:3:0:0:
308,96,1570,1,0,3:3:0:0:
364,12,1794,1,2,0:3:0:0:
364,12,2243,6,0,B|392:44|364:108|336:172|364:204,1,200,2|2,0:3|0:3,0:0:0:0:
348,304,2917,1,0,3:3:0:0:
256,340,3142,1,2,0:3:0:0:
164,304,3366,1,0,3:3:0:0:
164,204,3591,1,2,0:3:0:0:
164,204,4040,70,0,B|208:200|256:168|256:168|304:200|348:204,1,200,2|2,0:3|0:3,0:0:0:0:
436,252,4714,1,0,3:3:0:0:
416,156,4938,1,2,0:3:0:0:
396,56,5163,1,0,3:3:0:0:
296,52,5387,6,0,B|224:52|224:52|180:52|180:52|144:128|144:128|180:204|180:204|232:204|232:204|280:204|280:204|308:256|308:256|256:296|256:296|204:256|204:256|232:204|232:204|280:204|352:168|352:108,1,800,2|2,0:3|0:2,0:0:0:0:
452,96,7408,70,0,P|476:192|452:288,1,200,2|8,3:1|3:2,0:0:0:0:
352,288,8082,1,2,0:3:0:0:
256,320,8306,1,0,3:0:0:0:
160,288,8531,1,2,0:3:0:0:
108,200,8755,1,8,3:2:0:0:
108,100,8980,6,0,B|152:132|204:100|256:68|300:100,1,200,2|2,0:1|0:0,0:0:0:0:
372,172,9654,1,8,3:2:0:0:
372,272,9878,1,2,0:3:0:0:
456,220,10103,1,0,3:0:0:0:
456,120,10327,1,2,0:3:0:0:
372,64,10552,1,8,3:2:0:0:
288,120,10776,70,0,B|259:139|259:139|131:102|131:102|104:120,1,200,2|2,0:1|0:0,0:0:0:0:
104,220,11450,1,8,3:2:0:0:
180,284,11675,1,2,0:3:0:0:
256,220,11899,1,0,3:0:0:0:
332,284,12124,1,2,0:3:0:0:
408,220,12348,1,8,3:2:0:0:
408,120,12573,1,2,0:3:0:0:
328,64,12797,6,0,L|280:96,3,50,8|8|8|8,3:3|0:3|0:3|0:3,0:0:0:0:
256,112,13246,69,8,3:2:0:0:
228,132,13359,1,8,0:3:0:0:
200,152,13471,1,8,0:3:0:0:
172,172,13583,1,8,0:3:0:0:
144,192,13696,6,0,L|192:224,3,50,8|8|8|8,3:3|0:3|0:3|0:3,0:0:0:0:
216,240,14145,69,8,3:2:0:0:
244,260,14258,1,8,0:3:0:0:
272,280,14370,1,8,0:3:0:0:
300,300,14482,1,8,0:3:0:0:
332,316,14594,6,0,B|332:224|332:224|332:160|384:136,1,200,0|8,3:0|3:2,0:0:0:0:
484,124,15267,1,2,0:3:0:0:
456,220,15492,1,0,3:0:0:0:
428,316,15717,1,2,0:0:0:0:
332,316,15941,1,8,3:2:0:0:
231,316,16166,70,0,B|167:316|167:316|139:338|139:338|111:316|111:316|47:316,1,200,2|8,0:3|0:3,0:0:0:0:
16,220,16839,2,0,L|116:220,1,100,8|2,3:2|0:3,0:0:0:0:
216,220,17288,1,0,3:0:0:0:
164,136,17513,1,2,0:0:0:0:
216,52,17737,1,8,3:2:0:0:
316,52,17962,1,8,0:3:0:0:
328,60,18074,1,8,0:0:0:0:
340,68,18187,6,0,P|352:116|340:164,1,100,0|2,3:0|0:0,0:0:0:0:
256,112,18636,1,8,3:2:0:0:
172,164,18860,1,2,0:3:0:0:
172,264,19085,1,0,3:0:0:0:
256,212,19309,1,2,0:0:0:0:
256,312,19534,1,8,3:2:0:0:
340,264,19758,70,0,P|398:192|340:120,1,200,2|0,0:3|2:0,0:0:0:0:
240,108,20432,2,0,L|128:100,1,100,8|2,3:2|0:3,0:0:0:0:
96,192,20881,2,0,L|208:200,1,100,2|0,3:2|0:0,0:0:0:0:
228,236,21218,2,0,L|128:228,1,100,2|0,0:2|0:0,0:0:0:0:
100,244,21555,1,8,0:3:0:0:
72,260,21667,1,8,0:2:0:0:
48,276,21779,6,0,B|158:284|158:284|216:288|236:340,1,200,0|8,3:0|3:2,0:0:0:0:
328,304,22453,1,2,0:3:0:0:
328,204,22678,1,0,3:0:0:0:
400,136,22902,1,2,0:0:0:0:
328,204,23127,1,8,3:2:0:0:
252,268,23351,70,0,B|224:236|184:248|160:268|136:288|96:300|68:268,1,200,2|8,0:3|0:3,0:0:0:0:
68,168,24025,1,8,3:2:0:0:
156,120,24249,1,2,0:3:0:0:
68,168,24474,1,0,3:0:0:0:
156,120,24699,1,2,0:0:0:0:
244,76,24923,1,8,3:2:0:0:
156,120,25148,1,8,0:3:0:0:
172,144,25260,1,8,0:2:0:0:
188,168,25372,6,0,P|236:156|284:168,1,100,0|2,3:0|0:0,0:0:0:0:
332,256,25821,2,0,P|284:268|236:256,1,100,8|2,3:2|0:3,0:0:0:0:
284,168,26270,1,0,3:0:0:0:
332,256,26495,1,2,0:0:0:0:
284,344,26720,1,8,3:2:0:0:
235,255,26944,70,0,B|216:226|216:226|253:98|253:98|235:71,1,200,2|2,0:3|0:0,0:0:0:0:
148,20,27618,1,8,3:2:0:0:
148,120,27842,1,2,0:3:0:0:
220,0,28067,1,10,0:3:0:0:
220,0,28965,5,4,0:2:0:0:
256,92,29190,1,2,0:0:0:0:
292,184,29414,1,0,1:0:0:0:
392,184,29639,1,2,0:3:0:0:
436,92,29863,1,0,0:0:0:0:
436,92,30088,1,2,0:3:0:0:
392,184,30312,1,0,1:0:0:0:
344,40,30537,70,2,P|256:0|168:40,1,200,2|0,0:0|0:0,0:0:0:0:
168,140,31211,1,0,1:0:0:0:
168,140,31435,1,2,0:0:0:0:
112,224,31660,1,2,0:3:0:0:
212,240,31884,1,2,0:3:0:0:
312,252,32109,1,0,1:0:0:0:
412,264,32333,6,0,B|302:272|302:272|244:276|224:328,1,200,2|0,0:0|0:0,0:0:0:0:
312,372,33007,1,0,1:0:0:0:
412,372,33231,1,2,0:0:0:0:
480,296,33456,1,0,0:0:0:0:
380,296,33681,1,2,0:3:0:0:
432,212,33905,1,0,1:0:0:0:
504,140,34130,70,0,P|432:82|360:140,1,200,2|0,0:0|0:0,0:0:0:0:
336,236,34803,2,0,B|296:240|296:240|284:256|284:256|240:260,1,100,0|2,1:0|0:3,0:0:0:0:
180,184,35252,2,0,B|220:180|220:180|232:164|232:164|276:160,1,100,2|0,0:0|0:0,0:0:0:0:
264,112,35589,2,0,B|224:116|224:116|212:132|212:132|168:136,1,100,2|0,0:0|0:0,0:0:0:0:
156,108,35926,1,2,0:0:0:0:
140,80,36038,1,0,0:0:0:0:
124,56,36151,5,4,0:2:0:0:
64,136,36375,1,2,0:0:0:0:
124,216,36600,1,0,1:0:0:0:
224,216,36824,1,2,0:3:0:0:
284,296,37049,1,0,0:0:0:0:
284,296,37273,1,2,0:3:0:0:
344,216,37498,1,0,1:0:0:0:
284,80,37723,70,0,B|256:112|216:100|192:80|168:60|128:48|100:80,1,200,2|0,0:0|0:0,0:0:0:0:
52,168,38396,1,0,1:0:0:0:
52,168,38621,1,2,0:0:0:0:
52,268,38845,1,2,0:3:0:0:
120,344,39070,1,2,0:3:0:0:
220,344,39294,1,0,1:0:0:0:
320,344,39519,6,0,B|339:315|339:315|302:187|302:187|320:160,1,200,2|0,0:0|0:0,0:0:0:0:
408,112,40193,1,0,1:0:0:0:
320,68,40417,1,2,0:0:0:0:
228,112,40642,1,0,0:0:0:0:
228,212,40866,1,2,0:3:0:0:
136,256,41091,1,0,1:0:0:0:
48,212,41315,70,0,B|48:120|48:120|48:56|100:32,1,200,2|0,0:0|0:0,0:0:0:0:
200,32,41989,1,0,1:0:0:0:
256,116,42214,1,2,0:3:0:0:
312,32,42438,1,8,0:3:0:0:
256,116,42663,1,0,0:0:0:0:
200,32,42887,1,0,1:0:0:0:
256,116,43112,1,0,0:0:0:0:
344,164,43336,6,0,B|304:188|304:188|276:192|276:192|256:208|256:208|236:192|236:192|208:188|208:188|168:164,1,200,4|8,0:0|0:1,0:0:0:0:
116,260,44010,1,8,0:1:0:0:
200,332,44234,1,0,0:0:0:0:
312,332,44459,1,0,0:0:0:0:
396,260,44684,1,8,0:1:0:0:
348,120,44908,70,0,B|284:120|284:120|256:98|256:98|228:120|228:120|164:120,1,200,2|0,0:1|0:0,0:0:0:0:
100,224,45582,2,0,L|204:224,1,100,8|8,0:1|0:1,0:0:0:0:
412,224,46031,2,2,L|312:224,1,100,2|0,0:1|0:0,0:1:0:0:
200,224,46480,1,8,0:1:0:0:
164,108,46705,2,2,P|256:74|348:108,1,200,0|0,0:0|0:0,0:0:0:0:
384,224,47378,5,8,0:1:0:0:
320,328,47603,1,8,0:1:0:0:
256,224,47827,1,2,0:0:0:0:
192,328,48052,1,0,0:0:0:0:
128,224,48276,1,8,0:1:0:0:
64,328,48501,22,2,B|124:308|144:216|92:168|92:168|168:124|168:124|200:136|200:136|232:124|232:124|264:136|264:136|300:116|340:132,1,450.000017166138,0|0,0:0|1:0,0:0:0:0:
352,148,49961,1,0,1:0:0:0:
376,164,50073,1,0,1:0:0:0:
400,180,50185,1,0,1:0:0:0:
424,200,50297,1,0,1:0:0:0:
448,220,50410,1,0,1:0:0:0:
476,240,50522,5,4,0:0:0:0:
432,348,50746,1,0,0:0:0:0:
316,360,50971,1,8,1:3:0:0:
228,284,51196,1,8,0:3:0:0:
248,172,51420,1,2,0:3:0:0:
140,216,51645,1,2,0:3:0:0:
228,284,51869,1,8,1:2:0:0:
232,124,52094,6,0,B|256:88|304:84|328:124|352:164|400:160|424:124,1,220.000006713867,2|2,0:1|0:3,0:0:0:0:
496,36,52767,1,8,1:3:0:0:
384,8,52992,2,2,P|276:0|204:80,1,220.000006713867,2|0,0:0|0:0,0:0:0:0:
168,188,53666,1,2,1:3:0:0:
176,304,53890,38,2,B|192:303|192:303|206:295|206:295|230:292|230:292|252:281|252:281|280:278|280:278|306:266|306:266|330:263|330:263|352:253|352:253|369:252|369:252|383:244,1,220.000006713867,10|0,0:3|0:0,0:0:0:0:
436,144,54564,1,8,1:3:0:0:
420,28,54788,2,2,P|368:128|268:120,1,220.000006713867,2|0,0:3|0:0,0:0:0:0:
188,44,55462,1,0,1:0:0:0:
128,144,55687,6,0,P|172:168|192:232,1,110.000003356934
384,144,56136,2,0,P|340:168|320:232,1,110.000003356934,2|8,0:3|1:3,0:0:0:0:
256,56,56585,2,0,L|256:180,1,110.000003356934,0|8,0:0|0:3,0:0:0:0:
236,280,57034,1,2,0:3:0:0:
124,260,57258,1,8,1:3:0:0:
152,146,57483,1,2,0:3:0:0:
256,166,57708,1,4,3:1:0:0:
304,372,63097,54,0,L|352:340,3,50,8|8|8|8,3:3|0:3|0:3|0:3,0:0:0:0:
376,324,63546,69,8,3:2:0:0:
404,304,63659,1,8,0:3:0:0:
432,284,63771,1,8,0:3:0:0:
460,264,63883,1,8,0:3:0:0:
488,244,63996,6,0,L|440:212,3,50,8|8|8|8,3:3|0:3|0:3|0:3,0:0:0:0:
416,196,64445,69,8,3:2:0:0:
388,176,64556,1,8,0:3:0:0:
360,156,64669,1,8,0:3:0:0:
332,136,64782,1,8,0:3:0:0:
300,120,64894,6,0,B|300:212|300:212|300:276|248:300,1,200,0|8,3:0|3:2,0:0:0:0:
138,299,65567,1,2,0:3:0:0:
80,204,65792,1,0,3:0:0:0:
190,204,66017,1,2,0:0:0:0:
136,108,66241,1,8,3:2:0:0:
248,108,66466,70,0,B|276:100|304:108|304:108|316:88|340:80|364:88|376:108|376:108|404:100|432:108,1,200,2|8,0:3|0:3,0:0:0:0:
432,216,67139,1,8,3:2:0:0:
324,216,67363,1,2,0:3:0:0:
268,124,67588,1,0,3:0:0:0:
324,216,67813,1,2,0:0:0:0:
276,316,68037,1,8,3:2:0:0:
164,316,68262,1,8,0:3:0:0:
152,308,68374,1,8,0:0:0:0:
140,300,68487,6,0,B|124:252|124:252|140:204,1,100,0|2,3:0|0:0,0:0:0:0:
196,112,68936,1,8,3:2:0:0:
304,112,69160,1,2,0:3:0:0:
400,60,69385,1,0,3:0:0:0:
400,168,69609,1,2,0:0:0:0:
400,278,69834,1,8,3:2:0:0:
304,332,70058,70,0,B|276:300|236:312|212:332|188:352|148:364|120:332,1,200,0|2,0:0|0:3,0:0:0:0:
76,232,70732,2,0,P|120:248|172:236,1,100,8|2,3:2|0:3,0:0:0:0:
224,136,71181,2,0,P|180:120|128:132,1,100,2|0,3:2|0:0,0:0:0:0:
128,172,71517,2,0,P|172:188|224:176,1,100,2|0,0:2|0:0,0:0:0:0:
260,164,71855,1,8,0:3:0:0:
296,148,71967,1,8,0:2:0:0:
332,128,72079,6,0,B|313:157|313:157|350:285|350:285|332:312,1,200,0|8,3:0|3:2,0:0:0:0:
228,312,72753,1,2,0:3:0:0:
122,312,72978,1,0,3:0:0:0:
176,224,73202,1,2,0:0:0:0:
168,120,73427,1,8,3:2:0:0:
164,16,73651,70,0,B|192:48|232:36|256:16|280:-4|320:-16|348:16,1,200,2|8,0:3|0:3,0:0:0:0:
344,120,74325,1,8,3:2:0:0:
336,224,74549,1,2,0:3:0:0:
432,180,74774,1,0,3:0:0:0:
440,76,74999,1,2,0:0:0:0:
344,120,75223,1,8,3:2:0:0:
432,180,75448,1,8,0:3:0:0:
424,224,75560,1,8,0:2:0:0:
416,268,75672,6,0,P|368:280|320:268,1,100,0|2,3:0|0:0,0:0:0:0:
207,175,76121,2,0,P|255:163|304:176,1,100,8|2,3:2|0:3,0:0:0:0:
193,267,76570,1,0,3:0:0:0:
120,192,76795,1,2,0:0:0:0:
193,117,77020,1,8,3:2:0:0:
164,16,77244,70,0,B|193:35|193:35|321:-2|321:-2|348:16,1,200,2|2,0:3|0:0,0:0:0:0:
424,92,77918,1,8,3:2:0:0:
324,124,78142,1,2,0:3:0:0:
424,16,78367,1,10,0:3:0:0:
424,16,79265,5,4,0:2:0:0:
448,120,79490,1,2,0:0:0:0:
372,192,79714,1,0,1:0:0:0:
448,264,79939,1,2,0:3:0:0:
424,368,80163,1,0,0:0:0:0:
348,296,80388,1,2,0:3:0:0:
448,264,80612,1,0,1:0:0:0:
344,344,80837,70,2,P|256:384|168:344,1,200,2|0,0:0|0:0,0:0:0:0:
256,284,81511,1,0,1:0:0:0:
256,284,81735,1,2,0:0:0:0:
312,192,81960,1,2,0:3:0:0:
256,104,82184,1,2,0:3:0:0:
150,104,82409,1,0,1:0:0:0:
44,108,82633,6,0,B|44:172|44:172|66:200|66:200|44:228|44:228|44:292,1,200,2|0,0:0|0:0,0:0:0:0:
149,292,83307,1,0,1:0:0:0:
232,228,83531,1,2,0:0:0:0:
337,228,83756,1,0,0:0:0:0:
337,228,84205,1,0,1:0:0:0:
344,124,84429,70,0,P|256:84|168:124,1,200,2|0,0:0|0:0,0:0:0:0:
168,228,85103,2,0,B|212:204|212:204|268:212,1,100,0|2,1:0|0:3,0:0:0:0:
381,295,85552,2,0,B|337:319|337:319|288:312,1,100,2|0,0:0|0:0,0:0:0:0:
276,260,85889,2,0,B|320:236|320:236|376:244,1,100,2|0,0:0|0:0,0:0:0:0:
376,268,86226,1,2,0:0:0:0:
381,295,86338,1,0,0:0:0:0:
388,320,86451,5,4,0:2:0:0:
460,244,86675,1,2,0:0:0:0:
388,168,86900,1,0,1:0:0:0:
284,168,87124,1,2,0:3:0:0:
182,168,87349,1,0,0:0:0:0:
182,168,87573,1,2,0:3:0:0:
116,252,87798,1,0,1:0:0:0:
212,136,88023,70,2,B|240:104|280:116|304:136|328:156|368:168|396:136,1,200,2|0,0:0|0:0,0:0:0:0:
352,40,88696,1,0,1:0:0:0:
248,40,88921,1,2,0:0:0:0:
352,40,89145,1,2,0:3:0:0:
395,136,89370,1,2,0:3:0:0:
440,232,89594,1,0,1:0:0:0:
396,328,89819,6,0,B|367:309|367:309|239:346|239:346|212:328,1,200,2|0,0:0|0:0,0:0:0:0:
124,268,90493,1,0,1:0:0:0:
212,328,90717,1,2,0:0:0:0:
124,268,90942,1,0,0:0:0:0:
124,164,91166,1,2,0:3:0:0:
124,268,91391,1,0,1:0:0:0:
212,328,91615,70,0,B|304:328|304:328|368:328|392:276,1,200,2|0,0:0|0:0,0:0:0:0:
400,144,92289,1,0,1:0:0:0:
332,240,92514,1,2,0:3:0:0:
256,112,92738,1,8,0:3:0:0:
260,232,92963,1,0,0:0:0:0:
112,144,93187,1,0,1:0:0:0:
180,240,93412,1,0,0:0:0:0:
168,344,93636,6,0,B|208:368|208:368|256:344|256:344|304:368|304:368|344:344,1,200,4|8,0:0|0:1,0:0:0:0:
408,244,94310,1,8,0:1:0:0:
316,168,94534,1,0,0:0:0:0:
196,168,94759,1,0,0:0:0:0:
104,244,94984,1,8,0:1:0:0:
160,104,95208,70,0,P|256:80|352:104,1,200,2|0,0:1|0:0,0:0:0:0:
416,208,95882,2,0,L|320:248,1,100,8|8,0:1|0:1,0:0:0:0:
96,176,96330,2,2,L|192:136,1,100,2|0,0:1|0:0,0:1:0:0:
288,204,96780,1,8,0:1:0:0:
348,308,97005,2,2,P|256:342|164:308,1,200,0|0,0:0|0:0,0:0:0:0:
128,192,97678,5,8,0:1:0:0:
192,88,97903,1,8,0:1:0:0:
256,192,98127,1,2,0:0:0:0:
320,88,98352,1,0,0:0:0:0:
384,192,98576,1,8,0:1:0:0:
452,292,98800,22,2,B|376:280|376:280|304:296|304:296|232:280|232:280|156:296,1,300.000011444092,0|0,0:0|0:0,0:0:0:0:
124,304,99811,1,0,1:0:0:0:
112,272,99923,1,0,1:0:0:0:
104,240,100035,1,0,1:0:0:0:
96,208,100148,1,0,1:0:0:0:
88,176,100260,1,0,1:0:0:0:
80,144,100372,1,0,1:0:0:0:
72,112,100484,1,0,1:0:0:0:
64,80,100597,1,0,1:0:0:0:
56,48,100709,1,0,1:0:0:0:
48,12,100821,5,4,0:0:0:0:
180,32,101046,1,0,0:0:0:0:
300,92,101271,1,8,1:3:0:0:
364,208,101496,1,8,0:3:0:0:
348,340,101720,1,2,0:3:0:0:
220,376,101945,1,2,0:3:0:0:
116,296,102169,1,8,1:2:0:0:
208,160,102394,6,0,B|264:176|308:132|308:132|376:152|412:104,1,220.000006713867,2|2,0:1|0:3,0:0:0:0:
316,16,103067,1,8,1:3:0:0:
192,56,103292,2,2,P|212:156|144:244,1,220.000006713867,2|0,0:0|0:0,0:0:0:0:
80,128,103966,1,2,1:3:0:0:
192,56,104190,38,2,B|207:60|207:60|219:70|219:70|242:78|242:78|262:93|262:93|289:101|289:101|312:118|312:118|335:125|335:125|355:139|355:139|371:143|371:143|383:154,1,220.000006713867,10|0,0:3|0:0,0:0:0:0:
500,216,104864,1,8,1:3:0:0:
484,84,105088,2,2,B|456:50|408:51|388:94|368:136|320:137|293:104,1,220.000006713867,2|0,0:3|0:0,0:0:0:0:
200,12,105762,1,0,1:0:0:0:
128,124,105987,6,0,P|146:174|192:201,1,110.000003356934
378,115,106435,2,0,P|325:105|279:132,1,110.000003356934,2|8,0:3|1:3,0:0:0:0:
261,336,106884,2,0,P|296:295|296:241,1,110.000003356934,0|8,0:0|0:3,0:0:0:0:
204,128,107334,1,2,0:3:0:0:
228,272,107558,1,8,1:3:0:0:
340,176,107783,1,2,0:3:0:0:
136,104,108007,6,0,B|164:96|164:96|324:112|324:112|356:104,1,220.000006713867,4|8,0:0|1:3,0:0:0:0:
464,32,108681,1,0,0:0:0:0:
353,104,108905,1,2,0:3:0:0:
340,236,109130,1,0,0:0:0:0:
428,336,109354,1,0,1:0:0:0:
412,172,109579,6,0,P|312:148|240:232,1,220.000006713867,2|2,0:1|0:3,0:0:0:0:
212,356,110252,1,8,1:3:0:0:
336,312,110477,1,0,0:0:0:0:
272,152,110702,2,0,P|218:146|174:176,1,110.000003356934,2|0,0:0|0:0,0:0:0:0:
256,280,111151,1,0,1:0:0:0:
312,95,111375,38,0,P|200:78|116:136,1,220.000006713867,8|2,0:3|0:3,0:0:0:0:
72,260,112049,1,0,1:0:0:0:
188,320,112273,1,0,0:0:0:0:
292,236,112498,1,0,0:0:0:0:
188,320,112723,1,0,0:0:0:0:
72,260,112947,1,0,1:0:0:0:
80,128,113172,6,0,B|80:80|120:16|184:24|284:20|316:36|340:52|356:96|332:144|292:200|256:171|220:200|180:144|156:96|172:52|196:36|228:20|328:24|392:16|432:80|432:128,1,770.000023498536,2|0,0:0|1:1,1:0:0:0:
312,364,115193,5,4,0:0:0:0:
184,336,115418,1,0,0:0:0:0:
116,220,115643,1,8,1:3:0:0:
196,116,115866,1,8,0:3:0:0:
316,168,116092,1,2,0:3:0:0:
236,272,116315,1,2,0:3:0:0:
116,220,116541,1,8,1:2:0:0:
192,72,116764,6,0,B|300:52|300:52|372:136,1,220.000006713867,2|2,0:1|0:3,0:0:0:0:
440,248,117439,1,8,1:3:0:0:
340,332,117663,2,2,B|307:355|271:353|268:300|212:291|192:341|157:331|134:299,1,220.000006713867,2|0,0:0|0:0,0:0:0:0:
92,176,118336,1,2,1:3:0:0:
188,88,118562,38,2,B|208:88|208:88|220:104|220:104|236:100|236:100|244:116|244:116|260:112|260:112|268:128|268:128|284:124|284:124|292:140|292:140|308:136|308:136|316:152|316:152|332:148|332:148|340:164|340:164|360:160,1,220.000006713867,10|0,0:3|0:0,0:0:0:0:
472,212,119234,1,8,1:3:0:0:
460,80,119460,2,2,P|360:67|348:164,1,220.000006713867,2|0,0:3|0:0,0:0:0:0:
472,212,120134,1,0,1:0:0:0:
396,320,120357,6,0,P|343:329|297:303,1,110.000003356934
116,64,120806,2,0,P|168:54|214:80,1,110.000003356934,2|8,0:3|1:3,0:0:0:0:
296,302,121255,1,0,0:0:0:0:
384,204,121480,1,8,0:3:0:0:
392,196,121592,1,0,1:0:0:0:
400,188,121706,1,2,0:3:0:0:
484,88,121930,1,8,1:3:0:0:
400,188,122154,1,10,0:3:0:0:
392,196,122266,1,8,0:3:0:0:
384,204,122378,6,0,P|300:288|180:272,1,239.999992675781,4|4,0:0|1:2,0:0:0:0:
88,176,123052,1,2,0:3:0:0:
184,76,123276,1,8,0:3:0:0:
320,116,123501,1,8,0:3:0:0:
212,204,123725,1,8,1:3:0:0:
92,68,123950,6,0,B|184:76|184:76|240:24|328:44,1,239.999992675781,2|0,0:1|0:0,0:0:0:0:
408,156,124624,1,8,1:3:0:0:
360,288,124848,1,0,0:0:0:0:
352,108,125073,2,2,P|412:84|468:112,1,119.999996337891,2|0,0:1|0:0,0:1:0:0:
416,240,125522,1,0,1:0:0:0:
496,44,125746,38,0,P|408:14|285:84,1,239.999992675781,8|2,0:3|0:3,0:0:0:0:
256,220,126420,1,0,1:0:0:0:
340,336,126645,1,0,0:0:0:0:
368,196,126869,1,0,0:0:0:0:
286,81,127094,1,0,0:0:0:0:
368,196,127318,1,0,1:0:0:0:
304,325,127543,6,0,B|220:360|144:320|108:268|108:268|108:148|232:156|232:156|232:276|108:268|108:268|40:200|40:112|92:56,1,839.999974365235,2|8,0:0|1:3,1:0:0:0:
368,24,129564,5,4,0:0:0:0:
436,148,129788,1,0,0:0:0:0:
364,268,130013,1,8,1:3:0:0:
240,332,130237,1,8,0:3:0:0:
116,260,130462,1,2,0:3:0:0:
108,120,130687,1,2,0:3:0:0:
220,208,130911,1,8,1:2:0:0:
44,76,131136,6,0,B|77:36|125:31|153:50|154:58|182:77|230:72|263:33,1,239.999992675781,2|2,0:1|0:3,0:0:0:0:
400,8,131809,1,8,1:3:0:0:
488,120,132034,2,2,P|380:80|308:168,1,239.999992675781,2|0,0:1|0:0,0:1:0:0:
428,244,132708,1,2,1:3:0:0:
308,163,132932,38,2,P|200:123|128:211,1,239.999992675781,10|0,0:3|0:0,0:0:0:0:
96,344,133606,1,8,1:3:0:0:
232,304,133830,2,2,B|344:260|344:260|396:240|416:203|401:165,1,239.999992675781,2|0,0:3|0:0,0:0:0:0:
332,48,134504,1,0,1:0:0:0:
192,56,134728,6,0,P|183:109|216:168,1,119.999996337891,2|0,0:0|0:0,0:0:0:0:
320,328,135178,2,0,P|329:275|296:216,1,119.999996337891,0|0,0:0|1:0,0:0:0:0:
192,56,135627,1,0,0:0:0:0:
308,136,135851,1,0,0:0:0:0:
328,132,135964,1,0,1:0:0:0:
348,128,136076,1,8,0:3:0:0:
488,104,136299,1,0,1:0:0:0:
348,128,136525,1,0,0:0:0:0:
328,132,136637,1,2,0:3:0:0:
308,136,136749,69,6,0:0:0:0:
168,156,136974,1,0,0:0:0:0:
28,176,137199,1,4,1:2:0:0:
116,284,137423,1,2,0:0:0:0:
396,100,137872,1,2,0:0:0:0:
344,228,138097,1,2,1:2:0:0:
484,208,138321,1,0,0:0:0:0:
168,228,138770,53,0,0:0:0:0:
28,208,138995,1,0,1:2:0:0:
116,100,139219,1,2,0:0:0:0:
396,284,139668,1,2,0:0:0:0:
484,176,139893,1,0,1:2:0:0:
344,156,140117,1,0,0:0:0:0:
144,356,140567,21,0,0:0:0:0:
256,272,140791,1,0,1:0:0:0:
368,356,141016,1,0,0:0:0:0:
368,28,141465,1,0,0:0:0:0:
256,112,141690,1,0,1:0:0:0:
144,28,141914,2,0,B|164:80|112:152|8:140|8:140|76:232|168:220|240:148|240:148|244:240|188:288|96:288|96:288|112:352|168:376|224:376|264:336|304:296|364:296|416:352,1,1079.99996704102,2|4,0:0|1:2,0:0:0:0:
256,192,144047,12,0,149324,0:0:0:0:
