osu file format v14

[General]
AudioFilename: audio.mp3
AudioLeadIn: 0
PreviewTime: 107989
Countdown: 0
SampleSet: Soft
StackLeniency: 0.4
Mode: 0
LetterboxInBreaks: 0
WidescreenStoryboard: 1

[Editor]
DistanceSpacing: 0.9
BeatDivisor: 4
GridSize: 4
TimelineZoom: 1

[Metadata]
Title:Pop
TitleUnicode:Pop
Artist:La Oreja De Van Gogh
ArtistUnicode:La Oreja De Van Gogh
Creator:Krisom
Version:Avanzado
Source:
Tags:El Viaje de Copperpot EspaƱol Spanish La Reina Del LODVG LOVG
BeatmapID:2769863
BeatmapSetID:1337089

[Difficulty]
HPDrainRate:5.6
CircleSize:3.6
OverallDifficulty:6.6
ApproachRate:6.6
SliderMultiplier:1.86
SliderTickRate:2

[Events]
//Background and Video events
0,0,"Reina del Pop.jpg",0,0
//Break Periods
2,57908,63933
//Storyboard Layer 0 (Background)
//Storyboard Layer 1 (Fail)
//Storyboard Layer 2 (Pass)
//Storyboard Layer 3 (Foreground)
//Storyboard Layer 4 (Overlay)
//Storyboard Sound Samples

[TimingPoints]
223,449.101796407186,4,2,1,60,1,0
50522,-100,4,2,1,60,0,1
57708,-100,4,2,1,60,0,0
100821,-100,4,2,1,60,0,1
122041,-100,4,2,0,60,0,1
122266,-100,4,2,0,60,0,0
122378,-100,4,2,1,60,0,1
143935,-100,4,2,1,60,0,0
144160,-100,4,2,1,50,0,0
144609,-100,4,2,1,45,0,0
145058,-100,4,2,1,40,0,0
145507,-100,4,2,1,35,0,0
145956,-100,4,2,1,30,0,0
146405,-100,4,2,1,25,0,0
146854,-100,4,2,1,20,0,0
147303,-100,4,2,1,15,0,0
147752,-100,4,2,1,10,0,0
148202,-100,4,2,1,5,0,0

[Colours]
Combo1 : 4,206,19
Combo2 : 255,4,186
Combo3 : 88,255,17
Combo4 : 255,0,77
Combo5 : 34,106,227
Combo6 : 249,204,28

[HitObjects]
8,32,14594,6,0,B|56:64|96:36|96:28|136:0|184:32,1,186,0|8,3:0|3:2,0:0:0:0:
240,92,15267,1,2,0:3:0:0:
300,32,15492,1,0,3:0:0:0:
360,92,15717,1,2,0:0:0:0:
416,32,15941,1,8,3:2:0:0:
472,92,16166,6,0,P|508:176|472:260,1,186,2|8,0:3|0:3,0:0:0:0:
404,308,16839,1,8,3:2:0:0:
404,308,17288,1,0,3:0:0:0:
320,308,17513,1,2,0:0:0:0:
256,360,17737,1,8,3:2:0:0:
192,308,17962,70,0,B|176:260|176:260|208:180|208:180|192:132,2,186,8|2|2,0:3|0:0|0:3,0:0:0:0:
260,260,19085,1,0,3:0:0:0:
344,260,19309,1,2,0:0:0:0:
300,188,19534,1,8,3:2:0:0:
300,104,19758,6,0,B|224:104|224:104|200:80|200:80|124:80,1,186,2|0,0:3|2:0,0:0:0:0:
40,80,20432,1,8,3:2:0:0:
40,80,20881,1,2,3:2:0:0:
100,192,21218,1,2,0:2:0:0:
160,304,21555,1,8,0:3:0:0:
244,304,21779,70,0,P|328:340|412:304,1,186,0|8,3:0|3:2,0:0:0:0:
412,220,22453,1,2,0:3:0:0:
356,156,22678,1,0,3:0:0:0:
356,156,22902,1,2,0:0:0:0:
272,156,23127,1,8,3:2:0:0:
200,200,23351,6,0,B|168:152|196:112|204:112|232:72|200:24,2,186,2|8|2,0:3|0:3|0:3,0:0:0:0:
140,256,24474,1,0,3:0:0:0:
76,200,24699,1,2,0:0:0:0:
76,116,24923,1,8,3:2:0:0:
76,32,25148,70,0,B|192:32|192:32|256:76,2,186,8|2|2,0:3|0:0|0:3,0:0:0:0:
76,116,26270,1,0,3:0:0:0:
144,168,26495,1,2,0:0:0:0:
228,168,26720,1,8,3:2:0:0:
312,168,26944,6,0,B|312:240|312:240|256:340,1,186,2|2,0:3|0:0,0:0:0:0:
172,340,27618,1,8,3:2:0:0:
172,340,28067,1,10,0:3:0:0:
172,340,28965,69,4,0:2:0:0:
88,340,29190,1,2,0:0:0:0:
44,272,29414,1,0,1:0:0:0:
128,272,29639,1,2,0:3:0:0:
172,204,29863,1,0,0:0:0:0:
88,204,30088,1,2,0:3:0:0:
44,136,30312,1,0,1:0:0:0:
128,136,30537,2,2,B|176:140|216:112|216:112|256:140|304:136,1,186,2|0,0:0|0:0,0:0:0:0:
392,132,31211,5,0,1:0:0:0:
392,132,31435,1,2,0:0:0:0:
344,64,31660,1,2,0:3:0:0:
260,64,31884,1,2,0:3:0:0:
304,136,32109,1,0,1:0:0:0:
348,208,32333,2,0,B|260:208|260:208|204:208|172:248,1,186,2|0,0:0|0:0,0:0:0:0:
132,320,33007,69,0,1:0:0:0:
216,320,33231,1,2,0:0:0:0:
280,372,33456,1,0,0:0:0:0:
364,372,33681,1,2,0:3:0:0:
432,320,33905,1,0,1:0:0:0:
500,372,34130,2,0,B|500:292|500:292|480:260|480:260|480:188,1,186,2|0,0:0|0:0,0:0:0:0:
480,112,34803,5,0,1:0:0:0:
396,112,35028,1,2,0:3:0:0:
312,112,35252,1,2,0:0:0:0:
252,224,35589,1,2,0:0:0:0:
192,336,35926,1,2,0:0:0:0:
276,336,36151,69,4,0:2:0:0:
320,268,36376,1,2,0:0:0:0:
276,200,36600,1,0,1:0:0:0:
324,132,36824,1,2,0:3:0:0:
404,132,37049,1,0,0:0:0:0:
360,200,37273,1,2,0:3:0:0:
404,268,37498,1,0,1:0:0:0:
356,336,37723,2,0,B|308:368|268:340|268:332|228:304|180:336,1,186,2|0,0:0|0:0,0:0:0:0:
96,336,38396,5,0,1:0:0:0:
96,336,38621,1,2,0:0:0:0:
40,272,38845,1,2,0:3:0:0:
96,212,39070,1,2,0:3:0:0:
40,152,39294,1,0,1:0:0:0:
40,68,39519,2,0,B|176:68|176:68|208:108,1,186,2|0,0:0|0:0,0:0:0:0:
256,172,40193,69,0,1:0:0:0:
305,107,40417,1,2,0:0:0:0:
388,108,40642,1,0,0:0:0:0:
388,108,40866,1,2,0:3:0:0:
440,172,41091,1,0,1:0:0:0:
440,256,41315,2,0,P|352:268|256:256,2,186,2|0|2,0:0|0:0|0:3,0:0:0:0:
440,172,42438,5,8,0:3:0:0:
440,88,42663,1,0,0:0:0:0:
356,88,42887,1,0,1:0:0:0:
356,172,43112,1,0,0:0:0:0:
356,256,43336,70,0,B|280:256|280:256|256:280|256:280|176:280,1,186,4|8,0:0|0:1,0:0:0:0:
96,280,44010,1,8,0:1:0:0:
36,340,44234,1,0,0:0:0:0:
96,280,44459,1,0,0:0:0:0:
156,220,44684,1,8,0:1:0:0:
156,136,44908,1,2,0:1:0:0:
156,136,45582,5,8,0:1:0:0:
240,136,45806,1,8,0:1:0:0:
300,76,46031,1,2,0:1:0:0:
384,76,46255,1,0,0:0:0:0:
384,160,46480,1,8,0:1:0:0:
384,244,46705,2,2,L|204:296,2,186,0|0|8,0:0|0:0|0:1,0:0:0:0:
464,224,47827,69,2,0:0:0:0:
492,144,48052,1,0,0:0:0:0:
464,64,48276,1,8,0:1:0:0:
380,64,48501,2,2,B|256:24|256:24|132:64|132:64|72:100|76:188|132:188|192:188|192:276|132:312|132:312|100:300|100:300|76:312|76:312|44:300,1,651,0|0,0:0|1:0,0:0:0:0:
48,301,50522,21,4,0:0:0:0:
24,220,50746,1,0,0:0:0:0:
76,152,50971,1,8,1:3:0:0:
160,168,51196,1,8,0:3:0:0:
220,224,51420,2,0,P|272:252|308:244,2,93,2|2|8,0:3|0:3|1:2,0:0:0:0:
280,164,52094,6,0,B|322:124|366:146|367:154|411:175|453:136,1,186,2|2,0:1|0:3,0:0:0:0:
404,72,52767,1,8,1:3:0:0:
332,28,52992,2,2,P|244:12|176:76,1,186,2|0,0:0|0:0,0:0:0:0:
144,148,53666,1,2,1:3:0:0:
108,224,53890,6,2,B|196:240|196:240|208:256|208:256|292:268,1,186,10|0,0:3|0:0,0:0:0:0:
368,280,54564,1,8,1:3:0:0:
452,292,54788,2,2,P|384:288|328:192,1,186,2|0,0:3|0:0,0:0:0:0:
368,120,55462,1,0,1:0:0:0:
420,52,55687,6,0,L|236:72,2,186,0|2|0,0:0|0:3|0:0,0:0:0:0:
456,128,56809,1,8,0:3:0:0:
400,192,57034,1,2,0:3:0:0:
324,160,57258,1,8,1:3:0:0:
264,220,57483,1,2,0:3:0:0:
340,256,57708,1,4,3:1:0:0:
512,352,64893,6,0,B|464:336|464:336|384:368|384:368|336:352,1,186,0|8,3:0|3:2,0:0:0:0:
272,292,65566,1,2,0:3:0:0:
212,352,65791,1,0,3:0:0:0:
152,292,66016,1,2,0:0:0:0:
68,292,66240,1,8,3:2:0:0:
8,352,66465,6,0,P|44:268|8:184,1,186,2|8,0:3|0:3,0:0:0:0:
56,116,67138,1,8,3:2:0:0:
139,116,67363,1,2,0:3:0:0:
100,44,67587,1,0,3:0:0:0:
56,116,67812,1,2,0:0:0:0:
139,116,68036,1,8,3:2:0:0:
224,116,68261,70,0,B|348:116|348:116|400:80,2,186,8|2|2,0:3|0:0|0:3,0:0:0:0:
140,116,69384,1,0,3:0:0:0:
108,192,69608,1,2,0:0:0:0:
76,268,69833,1,8,3:2:0:0:
160,268,70057,6,0,B|236:268|236:268|260:292|260:292|336:292,1,186,0|2,0:0|0:3,0:0:0:0:
420,292,70731,1,8,3:2:0:0:
420,292,71180,1,2,3:2:0:0:
360,180,71517,1,2,0:2:0:0:
300,68,71854,1,8,0:3:0:0:
216,68,72078,70,0,B|164:64|132:32|132:32|100:64|48:68,1,186,0|8,3:0|3:2,0:0:0:0:
48,151,72752,1,2,0:3:0:0:
4,220,72977,1,0,3:0:0:0:
48,288,73201,1,2,0:0:0:0:
100,220,73426,1,8,3:2:0:0:
48,151,73650,6,0,B|96:119|136:147|136:155|176:183|224:151,2,186,2|8|2,0:3|0:3|0:3,0:0:0:0:
4,220,74773,1,0,3:0:0:0:
48,288,74998,1,2,0:0:0:0:
132,288,75222,1,8,3:2:0:0:
216,288,75447,70,0,B|232:240|232:240|200:160|200:160|216:112,2,186,8|2|2,0:3|0:0|0:3,0:0:0:0:
256,360,76569,1,0,3:0:0:0:
340,360,76794,1,2,0:0:0:0:
296,288,77019,1,8,3:2:0:0:
380,288,77243,6,0,B|432:108,1,186,2|2,0:3|0:0,0:0:0:0:
456,28,77917,1,8,3:2:0:0:
456,28,78366,1,10,0:3:0:0:
456,28,79264,69,4,0:2:0:0:
372,28,79489,1,2,0:0:0:0:
328,96,79713,1,0,1:0:0:0:
412,96,79938,1,2,0:3:0:0:
372,164,80162,1,0,0:0:0:0:
456,164,80387,1,2,0:3:0:0:
416,236,80611,1,0,1:0:0:0:
332,236,80836,2,2,B|284:248|216:216|264:216|196:248|148:236,1,186,2|0,0:0|0:0,0:0:0:0:
64,236,81510,5,0,1:0:0:0:
104,164,81734,1,2,0:0:0:0:
148,236,81959,1,2,0:3:0:0:
192,308,82183,1,2,0:3:0:0:
232,236,82408,1,0,1:0:0:0:
315,236,82633,2,0,B|363:204|403:232|403:240|443:268|491:236,1,186,2|0,0:0|0:0,0:0:0:0:
448,164,83306,69,0,1:0:0:0:
388,104,83530,1,2,0:0:0:0:
304,104,83755,1,0,0:0:0:0:
304,104,84204,1,0,1:0:0:0:
221,105,84429,2,0,P|185:189|221:273,1,186,2|0,0:0|0:0,0:0:0:0:
304,272,85102,5,0,1:0:0:0:
220,272,85327,1,2,0:3:0:0:
136,272,85551,1,2,0:0:0:0:
76,160,85888,1,2,0:0:0:0:
16,48,86225,1,2,0:0:0:0:
99,48,86450,69,4,0:2:0:0:
143,116,86675,1,2,0:0:0:0:
99,184,86899,1,0,1:0:0:0:
183,184,87123,1,2,0:3:0:0:
147,252,87348,1,0,0:0:0:0:
227,252,87572,1,2,0:3:0:0:
312,252,87797,1,0,1:0:0:0:
264,184,88022,2,2,B|312:152|352:180|352:188|392:216|440:184,1,186,2|0,0:0|0:0,0:0:0:0:
396,116,88695,5,0,1:0:0:0:
352,44,88920,1,2,0:0:0:0:
436,44,89144,1,2,0:3:0:0:
396,116,89369,1,2,0:3:0:0:
312,116,89593,1,0,1:0:0:0:
272,44,89818,2,0,B|232:75|232:75|232:211,1,186,2|0,0:0|0:0,0:0:0:0:
232,295,90492,69,0,1:0:0:0:
312,267,90716,1,2,0:0:0:0:
392,295,90941,1,0,0:0:0:0:
392,211,91165,1,2,0:3:0:0:
312,183,91390,1,0,1:0:0:0:
232,212,91615,2,0,B|184:196|184:196|104:228|104:228|56:212,2,186,2|0|2,0:0|0:0|0:3,0:0:0:0:
184,280,92737,5,8,0:3:0:0:
256,324,92962,1,0,0:0:0:0:
328,280,93186,1,0,1:0:0:0:
412,280,93411,1,0,0:0:0:0:
484,324,93635,70,0,B|484:248|484:248|460:224|460:224|460:144,1,186,4|8,0:0|0:1,0:0:0:0:
400,88,94309,1,8,0:1:0:0:
460,28,94533,1,0,0:0:0:0:
400,88,94758,1,0,0:0:0:0:
340,148,94983,1,8,0:1:0:0:
340,232,95207,1,2,0:1:0:0:
340,232,95881,5,8,0:1:0:0:
288,296,96105,1,8,0:1:0:0:
232,232,96330,1,2,0:1:0:0:
232,148,96554,1,0,0:0:0:0:
148,148,96779,1,8,0:1:0:0:
148,64,97004,2,2,L|328:12,2,186,0|0|8,0:0|0:0|0:1,0:0:0:0:
68,80,98126,69,2,0:0:0:0:
40,160,98351,1,0,0:0:0:0:
44,244,98575,1,8,0:1:0:0:
44,328,98800,2,2,B|160:308|256:368|256:368|352:308|468:328|468:328|444:268|464:220|464:220|440:224|440:224|416:220|416:220|396:228|396:228|368:216|368:216|336:236|336:236|284:204,1,744,0|0,0:0|1:0,0:0:0:0:
224,156,100821,21,4,0:0:0:0:
200,80,101045,1,0,0:0:0:0:
268,32,101270,1,8,1:3:0:0:
340,72,101495,1,8,0:3:0:0:
400,132,101719,2,0,B|440:156|440:156|488:144,2,93,2|2|8,0:3|0:3|1:2,0:0:0:0:
340,72,102393,6,0,B|253:88|253:88|194:100|179:148,1,186,2|2,0:1|0:3,0:0:0:0:
156,228,103066,1,8,1:3:0:0:
136,308,103291,2,2,P|224:324|292:260,1,186,2|0,0:0|0:0,0:0:0:0:
320,184,103965,1,2,1:3:0:0:
344,104,104189,6,2,B|296:124|296:124|268:116|268:116|244:136|244:136|220:128|220:128|164:144,1,186,10|0,0:3|0:0,0:0:0:0:
92,164,104863,1,8,1:3:0:0:
144,228,105087,2,2,P|212:224|264:128,1,186,2|0,0:3|0:0,0:0:0:0:
248,48,105761,1,0,1:0:0:0:
332,44,105986,6,0,L|352:228,2,186,0|2|0,0:0|0:3|0:0,0:0:0:0:
248,48,107108,1,8,0:3:0:0:
184,104,107333,1,2,0:3:0:0:
264,128,107557,1,8,1:3:0:0:
208,188,107782,1,2,0:3:0:0:
128,164,108007,38,0,P|152:96|252:48,1,186,4|8,0:0|1:3,0:0:0:0:
332,64,108681,1,0,0:0:0:0:
392,120,108905,1,2,0:3:0:0:
356,196,109130,1,0,0:0:0:0:
416,256,109354,1,0,1:0:0:0:
452,180,109579,6,0,L|256:216,1,186,2|2,0:1|0:3,0:0:0:0:
188,224,110252,1,8,1:3:0:0:
104,236,110477,1,0,0:0:0:0:
68,160,110702,1,2,0:0:0:0:
128,100,110926,1,0,0:0:0:0:
200,144,111151,1,0,1:0:0:0:
128,100,111375,6,0,P|184:64|280:128,2,186,8|2|0,0:3|0:3|0:0,0:0:0:0:
80,168,112498,1,0,0:0:0:0:
36,240,112723,1,0,0:0:0:0:
76,312,112947,1,0,1:0:0:0:
148,356,113172,6,0,B|228:356|228:356|312:356|336:328|360:288|344:216|304:188|256:184|208:188|168:216|152:288|176:328|200:356|284:356|284:356|344:368|344:368|376:352|376:352|408:368|408:368|440:352,1,744,2|0,0:0|0:0,1:0:0:0:
464,284,115193,37,4,0:0:0:0:
420,212,115417,1,0,0:0:0:0:
460,136,115642,1,8,1:3:0:0:
396,84,115866,1,8,0:3:0:0:
324,116,116091,1,2,0:3:0:0:
341,197,116315,1,2,0:3:0:0:
324,116,116540,1,8,1:2:0:0:
276,48,116764,6,0,P|228:124|132:116,1,186,2|2,0:1|0:3,0:0:0:0:
72,72,117438,1,8,1:3:0:0:
12,12,117663,2,2,L|64:200,1,186,2|0,0:0|0:0,0:0:0:0:
88,272,118336,1,2,1:3:0:0:
116,352,118561,6,2,B|145:353|145:353|168:331|168:331|199:340|199:340|223:319|223:319|254:328|254:328|279:314,1,186,10|0,0:3|0:0,0:0:0:0:
360,292,119234,1,8,1:3:0:0:
440,267,119459,2,2,B|344:299|344:299|276:247,1,186,2|0,0:3|0:0,0:0:0:0:
224,184,120133,1,0,1:0:0:0:
180,112,120357,6,0,B|196:160|196:160|164:240|164:240|180:288,2,186,0|2|0,0:0|0:3|0:0,0:0:0:0:
260,92,121480,1,8,0:3:0:0:
272,132,121592,1,0,1:0:0:0:
284,172,121705,1,2,0:3:0:0:
364,144,121929,1,8,1:3:0:0:
444,116,122154,1,10,0:3:0:0:
456,156,122266,1,8,0:3:0:0:
468,196,122378,38,0,P|434:280|351:317,1,186,4|4,0:0|1:2,0:0:0:0:
280,256,123052,1,2,0:3:0:0:
224,328,123276,1,8,0:3:0:0:
136,304,123501,1,8,0:3:0:0:
120,212,123725,1,8,1:3:0:0:
184,144,123950,6,0,B|235:136|265:102|265:102|299:131|351:132,1,186,2|0,0:1|0:0,0:0:0:0:
440,104,124623,1,8,1:3:0:0:
368,44,124848,1,0,0:0:0:0:
350,132,125073,1,2,0:1:0:0:
312,216,125297,1,0,0:0:0:0:
228,252,125522,1,0,1:0:0:0:
160,316,125746,6,0,P|244:344|316:284,2,186,8|2|0,0:3|0:3|0:0,0:0:0:0:
116,232,126869,1,0,0:0:0:0:
24,212,127094,1,0,0:0:0:0:
88,144,127318,1,0,1:0:0:0:
68,52,127543,6,0,B|104:8|196:20|200:104|200:104|180:168|180:168|232:188|256:257|256:257|280:188|332:168|332:168|312:104|312:104|316:20|408:8|444:52,1,744,2|0,0:0|0:0,1:0:0:0:
484,136,129564,37,4,0:0:0:0:
420,204,129788,1,0,0:0:0:0:
396,296,130013,1,8,1:3:0:0:
488,292,130237,1,8,0:3:0:0:
396,296,130462,1,2,0:3:0:0:
304,300,130686,1,2,0:3:0:0:
260,220,130911,1,8,1:2:0:0:
316,148,131136,6,0,B|274:107|230:127|228:135|184:154|143:114,1,186,2|2,0:1|0:3,0:0:0:0:
80,48,131809,1,8,1:3:0:0:
72,140,132034,2,2,P|132:124|164:12,1,186,2|0,0:1|0:0,0:1:0:0:
80,48,132707,1,2,1:3:0:0:
72,140,132932,6,2,B|112:168|187:162|142:145|194:199|243:205,1,186,10|0,0:3|0:0,0:0:0:0:
336,188,133605,1,8,1:3:0:0:
404,124,133830,2,2,B|320:88|320:88|272:68|224:104,1,186,2|0,0:3|0:0,0:0:0:0:
156,156,134504,1,0,1:0:0:0:
116,240,134728,6,0,B|167:247|197:281|197:281|231:252|283:251,2,186,2|0|0,0:0|0:0|0:0,0:0:0:0:
156,156,135851,1,0,0:0:0:0:
196,144,135963,1,0,1:0:0:0:
236,132,136076,1,8,0:3:0:0:
324,104,136300,1,0,1:0:0:0:
324,104,136749,37,6,0:0:0:0:
404,148,136974,1,0,0:0:0:0:
400,56,137199,1,4,1:2:0:0:
324,104,137423,1,2,0:0:0:0:
108,148,137872,1,2,0:0:0:0:
112,56,138097,1,2,1:2:0:0:
188,104,138321,1,0,0:0:0:0:
112,328,138770,53,0,0:0:0:0:
108,236,138994,1,0,1:2:0:0:
188,280,139219,1,2,0:0:0:0:
404,236,139668,1,2,0:0:0:0:
400,328,139893,1,0,1:2:0:0:
324,280,140117,1,0,0:0:0:0:
208,136,140567,21,0,0:0:0:0:
256,56,140791,1,0,1:0:0:0:
304,136,141016,1,0,0:0:0:0:
340,320,141465,1,0,0:0:0:0:
256,360,141689,1,0,1:0:0:0:
172,316,141914,2,0,B|132:288|104:248|120:208|100:156|120:124|144:64|196:16|256:0|352:28|404:68|436:116|456:200|416:308|320:344|240:316|196:248|224:188|261:165,1,837,2|4,0:0|1:2,0:0:0:0:
256,192,144160,12,0,149324,0:0:0:0:
