osu file format v14

[General]
AudioFilename: audio.mp3
AudioLeadIn: 0
PreviewTime: 19478
Countdown: 1
SampleSet: Normal
StackLeniency: 0.7
Mode: 0
LetterboxInBreaks: 0
WidescreenStoryboard: 0

[Editor]
DistanceSpacing: 0.6
BeatDivisor: 8
GridSize: 4
TimelineZoom: 4.299997

[Metadata]
Title:The a la Menthe Instrumental
TitleUnicode:Thé à la Menthe Instrumental
Artist:La Caution
ArtistUnicode:La Caution
Creator:spookem
Version:SPEED DEMON
Source:
Tags:phoon css bhop oceans 12 laser
BeatmapID:1705044
BeatmapSetID:812960

[Difficulty]
HPDrainRate:4
CircleSize:4
OverallDifficulty:8
ApproachRate:9.6
SliderMultiplier:1.2
SliderTickRate:1

[Events]
//Background and Video events
0,0,"csgo___bhop__timelapse__by_sirdanielofbrindley-dbwrsyt (1).jpg",0,0
//Break Periods
//Storyboard Layer 0 (Background)
//Storyboard Layer 1 (Fail)
//Storyboard Layer 2 (Pass)
//Storyboard Layer 3 (Foreground)
//Storyboard Sound Samples

[TimingPoints]
1307,303.030303030303,4,1,0,35,1,0
1307,-100,4,1,0,35,0,0
1610,-133.333333333333,4,1,0,25,0,0
1913,-200,4,1,0,15,0,0
2216,-400,4,1,0,5,0,0
2519,-100,4,1,0,5,0,0
2822,-100,4,1,0,15,0,0
3125,-100,4,1,0,25,0,0
3428,-100,4,1,0,35,0,0
3731,-100,4,1,0,25,0,0
4034,-100,4,1,0,25,0,0
4337,-100,4,1,0,15,0,0
5246,-100,4,1,0,25,0,0
5549,-100,4,1,0,35,0,0
6155,-100,4,1,0,35,0,0
6458,-133.333333333333,4,1,0,25,0,0
6761,-200,4,1,0,15,0,0
7064,-400,4,1,0,5,0,0
7367,-133.333333333333,4,1,0,15,0,0
7670,-133.333333333333,4,1,0,25,0,0
7973,-200,4,1,0,35,0,0
8276,-400,4,1,0,25,0,0
8579,-200,4,1,0,5,0,0
9488,-200,4,1,0,15,0,0
11003,-50,4,1,0,35,0,0
11610,-100,4,1,0,35,0,0
12216,-50,4,1,0,35,0,0
12822,-100,4,1,0,35,0,0
13428,-40,4,1,0,35,0,0
14034,-100,4,1,0,35,0,0
14640,-40,4,1,0,35,0,0
15246,-100,4,1,0,35,0,0
16003,-50,4,1,0,35,0,0
20094,-100,4,1,0,35,0,0
20852,-66.6666666666667,4,1,0,35,0,0
31003,-50,4,1,0,35,0,0
34072,-50,4,1,0,5,0,0
34185,-50,4,1,0,35,0,0
34223,-50,4,1,0,5,0,0
34337,-50,4,1,0,35,0,0
34375,-50,4,1,0,5,0,0
34488,-50,4,1,0,35,0,0
36496,-50,4,1,0,5,0,0
36610,-50,4,1,0,35,0,0
36799,-50,4,1,0,5,0,0
36913,-50,4,1,0,35,0,0
38920,-50,4,1,0,5,0,0
39034,-50,4,1,0,35,0,0
39072,-50,4,1,0,5,0,0
39185,-50,4,1,0,35,0,0
39223,-50,4,1,0,5,0,0
39337,-50,4,1,0,35,0,0
40094,-100,4,1,0,35,0,0
59493,303.030303030303,4,1,0,35,1,0
67977,-133.333333333333,4,1,0,35,0,0
68280,-133.333333333333,4,1,0,25,0,0
68583,-133.333333333333,4,1,0,15,0,0
68886,-133.333333333333,4,1,0,5,0,0
69195,303.030303030303,4,1,0,35,1,0
69801,-83.3333333333333,4,1,0,35,0,0
72829,-66.6666666666667,4,1,0,35,0,0
88582,303.030303030303,4,1,0,35,1,0
89188,-66.6666666666667,4,1,0,35,0,0
108582,-100,4,1,0,35,0,0
117672,-133.333333333333,4,1,0,35,0,0
127361,303.030303030303,4,1,0,35,1,0
127967,-66.6666666666667,4,1,0,35,0,0
132209,-133.333333333333,4,1,0,35,0,0

[Colours]
Combo1 : 248,253,142
Combo2 : 215,215,215
Combo3 : 243,176,75
Combo4 : 193,217,253

[HitObjects]
457,36,1307,6,0,P|416:36|386:44,1,60,2|0,0:0|0:0,0:0:0:0:
275,8,1610,2,0,P|255:27|244:46,1,45.0000017166138
156,120,1913,2,0,P|155:140|159:155,1,30
163,260,2216,2,0,P|169:266|175:270,1,15
512,244,2519,6,0,P|525:186|512:128,3,120,2|0|0|0,0:0|0:0|0:0|0:0,0:0:0:0:
82,40,3731,6,0,P|11:201|67:368,1,360,2|0,0:0|0:0,0:0:0:0:
248,375,4943,6,0,P|306:360|370:378,3,120,2|0|0|0,0:0|0:0|0:0|0:0,0:0:0:0:
505,332,6155,6,0,P|464:332|434:324,1,60,2|0,0:0|0:0,0:0:0:0:
323,360,6458,2,0,P|303:341|292:322,1,45.0000017166138
204,248,6761,2,0,P|203:228|207:213,1,30
211,108,7064,2,0,P|217:102|223:98,1,15
512,218,7367,6,0,P|470:229|420:223,3,90.0000034332277,2|0|0|0,0:0|0:0|0:0|0:0,0:0:0:0:
238,10,8579,6,0,P|326:30|377:99,1,180,2|0,0:0|0:0,0:0:0:0:
86,372,9791,6,2,P|85:274|134:205,1,180
512,286,11003,6,0,P|448:256|384:272,1,120,8|0,0:0|0:0,0:0:0:0:
296,343,11307,1,0,0:0:0:0:
210,264,11457,5,2,0:0:0:0:
181,334,11533,1,2,0:0:0:0:
117,373,11610,2,0,P|61:383|-9:362,1,120,8|0,0:0|0:0,0:0:0:0:
0,168,12216,6,0,P|64:138|128:154,1,120,8|0,0:0|0:0,0:0:0:0:
216,225,12520,1,0,0:0:0:0:
302,146,12670,5,2,0:0:0:0:
331,216,12746,1,2,0:0:0:0:
395,255,12822,2,0,P|451:265|521:244,1,120,8|0,0:0|0:0,0:0:0:0:
292,49,13428,6,0,P|223:54|159:109,1,150,8|0,0:0|0:0,0:0:0:0:
139,232,13731,1,0,0:0:0:0:
397,347,13882,5,2,0:0:0:0:
417,273,13958,1,2,0:0:0:0:
390,203,14034,2,0,P|352:160|283:134,1,120,8|0,0:0|0:0,0:0:0:0:
41,312,14640,6,0,P|103:340|186:323,1,150,8|0,0:0|0:0,0:0:0:0:
263,226,14943,1,0,0:0:0:0:
93,1,15094,5,2,0:0:0:0:
40,55,15170,1,2,0:0:0:0:
29,129,15246,2,0,P|41:184|88:240,1,120,8|0,0:0|0:0,0:0:0:0:
511,67,15852,1,8,0:0:0:0:
187,48,16003,6,0,P|157:90|149:166,1,120,2|2,0:0|0:0,0:0:0:0:
411,241,16306,2,2,P|407:201|397:176,1,60
332,91,16458,1,8,0:0:0:0:
43,223,16610,6,0,P|74:263|144:294,1,120,2|2,0:0|0:0,0:0:0:0:
294,68,16913,2,2,P|255:59|228:61,1,60
125,97,17065,1,8,0:0:0:0:
325,336,17216,6,0,P|354:293|362:217,1,120,2|2,0:0|0:0,0:0:0:0:
101,143,17519,2,2,P|104:182|114:207,1,60
180,293,17671,1,8,0:0:0:0:
469,161,17823,6,0,P|437:120|367:89,1,120,2|2,0:0|0:0,0:0:0:0:
218,316,18126,2,2,P|256:324|283:322,1,60
387,287,18278,1,8,0:0:0:0:
187,48,18428,6,0,P|157:90|149:166,1,120,2|2,0:0|0:0,0:0:0:0:
411,241,18731,2,2,P|407:201|397:176,1,60
332,91,18883,1,8,0:0:0:0:
43,223,19035,6,0,P|74:263|144:294,1,120,2|2,0:0|0:0,0:0:0:0:
294,68,19338,2,2,P|255:59|228:61,1,60
125,97,19490,5,8,0:0:0:0:
325,246,19640,1,8,0:0:0:0:
397,50,19791,1,8,0:0:0:0:
129,182,19943,1,8,0:0:0:0:
353,352,20094,2,2,B|478:343,1,120
486,110,20700,5,8,0:0:0:0:
189,190,20852,1,0,0:0:0:0:
406,235,21003,1,8,0:0:0:0:
312,103,21155,5,0,0:0:0:0:
274,167,21231,1,0,0:0:0:0:
283,241,21306,2,2,P|297:266|309:277,5,30.0000011444092,10|2|2|2|2|2,0:0|0:0|0:0|0:0|0:0|0:0,0:0:0:0:
0,283,21761,5,0,0:0:0:0:
76,284,21837,1,0,0:0:0:0:
144,247,21913,1,8,0:0:0:0:
427,266,22064,5,0,0:0:0:0:
365,290,22139,1,0,0:0:0:0:
300,277,22215,1,8,0:0:0:0:
256,229,22291,1,0,0:0:0:0:
243,163,22367,1,0,0:0:0:0:
271,103,22442,1,0,0:0:0:0:
324,70,22519,2,2,P|344:65|366:65,6,30.0000011444092,10|2|2|2|2|2|2,0:0|0:0|0:0|0:0|0:0|0:0|0:0,0:0:0:0:
475,166,22973,5,0,0:0:0:0:
430,206,23048,1,0,0:0:0:0:
369,212,23124,1,8,0:0:0:0:
313,187,23200,1,0,0:0:0:0:
270,145,23276,1,0,0:0:0:0:
205,120,23351,1,0,0:0:0:0:
141,141,23427,5,8,0:0:0:0:
112,205,23503,1,0,0:0:0:0:
131,272,23579,1,0,0:0:0:0:
193,304,23655,1,0,0:0:0:0:
262,297,23731,2,2,P|281:287|296:269,5,30.0000011444092,10|2|2|2|2|2,0:0|0:0|0:0|0:0|0:0|0:0,0:0:0:0:
23,318,24185,5,0,0:0:0:0:
82,365,24261,1,0,0:0:0:0:
158,368,24337,1,0,0:0:0:0:
281,239,24488,5,0,0:0:0:0:
113,275,24640,1,0,0:0:0:0:
393,382,24791,5,0,0:0:0:0:
456,351,24867,1,0,0:0:0:0:
478,286,24943,2,2,P|474:267|467:250,6,30.0000011444092,10|2|2|2|2|2|2,0:0|0:0|0:0|0:0|0:0|0:0|0:0,0:0:0:0:
311,343,25397,5,0,0:0:0:0:
240,374,25473,1,0,0:0:0:0:
163,365,25549,1,8,0:0:0:0:
61,222,25700,5,0,0:0:0:0:
238,251,25852,1,8,0:0:0:0:
322,69,26003,5,0,0:0:0:0:
249,41,26079,1,0,0:0:0:0:
172,58,26155,2,2,P|150:69|137:86,6,30.0000011444092,10|2|2|2|2|2|2,0:0|0:0|0:0|0:0|0:0|0:0|0:0,0:0:0:0:
267,285,26610,5,0,0:0:0:0:
341,275,26686,1,0,0:0:0:0:
400,230,26762,1,8,0:0:0:0:
168,198,26913,5,0,0:0:0:0:
107,240,26988,1,0,0:0:0:0:
35,223,27064,1,8,0:0:0:0:
0,158,27140,1,0,0:0:0:0:
26,88,27216,1,0,0:0:0:0:
95,62,27291,1,0,0:0:0:0:
164,93,27367,2,2,P|172:108|177:136,6,30.0000011444092,10|2|2|2|2|2|2,0:0|0:0|0:0|0:0|0:0|0:0|0:0,0:0:0:0:
143,294,27822,5,0,0:0:0:0:
86,337,27897,1,0,0:0:0:0:
19,314,27973,1,8,0:0:0:0:
2,244,28049,1,0,0:0:0:0:
52,192,28125,1,0,0:0:0:0:
125,200,28200,1,0,0:0:0:0:
175,250,28276,5,8,0:0:0:0:
239,277,28352,1,0,0:0:0:0:
309,276,28428,1,0,0:0:0:0:
372,246,28503,1,0,0:0:0:0:
403,183,28579,2,2,P|400:162|393:140,6,30.0000011444092,10|2|2|2|2|2|2,0:0|0:0|0:0|0:0|0:0|0:0|0:0,0:0:0:0:
61,213,29034,5,0,0:0:0:0:
112,265,29110,1,0,0:0:0:0:
184,276,29185,1,0,0:0:0:0:
261,143,29337,1,0,0:0:0:0:
433,204,29488,1,0,0:0:0:0:
512,48,29640,5,0,0:0:0:0:
451,9,29716,1,0,0:0:0:0:
379,9,29792,2,2,P|359:17|347:31,6,30.0000011444092,10|2|2|2|2|2|2,0:0|0:0|0:0|0:0|0:0|0:0|0:0,0:0:0:0:
339,298,30246,5,0,0:0:0:0:
411,313,30322,1,0,0:0:0:0:
481,290,30397,1,8,0:0:0:0:
314,208,30549,1,0,0:0:0:0:
209,345,30700,1,8,0:0:0:0:
46,273,30852,5,0,0:0:0:0:
11,203,30928,1,0,0:0:0:0:
36,128,31003,2,2,P|47:105|72:78,5,40,10|2|2|2|2|2,0:0|0:0|0:0|0:0|0:0|0:0,0:0:0:0:
197,235,31458,5,0,0:0:0:0:
271,240,31534,1,0,0:0:0:0:
334,201,31609,1,8,0:0:0:0:
500,274,31761,5,0,0:0:0:0:
452,331,31836,1,0,0:0:0:0:
382,352,31912,1,8,0:0:0:0:
311,327,31988,1,0,0:0:0:0:
245,290,32063,1,0,0:0:0:0:
172,296,32139,1,0,0:0:0:0:
116,346,32216,2,2,P|97:364|64:374,5,40,10|2|2|2|2|2,0:0|0:0|0:0|0:0|0:0|0:0,0:0:0:0:
38,169,32670,5,0,0:0:0:0:
97,142,32745,1,0,0:0:0:0:
162,139,32821,1,8,0:0:0:0:
222,166,32897,1,0,0:0:0:0:
285,178,32973,1,0,0:0:0:0:
348,164,33048,1,0,0:0:0:0:
399,200,33124,5,8,0:0:0:0:
463,201,33200,1,0,0:0:0:0:
511,159,33276,1,0,0:0:0:0:
512,96,33351,1,0,0:0:0:0:
478,44,33428,2,2,P|460:35|421:36,5,40,10|2|2|2|2|2,0:0|0:0|0:0|0:0|0:0|0:0,0:0:0:0:
354,157,33882,5,0,0:0:0:0:
354,157,33958,1,0,0:0:0:0:
354,157,34034,6,0,P|353:178|345:196,1,22.5000008583069,8|0,0:0|0:0,0:0:0:0:
250,70,34185,2,0,P|263:87|267:106,1,30.0000011444092
102,72,34337,2,0,P|115:62|138:57,1,30.0000011444092,8|0,0:0|0:0,0:0:0:0:
34,217,34488,5,0,0:0:0:0:
103,241,34564,1,0,0:0:0:0:
174,219,34640,2,2,P|184:202|192:180,6,40,10|2|2|2|2|2|2,0:0|0:0|0:0|0:0|0:0|0:0|0:0,0:0:0:0:
252,333,35094,5,0,0:0:0:0:
322,355,35170,1,0,0:0:0:0:
392,331,35246,1,8,0:0:0:0:
376,208,35397,5,0,0:0:0:0:
184,255,35549,1,8,0:0:0:0:
105,85,35700,5,0,0:0:0:0:
164,40,35776,1,0,0:0:0:0:
238,45,35852,2,2,P|257:54|277:71,6,40,10|2|2|2|2|2|2,0:0|0:0|0:0|0:0|0:0|0:0|0:0,0:0:0:0:
311,284,36307,5,0,0:0:0:0:
377,314,36383,1,0,0:0:0:0:
448,300,36459,2,2,P|460:284|469:268,1,30.0000011444092,10|2,0:0|0:0,0:0:0:0:
239,162,36610,5,0,0:0:0:0:
197,221,36686,1,0,0:0:0:0:
201,294,36762,2,2,P|213:308|228:319,1,30.0000011444092,10|2,0:0|0:0,0:0:0:0:
310,37,36913,5,0,0:0:0:0:
238,27,36989,1,0,0:0:0:0:
173,61,37065,2,2,P|165:78|161:102,5,40,10|2|2|2|2|2,0:0|0:0|0:0|0:0|0:0|0:0,0:0:0:0:
387,284,37519,5,0,0:0:0:0:
452,264,37594,1,0,0:0:0:0:
488,205,37670,1,8,0:0:0:0:
478,138,37746,1,0,0:0:0:0:
426,93,37822,1,0,0:0:0:0:
357,90,37897,1,0,0:0:0:0:
301,129,37973,5,8,0:0:0:0:
251,173,38049,1,0,0:0:0:0:
182,183,38125,1,0,0:0:0:0:
114,161,38200,1,0,0:0:0:0:
92,92,38276,2,2,P|94:58|107:30,5,40,10|2|2|2|2|2,0:0|0:0|0:0|0:0|0:0|0:0,0:0:0:0:
444,85,38731,5,0,0:0:0:0:
444,85,38807,1,0,0:0:0:0:
444,85,38883,6,2,P|465:91|481:106,1,30,10|2,0:0|0:0,0:0:0:0:
308,48,39034,2,2,P|322:41|337:40,1,30.0000011444092
196,151,39186,2,2,P|191:136|191:121,1,30.0000011444092,10|2,0:0|0:0,0:0:0:0:
298,280,39337,5,0,0:0:0:0:
382,274,39412,1,0,0:0:0:0:
439,213,39488,2,2,P|444:183|439:156,5,40,10|2|2|2|2|2,0:0|0:0|0:0|0:0|0:0|0:0,0:0:0:0:
88,93,39943,5,0,0:0:0:0:
30,194,40019,1,0,0:0:0:0:
45,304,40094,6,0,P|98:345|262:304,1,240,10|0,0:0|0:0,0:0:0:0:
370,70,40852,2,0,P|390:73|416:67,2,40
295,22,41155,1,0,0:0:0:0:
194,246,41307,6,0,P|96:227|174:167,1,240,2|0,0:0|0:0,0:0:0:0:
344,318,42064,2,0,P|344:346|350:362,2,40
385,239,42367,1,0,0:0:0:0:
264,77,42519,6,0,B|289:22|368:-1|410:67|484:14,1,240,2|0,0:0|0:0,0:0:0:0:
331,191,43276,2,0,P|304:200|288:212,2,40
418,208,43579,1,0,0:0:0:0:
244,363,43731,6,0,P|229:317|61:253,1,240,2|0,0:0|0:0,0:0:0:0:
149,57,44488,2,0,P|130:44|118:30,2,40
231,89,44791,1,0,0:0:0:0:
439,156,44943,6,0,B|199:181,1,240,2|0,0:0|0:0,0:0:0:0:
40,347,45700,2,0,P|15:352|-4:364,2,40
125,353,46003,1,0,0:0:0:0:
370,248,46155,6,0,P|255:298|149:249,1,240,2|0,0:0|0:0,0:0:0:0:
180,49,46913,2,0,P|160:48|138:43,2,40
266,23,47216,1,0,0:0:0:0:
436,139,47367,6,0,B|384:178|319:146|319:146|269:191|208:165,1,240,2|0,0:0|0:0,0:0:0:0:
35,300,48125,2,0,L|26:346,2,40
55,213,48428,1,0,0:0:0:0:
214,107,48579,6,2,P|266:75|330:83,1,120,10|2,0:0|0:0,0:0:0:0:
490,195,49185,2,2,P|438:227|374:219,1,120,10|2,0:0|0:0,0:0:0:0:
485,32,49791,5,0,0:0:0:0:
345,355,50094,1,0,0:0:0:0:
97,88,50397,5,0,0:0:0:0:
267,193,50852,5,0,0:0:0:0:
119,355,51003,2,0,P|155:357|184:346,1,60
49,287,51306,2,0,P|28:318|22:353,1,60
141,261,51610,2,0,P|131:236|43:188,1,120
234,308,52064,1,0,0:0:0:0:
330,286,52216,6,0,P|351:264|361:234,1,60
239,286,52519,2,0,P|241:314|256:346,1,60
452,257,52822,2,0,P|453:222|391:146,1,120
54,103,53428,6,0,L|48:44,1,60
139,159,53731,2,0,L|145:100,1,60
258,18,54034,1,0,0:0:0:0:
275,206,54337,1,0,0:0:0:0:
491,45,54640,6,0,B|464:289,1,240
354,384,55700,5,0,0:0:0:0:
326,177,55852,2,0,L|264:179,1,60
195,306,56155,2,0,L|133:304,1,60
457,274,56458,2,0,P|462:341|432:387,1,120
139,338,56913,5,0,0:0:0:0:
167,131,57065,2,0,L|229:133,1,60
298,260,57368,2,0,L|360:258,1,60
36,228,57671,2,0,P|31:295|61:341,1,120
328,21,58276,5,0,0:0:0:0:
438,14,58428,1,0,0:0:0:0:
512,86,58579,2,0,L|502:152,1,60
371,267,58882,2,0,P|360:179|404:102,1,180
459,307,59493,5,0,0:0:0:0:
302,381,59796,1,0,0:0:0:0:
157,318,60099,1,8,0:0:0:0:
364,112,60402,5,0,0:0:0:0:
304,164,60553,1,0,0:0:0:0:
224,157,60705,2,0,P|197:160|173:171,2,40
105,135,61008,2,0,P|88:156|79:180,2,40
3,200,61311,2,0,P|6:226|37:264,1,60,8|0,0:0|0:0,0:0:0:0:
290,384,61614,5,0,0:0:0:0:
350,303,61765,1,0,0:0:0:0:
336,202,61917,2,0,L|319:181,1,15
0,300,62220,5,0,0:0:0:0:
70,371,62371,1,0,0:0:0:0:
172,373,62523,2,0,P|188:365|221:333,1,60,8|0,0:0|0:0,0:0:0:0:
103,138,62826,5,0,0:0:0:0:
163,190,62977,1,0,0:0:0:0:
243,183,63129,2,0,P|269:186|293:197,2,40
362,161,63432,2,0,P|378:182|387:206,2,40
464,226,63735,2,0,P|460:252|430:290,1,60,8|0,0:0|0:0,0:0:0:0:
241,99,64038,5,0,0:0:0:0:
339,55,64189,1,0,0:0:0:0:
443,82,64341,1,0,0:0:0:0:
488,180,64493,1,0,0:0:0:0:
449,280,64644,1,0,0:0:0:0:
348,321,64796,1,0,0:0:0:0:
243,295,64947,1,8,0:0:0:0:
314,240,65099,5,0,0:0:0:0:
200,356,65250,1,0,0:0:0:0:
154,200,65402,1,0,0:0:0:0:
259,104,65553,6,0,L|264:143,2,40
359,59,65856,2,0,L|348:97,2,40
203,212,66159,2,0,L|210:235,1,15,8|0,0:0|0:0,0:0:0:0:
104,47,66462,5,0,0:0:0:0:
60,69,66538,1,0,0:0:0:0:
27,128,66614,1,0,0:0:0:0:
34,200,66689,1,0,0:0:0:0:
86,257,66765,5,0,0:0:0:0:
271,42,67068,1,0,0:0:0:0:
196,366,67371,5,8,0:0:0:0:
122,158,67674,1,0,0:0:0:0:
493,172,67977,6,0,P|507:285|399:383,1,270.000010299683,0|0,2:0|2:0,2:0:0:0:
399,224,69195,5,8,0:0:0:0:
190,327,69346,1,0,0:0:0:0:
21,182,69498,1,8,0:0:0:0:
183,108,69649,5,0,0:0:0:0:
248,142,69724,1,0,0:0:0:0:
322,133,69801,2,2,P|339:123|360:108,5,23.9999992675781,10|2|2|2|2|2,0:0|0:0|0:0|0:0|0:0|0:0,0:0:0:0:
457,254,70255,5,0,0:0:0:0:
383,262,70330,1,0,0:0:0:0:
315,230,70407,2,2,P|302:216|294:206,1,17.9999994506836,10|2,0:0|0:0,0:0:0:0:
87,252,70558,5,0,0:0:0:0:
143,289,70635,1,0,0:0:0:0:
214,289,70710,1,8,0:0:0:0:
278,262,70785,1,0,0:0:0:0:
347,259,70862,1,0,0:0:0:0:
409,293,70937,1,0,0:0:0:0:
426,361,71013,2,2,P|425:372|420:385,5,23.9999992675781,10|2|2|2|2|2,0:0|0:0|0:0|0:0|0:0|0:0,0:0:0:0:
132,213,71467,5,0,0:0:0:0:
146,146,71542,1,0,0:0:0:0:
204,110,71618,1,8,0:0:0:0:
270,104,71694,1,0,0:0:0:0:
332,133,71770,1,0,0:0:0:0:
388,173,71845,1,0,0:0:0:0:
455,182,71921,1,8,0:0:0:0:
506,139,71997,1,0,0:0:0:0:
512,73,72073,1,0,0:0:0:0:
465,25,72148,1,0,0:0:0:0:
400,22,72225,2,2,P|378:30|364:45,5,23.9999992675781,10|2|2|2|2|2,0:0|0:0|0:0|0:0|0:0|0:0,0:0:0:0:
29,247,72679,5,0,0:0:0:0:
105,273,72755,1,0,0:0:0:0:
186,245,72831,6,2,P|182:267|188:285,1,22.5000008583069,10|2,0:0|0:0,0:0:0:0:
294,155,72982,2,2,P|278:171|271:189,1,22.5000008583069
460,165,73134,2,2,P|448:154|426:145,1,22.5000008583069,10|2,0:0|0:0,0:0:0:0:
477,335,73285,5,0,0:0:0:0:
412,383,73360,1,0,0:0:0:0:
334,380,73437,2,2,P|315:365|307:350,5,30.0000011444092,2|2|2|2|2|2,0:0|0:0|0:0|0:0|0:0|0:0,0:0:0:0:
0,341,73891,5,0,0:0:0:0:
68,378,73966,1,0,0:0:0:0:
141,357,74042,1,8,0:0:0:0:
87,231,74195,5,0,0:0:0:0:
262,318,74346,1,8,0:0:0:0:
385,159,74498,5,0,0:0:0:0:
333,101,74573,1,0,0:0:0:0:
258,82,74650,2,2,P|238:83|210:93,5,30.0000011444092,10|2|2|2|2|2,0:0|0:0|0:0|0:0|0:0|0:0,0:0:0:0:
94,280,75104,5,0,0:0:0:0:
155,324,75179,1,0,0:0:0:0:
230,328,75256,2,2,P|248:322|265:312,1,22.5000008583069,10|2,0:0|0:0,0:0:0:0:
392,107,75407,5,0,0:0:0:0:
342,60,75482,1,0,0:0:0:0:
275,53,75558,1,8,0:0:0:0:
207,66,75634,1,0,0:0:0:0:
145,94,75710,1,0,0:0:0:0:
77,93,75785,1,0,0:0:0:0:
16,68,75861,2,2,P|1:47|-4:29,5,30.0000011444092,10|2|2|2|2|2,0:0|0:0|0:0|0:0|0:0|0:0,0:0:0:0:
318,139,76316,5,0,0:0:0:0:
262,173,76391,1,0,0:0:0:0:
197,170,76467,1,8,0:0:0:0:
132,169,76543,1,0,0:0:0:0:
86,221,76619,1,0,0:0:0:0:
99,284,76694,1,0,0:0:0:0:
161,307,76770,1,8,0:0:0:0:
226,290,76845,1,0,0:0:0:0:
293,280,76921,1,0,0:0:0:0:
361,295,76997,1,0,0:0:0:0:
390,355,77073,2,2,P|393:378|391:400,5,30.0000011444092,10|2|2|2|2|2,0:0|0:0|0:0|0:0|0:0|0:0,0:0:0:0:
469,202,77528,5,0,0:0:0:0:
395,213,77603,1,0,0:0:0:0:
326,184,77679,1,8,0:0:0:0:
413,70,77831,5,0,0:0:0:0:
229,205,77982,1,8,0:0:0:0:
50,56,78134,5,0,0:0:0:0:
114,5,78209,1,0,0:0:0:0:
194,0,78286,2,2,P|213:5|238:20,5,30.0000011444092,10|2|2|2|2|2,0:0|0:0|0:0|0:0|0:0|0:0,0:0:0:0:
316,297,78740,5,0,0:0:0:0:
242,317,78815,1,0,0:0:0:0:
168,295,78892,6,2,P|152:282|140:262,1,22.5000008583069,10|2,0:0|0:0,0:0:0:0:
120,143,79043,2,2,P|117:123|123:100,1,22.5000008583069,10|2,0:0|0:0,0:0:0:0:
264,56,79195,2,2,P|276:40|296:28,1,22.5000008583069,10|2,0:0|0:0,0:0:0:0:
465,183,79346,5,0,0:0:0:0:
408,236,79421,1,0,0:0:0:0:
330,240,79498,2,2,P|311:234|292:217,5,30.0000011444092,10|2|2|2|2|2,0:0|0:0|0:0|0:0|0:0|0:0,0:0:0:0:
65,206,79952,5,0,0:0:0:0:
121,267,80027,1,0,0:0:0:0:
201,269,80104,1,8,0:0:0:0:
452,93,80255,5,8,0:0:0:0:
415,31,80330,1,0,0:0:0:0:
351,15,80407,1,10,0:0:0:0:
288,41,80482,1,0,0:0:0:0:
263,104,80558,1,0,0:0:0:0:
293,166,80634,1,0,0:0:0:0:
358,189,80710,2,2,P|384:190|396:187,5,30.0000011444092,10|2|2|2|2|2,0:0|0:0|0:0|0:0|0:0|0:0,0:0:0:0:
227,29,81164,5,0,0:0:0:0:
162,25,81239,1,0,0:0:0:0:
112,66,81315,1,8,0:0:0:0:
101,130,81391,1,0,0:0:0:0:
127,191,81467,1,0,0:0:0:0:
171,238,81542,1,0,0:0:0:0:
182,301,81618,1,8,0:0:0:0:
141,349,81694,1,0,0:0:0:0:
77,355,81770,1,0,0:0:0:0:
29,314,81845,1,0,0:0:0:0:
29,249,81922,2,2,P|42:220|51:211,5,30.0000011444092,10|2|2|2|2|2,0:0|0:0|0:0|0:0|0:0|0:0,0:0:0:0:
346,330,82376,5,0,0:0:0:0:
420,326,82453,1,0,0:0:0:0:
470,270,82528,1,8,0:0:0:0:
302,209,82679,5,0,0:0:0:0:
159,330,82831,1,8,0:0:0:0:
6,236,82982,5,0,0:0:0:0:
45,172,83058,1,0,0:0:0:0:
117,150,83134,2,2,P|143:139|152:129,5,30.0000011444092,10|2|2|2|2|2,0:0|0:0|0:0|0:0|0:0|0:0,0:0:0:0:
398,93,83588,5,0,0:0:0:0:
455,142,83663,1,0,0:0:0:0:
462,217,83740,6,2,P|463:237|457:260,1,22.5000008583069,10|2,0:0|0:0,0:0:0:0:
386,363,83891,2,2,P|373:379|352:390,1,22.5000008583069,10|2,0:0|0:0,0:0:0:0:
222,335,84043,2,2,P|202:337|179:331,1,22.5000008583069,10|2,0:0|0:0,0:0:0:0:
227,181,84195,5,0,0:0:0:0:
299,141,84270,1,0,0:0:0:0:
374,166,84347,2,2,P|390:178|402:199,5,30.0000011444092,10|2|2|2|2|2,0:0|0:0|0:0|0:0|0:0|0:0,0:0:0:0:
274,371,84801,5,0,0:0:0:0:
196,381,84876,1,0,0:0:0:0:
127,346,84952,1,10,0:0:0:0:
50,201,85104,5,0,0:0:0:0:
106,242,85179,1,0,0:0:0:0:
174,239,85255,1,10,0:0:0:0:
241,214,85331,1,0,0:0:0:0:
310,212,85407,1,0,0:0:0:0:
374,239,85482,1,0,0:0:0:0:
441,232,85558,2,2,P|462:229|479:216,5,30.0000011444092,10|2|2|2|2|2,0:0|0:0|0:0|0:0|0:0|0:0,0:0:0:0:
269,106,86013,5,0,0:0:0:0:
201,117,86088,1,0,0:0:0:0:
167,175,86164,1,8,0:0:0:0:
190,239,86240,1,0,0:0:0:0:
255,260,86316,1,0,0:0:0:0:
317,228,86391,1,0,0:0:0:0:
341,165,86467,5,0,0:0:0:0:
403,134,86542,1,0,0:0:0:0:
468,154,86618,1,0,0:0:0:0:
492,219,86694,1,8,0:0:0:0:
472,284,86770,2,2,P|452:297|432:300,5,30.0000011444092,10|2|2|2|2|2,0:0|0:0|0:0|0:0|0:0|0:0,0:0:0:0:
315,93,87225,5,10,0:0:0:0:
377,47,87301,1,0,0:0:0:0:
455,50,87376,1,0,0:0:0:0:
417,183,87528,5,0,0:0:0:0:
225,84,87679,1,0,0:0:0:0:
163,258,87831,5,10,0:0:0:0:
89,282,87907,1,0,0:0:0:0:
16,255,87982,2,0,P|2:233|-2:212,5,30.0000011444092
474,92,88437,5,0,0:0:0:0:
442,161,88513,1,0,0:0:0:0:
373,186,88582,2,0,P|357:186|347:183,1,15,8|0,0:0|0:0,0:0:0:0:
333,53,88733,1,0,0:0:0:0:
205,204,88885,1,8,0:0:0:0:
21,92,89036,5,0,0:0:0:0:
80,37,89111,1,0,0:0:0:0:
159,25,89188,2,2,P|178:29|207:43,5,30.0000011444092,10|2|2|2|2|2,0:0|0:0|0:0|0:0|0:0|0:0,0:0:0:0:
467,155,89642,5,0,0:0:0:0:
390,164,89717,1,0,0:0:0:0:
319,133,89794,2,2,P|306:119|304:112,1,22.5000008583069,10|2,0:0|0:0,0:0:0:0:
65,235,89945,5,0,0:0:0:0:
125,282,90022,1,0,0:0:0:0:
201,282,90097,1,8,0:0:0:0:
270,253,90172,1,0,0:0:0:0:
344,250,90249,1,0,0:0:0:0:
412,284,90324,1,0,0:0:0:0:
436,356,90400,2,2,P|436:371|431:384,5,30.0000011444092,10|2|2|2|2|2,0:0|0:0|0:0|0:0|0:0|0:0,0:0:0:0:
132,213,90854,5,0,0:0:0:0:
146,146,90929,1,0,0:0:0:0:
204,110,91005,1,8,0:0:0:0:
270,104,91081,1,0,0:0:0:0:
332,133,91157,1,0,0:0:0:0:
388,173,91232,1,0,0:0:0:0:
455,182,91308,1,8,0:0:0:0:
506,139,91384,1,0,0:0:0:0:
512,73,91460,1,0,0:0:0:0:
465,25,91535,1,0,0:0:0:0:
400,22,91612,2,2,P|378:30|362:48,5,30.0000011444092,10|2|2|2|2|2,0:0|0:0|0:0|0:0|0:0|0:0,0:0:0:0:
42,321,92066,5,0,0:0:0:0:
128,339,92142,1,0,0:0:0:0:
211,299,92218,6,2,P|205:320|210:339,1,22.5000008583069,10|2,0:0|0:0,0:0:0:0:
261,159,92369,2,2,P|244:174|236:191,1,22.5000008583069
451,145,92521,2,2,P|439:133|418:123,1,22.5000008583069,10|2,0:0|0:0,0:0:0:0:
490,337,92672,5,0,0:0:0:0:
423,382,92747,1,0,0:0:0:0:
345,374,92824,2,2,P|326:358|319:342,5,30.0000011444092,2|2|2|2|2|2,0:0|0:0|0:0|0:0|0:0|0:0,0:0:0:0:
0,341,93278,5,0,0:0:0:0:
68,378,93353,1,0,0:0:0:0:
141,357,93429,1,8,0:0:0:0:
241,215,93582,1,0,0:0:0:0:
359,354,93733,1,8,0:0:0:0:
512,226,93885,5,0,0:0:0:0:
458,163,93960,1,0,0:0:0:0:
381,143,94037,2,2,P|361:144|333:154,5,30.0000011444092,10|2|2|2|2|2,0:0|0:0|0:0|0:0|0:0|0:0,0:0:0:0:
94,280,94491,5,0,0:0:0:0:
155,324,94566,1,0,0:0:0:0:
230,328,94643,2,2,P|248:322|261:311,1,22.5000008583069,10|2,0:0|0:0,0:0:0:0:
423,106,94794,5,0,0:0:0:0:
373,59,94869,1,0,0:0:0:0:
306,52,94945,1,8,0:0:0:0:
238,65,95021,1,0,0:0:0:0:
176,93,95097,1,0,0:0:0:0:
108,92,95172,1,0,0:0:0:0:
47,67,95248,2,2,P|32:46|27:28,5,30.0000011444092,10|2|2|2|2|2,0:0|0:0|0:0|0:0|0:0|0:0,0:0:0:0:
313,156,95703,5,0,0:0:0:0:
260,189,95778,1,0,0:0:0:0:
199,186,95854,1,8,0:0:0:0:
137,185,95930,1,0,0:0:0:0:
94,234,96006,1,0,0:0:0:0:
106,294,96081,1,0,0:0:0:0:
165,316,96157,1,8,0:0:0:0:
226,299,96232,1,0,0:0:0:0:
290,290,96308,1,0,0:0:0:0:
354,304,96384,1,0,0:0:0:0:
390,355,96460,2,2,P|393:378|391:400,5,30.0000011444092,10|2|2|2|2|2,0:0|0:0|0:0|0:0|0:0|0:0,0:0:0:0:
512,198,96915,5,0,0:0:0:0:
435,208,96990,1,0,0:0:0:0:
365,175,97066,1,8,0:0:0:0:
407,62,97218,5,0,0:0:0:0:
227,207,97369,1,8,0:0:0:0:
50,56,97521,5,0,0:0:0:0:
114,5,97596,1,0,0:0:0:0:
194,0,97673,2,2,P|213:5|238:20,5,30.0000011444092,10|2|2|2|2|2,0:0|0:0|0:0|0:0|0:0|0:0,0:0:0:0:
319,299,98127,5,0,0:0:0:0:
243,321,98202,1,0,0:0:0:0:
168,295,98279,6,2,P|152:282|140:262,1,22.5000008583069,10|2,0:0|0:0,0:0:0:0:
120,143,98430,2,2,P|117:123|123:100,1,22.5000008583069,10|2,0:0|0:0,0:0:0:0:
264,56,98582,2,2,P|276:40|296:28,1,22.5000008583069,10|2,0:0|0:0,0:0:0:0:
468,181,98733,5,0,0:0:0:0:
410,238,98808,1,0,0:0:0:0:
330,240,98885,2,2,P|311:234|292:217,5,30.0000011444092,10|2|2|2|2|2,0:0|0:0|0:0|0:0|0:0|0:0,0:0:0:0:
65,224,99339,5,0,0:0:0:0:
120,284,99414,1,0,0:0:0:0:
201,287,99491,1,8,0:0:0:0:
385,112,99642,5,8,0:0:0:0:
378,43,99717,1,0,0:0:0:0:
324,2,99794,1,10,0:0:0:0:
255,2,99869,1,0,0:0:0:0:
206,51,99945,1,0,0:0:0:0:
210,121,100021,1,0,0:0:0:0:
260,171,100097,2,2,P|284:183|296:185,5,30.0000011444092,10|2|2|2|2|2,0:0|0:0|0:0|0:0|0:0|0:0,0:0:0:0:
227,29,100551,5,0,0:0:0:0:
162,25,100626,1,0,0:0:0:0:
112,66,100702,1,8,0:0:0:0:
101,130,100778,1,0,0:0:0:0:
127,191,100854,1,0,0:0:0:0:
171,238,100929,1,0,0:0:0:0:
182,301,101005,1,8,0:0:0:0:
141,349,101081,1,0,0:0:0:0:
77,355,101157,1,0,0:0:0:0:
29,314,101232,1,0,0:0:0:0:
29,249,101309,2,2,P|42:220|51:211,5,30.0000011444092,10|2|2|2|2|2,0:0|0:0|0:0|0:0|0:0|0:0,0:0:0:0:
335,245,101763,5,0,0:0:0:0:
411,258,101838,1,0,0:0:0:0:
479,221,101915,1,8,0:0:0:0:
379,122,102066,5,0,0:0:0:0:
221,284,102218,1,8,0:0:0:0:
42,196,102369,5,0,0:0:0:0:
36,120,102445,1,0,0:0:0:0:
85,62,102521,2,2,P|105:48|125:46,5,30.0000011444092,10|2|2|2|2|2,0:0|0:0|0:0|0:0|0:0|0:0,0:0:0:0:
263,304,102975,5,0,0:0:0:0:
337,341,103050,1,0,0:0:0:0:
422,319,103127,2,2,P|421:330|417:340,1,22.5000008583069,10|2,0:0|0:0,0:0:0:0:
497,200,103278,2,2,P|504:209|509:219,1,22.5000008583069,10|2,0:0|0:0,0:0:0:0:
399,67,103430,2,2,P|411:69|421:73,1,22.5000008583069,10|2,0:0|0:0,0:0:0:0:
157,238,103582,5,0,0:0:0:0:
234,259,103657,1,0,0:0:0:0:
304,219,103734,2,2,P|317:203|324:180,5,30.0000011444092,10|2|2|2|2|2,0:0|0:0|0:0|0:0|0:0|0:0,0:0:0:0:
147,52,104188,5,0,0:0:0:0:
80,95,104264,1,0,0:0:0:0:
65,171,104339,1,10,0:0:0:0:
455,327,104491,5,0,0:0:0:0:
510,274,104566,1,0,0:0:0:0:
494,201,104642,1,0,0:0:0:0:
422,177,104718,1,0,0:0:0:0:
351,204,104794,1,0,0:0:0:0:
275,221,104869,1,0,0:0:0:0:
200,209,104945,2,2,P|180:202|166:186,5,30.0000011444092,10|2|2|2|2|2,0:0|0:0|0:0|0:0|0:0|0:0,0:0:0:0:
251,56,105400,5,0,0:0:0:0:
179,68,105475,1,0,0:0:0:0:
143,130,105551,1,8,0:0:0:0:
168,198,105627,1,0,0:0:0:0:
237,220,105703,1,0,0:0:0:0:
302,186,105778,1,0,0:0:0:0:
328,119,105854,5,0,0:0:0:0:
394,86,105929,1,0,0:0:0:0:
463,108,106005,1,0,0:0:0:0:
488,176,106081,1,8,0:0:0:0:
456,241,106157,2,2,P|436:254|416:257,5,30.0000011444092,10|2|2|2|2|2,0:0|0:0|0:0|0:0|0:0|0:0,0:0:0:0:
123,266,106612,5,10,0:0:0:0:
186,221,106688,1,0,0:0:0:0:
262,222,106763,1,0,0:0:0:0:
117,377,106915,5,0,0:0:0:0:
13,191,107066,1,0,0:0:0:0:
307,112,107218,5,10,0:0:0:0:
233,136,107294,1,0,0:0:0:0:
160,109,107369,2,0,P|146:87|142:66,5,30.0000011444092
349,19,107824,5,0,0:0:0:0:
449,69,107900,1,0,0:0:0:0:
481,175,107975,5,0,0:0:0:0:
310,265,108278,1,0,0:0:0:0:
132,179,108582,6,0,L|108:363,1,180
202,68,109188,1,0,0:0:0:0:
269,243,109491,1,0,0:0:0:0:
410,118,109794,6,0,L|434:302,1,180
102,309,110400,1,0,0:0:0:0:
344,342,110703,1,0,0:0:0:0:
244,118,111006,6,0,B|175:98|125:154|125:154|108:139|81:135,1,180
476,254,111612,1,0,0:0:0:0:
232,283,111915,1,0,0:0:0:0:
332,59,112218,6,0,B|400:39|450:95|450:95|467:80|494:76,1,180
382,320,112824,1,0,0:0:0:0:
211,107,113127,1,0,0:0:0:0:
92,348,113430,6,0,B|166:343|166:343|195:319|195:319|267:313,1,180
206,72,114036,1,0,0:0:0:0:
377,285,114339,1,0,0:0:0:0:
496,44,114642,6,0,B|422:49|422:49|393:73|393:73|321:79,1,180
412,342,115248,1,0,0:0:0:0:
154,250,115551,1,0,0:0:0:0:
443,171,115854,6,0,P|478:204|477:330,1,180
208,374,116460,1,0,0:0:0:0:
90,126,116763,1,0,0:0:0:0:
369,263,117066,6,0,P|347:305|217:341,1,180
200,67,117672,6,0,B|244:33|283:112|385:65,1,180.000006866455
496,291,118885,6,0,P|515:255|427:265,1,180.000006866455
179,353,120097,6,0,L|0:339,1,180.000006866455
332,127,121309,6,0,L|511:140,1,180.000006866455
58,161,122521,6,0,B|36:154|3:179|-3:228|37:256|64:252|64:252|71:272|83:283,1,180.000006866455
338,138,123582,5,0,0:0:0:0:
443,95,123733,2,0,B|393:78|378:38|378:38|326:58|279:35,1,180.000006866455
198,365,124945,5,0,0:0:0:0:
489,144,125551,1,0,0:0:0:0:
92,273,126157,5,0,0:0:0:0:
454,322,126763,1,0,0:0:0:0:
68,102,127361,5,0,0:0:0:0:
68,102,127512,1,0,0:0:0:0:
68,102,127664,1,0,0:0:0:0:
68,102,127815,1,0,0:0:0:0:
68,102,127967,2,0,P|112:172|217:175,1,180.000006866455
453,98,128573,5,0,0:0:0:0:
453,98,128724,1,0,0:0:0:0:
453,98,128876,1,0,0:0:0:0:
453,98,129027,1,0,0:0:0:0:
453,98,129179,2,0,L|445:286,1,180.000006866455
55,335,129785,5,0,0:0:0:0:
102,333,129936,1,0,0:0:0:0:
150,331,130088,1,0,0:0:0:0:
197,330,130239,1,0,0:0:0:0:
244,329,130391,2,0,B|386:324|386:324|345:300,1,180.000006866455
403,89,130997,5,0,0:0:0:0:
180,169,131148,1,0,0:0:0:0:
247,111,131300,5,0,0:0:0:0:
332,148,131451,1,0,0:0:0:0:
95,132,131603,5,0,0:0:0:0:
281,369,131906,5,0,0:0:0:0:
121,347,132057,1,0,0:0:0:0:
228,244,132209,6,0,P|274:231|322:238,1,90.0000034332277
283,55,132664,1,0,0:0:0:0:
176,158,132816,6,0,P|130:171|82:164,1,90.0000034332277
151,25,133270,1,0,0:0:0:0:
337,147,133421,6,0,P|391:159|366:22,1,270.000010299683
137,384,134633,5,0,0:0:0:0:
257,345,134936,1,0,0:0:0:0:
257,220,135239,1,0,0:0:0:0:
137,181,135542,1,0,0:0:0:0:
64,282,135845,1,0,0:0:0:0:
