osu file format v14

[General]
AudioFilename: audio.mp3
AudioLeadIn: 0
PreviewTime: 196069
Countdown: 0
SampleSet: Normal
StackLeniency: 0.7
Mode: 0
LetterboxInBreaks: 0
WidescreenStoryboard: 0

[Editor]
DistanceSpacing: 1.5
BeatDivisor: 4
GridSize: 4
TimelineZoom: 3.399999

[Metadata]
Title:Pieces
TitleUnicode:Pieces
Artist:La Cataline
ArtistUnicode:La Cataline
Creator:PandaHero
Version:Hard
Source:
Tags:lc lacataline Mirash collaboration
BeatmapID:1517442
BeatmapSetID:701681

[Difficulty]
HPDrainRate:4
CircleSize:3.5
OverallDifficulty:5
ApproachRate:6.5
SliderMultiplier:1.3
SliderTickRate:1

[Events]
//Background and Video events
0,0,"4dec5d27-9bba-429d-c29e-bb75790306a4.jpg",0,0
//Break Periods
2,79530,95051
2,150487,161833
2,219356,230703
//Storyboard Layer 0 (Background)
//Storyboard Layer 1 (Fail)
//Storyboard Layer 2 (Pass)
//Storyboard Layer 3 (Foreground)
//Storyboard Sound Samples

[TimingPoints]
12548,521.739130434783,4,2,1,60,1,0
13330,-100,4,2,1,40,0,0
13591,-100,4,2,1,60,0,0
14504,-100,4,2,1,50,0,0
15417,-100,4,2,1,60,0,0
16200,-100,4,2,1,40,0,0
16461,-100,4,2,1,55,0,0
16721,-100,4,2,1,70,0,0
17243,-100,4,2,1,60,0,0
19200,-100,4,2,1,40,0,0
19852,-100,4,2,1,50,0,0
20374,-100,4,2,1,60,0,0
20895,-100,4,2,1,70,0,0
21287,-100,4,2,1,60,0,0
22852,-100,4,2,1,50,0,0
23765,-100,4,2,1,60,0,0
24548,-100,4,2,1,40,0,0
24808,-100,4,2,1,55,0,0
25069,-100,4,2,1,70,0,0
25461,-100,4,2,1,60,0,0
27678,-100,4,2,1,50,0,0
28200,-100,4,2,1,55,0,0
28721,-100,4,2,1,60,0,0
29243,-100,4,2,1,70,0,0
29634,-100,4,2,1,60,0,0
30026,-100,4,2,1,50,0,0
30808,-100,4,2,1,60,0,0
32113,-100,4,2,1,50,0,0
32895,-100,4,2,1,40,0,0
33156,-100,4,2,1,55,0,0
33417,-100,4,2,1,70,0,0
33808,-100,4,2,1,60,0,0
35504,-100,4,2,1,50,0,0
36026,-100,4,2,1,60,0,0
37330,-100,4,2,1,50,0,0
37591,-100,4,2,1,70,0,0
38113,-100,4,2,1,60,0,0
39548,-100,4,2,1,50,0,0
40200,-100,4,2,1,60,0,0
42156,-100,4,2,1,50,0,0
42808,-100,4,2,1,60,0,0
44634,-100,4,2,1,70,0,0
45026,-100,4,2,1,55,0,0
45417,-100,4,2,1,60,0,0
45939,-83.3333333333333,4,2,1,80,0,0
46330,-83.3333333333333,4,2,1,60,0,0
47895,-83.3333333333333,4,2,1,50,0,0
48026,-83.3333333333333,4,2,1,60,0,0
49591,-83.3333333333333,4,2,1,50,0,0
49852,-83.3333333333333,4,2,1,45,0,0
50113,-83.3333333333333,4,2,1,70,0,0
50634,-83.3333333333333,4,2,1,60,0,0
52069,-83.3333333333333,4,2,1,50,0,0
52200,-83.3333333333333,4,2,1,60,0,0
53765,-83.3333333333333,4,2,1,50,0,0
54026,-83.3333333333333,4,2,1,40,0,0
54287,-83.3333333333333,4,2,1,70,0,0
54678,-83.3333333333333,4,2,1,60,0,0
55330,-83.3333333333333,4,2,1,40,0,0
55591,-83.3333333333333,4,2,1,50,0,0
55852,-83.3333333333333,4,2,1,60,0,0
56243,-83.3333333333333,4,2,1,50,0,0
56374,-83.3333333333333,4,2,1,60,0,0
57156,-83.3333333333333,4,2,1,40,0,0
57417,-83.3333333333333,4,2,1,50,0,0
57678,-83.3333333333333,4,2,1,60,0,0
57939,-83.3333333333333,4,2,1,70,0,0
58461,-83.3333333333333,4,2,1,80,0,0
58852,-83.3333333333333,4,2,1,60,0,0
60417,-83.3333333333333,4,2,1,50,0,0
60548,-83.3333333333333,4,2,1,60,0,0
61982,-83.3333333333333,4,2,1,40,0,0
62113,-83.3333333333333,4,2,1,60,0,0
62634,-83.3333333333333,4,2,1,80,0,0
63156,-83.3333333333333,4,2,1,60,0,0
63939,-83.3333333333333,4,2,1,40,0,0
64200,-83.3333333333333,4,2,1,60,0,0
64591,-83.3333333333333,4,2,1,50,0,0
64721,-83.3333333333333,4,2,1,60,0,0
66287,-83.3333333333333,4,2,1,50,0,0
66548,-83.3333333333333,4,2,1,45,0,0
66808,-83.3333333333333,4,2,1,70,0,0
67330,-83.3333333333333,4,2,1,60,0,0
67852,-83.3333333333333,4,2,1,40,0,0
68113,-83.3333333333333,4,2,1,50,0,0
68374,-83.3333333333333,4,2,1,60,0,0
68765,-83.3333333333333,4,2,1,50,0,0
68895,-83.3333333333333,4,2,1,60,0,0
70461,-83.3333333333333,4,2,1,50,0,0
70721,-83.3333333333333,4,2,1,45,0,0
70982,-83.3333333333333,4,2,1,70,0,0
71504,-83.3333333333333,4,2,1,60,0,0
72156,-83.3333333333333,4,2,1,50,0,0
72548,-83.3333333333333,4,2,1,60,0,0
72939,-83.3333333333333,4,2,1,50,0,0
73069,-83.3333333333333,4,2,1,60,0,0
75548,-83.3333333333333,4,2,1,50,0,0
75939,-83.3333333333333,4,2,1,60,0,0
76200,-83.3333333333333,4,2,1,40,0,0
76461,-83.3333333333333,4,2,1,70,0,0
76721,-83.3333333333333,4,2,1,50,0,0
77243,-83.3333333333333,4,2,1,60,0,0
78287,-83.3333333333333,4,2,1,40,0,0
78548,-83.3333333333333,4,2,1,50,0,0
78808,-83.3333333333333,4,2,1,60,0,0
79069,-83.3333333333333,4,2,1,70,0,0
79330,-83.3333333333333,4,2,1,80,0,0
96026,-142.857142857143,4,2,1,20,0,0
96548,-142.857142857143,4,1,1,30,0,0
96678,-142.857142857143,4,2,1,20,0,0
97069,-142.857142857143,4,1,1,20,0,0
97200,-142.857142857143,4,2,1,20,0,0
97330,-142.857142857143,4,1,1,15,0,0
97461,-142.857142857143,4,2,1,20,0,0
97591,-142.857142857143,4,1,1,20,0,0
97721,-142.857142857143,4,2,1,20,0,0
97852,-142.857142857143,4,1,1,15,0,0
97982,-142.857142857143,4,2,1,20,0,0
100721,-142.857142857143,4,1,1,30,0,0
100852,-142.857142857143,4,2,1,20,0,0
101243,-142.857142857143,4,1,1,20,0,0
101374,-142.857142857143,4,2,1,20,0,0
101504,-142.857142857143,4,1,1,15,0,0
101634,-142.857142857143,4,2,1,20,0,0
101765,-142.857142857143,4,1,1,20,0,0
101895,-142.857142857143,4,2,1,20,0,0
102026,-142.857142857143,4,1,1,15,0,0
102156,-142.857142857143,4,2,1,20,0,0
104895,-142.857142857143,4,1,1,30,0,0
105026,-142.857142857143,4,2,1,20,0,0
105156,-142.857142857143,4,1,1,30,0,0
105417,-142.857142857143,4,2,1,20,0,0
105678,-142.857142857143,4,1,1,20,0,0
105939,-142.857142857143,4,2,1,20,0,0
106200,-142.857142857143,4,1,1,20,0,0
106982,-142.857142857143,4,2,1,20,0,0
108548,-142.857142857143,4,2,1,15,0,0
109069,-142.857142857143,4,2,1,10,0,0
109591,-142.857142857143,4,2,1,15,0,0
109852,-142.857142857143,4,2,1,20,0,0
110113,-142.857142857143,4,2,1,25,0,0
110374,-142.857142857143,4,2,1,30,0,0
110634,-142.857142857143,4,2,1,50,0,0
111156,-125,4,2,1,40,0,0
111678,-125,4,1,1,50,0,0
111743,-125,4,2,1,50,0,0
111874,-125,4,1,1,50,0,0
112721,-100,4,2,1,50,0,0
114287,-100,4,2,1,40,0,0
114548,-100,4,2,1,30,0,0
114808,-100,4,2,1,60,0,0
115069,-100,4,2,1,50,0,0
116374,-100,4,2,1,40,0,0
116895,-100,4,2,1,60,0,0
117287,-100,4,2,1,50,0,0
118069,-100,4,2,1,40,0,0
118461,-100,4,2,1,50,0,0
118982,-100,4,2,1,60,0,0
119374,-100,4,2,1,50,0,0
120026,-100,4,2,1,40,0,0
120548,-100,4,2,1,50,0,0
120678,-100,4,2,1,30,0,0
121069,-100,4,2,1,60,0,0
121591,-100,4,2,1,50,0,0
122113,-100,4,2,1,40,0,0
122374,-100,4,2,1,30,0,0
122634,-100,4,2,1,40,0,0
122895,-100,4,2,1,50,0,0
123156,-100,4,2,1,60,0,0
123678,-100,4,2,1,50,0,0
124461,-100,4,2,1,30,0,0
124721,-100,4,2,1,50,0,0
124982,-100,4,2,1,40,0,0
125243,-100,4,2,1,60,0,0
125634,-100,4,2,1,50,0,0
126548,-100,4,2,1,40,0,0
126808,-100,4,2,1,50,0,0
127069,-100,4,2,1,40,0,0
127330,-100,4,2,1,60,0,0
127591,-100,4,2,1,50,0,0
127852,-100,4,2,1,60,0,0
128113,-100,4,2,1,50,0,0
128374,-100,4,2,1,70,0,0
128504,-100,4,2,1,50,0,0
129417,-100,4,2,1,60,0,0
129808,-100,4,2,1,50,0,0
130721,-100,4,2,1,40,0,0
130982,-100,4,2,1,50,0,0
131243,-100,4,2,1,40,0,0
131504,-100,4,2,1,60,0,0
131765,-100,4,2,1,50,0,0
132808,-100,4,2,1,40,0,0
133069,-100,4,2,1,30,0,0
133330,-100,4,2,1,40,0,0
133591,-100,4,2,1,60,0,0
133982,-100,4,2,1,50,0,0
134634,-100,4,2,1,40,0,0
134895,-100,4,2,1,30,0,0
135156,-100,4,2,1,60,0,0
135417,-100,4,2,1,40,0,0
135678,-100,4,2,1,70,0,0
136200,-100,4,2,1,30,0,0
136461,-100,4,2,1,50,0,0
136721,-100,4,2,1,30,0,0
136982,-100,4,2,1,50,0,0
137243,-100,4,2,1,30,0,0
137504,-100,4,2,1,50,0,0
137765,-100,4,2,1,70,0,0
138287,-100,4,2,1,50,0,0
138808,-100,4,2,1,30,0,0
139069,-100,4,2,1,40,0,0
139330,-100,4,2,1,50,0,0
139591,-100,4,2,1,40,0,0
139852,-100,4,2,1,60,0,0
140113,-100,4,2,1,50,0,0
140374,-100,4,2,1,40,0,0
140634,-100,4,2,1,50,0,0
140895,-100,4,2,1,30,0,0
141156,-100,4,2,1,50,0,0
141678,-100,4,2,1,20,0,0
141939,-100,4,2,1,70,0,0
142200,-100,4,2,1,50,0,0
142982,-100,4,2,1,40,0,0
143243,-100,4,2,1,30,0,0
143504,-100,4,2,1,60,0,0
143765,-100,4,2,1,20,0,0
144026,-100,4,2,1,60,0,0
144808,-100,4,2,1,40,0,0
144939,-100,4,2,1,60,0,0
145852,-100,4,2,1,40,0,0
145982,-100,4,2,1,50,0,0
146113,-100,4,2,1,70,0,1
147156,-100,4,2,1,45,0,1
147678,-100,4,2,1,40,0,1
147939,-100,4,2,1,35,0,1
148200,-100,4,2,1,30,0,1
148461,-100,4,2,1,25,0,1
148721,-100,4,2,1,20,0,1
148982,-100,4,2,1,15,0,1
149243,-100,4,2,1,10,0,1
149504,-100,4,2,1,5,0,1
149765,-100,4,2,1,10,0,1
150026,-100,4,2,1,15,0,1
150287,-100,4,2,1,20,0,0
162808,-142.857142857143,4,2,1,40,0,0
163591,-142.857142857143,4,2,0,40,0,0
174808,-142.857142857143,4,2,0,20,0,0
175069,-142.857142857143,4,2,0,40,0,0
177156,-142.857142857143,4,2,0,20,0,0
177417,-142.857142857143,4,2,0,40,0,0
178200,-142.857142857143,4,2,0,25,0,0
178461,-111.111111111111,4,2,1,40,0,0
178982,-90.9090909090908,4,2,1,50,0,0
179504,-83.3333333333333,4,2,1,50,0,0
184721,-83.3333333333333,4,2,0,50,0,0
185243,-83.3333333333333,4,2,1,50,0,0
185504,-83.3333333333333,4,2,0,40,0,0
185634,-83.3333333333333,4,2,1,50,0,0
194113,-83.3333333333333,4,1,1,35,0,0
194374,-83.3333333333333,4,2,1,35,0,0
194634,-83.3333333333333,4,1,1,40,0,0
194895,-83.3333333333333,4,2,1,40,0,0
195156,-83.3333333333333,4,1,1,45,0,0
195417,-83.3333333333333,4,2,1,45,0,0
195678,-83.3333333333333,4,1,1,50,0,0
195939,-83.3333333333333,4,2,0,50,0,0
196200,-83.3333333333333,4,1,1,40,0,0
196461,-83.3333333333333,4,2,1,60,0,0
196721,-83.3333333333333,4,1,1,60,0,0
204548,-83.3333333333333,4,1,1,60,0,0
204808,-83.3333333333333,4,2,1,60,0,0
205069,-83.3333333333333,4,1,1,60,0,0
211330,-100,4,2,0,25,0,0
212895,-100,4,2,1,30,0,1
213026,-100,4,2,1,5,0,1
219156,-100,4,2,1,5,0,0
231678,-83.3333333333333,4,1,1,40,0,0
231939,-83.3333333333333,4,2,1,40,0,0
232461,-83.3333333333333,4,2,0,40,0,0
251243,-83.3333333333333,4,2,0,30,0,0
251504,-83.3333333333333,4,2,0,50,0,0
251765,-83.3333333333333,4,2,0,40,0,0
265069,-83.3333333333333,4,2,0,30,0,0

[Colours]
Combo1 : 0,85,85
Combo2 : 140,140,140
Combo3 : 89,89,89
Combo4 : 69,137,137

[HitObjects]
52,331,12547,6,0,L|203:313,1,130,4|8,1:0|0:3,0:0:0:0:
161,181,13330,2,0,L|14:218,1,130,4|0,1:3|1:0,0:0:0:0:
121,78,14113,1,8,0:0:0:0:
121,78,14634,6,0,B|178:69|178:69|270:83,1,130,4|8,1:2|0:3,0:0:0:0:
374,113,15417,1,0,1:0:0:0:
237,254,15808,1,2,0:0:0:0:
237,254,15939,2,0,L|306:260,1,65,0|8,1:0|0:0,0:0:0:0:
398,336,16461,1,8,0:3:0:0:
244,353,16721,6,0,L|113:346,1,130,4|8,1:0|0:3,0:0:0:0:
15,234,17504,2,0,B|34:290|34:290|6:378,1,130,4|0,1:3|1:0,0:0:0:0:
115,262,18287,1,8,0:0:0:0:
115,262,18808,6,0,B|94:204|94:204|129:126,1,130,4|8,1:2|0:0,0:0:0:0:
58,23,19591,2,0,B|94:51|94:51|164:58,1,97.5,8|2,0:3|0:0,0:0:0:0:
174,59,20113,1,8,0:0:0:0:
295,17,20374,1,8,1:3:0:0:
295,17,20634,1,8,1:3:0:0:
295,17,20895,6,0,L|277:164,1,130,12|8,1:0|0:3,0:0:0:0:
420,80,21678,2,0,L|397:197,1,97.5,4|0,1:3|1:0,0:0:0:0:
394,204,22200,1,0,1:0:0:0:
239,227,22461,1,8,0:0:0:0:
239,227,22982,5,4,1:2:0:0:
398,358,23374,1,2,0:0:0:0:
398,358,23504,1,8,0:3:0:0:
298,313,23765,2,0,P|253:324|190:352,1,97.5,4|2,1:3|0:0,0:0:0:0:
181,359,24287,1,0,1:0:0:0:
149,206,24548,2,0,L|118:287,1,65,8|0,0:0|1:0,0:0:0:0:
252,200,25069,6,0,L|388:210,1,130,4|8,1:0|0:3,0:0:0:0:
385,82,25852,2,0,L|246:90,1,130,4|2,1:3|1:2,0:0:0:0:
152,211,26634,1,8,0:0:0:0:
152,211,27156,5,4,1:0:0:0:
43,22,27678,2,0,L|121:17,1,65,8|8,0:0|0:3,0:0:0:0:
61,134,28200,2,0,L|12:129,2,32.5,8|0|8,0:3|0:0|0:0,0:0:0:0:
191,139,28721,1,8,1:3:0:0:
200,12,28982,1,8,1:3:0:0:
292,151,29243,6,0,L|274:285,1,130,12|8,1:0|0:3,0:0:0:0:
375,352,30026,1,4,1:3:0:0:
476,276,30287,2,0,L|466:235,2,32.5,8|2|0,0:0|0:0|1:0,0:0:0:0:
389,141,30808,1,4,0:0:0:0:
389,141,31330,5,4,1:2:0:0:
158,218,31721,1,2,1:2:0:0:
158,218,31852,2,0,L|228:228,1,65,8|0,1:3|1:0,0:0:0:0:
291,118,32374,2,0,L|291:150,2,32.5,8|2|4,1:3|0:0|1:3,0:0:0:0:
155,42,32895,2,0,L|156:114,1,65,8|0,0:0|1:0,0:0:0:0:
26,244,33417,6,0,L|28:91,1,130,4|8,1:0|0:3,0:0:0:0:
102,5,34200,2,0,L|217:17,1,97.5,4|2,1:3|0:0,0:0:0:0:
227,19,34721,1,0,1:0:0:0:
187,174,34982,1,8,0:0:0:0:
187,174,35504,6,0,B|118:146|126:209|47:182,1,130,4|8,1:2|0:3,0:0:0:0:
28,312,36287,2,0,P|97:287|148:298,1,97.5,4|12,1:3|0:0,0:0:0:0:
147,298,36808,1,0,1:0:0:0:
222,359,37069,1,8,0:3:0:0:
319,359,37330,1,0,1:0:0:0:
361,233,37591,6,0,P|275:252|226:239,1,130,4|8,1:0|0:3,0:0:0:0:
154,141,38374,1,4,1:3:0:0:
322,33,38765,1,2,0:0:0:0:
322,33,38895,1,0,1:0:0:0:
290,154,39156,1,8,0:0:0:0:
290,154,39678,6,0,P|376:135|425:148,1,130,4|8,1:2|0:3,0:0:0:0:
471,291,40461,2,0,L|332:313,1,130,4|0,1:3|1:0,0:0:0:0:
209,258,41243,2,0,L|272:243,1,65,8|0,0:0|1:0,0:0:0:0:
192,342,41765,5,4,1:0:0:0:
47,216,42156,1,2,1:2:0:0:
47,216,42287,2,0,L|58:140,1,65,8|4,0:3|1:3,0:0:0:0:
163,86,42808,2,0,L|159:142,2,32.5,0|2|0,1:0|0:0|1:0,0:0:0:0:
51,30,43330,1,8,0:0:0:0:
51,30,43721,5,2,1:2:0:0:
51,30,43852,2,0,P|117:38|205:28,1,130,4|8,1:2|0:3,0:0:0:0:
337,17,44634,1,4,1:3:0:0:
253,110,44895,1,2,0:0:0:0:
372,151,45156,1,8,0:3:0:0:
459,54,45417,2,0,L|465:125,1,65,8|8,1:2|1:2,0:0:0:0:
339,266,45939,6,0,B|257:234|257:309|157:276,1,155.999995239258,12|8,1:0|0:3,0:0:0:0:
54,363,46721,2,0,P|82:284|79:201,1,155.999995239258,4|0,1:3|1:0,0:0:0:0:
18,104,47504,1,8,0:0:0:0:
18,104,47895,5,0,3:0:0:0:
18,104,48026,2,0,P|66:112|129:113,1,77.999997619629,4|0,1:2|0:0,0:0:0:0:
249,135,48548,1,8,0:3:0:0:
216,17,48808,1,0,1:0:0:0:
166,169,49069,2,0,B|159:215|159:215|179:271,1,77.999997619629,2|0,1:2|1:0,0:0:0:0:
322,211,49591,2,0,B|329:257|329:257|309:313,1,77.999997619629,8|0,0:0|1:0,0:0:0:0:
174,351,50113,6,0,L|49:354,1,116.999996429443,4|0,1:0|0:0,0:0:0:0:
22,356,50634,1,8,0:3:0:0:
52,200,50895,1,4,1:3:0:0:
169,244,51156,2,0,L|251:245,2,77.999997619629,0|0|8,1:0|1:0|0:0,0:0:0:0:
407,345,52069,5,0,3:0:0:0:
407,345,52200,2,0,L|496:342,1,77.999997619629,4|0,1:2|0:0,0:0:0:0:
370,232,52721,1,8,0:3:0:0:
325,312,52982,1,4,1:3:0:0:
270,169,53243,2,0,L|315:85,1,77.999997619629,0|0,1:0|1:0,0:0:0:0:
189,53,53765,2,0,L|180:157,1,77.999997619629,8|0,0:0|1:0,0:0:0:0:
218,252,54287,5,4,1:0:0:0:
218,252,54808,1,8,0:3:0:0:
92,284,55069,1,4,1:3:0:0:
236,346,55330,2,0,L|326:348,1,77.999997619629,8|0,1:3|1:0,0:0:0:0:
435,308,55852,1,8,0:0:0:0:
435,308,56243,5,0,3:0:0:0:
435,308,56374,2,0,L|447:182,1,116.999996429443,4|2,1:2|0:0,0:0:0:0:
451,156,56895,1,8,0:3:0:0:
319,118,57156,1,4,1:3:0:0:
244,225,57417,2,0,L|336:243,2,77.999997619629,0|0|8,1:0|1:0|0:0,0:0:0:0:
134,149,58200,1,0,1:0:0:0:
224,23,58461,6,0,L|306:28,1,77.999997619629,12|0,1:0|0:0,0:0:0:0:
227,131,58982,1,8,0:3:0:0:
157,234,59243,1,4,1:3:0:0:
30,144,59504,2,0,L|54:47,2,77.999997619629,0|8|8,1:0|0:3|0:0,0:0:0:0:
239,348,60417,5,0,3:0:0:0:
239,348,60548,2,0,L|256:237,1,77.999997619629,4|0,1:2|0:0,0:0:0:0:
357,347,61069,2,0,L|458:352,1,77.999997619629,8|0,0:3|1:0,0:0:0:0:
434,223,61591,2,0,L|329:234,1,77.999997619629,0|0,1:0|1:0,0:0:0:0:
248,112,62113,1,8,0:0:0:0:
350,40,62374,1,4,1:2:0:0:
292,186,62634,1,4,1:0:0:0:
292,186,63156,5,8,0:3:0:0:
167,153,63417,2,0,B|90:159|90:159|6:202,1,155.999995239258,4|4,1:3|1:2,0:0:0:0:
111,282,64200,1,12,0:0:0:0:
111,282,64591,5,0,3:0:0:0:
111,282,64721,2,0,L|212:270,1,77.999997619629,4|0,1:2|0:0,0:0:0:0:
297,348,65243,2,0,L|201:358,2,77.999997619629,8|4|0,0:3|1:3|1:0,0:0:0:0:
417,297,66026,1,0,1:0:0:0:
305,182,66287,2,0,L|293:269,1,77.999997619629,12|0,0:0|1:0,0:0:0:0:
430,179,66808,5,4,1:0:0:0:
430,179,67330,1,8,0:3:0:0:
305,182,67591,1,4,1:3:0:0:
379,37,67852,2,0,L|463:41,1,77.999997619629,0|4,1:0|1:2,0:0:0:0:
345,114,68374,1,8,0:0:0:0:
345,114,68765,5,0,3:0:0:0:
345,114,68895,2,0,L|255:53,1,77.999997619629,4|0,1:2|0:0,0:0:0:0:
152,166,69417,1,8,0:3:0:0:
153,36,69678,1,4,1:3:0:0:
39,140,69939,1,0,1:0:0:0:
148,257,70200,2,0,L|257:264,2,77.999997619629,0|12|4,1:0|0:0|1:2,0:0:0:0:
29,292,70982,5,4,1:0:0:0:
29,292,71504,1,8,0:3:0:0:
148,337,71765,1,0,1:3:0:0:
188,177,72026,2,0,L|76:180,1,77.999997619629,0|0,1:0|1:0,0:0:0:0:
259,246,72548,1,12,1:2:0:0:
259,246,72939,5,0,3:0:0:0:
259,246,73069,2,0,B|333:268|333:268|416:247,1,155.999995239258,4|8,1:2|0:3,0:0:0:0:
480,142,73852,1,4,1:3:0:0:
353,53,74113,2,0,L|349:153,1,77.999997619629,0|2,1:0|0:0,0:0:0:0:
221,160,74634,2,0,L|226:69,1,77.999997619629,8|0,0:0|1:0,0:0:0:0:
90,165,75156,6,0,L|112:268,2,77.999997619629,4|0|8,1:0|0:0|0:0,0:0:0:0:
199,238,75939,1,8,0:3:0:0:
90,351,76200,2,0,L|-11:347,2,77.999997619629,4|0|8,1:2|1:0|1:2,0:0:0:0:
375,358,77113,5,0,3:0:0:0:
375,358,77243,2,0,L|358:259,1,77.999997619629,4|0,1:2|0:0,0:0:0:0:
356,246,77634,1,2,0:0:0:0:
356,246,77765,2,0,L|442:251,1,77.999997619629,8|8,0:3|0:0,0:0:0:0:
354,148,78287,2,0,L|259:149,1,77.999997619629,0|0,0:0|1:0,0:0:0:0:
394,42,78808,2,0,L|488:42,1,77.999997619629,8|2,0:0|1:2,0:0:0:0:
299,51,79330,5,8,1:1:0:0:
142,44,96026,6,0,P|81:67|180:270,1,363.999988891602,4|0,1:2|1:0,0:0:0:0:
161,273,98634,1,2,0:0:0:0:
266,353,99156,2,0,L|323:354,3,45.4999986114502,0|2|0|2,1:0|0:0|1:0|0:0,0:0:0:0:
384,304,100200,6,0,P|478:170|343:77,1,363.999988891602,4|0,1:2|1:0,0:0:0:0:
343,76,102808,1,2,0:0:0:0:
220,81,103330,2,0,L|221:22,3,45.4999986114502,0|2|0|2,1:0|0:0|1:0|0:0,0:0:0:0:
219,166,104374,6,0,P|35:174|80:276,1,363.999988891602,4|0,0:0|0:0,0:0:0:0:
75,272,106982,1,2,0:0:0:0:
182,347,107504,2,0,L|183:287,3,45.4999986114502,0|2|0|2,1:0|0:0|1:0|0:0,0:0:0:0:
276,254,108548,5,4,1:2:0:0:
276,254,109069,1,0,1:0:0:0:
371,317,109591,5,0,1:0:0:0:
371,317,109852,1,0,1:0:0:0:
371,317,110113,1,0,1:0:0:0:
371,317,110374,1,0,1:0:0:0:
371,317,110634,1,8,1:0:0:0:
496,222,111156,6,0,L|494:161,1,52,0|0,1:0|1:0,0:0:0:0:
397,83,111678,1,0,0:0:0:0:
311,173,111939,1,0,0:0:0:0:
406,257,112200,1,0,0:0:0:0:
404,166,112461,1,0,0:0:0:0:
274,251,112721,6,0,L|125:255,1,130,4|0,1:0|1:0,0:0:0:0:
29,202,113504,1,8,0:3:0:0:
119,101,113765,2,0,L|120:186,1,65,4|0,0:0|1:0,0:0:0:0:
214,152,114287,1,8,0:3:0:0:
225,57,114548,1,4,0:0:0:0:
345,22,114808,6,0,L|340:100,1,65,4|0,1:0|0:0,0:0:0:0:
466,119,115330,1,0,1:0:0:0:
466,119,115591,1,8,0:3:0:0:
370,189,115852,2,0,L|439:212,1,65,0|4,1:0|0:0,0:0:0:0:
373,282,116374,1,8,0:3:0:0:
286,243,116634,1,0,1:0:0:0:
224,353,116895,6,0,L|298:366,1,65,4|0,1:0|0:0,0:0:0:0:
205,270,117417,1,0,1:0:0:0:
106,348,117678,1,8,0:3:0:0:
14,260,117939,1,0,1:0:0:0:
14,260,118200,1,4,1:2:0:0:
14,260,118461,2,0,L|13:175,1,65,8|0,0:3|1:0,0:0:0:0:
110,67,118982,5,4,1:0:0:0:
110,67,119504,1,0,1:0:0:0:
232,95,119765,2,0,B|265:108|265:108|291:128,2,65,8|0|4,0:3|1:0|1:2,0:0:0:0:
162,206,120548,1,8,0:3:0:0:
247,249,120808,1,0,1:0:0:0:
173,356,121069,6,0,P|124:310|63:270,1,130,4|0,1:0|1:0,0:0:0:0:
176,214,121852,1,8,0:3:0:0:
279,286,122113,2,0,L|280:367,1,65,0|4,1:0|0:0,0:0:0:0:
410,362,122634,1,8,0:3:0:0:
449,272,122895,1,4,1:2:0:0:
360,179,123156,5,4,1:0:0:0:
361,276,123417,1,0,0:0:0:0:
452,184,123678,1,0,1:0:0:0:
452,184,123939,2,0,L|450:117,2,65,8|4|0,0:3|0:0|1:0,0:0:0:0:
358,98,124721,2,0,L|353:16,1,65,8|4,0:3|1:2,0:0:0:0:
245,149,125243,5,4,1:0:0:0:
245,149,125765,1,0,1:0:0:0:
145,221,126026,1,8,0:3:0:0:
34,154,126287,2,0,L|37:237,1,65,0|4,1:0|1:2,0:0:0:0:
132,312,126808,1,8,0:3:0:0:
145,221,127069,1,4,1:2:0:0:
132,312,127330,6,0,B|196:317|196:317|258:353,1,130,4|0,1:0|1:0,0:0:0:0:
378,334,128113,1,8,0:3:0:0:
255,318,128374,1,4,1:0:0:0:
375,304,128634,1,0,1:0:0:0:
254,288,128895,2,0,L|254:217,1,65,8|2,0:3|1:0,0:0:0:0:
256,127,129417,1,4,1:0:0:0:
470,191,129939,6,0,P|465:233|465:269,1,65,0|8,1:0|0:3,0:0:0:0:
362,188,130461,1,0,1:0:0:0:
378,62,130721,1,0,1:0:0:0:
252,90,130982,2,0,L|257:184,1,65,8|4,0:3|1:2,0:0:0:0:
136,266,131504,6,0,P|174:266|228:269,1,65,4|0,1:0|0:0,0:0:0:0:
301,350,132026,1,0,1:0:0:0:
301,350,132287,1,8,0:3:0:0:
402,269,132548,2,0,L|391:191,2,65,0|0|8,0:0|1:0|0:3,0:0:0:0:
283,269,133330,1,4,1:2:0:0:
190,352,133591,6,0,L|44:347,1,130,4|0,1:0|1:0,0:0:0:0:
41,222,134374,1,8,0:3:0:0:
175,226,134634,1,0,1:0:0:0:
175,226,134895,1,4,0:0:0:0:
157,101,135156,2,0,L|72:101,1,65,8|4,0:3|1:2,0:0:0:0:
242,41,135678,5,4,1:0:0:0:
242,41,136200,2,0,L|242:124,1,65,4|8,0:0|0:3,0:0:0:0:
336,94,136721,2,0,L|336:175,1,65,4|4,0:0|1:2,0:0:0:0:
425,42,137243,2,0,L|425:118,1,65,8|4,0:3|1:2,0:0:0:0:
370,252,137765,6,0,P|303:240|233:249,1,130,4|0,1:0|1:0,0:0:0:0:
269,369,138548,2,0,P|303:369|364:366,2,65,8|4|0,0:3|0:0|1:0,0:0:0:0:
136,373,139330,1,8,0:3:0:0:
143,244,139591,1,4,1:2:0:0:
36,179,139852,5,4,1:0:0:0:
36,179,140374,1,0,1:0:0:0:
132,103,140634,1,8,0:3:0:0:
245,26,140895,2,0,P|238:69|232:106,1,65,4|4,1:2|1:2,0:0:0:0:
330,108,141417,2,0,P|323:151|317:188,1,65,8|4,0:3|0:0,0:0:0:0:
200,244,141939,6,0,L|275:253,1,65,4|0,1:0|0:0,0:0:0:0:
354,289,142461,1,0,1:0:0:0:
295,366,142721,1,8,0:3:0:0:
436,367,142982,2,0,L|435:279,1,65,0|4,1:0|1:2,0:0:0:0:
441,175,143504,5,8,0:3:0:0:
405,84,143765,1,4,0:0:0:0:
314,120,144026,2,0,B|269:128|269:128|210:115,2,97.5,4|8|4,1:2|3:0|1:2,0:0:0:0:
176,202,145069,2,0,L|106:184,1,65,4|0,1:2|3:0,0:0:0:0:
11,257,145591,2,0,L|94:274,1,65,8|4,3:0|1:2,0:0:0:0:
101,101,146113,5,8,3:1:0:0:
256,192,146374,12,0,150287,0:0:0:0:
263,76,162808,6,0,P|325:65|408:79,2,136.499995834351,8|4|4,3:1|0:3|0:3,0:0:0:0:
186,125,164895,2,0,P|124:136|41:122,2,136.499995834351,4|8|4,0:3|3:0|0:3,0:0:0:0:
269,160,166982,6,0,L|251:298,1,136.499995834351,4|8,3:0|3:0,0:0:0:0:
375,352,168548,1,4,0:3:0:0:
455,309,169069,6,0,L|451:167,1,136.499995834351,4|8,3:0|3:0,0:0:0:0:
334,102,170634,1,4,3:3:0:0:
275,204,171156,6,0,P|215:195|140:187,1,136.499995834351,4|8,3:0|3:0,0:0:0:0:
29,144,172461,1,8,3:0:0:0:
29,144,172721,2,0,L|39:204,1,45.4999986114502,4|4,3:0|3:0,0:0:0:0:
55,290,173243,6,0,P|105:283|199:285,1,136.499995834351,4|8,3:0|3:0,0:0:0:0:
289,350,174548,2,0,L|348:350,2,45.4999986114502,8|8|4,3:0|0:0|3:0,0:0:0:0:
272,256,175330,6,0,P|275:197|296:102,1,136.499995834351,4|8,3:0|3:0,0:0:0:0:
407,133,176634,1,8,3:0:0:0:
407,133,176895,2,0,L|407:193,1,45.4999986114502,4|8,3:0|0:0,0:0:0:0:
470,282,177417,6,0,P|426:277|370:284,3,90.9999972229005,4|4|4|8,3:0|3:0|3:0|3:0,0:0:0:0:
187,345,179504,6,2,B|104:316|110:369|27:346,1,155.999995239258,12|8,1:0|0:3,0:0:0:0:
63,221,180287,1,4,1:3:0:0:
182,175,180548,2,0,P|188:222|207:263,1,77.999997619629,2|8,3:0|0:0,0:0:0:0:
103,129,181069,1,8,3:0:0:0:
289,201,181330,5,4,0:0:0:0:
289,201,181461,1,4,0:0:0:0:
289,201,181591,2,0,P|383:213|449:193,1,155.999995239258,4|8,1:0|0:3,0:0:0:0:
463,37,182374,1,4,1:3:0:0:
341,77,182634,2,0,L|339:142,2,38.9999988098145,8|4|4,1:3|1:3|1:3,0:0:0:0:
212,26,183156,2,0,P|229:72|230:137,1,77.999997619629,8|4,1:2|1:0,0:0:0:0:
185,249,183678,5,4,1:0:0:0:
17,123,184069,1,8,0:0:0:0:
17,123,184200,1,8,0:3:0:0:
98,182,184461,2,0,B|159:164|159:164|265:184,1,155.999995239258,4|8,1:3|0:3,0:0:0:0:
314,259,185243,1,8,1:2:0:0:
209,367,185504,5,8,1:2:0:0:
209,367,185634,1,4,3:2:0:0:
209,367,185765,2,0,L|40:367,1,155.999995239258,4|8,1:0|0:3,0:0:0:0:
20,245,186548,1,4,1:3:0:0:
120,231,186808,2,0,L|114:274,2,38.9999988098145,8|4|4,1:3|1:3|1:3,0:0:0:0:
241,261,187330,1,8,1:2:0:0:
284,352,187591,1,4,1:2:0:0:
450,363,187852,6,2,B|479:280|426:286|449:203,1,155.999995239258,12|8,1:0|0:3,0:0:0:0:
416,85,188634,1,4,1:3:0:0:
328,178,188895,2,0,L|391:181,2,38.9999988098145,0|4|12,0:0|0:0|0:0,0:0:0:0:
212,102,189417,2,0,P|231:154|235:207,1,77.999997619629,12|4,0:0|1:2,0:0:0:0:
197,211,189808,5,4,3:0:0:0:
197,211,189939,2,0,L|115:211,1,77.999997619629,4|0,1:0|0:0,0:0:0:0:
31,159,190461,1,8,0:3:0:0:
123,62,190721,1,4,1:2:0:0:
26,30,190982,2,0,L|35:99,2,38.9999988098145,8|4|4,1:2|3:0|3:0,0:0:0:0:
123,62,191504,1,8,1:2:0:0:
220,89,191765,1,4,1:2:0:0:
346,37,192026,6,0,P|328:103|359:195,1,155.999995239258,4|8,1:0|0:3,0:0:0:0:
398,304,192808,2,0,P|315:282|253:285,1,116.999996429443,4|12,1:3|1:2,0:0:0:0:
233,282,193330,1,4,1:3:0:0:
81,232,193591,2,0,P|94:280|92:343,1,77.999997619629,8|4,1:2|1:2,0:0:0:0:
188,350,194113,6,0,L|187:165,1,155.999995239258,8|10,1:2|1:2,0:0:0:0:
370,62,195156,2,0,L|376:217,1,155.999995239258,8|10,1:2|1:2,0:0:0:0:
189,47,196200,6,2,B|106:18|112:71|29:48,1,155.999995239258,12|8,1:0|0:2,0:0:0:0:
51,173,196982,1,4,0:3:0:0:
172,143,197243,2,0,P|261:133|357:149,1,155.999995239258,8|8,0:3|1:2,0:0:0:0:
314,235,198026,1,4,1:2:0:0:
420,349,198287,6,0,P|426:273|489:200,1,155.999995239258,4|4,0:0|0:3,0:0:0:0:
337,216,199069,2,0,P|369:147|351:52,1,155.999995239258,8|0,0:2|0:0,0:0:0:0:
202,116,199852,2,0,P|200:77|211:39,1,77.999997619629,8|4,0:2|0:2,0:0:0:0:
250,191,200374,5,4,0:0:0:0:
41,274,200765,1,8,0:2:0:0:
41,274,200895,2,0,P|42:235|31:197,1,77.999997619629,8|8,0:2|0:2,0:0:0:0:
133,322,201417,2,0,L|294:313,1,155.999995239258,4|8,0:3|0:2,0:0:0:0:
409,346,202200,1,4,0:0:0:0:
435,182,202461,6,0,P|369:215|276:208,1,155.999995239258,4|4,0:0|0:3,0:0:0:0:
206,152,203243,1,0,0:0:0:0:
290,58,203504,2,0,L|324:111,2,38.9999988098145,8|0|0,0:2|0:0|0:0,0:0:0:0:
168,28,204026,2,0,P|159:67|135:99,1,77.999997619629,8|4,0:2|0:2,0:0:0:0:
26,221,204548,6,2,B|86:204|83:248|170:225,1,116.999996429443,12|8,0:0|0:2,0:0:0:0:
189,225,205069,1,8,0:2:0:0:
230,346,205330,1,2,0:2:0:0:
110,310,205591,2,0,L|13:318,1,77.999997619629,8|2,0:2|0:2,0:0:0:0:
203,252,206113,2,0,L|300:260,1,77.999997619629,8|4,0:2|0:2,0:0:0:0:
403,278,206634,6,0,L|390:390,1,77.999997619629,4|2,0:0|0:2,0:0:0:0:
486,237,207156,2,0,L|472:138,2,77.999997619629,8|2|8,0:2|0:2|0:2,0:0:0:0:
362,207,207939,1,4,0:3:0:0:
303,124,208200,1,8,0:3:0:0:
383,71,208461,1,4,0:2:0:0:
362,207,208721,5,4,0:0:0:0:
249,268,208982,2,0,L|236:168,2,77.999997619629,2|8|4,0:2|0:3|0:2,0:0:0:0:
55,318,209765,5,4,0:0:0:0:
179,348,210026,2,0,L|165:249,2,77.999997619629,2|8|4,0:2|0:3|0:2,0:0:0:0:
95,218,210808,1,4,0:0:0:0:
345,282,211330,6,0,L|501:286,1,130,4|4,0:3|0:3,0:0:0:0:
479,158,212374,2,0,L|323:162,1,130,4|4,0:3|0:1,0:0:0:0:
256,192,213026,12,0,219156,0:0:0:0:
247,314,231678,6,2,B|354:269|342:391|474:334,1,233.999992858887,12|10,0:0|3:2,0:0:0:0:
285,204,232982,2,0,P|244:210|179:200,2,77.999997619629,4|10|8,3:0|3:2|3:0,0:0:0:0:
176,92,233765,2,0,L|152:324,1,233.999992858887,4|10,1:3|3:2,0:0:0:0:
37,138,235069,2,0,L|47:60,2,77.999997619629,4|10|0,3:0|3:2|0:0,0:0:0:0:
69,255,235852,5,4,1:3:0:0:
69,255,236374,1,8,3:0:0:0:
69,255,236634,2,2,L|255:251,1,155.999995239258,10|4,3:2|3:0,0:0:0:0:
307,347,237417,2,2,L|218:353,1,77.999997619629,10|0,3:2|0:0,0:0:0:0:
314,256,237939,5,4,1:3:0:0:
314,256,238461,1,8,3:0:0:0:
413,271,238721,1,10,3:2:0:0:
463,151,238982,2,2,L|489:235,1,77.999997619629,2|4,3:2|3:0,0:0:0:0:
371,186,239504,2,2,L|342:107,1,77.999997619629,10|4,3:2|3:0,0:0:0:0:
197,39,240026,6,0,P|221:168|185:278,1,233.999992858887,4|10,1:3|3:2,0:0:0:0:
8,149,241330,2,0,P|11:102|24:51,2,77.999997619629,4|10|0,3:0|3:2|3:0,0:0:0:0:
160,175,242113,2,0,L|408:173,1,233.999992858887,4|10,1:3|3:2,0:0:0:0:
254,343,243417,2,0,L|157:342,2,77.999997619629,4|10|0,3:0|3:2|3:0,0:0:0:0:
331,276,244200,5,4,1:3:0:0:
331,276,244721,1,8,3:0:0:0:
454,328,244982,2,0,P|475:254|468:143,1,155.999995239258,10|4,3:2|3:0,0:0:0:0:
346,182,245765,2,0,P|342:134|345:86,1,77.999997619629,10|8,3:2|3:0,0:0:0:0:
480,41,246287,5,4,1:3:0:0:
480,41,246808,1,4,3:0:0:0:
416,120,247069,1,10,3:2:0:0:
260,122,247330,2,2,P|264:74|261:26,1,77.999997619629,2|0,3:2|0:0,0:0:0:0:
148,101,247852,2,2,P|147:139|150:178,1,77.999997619629,10|0,3:2|3:0,0:0:0:0:
25,293,248374,6,0,P|105:279|211:306,1,155.999995239258,4|8,1:3|3:0,0:0:0:0:
283,166,249156,2,0,P|271:231|280:343,1,155.999995239258,10|4,3:2|3:0,0:0:0:0:
403,356,249939,2,0,P|410:308|404:243,1,77.999997619629,2|0,3:2|3:0,0:0:0:0:
472,134,250461,6,0,P|405:125|330:68,1,155.999995239258,4|8,1:3|3:0,0:0:0:0:
180,27,251243,2,0,P|192:92|183:204,1,155.999995239258,10|4,3:2|3:0,0:0:0:0:
48,213,252026,2,0,P|87:222|145:249,1,77.999997619629,10|8,3:2|3:0,0:0:0:0:
267,290,252548,6,0,P|202:298|97:350,1,155.999995239258,4|4,1:3|3:0,0:0:0:0:
241,375,253330,1,10,3:2:0:0:
318,161,253852,2,0,P|275:161|223:149,2,77.999997619629,8|10|8,3:0|3:2|3:0,0:0:0:0:
456,74,254634,6,0,L|448:251,1,155.999995239258,4|0,1:3|3:0,0:0:0:0:
331,340,255417,1,10,3:2:0:0:
245,254,255678,2,2,L|354:254,1,77.999997619629,4|4,3:0|3:0,0:0:0:0:
166,185,256200,2,2,L|162:281,1,77.999997619629,10|0,3:2|0:0,0:0:0:0:
38,356,256721,6,0,P|33:277|21:186,1,155.999995239258,4|8,1:3|3:0,0:0:0:0:
157,104,257504,2,0,P|78:99|-13:87,1,155.999995239258,10|4,3:2|3:0,0:0:0:0:
137,19,258287,2,0,L|25:9,1,77.999997619629,10|8,3:2|3:0,0:0:0:0:
251,21,258808,6,0,P|248:103|254:196,1,155.999995239258,4|4,1:3|3:0,0:0:0:0:
407,128,259591,2,0,P|410:210|404:303,1,155.999995239258,10|4,3:2|3:0,0:0:0:0:
291,355,260374,2,0,P|287:313|289:262,1,77.999997619629,8|8,1:2|3:0,0:0:0:0:
134,187,260895,6,0,B|201:170|201:170|317:182,1,155.999995239258,4|8,1:3|3:0,0:0:0:0:
195,261,261678,1,10,3:2:0:0:
58,82,262200,2,0,B|98:86|98:86|161:68,2,77.999997619629,4|10|2,3:0|3:2|3:2,0:0:0:0:
35,205,262982,5,4,1:0:0:0:
56,304,263243,2,0,L|113:284,2,38.9999988098145,0|0|8,3:0|3:0|3:0,0:0:0:0:
175,350,263765,1,10,3:2:0:0:
293,294,264026,2,0,P|288:257|288:200,1,77.999997619629,2|4,3:2|3:0,0:0:0:0:
449,133,264548,1,10,3:2:0:0:
444,259,264808,1,0,3:0:0:0:
378,195,265069,5,4,3:1:0:0:
