osu file format v14

[General]
AudioFilename: audio.mp3
AudioLeadIn: 0
PreviewTime: 196069
Countdown: 0
SampleSet: Soft
StackLeniency: 0.7
Mode: 0
LetterboxInBreaks: 0
WidescreenStoryboard: 0

[Editor]
Bookmarks: 12517,146113
DistanceSpacing: 0.8
BeatDivisor: 4
GridSize: 4
TimelineZoom: 1.9

[Metadata]
Title:Pieces
TitleUnicode:Pieces
Artist:La Cataline
ArtistUnicode:La Cataline
Creator:PandaHero
Version:Collab Insane
Source:
Tags:lc lacataline Mirash collaboration
BeatmapID:1484970
BeatmapSetID:701681

[Difficulty]
HPDrainRate:7
CircleSize:4
OverallDifficulty:7
ApproachRate:8
SliderMultiplier:1.6
SliderTickRate:1

[Events]
//Background and Video events
0,0,"4dec5d27-9bba-429d-c29e-bb75790306a4.jpg",0,0
//Break Periods
2,79530,95276
2,150487,162058
2,219356,230928
//Storyboard Layer 0 (Background)
//Storyboard Layer 1 (Fail)
//Storyboard Layer 2 (Pass)
//Storyboard Layer 3 (Foreground)
//Storyboard Sound Samples

[TimingPoints]
12548,521.739130434783,4,2,1,60,1,0
13330,-100,4,2,1,40,0,0
13591,-100,4,2,1,60,0,0
14504,-100,4,2,1,50,0,0
15417,-100,4,2,1,60,0,0
16200,-100,4,2,1,40,0,0
16461,-100,4,2,1,55,0,0
16721,-100,4,2,1,70,0,0
17243,-100,4,2,1,60,0,0
19200,-100,4,2,1,40,0,0
19852,-100,4,2,1,50,0,0
20374,-100,4,2,1,60,0,0
20895,-100,4,2,1,70,0,0
21287,-100,4,2,1,60,0,0
22852,-100,4,2,1,50,0,0
23765,-100,4,2,1,60,0,0
24548,-100,4,2,1,40,0,0
24808,-100,4,2,1,55,0,0
25069,-100,4,2,1,70,0,0
25461,-100,4,2,1,60,0,0
27678,-100,4,2,1,50,0,0
28200,-100,4,2,1,55,0,0
28721,-100,4,2,1,60,0,0
29243,-100,4,2,1,70,0,0
29634,-100,4,2,1,60,0,0
30026,-100,4,2,1,50,0,0
30808,-100,4,2,1,60,0,0
32113,-100,4,2,1,50,0,0
32895,-100,4,2,1,40,0,0
33156,-100,4,2,1,55,0,0
33417,-100,4,2,1,70,0,0
33808,-100,4,2,1,60,0,0
35504,-100,4,2,1,50,0,0
36026,-100,4,2,1,60,0,0
37330,-100,4,2,1,50,0,0
37591,-100,4,2,1,70,0,0
38113,-100,4,2,1,60,0,0
39548,-100,4,2,1,50,0,0
40200,-100,4,2,1,60,0,0
42156,-100,4,2,1,50,0,0
42808,-100,4,2,1,60,0,0
44634,-100,4,2,1,70,0,0
45026,-100,4,2,1,55,0,0
45417,-100,4,2,1,60,0,0
45939,-83.3333333333333,4,2,1,80,0,0
46330,-83.3333333333333,4,2,1,60,0,0
47895,-83.3333333333333,4,2,1,50,0,0
48026,-83.3333333333333,4,2,1,60,0,0
49591,-83.3333333333333,4,2,1,50,0,0
49852,-83.3333333333333,4,2,1,45,0,0
50113,-83.3333333333333,4,2,1,70,0,0
50634,-83.3333333333333,4,2,1,60,0,0
52069,-83.3333333333333,4,2,1,50,0,0
52200,-83.3333333333333,4,2,1,60,0,0
53765,-83.3333333333333,4,2,1,50,0,0
54026,-83.3333333333333,4,2,1,40,0,0
54287,-83.3333333333333,4,2,1,70,0,0
54678,-83.3333333333333,4,2,1,60,0,0
55330,-83.3333333333333,4,2,1,40,0,0
55591,-83.3333333333333,4,2,1,50,0,0
55852,-83.3333333333333,4,2,1,60,0,0
56243,-83.3333333333333,4,2,1,50,0,0
56374,-83.3333333333333,4,2,1,60,0,0
57156,-83.3333333333333,4,2,1,40,0,0
57417,-83.3333333333333,4,2,1,50,0,0
57678,-83.3333333333333,4,2,1,60,0,0
57939,-83.3333333333333,4,2,1,70,0,0
58461,-83.3333333333333,4,2,1,80,0,0
58852,-83.3333333333333,4,2,1,60,0,0
60417,-83.3333333333333,4,2,1,50,0,0
60548,-83.3333333333333,4,2,1,60,0,0
61982,-83.3333333333333,4,2,1,40,0,0
62113,-83.3333333333333,4,2,1,60,0,0
62634,-83.3333333333333,4,2,1,80,0,0
63156,-83.3333333333333,4,2,1,60,0,0
63939,-83.3333333333333,4,2,1,40,0,0
64200,-83.3333333333333,4,2,1,60,0,0
64591,-83.3333333333333,4,2,1,50,0,0
64721,-83.3333333333333,4,2,1,60,0,0
66287,-83.3333333333333,4,2,1,50,0,0
66548,-83.3333333333333,4,2,1,45,0,0
66808,-83.3333333333333,4,2,1,70,0,0
67330,-83.3333333333333,4,2,1,60,0,0
67852,-83.3333333333333,4,2,1,40,0,0
68113,-83.3333333333333,4,2,1,50,0,0
68374,-83.3333333333333,4,2,1,60,0,0
68765,-83.3333333333333,4,2,1,50,0,0
68895,-83.3333333333333,4,2,1,60,0,0
70461,-83.3333333333333,4,2,1,50,0,0
70721,-83.3333333333333,4,2,1,45,0,0
70982,-83.3333333333333,4,2,1,70,0,0
71504,-83.3333333333333,4,2,1,60,0,0
72156,-83.3333333333333,4,2,1,50,0,0
72548,-83.3333333333333,4,2,1,60,0,0
72939,-83.3333333333333,4,2,1,50,0,0
73069,-83.3333333333333,4,2,1,60,0,0
75548,-83.3333333333333,4,2,1,50,0,0
75939,-83.3333333333333,4,2,1,60,0,0
76200,-83.3333333333333,4,2,1,40,0,0
76461,-83.3333333333333,4,2,1,70,0,0
76721,-83.3333333333333,4,2,1,50,0,0
77243,-83.3333333333333,4,2,1,60,0,0
78287,-83.3333333333333,4,2,1,40,0,0
78548,-83.3333333333333,4,2,1,50,0,0
78808,-83.3333333333333,4,2,1,60,0,0
79069,-83.3333333333333,4,2,1,70,0,0
79330,-83.3333333333333,4,2,1,80,0,0
96026,-142.857142857143,4,2,1,20,0,0
96548,-142.857142857143,4,1,1,30,0,0
96678,-142.857142857143,4,2,1,20,0,0
97069,-142.857142857143,4,1,1,20,0,0
97200,-142.857142857143,4,2,1,20,0,0
97330,-142.857142857143,4,1,1,15,0,0
97461,-142.857142857143,4,2,1,20,0,0
97591,-142.857142857143,4,1,1,20,0,0
97721,-142.857142857143,4,2,1,20,0,0
97852,-142.857142857143,4,1,1,15,0,0
97982,-142.857142857143,4,2,1,20,0,0
100721,-142.857142857143,4,1,1,30,0,0
100852,-142.857142857143,4,2,1,20,0,0
101243,-142.857142857143,4,1,1,20,0,0
101374,-142.857142857143,4,2,1,20,0,0
101504,-142.857142857143,4,1,1,15,0,0
101634,-142.857142857143,4,2,1,20,0,0
101765,-142.857142857143,4,1,1,20,0,0
101895,-142.857142857143,4,2,1,20,0,0
102026,-142.857142857143,4,1,1,15,0,0
102156,-142.857142857143,4,2,1,20,0,0
104895,-142.857142857143,4,1,1,30,0,0
105026,-142.857142857143,4,2,1,20,0,0
105156,-142.857142857143,4,1,1,30,0,0
105417,-142.857142857143,4,2,1,20,0,0
105678,-142.857142857143,4,1,1,20,0,0
105939,-142.857142857143,4,2,1,20,0,0
106200,-142.857142857143,4,1,1,20,0,0
106982,-142.857142857143,4,2,1,20,0,0
108548,-142.857142857143,4,2,1,15,0,0
109069,-142.857142857143,4,2,1,10,0,0
109591,-142.857142857143,4,2,1,15,0,0
109852,-142.857142857143,4,2,1,20,0,0
110113,-142.857142857143,4,2,1,25,0,0
110374,-142.857142857143,4,2,1,30,0,0
110634,-142.857142857143,4,2,1,50,0,0
111156,-125,4,2,1,40,0,0
111678,-125,4,1,1,50,0,0
111743,-125,4,2,1,50,0,0
111874,-125,4,1,1,50,0,0
112721,-100,4,2,1,50,0,0
114287,-100,4,2,1,40,0,0
114548,-100,4,2,1,30,0,0
114808,-100,4,2,1,60,0,0
115069,-100,4,2,1,50,0,0
116374,-100,4,2,1,40,0,0
116895,-100,4,2,1,60,0,0
117287,-100,4,2,1,50,0,0
118069,-100,4,2,1,40,0,0
118461,-100,4,2,1,50,0,0
118982,-100,4,2,1,60,0,0
119374,-100,4,2,1,50,0,0
120026,-100,4,2,1,40,0,0
120548,-100,4,2,1,50,0,0
120678,-100,4,2,1,30,0,0
121069,-100,4,2,1,60,0,0
121591,-100,4,2,1,50,0,0
122113,-100,4,2,1,40,0,0
122374,-100,4,2,1,30,0,0
122634,-100,4,2,1,40,0,0
122895,-100,4,2,1,50,0,0
123156,-100,4,2,1,60,0,0
123678,-100,4,2,1,50,0,0
124461,-100,4,2,1,30,0,0
124721,-100,4,2,1,50,0,0
124982,-100,4,2,1,40,0,0
125243,-100,4,2,1,60,0,0
125634,-100,4,2,1,50,0,0
126548,-100,4,2,1,40,0,0
126808,-100,4,2,1,50,0,0
127069,-100,4,2,1,40,0,0
127330,-100,4,2,1,60,0,0
127591,-100,4,2,1,50,0,0
127852,-100,4,2,1,60,0,0
128113,-100,4,2,1,50,0,0
128374,-100,4,2,1,70,0,0
128504,-100,4,2,1,50,0,0
129417,-100,4,2,1,60,0,0
129808,-100,4,2,1,50,0,0
130721,-100,4,2,1,40,0,0
130982,-100,4,2,1,50,0,0
131243,-100,4,2,1,40,0,0
131504,-100,4,2,1,60,0,0
131765,-100,4,2,1,50,0,0
132808,-100,4,2,1,40,0,0
133069,-100,4,2,1,30,0,0
133330,-100,4,2,1,40,0,0
133591,-100,4,2,1,60,0,0
133982,-100,4,2,1,50,0,0
134634,-100,4,2,1,40,0,0
134895,-100,4,2,1,30,0,0
135156,-100,4,2,1,60,0,0
135417,-100,4,2,1,40,0,0
135678,-100,4,2,1,70,0,0
136200,-100,4,2,1,30,0,0
136461,-100,4,2,1,50,0,0
136721,-100,4,2,1,30,0,0
136982,-100,4,2,1,50,0,0
137243,-100,4,2,1,30,0,0
137504,-100,4,2,1,50,0,0
137765,-100,4,2,1,70,0,0
138287,-100,4,2,1,50,0,0
138808,-100,4,2,1,30,0,0
139069,-100,4,2,1,40,0,0
139330,-100,4,2,1,50,0,0
139591,-100,4,2,1,40,0,0
139852,-100,4,2,1,60,0,0
140113,-100,4,2,1,50,0,0
140374,-100,4,2,1,40,0,0
140634,-100,4,2,1,50,0,0
140895,-100,4,2,1,30,0,0
141156,-100,4,2,1,50,0,0
141678,-100,4,2,1,20,0,0
141939,-100,4,2,1,70,0,0
142200,-100,4,2,1,50,0,0
142982,-100,4,2,1,40,0,0
143243,-100,4,2,1,30,0,0
143504,-100,4,2,1,60,0,0
143765,-100,4,2,1,20,0,0
144026,-100,4,2,1,60,0,0
144808,-100,4,2,1,40,0,0
144939,-100,4,2,1,60,0,0
145852,-100,4,2,1,40,0,0
145982,-100,4,2,1,50,0,0
146113,-100,4,2,1,70,0,1
147156,-100,4,2,1,45,0,1
147678,-100,4,2,1,40,0,1
147939,-100,4,2,1,35,0,1
148200,-100,4,2,1,30,0,1
148461,-100,4,2,1,25,0,1
148721,-100,4,2,1,20,0,1
148982,-100,4,2,1,15,0,1
149243,-100,4,2,1,10,0,1
149504,-100,4,2,1,5,0,1
149765,-100,4,2,1,10,0,1
150026,-100,4,2,1,15,0,1
150287,-100,4,2,1,20,0,0
162808,-142.857142857143,4,2,1,40,0,0
163591,-142.857142857143,4,2,0,40,0,0
174808,-142.857142857143,4,2,0,20,0,0
175069,-142.857142857143,4,2,0,40,0,0
177156,-142.857142857143,4,2,0,20,0,0
177417,-142.857142857143,4,2,0,40,0,0
178200,-142.857142857143,4,2,0,25,0,0
178461,-111.111111111111,4,2,1,40,0,0
178982,-90.9090909090908,4,2,1,50,0,0
179504,-66.6666666666667,4,2,1,50,0,0
184721,-66.6666666666667,4,2,0,50,0,0
185243,-66.6666666666667,4,2,1,50,0,0
185504,-66.6666666666667,4,2,0,40,0,0
185634,-66.6666666666667,4,2,1,50,0,0
194113,-66.6666666666667,4,1,1,35,0,0
194374,-66.6666666666667,4,2,1,35,0,0
194634,-66.6666666666667,4,1,1,40,0,0
194895,-66.6666666666667,4,2,1,40,0,0
195156,-66.6666666666667,4,1,1,45,0,0
195417,-66.6666666666667,4,2,1,45,0,0
195678,-66.6666666666667,4,1,1,50,0,0
195939,-66.6666666666667,4,2,0,50,0,0
196200,-66.6666666666667,4,1,1,40,0,0
196461,-66.6666666666667,4,2,1,60,0,0
196721,-66.6666666666667,4,1,1,60,0,0
204548,-66.6666666666667,4,1,1,60,0,0
204808,-66.6666666666667,4,2,1,60,0,0
205069,-66.6666666666667,4,1,1,60,0,0
211330,-100,4,2,0,25,0,0
212895,-100,4,2,1,30,0,1
213026,-100,4,2,1,5,0,1
219156,-100,4,2,1,5,0,0
231678,-83.3333333333333,4,1,1,40,0,0
231939,-83.3333333333333,4,2,1,40,0,0
232461,-83.3333333333333,4,2,0,40,0,0
251243,-83.3333333333333,4,2,0,30,0,0
251504,-83.3333333333333,4,2,0,50,0,0
251765,-83.3333333333333,4,2,0,40,0,0
265069,-83.3333333333333,4,2,0,30,0,0

[Colours]
Combo1 : 0,85,85
Combo2 : 140,140,140
Combo3 : 89,89,89
Combo4 : 69,137,137

[HitObjects]
445,146,12547,6,0,P|405:138|268:129,1,160,4|8,1:0|0:3,0:0:0:0:
201,134,13330,2,0,P|216:191|215:236,1,80,0|0,1:0|1:0,0:0:0:0:
216,211,13721,1,2,0:0:0:0:
216,211,13852,2,0,P|277:234|305:261,1,80,0|8,0:0|0:0,0:0:0:0:
293,249,14504,5,0,1:0:0:0:
293,249,14634,2,0,P|249:276|131:284,1,160,4|8,1:2|0:3,0:0:0:0:
81,235,15417,1,0,1:0:0:0:
77,347,15677,1,0,1:0:0:0:
71,336,15808,1,2,0:0:0:0:
66,326,15939,1,0,0:0:0:0:
169,366,16200,1,8,0:0:0:0:
301,378,16461,1,8,0:3:0:0:
361,328,16721,6,0,B|362:244|412:256|411:164,1,160,4|8,1:0|0:3,0:0:0:0:
475,130,17504,1,0,1:0:0:0:
324,187,17765,1,0,1:0:0:0:
324,187,17895,1,2,0:0:0:0:
324,187,18026,1,0,0:0:0:0:
247,65,18287,2,0,P|243:112|243:242,1,160,8|4,0:0|1:2,0:0:0:0:
246,229,19200,5,0,1:0:0:0:
246,229,19331,2,0,L|145:217,1,80,8|8,0:0|0:3,0:0:0:0:
48,144,19852,1,8,0:3:0:0:
57,157,19982,1,2,0:0:0:0:
67,168,20113,1,8,0:0:0:0:
87,350,20374,6,0,P|81:325|79:304,1,40,0|0,1:0|0:0,1:0:0:0:
186,224,20634,2,0,P|178:270|175:281,1,40,0|0,1:0|0:0,1:0:0:0:
180,359,20895,2,0,P|239:353|314:317,1,120,12|2,1:0|0:0,0:0:0:0:
296,316,21417,2,0,P|339:316|396:324,1,80,8|2,0:3|0:3,0:0:0:0:
355,285,21808,5,2,0:0:0:0:
372,249,21939,1,0,1:0:0:0:
348,216,22069,1,0,1:0:0:0:
348,216,22200,2,0,B|362:171|362:171|343:116,1,80,0|8,0:0|0:0,0:0:0:0:
355,144,22852,5,0,1:0:0:0:
355,144,22982,2,0,B|272:137|295:92|202:89,1,160,4|8,1:2|0:3,0:0:0:0:
47,54,23765,1,0,1:0:0:0:
125,74,24026,1,0,1:0:0:0:
119,113,24156,1,2,0:0:0:0:
113,152,24287,1,0,0:0:0:0:
166,211,24548,1,8,0:0:0:0:
157,290,24808,1,0,1:0:0:0:
101,244,25069,6,0,L|236:261,1,120,4|2,1:0|0:0,0:0:0:0:
239,241,25591,2,0,L|233:326,1,80,8|0,0:3|0:0,0:0:0:0:
264,345,25982,1,2,1:2:0:0:
400,319,26243,1,0,0:0:0:0:
363,335,26374,2,0,L|370:237,1,80,2|8,1:2|0:0,0:0:0:0:
279,41,27156,6,0,B|320:55|320:55|358:109|358:109|411:127,1,160,4|8,1:0|0:0,0:0:0:0:
235,108,27939,1,8,0:3:0:0:
463,181,28200,1,8,0:3:0:0:
458,205,28330,1,0,0:0:0:0:
455,227,28461,1,8,0:0:0:0:
243,239,28721,2,0,B|246:217|246:217|256:197,1,40,0|0,1:0|0:0,1:0:0:0:
371,240,28982,2,0,B|367:261|367:261|358:282,1,40,0|0,1:0|0:0,1:0:0:0:
216,314,29243,6,0,B|168:302|168:302|133:208,1,120,12|2,1:0|0:0,0:0:0:0:
153,223,29765,2,0,L|106:213,1,40,8|0,0:3|0:0,0:0:0:0:
43,254,30026,2,0,L|77:347,1,80,0|8,1:0|0:0,0:0:0:0:
70,329,30417,1,2,0:0:0:0:
70,329,30548,1,0,1:0:0:0:
3,191,30808,2,0,P|12:108|28:24,1,160,4|4,0:0|1:2,0:0:0:0:
25,32,31721,5,0,1:0:0:0:
25,32,31851,1,8,1:3:0:0:
180,38,32113,2,0,P|128:56|94:60,1,80,0|0,1:0|1:0,0:0:0:0:
103,59,32504,1,2,0:0:0:0:
103,59,32634,1,0,0:0:0:0:
247,73,32895,1,8,0:0:0:0:
324,59,33156,1,0,1:0:0:0:
217,142,33417,6,0,P|209:197|205:276,1,120,4|2,1:0|0:0,0:0:0:0:
185,273,33939,2,0,P|186:301|189:323,1,40,8|0,0:3|0:0,0:0:0:0:
199,136,34200,2,0,P|144:132|93:136,1,80,0|0,1:0|1:0,0:0:0:0:
98,145,34591,1,2,0:0:0:0:
80,159,34721,2,0,P|75:192|72:218,1,40
35,359,34982,2,0,P|37:272|34:190,1,160,8|4,0:0|1:2,0:0:0:0:
22,75,35765,5,6,0:0:0:0:
98,13,36026,1,8,0:3:0:0:
97,32,36156,1,0,0:0:0:0:
97,52,36287,1,12,0:0:0:0:
96,71,36417,1,0,1:0:0:0:
168,161,36678,1,12,0:0:0:0:
177,143,36808,1,0,1:0:0:0:
187,125,36939,1,0,0:0:0:0:
170,113,37069,6,0,L|176:205,1,80,8|0,0:3|1:0,0:0:0:0:
259,306,37591,6,0,L|273:133,1,160,4|8,1:0|0:3,0:0:0:0:
464,339,38374,2,0,L|362:326,1,80,0|0,1:0|1:0,0:0:0:0:
384,328,38765,1,2,0:0:0:0:
384,328,38895,2,0,L|392:232,1,80,0|8,0:0|0:0,0:0:0:0:
203,239,39548,5,0,1:0:0:0:
203,239,39678,2,0,L|195:347,1,80,4|0,1:2|0:0,0:0:0:0:
197,318,40069,1,2,0:0:0:0:
197,318,40200,2,0,P|148:312|96:302,2,80,8|0|0,0:3|1:0|1:0,0:0:0:0:
197,318,40852,1,2,0:0:0:0:
197,318,40982,1,0,0:0:0:0:
353,353,41243,2,0,P|314:361|275:370,1,80,8|0,0:0|1:0,0:0:0:0:
448,259,41765,1,4,1:0:0:0:
448,259,42156,5,0,1:0:0:0:
448,259,42287,2,0,L|448:172,1,80,8|4,0:3|1:3,0:0:0:0:
406,95,42808,1,0,1:0:0:0:
446,98,42939,1,2,0:0:0:0:
486,102,43069,1,0,0:0:0:0:
328,123,43330,2,0,B|271:114|271:114|221:138|221:138|153:126,1,160,8|4,0:0|1:2,0:0:0:0:
17,253,44113,5,8,0:0:0:0:
17,253,44243,1,2,0:0:0:0:
17,253,44374,1,8,0:3:0:0:
206,262,44634,5,0,1:2:0:0:
206,262,44765,1,8,0:0:0:0:
302,245,45026,1,0,1:2:0:0:
302,245,45156,1,8,0:3:0:0:
506,320,45417,5,8,1:2:0:0:
478,349,45548,1,2,0:0:0:0:
428,335,45678,1,8,1:2:0:0:
394,357,45809,1,2,0:0:0:0:
346,333,45939,6,0,B|306:326|306:326|253:349|253:349|195:332,1,143.999995605469,12|2,1:0|0:0,0:0:0:0:
195,326,46461,2,0,P|178:350|168:378,1,47.9999985351563,8|0,0:3|0:0,0:0:0:0:
95,372,46721,1,0,1:0:0:0:
31,279,46982,1,8,0:0:0:0:
31,279,47113,1,0,0:0:0:0:
33,240,47243,1,0,1:0:0:0:
35,201,47374,1,2,0:0:0:0:
37,162,47504,1,8,0:0:0:0:
40,165,47895,6,0,L|33:141,2,15.9999995117188,0|0|0,3:0|3:0|3:0,3:0:0:0:
40,165,48026,2,0,L|154:171,1,95.9999970703126,4|0,1:2|0:0,0:0:0:0:
169,150,48417,1,2,0:0:0:0:
202,131,48548,2,0,L|196:232,1,95.9999970703126,8|0,0:3|1:0,0:0:0:0:
281,353,49069,1,0,1:0:0:0:
285,314,49200,1,2,0:0:0:0:
289,276,49330,1,0,1:0:0:0:
358,93,49591,1,8,0:0:0:0:
358,184,49852,1,0,1:0:0:0:
278,34,50113,6,0,B|228:31|228:31|155:73|155:73|95:65,1,191.999994140625,4|8,1:0|0:3,0:0:0:0:
224,126,50895,2,0,L|327:134,1,95.9999970703126,0|0,1:0|1:0,0:0:0:0:
319,133,51287,1,2,0:0:0:0:
319,133,51417,1,0,1:0:0:0:
147,177,51678,1,8,0:0:0:0:
147,177,52069,6,0,L|134:153,2,15.9999995117188,0|0|0,3:0|3:0|3:0,3:0:0:0:
147,177,52200,2,0,P|144:232|143:303,1,95.9999970703126,4|0,1:2|0:0,0:0:0:0:
125,307,52591,1,2,0:0:0:0:
104,339,52721,2,0,L|199:349,1,95.9999970703126,8|0,0:3|1:0,0:0:0:0:
294,311,53243,1,0,1:0:0:0:
327,330,53374,1,2,0:0:0:0:
359,349,53504,1,0,1:0:0:0:
452,328,53765,1,8,0:0:0:0:
441,216,54026,1,0,1:0:0:0:
364,181,54287,6,0,B|279:175|302:220|222:209,1,143.999995605469,4|2,1:0|0:0,0:0:0:0:
209,222,54808,2,0,P|177:217|159:212,1,47.9999985351563,8|0,0:3|0:0,0:0:0:0:
82,140,55069,1,8,0:0:0:0:
95,133,55200,1,0,0:0:0:0:
70,109,55330,5,0,1:0:0:0:
56,141,55461,1,2,0:0:0:0:
82,171,55591,1,0,1:0:0:0:
121,154,55721,1,2,0:0:0:0:
108,113,55852,1,8,0:0:0:0:
228,63,56243,6,0,L|223:83,2,15.9999995117188,0|0|0,3:0|3:0|3:0,3:0:0:0:
228,63,56374,2,0,L|340:55,1,95.9999970703126,4|0,1:2|0:0,0:0:0:0:
352,30,56765,1,2,0:0:0:0:
384,9,56895,2,0,L|444:10,1,47.9999985351563,8|0,0:3|0:0,0:0:0:0:
490,96,57156,6,0,L|388:92,1,95.9999970703126,0|0,1:0|1:0,0:0:0:0:
408,107,57548,1,0,0:0:0:0:
408,107,57678,1,0,1:0:0:0:
408,107,57808,1,0,0:0:0:0:
408,107,57939,2,0,L|407:173,1,47.9999985351563,8|0,0:0|0:0,0:0:0:0:
354,211,58200,2,0,L|353:265,1,47.9999985351563,0|2,1:0|0:0,0:0:0:0:
402,349,58461,6,0,B|344:349|344:349|320:331|320:331|262:327,1,143.999995605469,12|2,1:0|0:0,0:0:0:0:
233,303,58982,1,8,0:3:0:0:
233,303,59243,6,0,L|181:317,1,47.9999985351563,8|0,0:0|0:0,0:0:0:0:
39,268,59504,2,0,L|85:255,1,47.9999985351563,0|2,1:0|0:0,0:0:0:0:
219,148,59765,2,0,B|224:173|224:173|216:202,1,47.9999985351563,8|0,0:3|0:0,0:0:0:0:
158,238,60026,1,8,0:0:0:0:
295,274,60417,6,0,L|290:249,2,15.9999995117188,0|0|0,3:0|3:0|3:0,3:0:0:0:
295,274,60548,2,0,L|417:275,1,95.9999970703126,4|0,1:2|0:0,0:0:0:0:
390,274,60939,1,2,0:0:0:0:
390,274,61069,1,8,0:3:0:0:
463,231,61330,2,0,L|459:125,1,95.9999970703126,0|0,1:0|1:0,0:0:0:0:
459,135,61721,1,2,0:0:0:0:
459,135,61852,1,0,1:0:0:0:
459,135,61982,1,4,0:0:0:0:
459,135,62113,6,0,L|395:141,1,47.9999985351563,8|0,0:0|0:0,0:0:0:0:
332,85,62374,2,0,L|260:91,1,47.9999985351563,4|2,1:2|0:0,0:0:0:0:
181,40,62634,6,0,L|199:241,1,191.999994140625,4|8,1:0|0:3,0:0:0:0:
231,360,63417,1,0,1:0:0:0:
243,324,63547,1,2,0:0:0:0:
255,288,63678,1,0,1:0:0:0:
145,368,63939,1,4,1:2:0:0:
325,235,64200,1,12,0:0:0:0:
325,235,64591,6,0,L|323:264,2,15.9999995117188,0|0|0,3:0|3:0|3:0,3:0:0:0:
325,235,64721,2,0,B|373:237|373:237|411:268|411:268|470:269,1,143.999995605469,4|2,1:2|0:0,0:0:0:0:
490,289,65243,2,0,L|486:229,1,47.9999985351563,8|0,0:3|0:0,0:0:0:0:
422,167,65504,2,0,L|417:67,1,95.9999970703126,0|0,1:0|1:0,0:0:0:0:
417,71,65895,1,2,0:0:0:0:
417,71,66026,1,0,1:0:0:0:
500,118,66287,1,12,0:0:0:0:
350,42,66548,1,0,1:0:0:0:
287,90,66808,6,0,B|162:96|229:39|103:39,1,191.999994140625,4|8,1:0|0:3,0:0:0:0:
237,159,67591,2,0,B|243:185|243:185|239:217,1,47.9999985351563,0|8,1:0|0:0,0:0:0:0:
173,298,67852,1,0,1:0:0:0:
169,259,67982,1,2,0:0:0:0:
166,220,68113,1,4,1:2:0:0:
163,181,68243,1,0,0:0:0:0:
122,158,68374,5,8,0:0:0:0:
4,324,68765,6,0,L|0:299,2,15.9999995117188,0|0|0,3:0|3:0|3:0,3:0:0:0:
4,324,68895,2,0,L|119:319,1,95.9999970703126,4|0,1:2|0:0,0:0:0:0:
137,308,69287,1,2,0:0:0:0:
173,296,69417,2,0,L|275:297,1,95.9999970703126,8|0,0:3|1:0,0:0:0:0:
335,341,69939,1,0,1:0:0:0:
370,325,70069,1,2,0:0:0:0:
405,309,70200,1,0,1:0:0:0:
478,339,70461,1,12,0:0:0:0:
343,249,70721,1,4,1:2:0:0:
475,212,70982,6,0,B|480:142|480:142|451:97|451:97|461:13,1,191.999994140625,4|8,1:0|0:3,0:0:0:0:
378,167,71765,1,0,1:0:0:0:
378,167,71895,1,12,0:0:0:0:
281,147,72156,1,4,1:2:0:0:
281,147,72287,1,8,0:3:0:0:
281,147,72417,1,2,0:0:0:0:
281,147,72548,1,12,1:2:0:0:
197,55,72939,6,0,L|202:77,2,15.9999995117188,0|0|0,3:0|3:0|3:0,3:0:0:0:
197,55,73069,2,0,P|135:55|91:177,1,191.999994140625,4|8,1:2|0:3,0:0:0:0:
153,234,73852,2,0,P|175:187|173:129,1,95.9999970703126,0|0,1:0|1:0,0:0:0:0:
62,247,74374,1,2,0:0:0:0:
21,314,74634,2,0,P|71:331|139:318,1,95.9999970703126,8|0,0:0|1:0,0:0:0:0:
240,368,75156,5,4,1:0:0:0:
240,368,75287,1,8,0:3:0:0:
428,316,75548,1,0,1:0:0:0:
428,316,75678,1,8,0:0:0:0:
312,292,75939,1,8,0:3:0:0:
312,292,76069,1,2,0:0:0:0:
312,292,76200,1,4,1:2:0:0:
312,292,76330,1,0,0:0:0:0:
312,292,76461,1,0,1:0:0:0:
344,368,76721,1,8,1:2:0:0:
255,225,77113,6,0,L|227:228,2,15.9999995117188,0|0|0,3:0|3:0|3:0,3:0:0:0:
255,225,77243,2,0,B|254:152|298:159|297:81,1,143.999995605469,4|2,1:2|0:0,0:0:0:0:
281,74,77765,2,0,P|306:60|329:58,1,47.9999985351563,8|2,0:3|0:0,0:0:0:0:
402,104,78026,2,0,P|405:151|389:202,1,95.9999970703126,8|0,0:0|0:0,0:0:0:0:
400,244,78417,5,8,0:0:0:0:
374,285,78548,1,0,1:0:0:0:
326,282,78678,1,2,0:0:0:0:
297,320,78808,1,8,0:0:0:0:
248,318,78939,1,0,0:0:0:0:
215,352,79069,1,2,1:2:0:0:
167,360,79200,1,0,0:0:0:0:
120,333,79330,5,8,1:1:0:0:
75,278,96026,6,0,P|131:57|305:102,1,447.999986328125,4|0,1:2|1:0,0:0:0:0:
381,110,98634,2,0,P|386:171|374:231,1,111.999996582031,2|0,0:0|1:0,0:0:0:0:
318,270,99417,1,2,0:0:0:0:
304,268,99678,1,0,1:0:0:0:
293,259,99939,1,2,0:0:0:0:
297,354,100200,6,0,P|374:350|355:65,1,447.999986328125,4|0,1:2|1:0,0:0:0:0:
304,122,102808,2,0,P|272:129|174:126,1,111.999996582031,2|0,0:0|1:0,0:0:0:0:
122,93,103591,1,2,0:0:0:0:
118,112,103852,1,0,1:0:0:0:
121,129,104113,1,2,0:0:0:0:
127,143,104374,1,4,0:0:0:0:
52,236,104634,6,0,B|166:194|284:239|191:379|415:337,1,391.99998803711,0|0,1:0|0:0,0:0:0:0:
436,253,106982,2,0,P|414:207|411:128,1,111.999996582031,2|0,0:0|1:0,0:0:0:0:
316,127,107765,1,2,0:0:0:0:
323,146,108026,1,0,1:0:0:0:
323,165,108287,1,2,0:0:0:0:
447,333,108548,5,4,1:2:0:0:
369,334,109069,1,0,1:0:0:0:
294,334,109591,1,0,1:0:0:0:
219,335,109852,1,0,1:0:0:0:
144,338,110113,1,0,1:0:0:0:
70,339,110374,1,0,1:0:0:0:
288,256,110634,5,8,1:0:0:0:
288,256,111156,2,0,P|291:222|290:179,1,64,0|0,1:0|1:0,1:0:0:0:
381,255,111678,2,0,P|382:201|380:169,1,64
150,131,112200,5,0,0:0:0:0:
157,137,112330,1,0,0:0:0:0:
164,143,112461,1,0,0:0:0:0:
171,149,112591,1,0,0:0:0:0:
177,155,112721,6,0,P|176:209|182:282,1,120,4|0,1:0|0:0,0:0:0:0:
211,300,113243,2,0,L|135:329,1,80,0|8,1:0|0:3,0:0:0:0:
66,288,113765,1,4,0:0:0:0:
253,222,114026,1,0,1:0:0:0:
318,268,114287,1,8,0:3:0:0:
286,341,114548,1,4,0:0:0:0:
403,282,114808,6,0,P|404:245|398:178,1,80,4|0,1:0|0:0,0:0:0:0:
319,195,115330,1,0,1:0:0:0:
369,132,115591,2,0,P|361:83|358:40,1,80,8|0,0:3|1:0,0:0:0:0:
179,47,116113,1,4,0:0:0:0:
210,120,116374,1,8,0:3:0:0:
210,120,116504,1,4,0:0:0:0:
210,120,116634,1,0,1:0:0:0:
150,173,116895,6,0,B|99:162|99:162|16:177,1,120,4|0,1:0|0:0,0:0:0:0:
11,208,117417,1,0,1:0:0:0:
61,329,117678,1,8,0:3:0:0:
24,312,117808,1,4,0:0:0:0:
139,263,118069,1,0,0:0:0:0:
178,256,118200,1,4,1:2:0:0:
217,250,118330,1,0,0:0:0:0:
240,271,118461,2,0,L|331:287,1,80,8|0,0:3|1:0,0:0:0:0:
488,207,118982,6,0,L|350:220,1,120,4|0,1:0|0:0,0:0:0:0:
329,207,119504,2,0,L|341:125,1,80,0|8,1:0|0:3,0:0:0:0:
386,52,120026,2,0,L|441:62,1,40,0|0,1:0|0:0,0:0:0:0:
445,45,120287,2,0,L|396:49,1,40,4|0,1:2|0:0,0:0:0:0:
387,29,120548,2,0,L|434:40,1,40,8|4,0:3|0:0,0:0:0:0:
450,24,120808,2,0,L|410:30,1,40,0|0,1:0|0:0,0:0:0:0:
318,72,121069,6,0,B|238:74|253:27|156:30,1,160,4|0,1:0|1:0,0:0:0:0:
93,64,121852,1,8,0:3:0:0:
181,139,122113,1,0,1:0:0:0:
173,178,122243,1,0,0:0:0:0:
166,217,122374,1,4,0:0:0:0:
160,256,122504,1,0,0:0:0:0:
192,302,122634,5,8,0:3:0:0:
327,288,122895,1,4,1:2:0:0:
436,382,123156,2,0,P|456:322|443:221,1,160,4|0,1:0|1:0,0:0:0:0:
371,194,123939,1,8,0:3:0:0:
266,334,124200,2,0,P|289:360|339:382,1,80,4|0,0:0|1:0,0:0:0:0:
381,319,124721,1,8,0:3:0:0:
259,255,124982,5,4,1:2:0:0:
259,255,125243,2,0,L|268:113,1,120,4|0,1:0|0:0,0:0:0:0:
243,102,125765,2,0,L|337:98,1,80,0|8,1:0|0:3,0:0:0:0:
384,150,126287,1,0,1:0:0:0:
186,49,126548,1,4,1:2:0:0:
106,38,126808,1,8,0:3:0:0:
143,116,127069,5,4,1:2:0:0:
143,116,127200,1,0,0:0:0:0:
143,116,127330,2,0,L|132:205,1,80,4|2,1:0|0:0,1:0:0:0:
197,254,127852,2,0,L|290:237,1,80,0|8,1:0|0:3,1:0:0:0:
345,198,128374,2,0,L|258:93,1,120,4|2,1:0|0:0,1:0:0:0:
268,105,128895,1,8,0:3:0:0:
268,105,129026,1,0,1:0:0:0:
268,105,129156,1,2,1:0:0:0:
379,269,129417,6,0,B|428:259|428:259|510:279,1,120,4|0,1:0|0:0,0:0:0:0:
495,275,129939,1,0,1:0:0:0:
371,352,130200,2,0,L|236:329,1,120,8|0,0:3|0:0,0:0:0:0:
252,331,130721,1,0,1:0:0:0:
159,303,130982,1,8,0:3:0:0:
81,369,131243,1,4,1:2:0:0:
63,260,131504,6,0,P|67:195|58:155,1,80,4|0,1:0|0:0,0:0:0:0:
63,29,132026,1,0,1:0:0:0:
10,101,132287,2,0,L|190:120,1,160,8|0,0:3|1:0,0:0:0:0:
239,80,133069,1,8,0:3:0:0:
339,171,133330,5,4,1:2:0:0:
339,171,133591,2,0,B|326:229|326:229|254:271,1,120,4|0,1:0|0:0,0:0:0:0:
254,294,134113,2,0,L|206:220,1,80,0|8,1:0|0:3,0:0:0:0:
412,194,134634,1,0,1:0:0:0:
387,268,134895,1,4,0:0:0:0:
471,253,135156,1,8,0:3:0:0:
496,175,135417,5,4,1:2:0:0:
496,175,135548,1,0,0:0:0:0:
496,175,135678,2,0,L|488:66,1,80,4|2,1:0|0:0,0:0:0:0:
336,64,136200,2,0,L|328:155,1,80,4|8,0:0|0:3,0:0:0:0:
16,175,136721,2,0,L|24:66,1,80,4|4,0:0|1:2,0:0:0:0:
176,64,137243,2,0,L|184:155,1,80,8|4,0:3|1:2,0:0:0:0:
240,364,137765,6,0,B|245:315|245:315|277:262|277:262|279:214,1,160,4|0,1:0|1:0,0:0:0:0:
169,244,138548,1,8,1:3:0:0:
392,217,138808,1,4,0:0:0:0:
355,191,139069,1,0,1:0:0:0:
186,216,139330,1,8,0:3:0:0:
270,132,139591,1,4,1:2:0:0:
270,132,139721,1,0,0:0:0:0:
270,132,139852,1,4,1:0:0:0:
215,190,140113,5,2,0:0:0:0:
166,119,140374,1,0,1:0:0:0:
307,56,140634,1,8,0:3:0:0:
355,129,140895,1,4,1:2:0:0:
356,136,141156,1,4,1:2:0:0:
357,143,141417,1,8,0:3:0:0:
358,150,141678,1,4,0:0:0:0:
122,252,141939,6,0,L|110:337,1,80,4|0,1:0|0:0,0:0:0:0:
111,331,142330,1,0,0:0:0:0:
111,331,142461,1,0,1:0:0:0:
256,368,142721,1,8,0:3:0:0:
234,281,142982,1,0,1:0:0:0:
366,270,143243,1,4,1:2:0:0:
357,356,143504,1,8,0:3:0:0:
484,359,143765,1,4,0:0:0:0:
445,280,144026,5,4,1:2:0:0:
466,246,144156,1,0,3:0:0:0:
461,206,144287,1,0,3:0:0:0:
433,176,144417,1,8,3:0:0:0:
393,182,144548,1,0,3:0:0:0:
353,184,144678,1,0,3:0:0:0:
313,180,144808,1,4,1:2:0:0:
274,169,144939,1,0,3:0:0:0:
236,181,145069,5,4,1:2:0:0:
204,155,145200,1,0,3:0:0:0:
200,115,145330,1,0,3:0:0:0:
225,83,145461,1,4,1:2:0:0:
251,52,145591,1,8,3:0:0:0:
222,24,145721,1,0,3:0:0:0:
182,28,145852,1,4,1:2:0:0:
151,53,145982,1,0,3:0:0:0:
110,54,146113,5,8,3:1:0:0:
256,192,146243,12,0,150287,0:0:0:0:
35,188,162808,6,0,B|91:172|91:172|221:205,1,167.999994873047,8|4,3:1|0:3,0:0:0:0:
315,157,163982,2,0,L|320:109,1,27.9999991455078,0|8,3:2|3:0,3:2:0:0:
327,53,164374,1,4,0:3:0:0:
327,53,164895,6,0,B|271:37|271:37|141:70,2,167.999994873047,4|8|4,0:3|3:0|0:3,0:0:0:0:
440,103,166852,1,0,3:0:0:0:
440,103,166982,2,0,L|435:199,1,83.9999974365235,4|0,3:0|3:0,0:0:0:0:
458,225,167504,1,4,3:0:0:0:
392,287,167765,2,0,L|289:251,1,83.9999974365235,8|0,3:0|3:0,0:0:0:0:
271,277,168287,1,8,3:0:0:0:
210,341,168548,1,4,0:3:0:0:
32,271,169069,6,0,L|34:182,1,83.9999974365235,4|0,3:0|3:0,0:0:0:0:
18,144,169591,1,4,3:0:0:0:
97,102,169852,2,0,L|201:123,1,83.9999974365235,8|0,3:0|3:0,0:0:0:0:
222,129,170374,1,8,3:0:0:0:
212,218,170634,2,0,L|163:222,2,27.9999991455078,4|8|4,3:3|3:3|3:0,3:0:0:0:
311,223,171156,5,4,3:0:0:0:
371,40,171548,1,0,3:0:0:0:
371,40,171678,1,4,3:0:0:0:
465,79,171939,2,0,P|459:121|456:173,1,83.9999974365235,8|0,3:0|3:0,0:0:0:0:
434,201,172461,1,8,3:0:0:0:
357,155,172721,2,0,L|352:115,2,27.9999991455078,4|8|4,3:0|3:0|3:0,3:0:0:0:
359,244,173243,6,0,L|361:340,1,83.9999974365235,4|0,3:0|3:0,0:0:0:0:
399,348,173765,2,0,L|473:358,1,55.9999982910157,4|8,3:0|3:0,0:0:0:0:
243,324,174417,1,0,3:0:0:0:
243,324,174548,2,0,L|169:334,2,55.9999982910157,8|8|4,3:0|0:0|3:0,0:0:0:0:
290,248,175330,5,4,3:0:0:0:
140,122,175721,1,0,3:0:0:0:
140,122,175852,1,4,3:0:0:0:
43,201,176113,2,0,P|86:200|139:209,1,83.9999974365235,8|0,3:0|3:0,0:0:0:0:
164,229,176634,1,8,3:0:0:0:
105,307,176895,2,0,L|25:304,1,55.9999982910157,4|8,3:0|0:0,0:0:0:0:
225,340,177417,5,4,3:0:0:0:
307,213,177808,1,0,3:0:0:0:
307,213,177939,2,0,L|304:146,1,55.9999982910157,4|8,3:0|0:0,0:0:0:0:
394,271,178461,2,0,L|399:177,1,71.9999978027344,4|0,3:0|3:0,0:0:0:0:
477,322,178982,2,0,L|493:213,1,88.000002685547,8|0,3:0|3:0,0:0:0:0:
497,189,179330,2,0,L|503:162,2,14.6666671142578,0|0|0,3:0|3:0|3:0,3:0:0:0:
476,197,179504,6,2,P|399:166|412:71,1,180.000006866455,12|8,1:0|0:0,0:0:0:0:
424,44,180026,1,8,0:3:0:0:
238,188,180287,2,0,P|239:131|217:67,1,120.000004577637,4|2,1:3|3:0,0:0:0:0:
195,37,180678,1,12,0:0:0:0:
195,37,180808,1,8,0:0:0:0:
23,221,181069,2,0,P|79:222|162:238,1,120.000004577637,8|4,3:0|0:0,0:0:0:0:
182,259,181461,2,0,L|186:289,2,20.0000007629395,4|0|0,0:0|0:2|1:2,1:2:0:0:
182,259,181591,6,0,B|250:276|250:276|287:255|287:255|363:272,1,180.000006866455,4|8,1:0|0:0,0:0:0:0:
392,285,182113,1,8,0:3:0:0:
451,177,182374,1,4,1:3:0:0:
281,355,182634,1,8,1:3:0:0:
281,355,182765,1,4,1:3:0:0:
281,355,182895,1,4,1:3:0:0:
365,345,183156,2,0,L|438:354,1,60.0000022888184,8|0,1:2|0:0,0:0:0:0:
191,348,183417,2,0,L|118:357,1,60.0000022888184,4|4,1:0|0:0,0:0:0:0:
346,188,183678,6,0,P|364:122|331:17,1,180.000006866455,4|8,1:0|0:0,0:0:0:0:
289,16,184200,1,8,0:3:0:0:
102,158,184461,1,4,1:3:0:0:
269,252,184721,1,4,0:3:0:0:
310,258,184852,1,4,0:3:0:0:
351,265,184982,1,8,0:3:0:0:
167,217,185243,1,8,1:2:0:0:
159,264,185374,1,0,1:0:0:0:
153,311,185504,1,8,1:2:0:0:
143,357,185634,2,0,L|179:359,2,20.0000007629395,4|0|0,3:2|3:0|3:0,3:0:0:0:
126,358,185765,6,0,B|76:336|76:336|44:194,1,180.000006866455,4|8,1:0|0:0,0:0:0:0:
52,165,186287,1,8,0:3:0:0:
199,56,186548,1,4,1:3:0:0:
108,89,186808,2,0,L|47:82,2,60.0000022888184,8|4|4,1:3|1:3|1:3,1:3:0:0:
216,145,187330,2,0,L|283:149,1,60.0000022888184,8|0,1:2|0:0,0:0:0:0:
342,229,187591,2,0,L|409:225,1,60.0000022888184,4|4,1:2|0:0,0:0:0:0:
493,143,187852,6,0,B|461:236|521:234|483:356,1,180.000006866455,12|8,1:0|0:0,0:0:0:0:
449,343,188374,1,8,0:3:0:0:
247,355,188634,2,0,P|223:267|288:192,1,180.000006866455,4|4,1:3|0:0,0:0:0:0:
312,225,189156,1,12,0:0:0:0:
115,338,189417,2,0,P|65:312|26:241,1,120.000004577637,12|4,0:0|1:2,0:0:0:0:
38,212,189808,2,0,L|53:179,2,20.0000007629395,4|0|0,3:0|3:0|3:0,3:0:0:0:
38,212,189939,6,0,P|109:199|143:143,1,120.000004577637,4|0,1:0|0:0,0:0:0:0:
152,118,190330,1,8,0:0:0:0:
152,118,190461,2,0,L|288:123,1,120.000004577637,8|4,0:3|1:2,0:0:0:0:
387,45,190982,2,0,L|379:125,1,60.0000022888184,8|4,1:2|3:0,0:0:0:0:
375,200,191243,1,4,3:0:0:0:
485,191,191504,1,8,1:2:0:0:
275,240,191765,1,4,1:2:0:0:
408,323,192026,6,0,P|327:319|232:350,1,180.000006866455,4|8,1:0|0:0,0:0:0:0:
189,369,192548,1,8,0:3:0:0:
36,176,192808,2,0,P|60:234|70:309,1,120.000004577637,4|8,1:3|3:0,0:0:0:0:
77,338,193200,1,12,1:2:0:0:
77,338,193330,1,4,1:3:0:0:
194,236,193591,2,0,L|192:159,1,60.0000022888184,8|0,1:2|0:0,0:0:0:0:
320,246,193852,2,0,L|326:346,1,60.0000022888184,4|4,1:2|3:2,0:0:0:0:
314,143,194113,6,2,P|386:103|494:134,1,180.000006866455,8|0,1:2|0:0,0:0:0:0:
484,225,194634,2,2,P|412:265|304:234,1,180.000006866455,8|0,1:2|0:0,0:0:0:0:
214,100,195156,2,2,P|142:60|34:91,1,180.000006866455,8|0,1:2|0:0,0:0:0:0:
43,259,195678,2,2,P|115:299|223:268,1,180.000006866455,8|4,1:2|0:0,0:0:0:0:
214,100,196200,6,2,B|119:64|128:141|25:98,1,180.000006866455,12|8,1:0|0:0,0:0:0:0:
17,171,196721,1,8,0:2:0:0:
172,358,196982,1,4,0:3:0:0:
255,222,197243,1,8,0:3:0:0:
255,222,197374,1,12,0:3:0:0:
255,222,197504,1,4,0:3:0:0:
97,269,197765,2,0,L|33:287,1,60.0000022888184,8|0,1:2|0:0,0:0:0:0:
266,319,198026,2,0,L|330:337,1,60.0000022888184,4|4,1:2|0:0,0:0:0:0:
408,288,198287,5,4,0:0:0:0:
483,34,198678,1,4,0:3:0:0:
483,34,198808,1,4,0:3:0:0:
466,127,199069,2,0,P|397:122|323:138,1,120.000004577637,8|4,0:2|0:3,0:0:0:0:
215,263,199591,1,0,0:0:0:0:
343,292,199852,1,8,0:2:0:0:
88,240,200113,1,4,0:2:0:0:
413,372,200374,6,0,P|431:297|408:169,1,180.000006866455,4|8,0:0|0:2,0:0:0:0:
351,170,200895,1,8,0:2:0:0:
179,257,201156,2,0,P|172:309|166:383,1,120.000004577637,8|4,0:2|0:3,0:0:0:0:
252,360,201678,1,0,0:0:0:0:
34,356,201939,2,0,L|27:288,1,60.0000022888184,8|0,0:2|0:0,0:0:0:0:
28,224,202200,2,0,L|34:189,4,20.0000007629395,4|0|0|4|0,0:0|0:0|0:0|0:2|0:0,0:0:0:0:
93,254,202461,6,0,B|154:239|154:239|288:257,1,180.000006866455,4|4,0:0|0:3,0:0:0:0:
396,354,202982,2,0,P|416:281|412:220,1,120.000004577637,4|0,0:3|0:0,0:0:0:0:
238,93,203504,2,0,L|166:133,1,60.0000022888184,8|0,0:2|0:0,0:0:0:0:
76,102,203765,1,0,0:0:0:0:
421,147,204026,1,8,0:2:0:0:
47,198,204287,1,4,0:2:0:0:
306,337,204548,6,2,B|401:301|392:378|495:335,1,180.000006866455,12|8,0:0|0:2,0:0:0:0:
506,273,205069,1,8,0:2:0:0:
421,147,205330,1,2,0:2:0:0:
224,356,205591,1,8,0:2:0:0:
231,196,205852,1,2,0:2:0:0:
298,267,206113,2,0,L|382:272,1,60.0000022888184,8|0,0:2|0:0,0:0:0:0:
141,305,206374,2,0,L|57:310,1,60.0000022888184,4|4,0:2|0:1,0:0:0:0:
231,196,206634,5,4,0:0:0:0:
397,152,206895,1,2,0:2:0:0:
35,32,207156,2,0,L|23:136,1,60.0000022888184,8|0,0:2|0:0,0:0:0:0:
129,175,207417,2,0,L|141:71,1,60.0000022888184,2|0,0:2|0:0,0:0:0:0:
16,206,207678,1,8,0:2:0:0:
112,271,207939,1,4,0:3:0:0:
296,132,208200,2,0,L|284:28,1,60.0000022888184,8|0,0:3|0:0,0:0:0:0:
268,233,208461,1,4,0:2:0:0:
425,267,208721,5,4,0:0:0:0:
285,349,208982,2,0,P|236:333|141:334,2,120.000004577637,2|8|4,0:2|0:3|0:2,0:0:0:0:
341,196,209765,1,4,0:0:0:0:
184,238,210026,2,0,P|140:209|48:186,2,120.000004577637,2|8|4,0:2|0:3|0:2,0:0:0:0:
254,262,210678,2,0,L|292:261,3,20.0000007629395,4|0|0|4,0:2|0:0|0:0|0:0,0:0:0:0:
366,310,211330,6,0,L|355:371,2,40,4|8|8,0:3|0:0|0:0,0:0:0:0:
469,243,211852,2,0,L|476:282,2,40,4|0|0,0:3|0:0|0:0,0:0:0:0:
339,158,212374,2,0,L|328:219,2,40,4|8|8,0:3|0:0|0:0,0:0:0:0:
479,83,212895,5,4,0:1:0:0:
256,192,213026,12,0,219156,0:0:0:0:
33,83,231678,6,2,P|121:95|197:10,1,191.999994140625,12|4,0:0|3:0,0:0:0:0:
280,63,232461,2,0,P|267:155|352:225,1,191.999994140625,10|4,3:2|3:0,0:0:0:0:
443,171,233243,1,10,3:2:0:0:
413,262,233504,1,8,3:0:0:0:
382,353,233765,6,0,B|308:328|308:328|173:358,1,191.999994140625,4|0,1:3|3:0,0:0:0:0:
103,376,234548,1,10,3:2:0:0:
107,252,234808,1,2,3:2:0:0:
197,264,235069,1,4,3:0:0:0:
36,193,235330,2,0,L|24:290,1,95.9999970703126,10|0,3:2|0:0,0:0:0:0:
197,264,235852,1,4,1:3:0:0:
429,350,236374,5,8,3:0:0:0:
480,269,236634,2,2,P|495:168|471:67,1,191.999994140625,10|4,3:2|3:0,0:0:0:0:
285,175,237417,2,0,P|280:127|290:80,1,95.9999970703126,10|0,3:2|0:0,0:0:0:0:
380,223,237939,1,4,1:3:0:0:
380,223,238461,5,8,3:0:0:0:
219,257,238721,1,10,3:2:0:0:
170,173,238982,2,0,P|174:125|164:78,1,95.9999970703126,2|4,3:2|3:0,0:0:0:0:
18,171,239504,2,0,P|13:123|23:76,1,95.9999970703126,10|4,3:2|3:0,0:0:0:0:
93,243,240026,1,4,1:3:0:0:
93,243,240548,6,0,L|210:259,1,95.9999970703126,8|10,3:0|3:2,0:0:0:0:
268,330,241069,1,2,3:2:0:0:
341,212,241330,2,0,L|408:216,1,47.9999985351563,4|0,3:0|0:0,0:0:0:0:
297,128,241591,2,0,L|230:132,1,47.9999985351563,10|0,3:2|0:0,0:0:0:0:
386,77,241852,1,0,3:0:0:0:
474,113,242113,6,0,P|470:205|480:316,1,191.999994140625,4|8,1:3|3:0,0:0:0:0:
359,356,242895,2,0,P|312:338|234:328,2,95.9999970703126,10|2|4,3:2|3:2|3:0,0:0:0:0:
329,228,243678,2,0,P|278:222|201:233,1,95.9999970703126,10|0,3:2|3:0,0:0:0:0:
84,347,244200,1,4,1:3:0:0:
84,347,244721,5,8,3:0:0:0:
30,270,244982,2,2,P|31:205|59:79,1,191.999994140625,10|4,3:2|3:0,0:0:0:0:
150,54,245765,1,10,3:2:0:0:
192,140,246026,1,8,3:0:0:0:
233,226,246287,1,4,1:3:0:0:
233,226,246808,6,0,L|306:199,1,47.9999985351563,4|0,3:0|0:0,0:0:0:0:
352,182,247069,1,10,3:2:0:0:
466,295,247330,2,0,P|406:280|270:320,1,191.999994140625,2|10,3:2|3:2,0:0:0:0:
201,363,248113,1,0,3:0:0:0:
113,269,248374,1,4,1:3:0:0:
282,34,248895,6,0,L|300:107,1,47.9999985351563,8|0,3:0|0:0,0:0:0:0:
315,154,249156,1,10,3:2:0:0:
204,203,249417,1,2,3:2:0:0:
175,176,249548,1,2,3:2:0:0:
148,148,249678,1,4,3:0:0:0:
41,207,249939,2,0,L|60:276,1,47.9999985351563,10|0,3:2|3:0,0:0:0:0:
76,324,250200,1,0,3:0:0:0:
198,346,250461,6,0,L|413:350,1,191.999994140625,4|8,1:3|3:0,0:0:0:0:
454,231,251243,2,2,L|239:235,1,191.999994140625,10|4,3:2|3:0,0:0:0:0:
202,119,252026,2,0,L|319:118,2,95.9999970703126,10|8|4,3:2|3:0|1:3,0:0:0:0:
20,238,252939,5,0,1:0:0:0:
20,238,253069,2,0,P|24:295|18:360,1,95.9999970703126,4|10,3:0|3:2,0:0:0:0:
116,352,253591,1,4,3:0:0:0:
116,352,253721,1,8,3:0:0:0:
116,352,253852,1,8,3:0:0:0:
202,309,254113,1,10,3:2:0:0:
203,213,254373,1,8,3:0:0:0:
294,339,254634,6,2,P|380:331|513:346,1,191.999994140625,4|0,1:3|3:0,0:0:0:0:
491,243,255417,1,10,3:2:0:0:
386,185,255678,2,0,L|367:250,1,47.9999985351563,4|0,3:0|0:0,0:0:0:0:
295,178,255939,2,0,L|298:111,1,47.9999985351563,4|0,3:0|0:0,0:0:0:0:
192,64,256200,2,0,P|203:118|205:192,1,95.9999970703126,10|0,3:2|0:0,0:0:0:0:
126,280,256721,6,0,P|202:277|294:296,1,143.999995605469,4|4,1:3|3:0,0:0:0:0:
304,320,257243,2,0,L|321:244,1,47.9999985351563,8|0,3:0|0:0,0:0:0:0:
345,202,257504,2,2,B|404:242|404:242|403:367,1,191.999994140625,10|4,3:2|3:0,0:0:0:0:
483,292,258287,2,0,L|485:196,1,95.9999970703126,10|8,3:2|3:0,0:0:0:0:
385,129,258808,5,4,1:3:0:0:
147,58,259200,1,0,1:0:0:0:
147,58,259330,1,4,3:0:0:0:
247,16,259591,2,2,P|232:91|228:218,1,191.999994140625,10|4,3:2|3:0,0:0:0:0:
80,136,260374,2,0,P|104:181|123:235,1,95.9999970703126,8|8,1:2|3:0,0:0:0:0:
35,308,260895,5,4,1:3:0:0:
117,356,261156,2,0,L|177:352,2,47.9999985351563,0|0|8,3:0|3:0|3:0,0:0:0:0:
191,262,261678,2,2,P|274:322|361:347,1,191.999994140625,10|4,3:2|3:0,0:0:0:0:
436,248,262461,2,0,P|409:208|374:175,1,95.9999970703126,10|2,3:2|3:2,0:0:0:0:
258,141,262982,6,0,L|222:160,1,23.9999992675781,4|0,1:0|2:0,0:0:0:0:
333,26,263243,1,0,3:0:0:0:
333,26,263374,1,0,3:0:0:0:
333,26,263504,2,0,P|385:44|431:46,1,95.9999970703126,8|10,3:0|3:2,0:0:0:0:
460,132,264026,1,2,3:2:0:0:
374,175,264287,1,4,3:0:0:0:
303,110,264548,1,10,3:2:0:0:
442,243,264808,6,0,L|441:266,6,15.9999995117188,0|0|0|0|0|0|4,3:0|3:0|3:0|3:0|3:0|3:0|3:1,3:0:0:0:
