osu file format v14

[General]
AudioFilename: audio.mp3
AudioLeadIn: 0
PreviewTime: 177747
Countdown: 0
SampleSet: Soft
StackLeniency: 0.7
Mode: 0
LetterboxInBreaks: 0
WidescreenStoryboard: 0

[Editor]
Bookmarks: 177747,191969,206192,220414,234636,248858,263081
DistanceSpacing: 0.9
BeatDivisor: 4
GridSize: 8
TimelineZoom: 2.1

[Metadata]
Title:Crosswalk
TitleUnicode:Crosswalk
Artist:La Cataline
ArtistUnicode:La Cataline
Creator:Takei Hisa
Version:Hism
Source:
Tags:
BeatmapID:1129702
BeatmapSetID:533231

[Difficulty]
HPDrainRate:7
CircleSize:4.3
OverallDifficulty:8
ApproachRate:8
SliderMultiplier:1.4
SliderTickRate:1

[Events]
//Background and Video events
0,0,"crosswalk.jpg",0,0
//Break Periods
2,121058,141442
//Storyboard Layer 0 (Background)
//Storyboard Layer 1 (Fail)
//Storyboard Layer 2 (Pass)
//Storyboard Layer 3 (Foreground)
//Storyboard Sound Samples

[TimingPoints]
63970,444.444444444444,4,2,0,10,1,0
91525,-100,4,2,0,20,0,0
145747,-100,4,2,0,25,0,0
149303,-100,4,2,0,25,0,1
149747,-100,4,2,0,25,0,0
150636,-100,4,2,0,10,0,0
177747,-100,4,2,0,15,0,0
179081,-100,4,2,0,10,0,0
179303,-100,4,2,0,15,0,0
186192,-100,4,2,0,10,0,0
186414,-100,4,2,0,15,0,0
193303,-100,4,2,0,10,0,0
193525,-100,4,2,0,15,0,0
200414,-100,4,2,0,10,0,0
200636,-100,4,2,0,15,0,0
206192,-100,4,2,1,15,0,1
206414,-100,4,2,1,15,0,0
211303,-100,4,2,1,5,0,0
211525,-100,4,2,1,15,0,0
218414,-100,4,2,1,5,0,0
218636,-100,4,2,1,15,0,0
220414,-83.3333333333333,4,2,1,17,0,0
225525,-83.3333333333333,4,2,1,7,0,0
225747,-83.3333333333333,4,2,1,17,0,0
231081,-71.4285714285714,4,2,1,20,0,0
232636,-71.4285714285714,4,2,1,10,0,0
232858,-71.4285714285714,4,2,1,20,0,0
234636,-71.4285714285714,4,2,1,20,0,1
239747,-71.4285714285714,4,2,1,10,0,1
239969,-71.4285714285714,4,2,1,20,0,1
246858,-71.4285714285714,4,2,1,10,0,1
247081,-71.4285714285714,4,2,1,20,0,1
253969,-71.4285714285714,4,2,1,10,0,1
254192,-71.4285714285714,4,2,1,20,0,1
255969,-66.6666666666667,4,2,1,25,0,1
261081,-66.6666666666667,4,2,1,15,0,1
261303,-66.6666666666667,4,2,1,25,0,0
263081,-66.6666666666667,4,2,1,15,0,1
263969,-66.6666666666667,4,2,1,15,0,0

[Colours]
Combo1 : 100,100,100
Combo2 : 146,73,73
Combo3 : 0,0,64

[HitObjects]
64,144,63969,6,0,L|144:112,1,70,0|0,1:0|0:0,0:0:0:0:
280,96,64414,1,2,0:0:0:0:
280,96,64858,2,0,P|304:144|304:224,1,105,4|0,0:0|0:0,0:0:0:0:
309,194,65303,2,0,L|229:226,1,70,0|0,1:0|3:0,0:0:0:0:
128,200,65747,1,0,0:0:0:0:
320,200,65969,2,0,L|272:272,1,70,0|0,1:0|3:0,0:0:0:0:
168,328,66414,1,0,0:0:0:0:
216,160,66636,1,4,0:0:0:0:
424,248,67081,5,0,3:0:0:0:
384,64,67358,2,0,L|360:88,1,17.5,0|0,3:2|3:0,0:0:0:0:
352,96,67525,6,0,L|208:96,2,140,0|2|4,1:0|0:0|0:0,0:0:0:0:
416,152,68636,1,0,0:0:0:0:
344,280,68858,2,0,L|304:216,1,70,0|0,1:0|3:0,0:0:0:0:
416,152,69303,1,2,0:0:0:0:
152,264,69525,2,0,L|216:232,1,70,0|0,1:0|3:0,0:0:0:0:
344,80,69969,2,0,L|280:112,1,70,0|6,0:0|0:0,0:0:0:0:
200,184,70414,1,0,0:0:0:0:
288,144,70636,1,0,0:0:0:0:
320,256,70858,1,0,3:0:0:0:
160,72,71081,6,0,P|112:104|120:200,2,140,2|2|4,1:3|0:0|0:0,0:0:0:0:
232,168,72192,1,0,0:0:0:0:
192,288,72414,2,0,P|160:312|104:320,1,70,0|0,1:0|3:0,0:0:0:0:
240,160,72858,1,2,0:0:0:0:
408,184,73081,2,0,P|424:160|416:96,1,70,0|0,1:0|3:0,0:0:0:0:
224,168,73525,1,0,0:0:0:0:
304,312,73747,1,4,0:0:0:0:
304,312,74192,5,0,3:0:0:0:
136,208,74469,2,0,L|112:232,1,17.5,0|0,3:0|3:0,3:0:0:0:
136,208,74636,6,0,P|160:168|112:72,1,140,0|2,1:0|0:0,0:0:0:0:
56,152,75303,1,0,0:0:0:0:
256,184,75525,1,4,0:0:0:0:
176,24,75747,1,0,0:0:0:0:
152,192,75969,2,0,L|136:280,1,70,0|0,1:0|3:0,0:0:0:0:
400,136,76414,2,0,P|360:80|344:72,1,70,2|0,0:0|1:0,0:0:0:0:
296,232,76858,2,0,P|336:288|352:296,1,70,0|0,3:0|0:0,0:0:0:0:
224,104,77303,1,6,0:0:0:0:
120,192,77525,1,0,0:0:0:0:
336,296,77747,6,0,L|424:296,1,70,0|0,3:0|0:0,0:0:0:0:
416,296,78025,2,0,L|448:296,1,17.5
488,296,78192,5,0,1:2:0:0:
376,144,78636,1,2,0:0:0:0:
272,296,79081,2,0,P|208:272|168:224,1,105,4|0,0:0|0:0,0:0:0:0:
182,247,79525,2,0,L|184:160,1,70,0|0,1:0|3:0,0:0:0:0:
80,96,79969,1,2,0:0:0:0:
272,24,80192,2,0,L|272:104,1,70,0|0,1:0|3:0,0:0:0:0:
376,184,80636,1,0,0:0:0:0:
112,264,80858,2,0,P|168:288|248:264,1,140,4|0,0:0|3:0,0:0:0:0:
400,160,81581,6,0,L|424:176,1,17.5,0|0,3:0|3:0,3:0:0:0:
384,152,81747,6,0,L|304:104,1,70,0|0,1:0|0:0,0:0:0:0:
144,144,82192,2,0,P|160:168|240:184,1,105,2|0,0:0|0:0,0:0:0:0:
240,184,82636,1,4,0:0:0:0:
240,56,82858,1,0,0:0:0:0:
128,112,83081,2,0,L|72:168,1,70,0|0,1:0|3:0,0:0:0:0:
256,248,83525,6,0,P|256:208|224:176,1,70,6|0,0:0|1:0,0:0:0:0:
176,256,83969,2,0,P|184:304|216:336,1,70,0|2,3:0|0:0,0:0:0:0:
352,144,84414,2,2,P|336:104|240:72,1,140,6|0,0:0|0:0,0:0:0:0:
251,69,85081,1,0,0:0:0:0:
104,160,85303,6,0,L|64:232,1,70,2|0,1:2|0:0,0:0:0:0:
224,320,85747,2,0,L|192:256,1,70,2|0,0:0|0:0,0:0:0:0:
280,160,86192,2,0,P|328:144|368:152,1,70,4|0,0:0|0:0,0:0:0:0:
440,264,86636,2,0,P|392:280|352:272,1,70,0|0,1:0|3:0,0:0:0:0:
264,248,87081,5,6,0:0:0:0:
360,128,87303,1,0,1:0:0:0:
440,264,87525,1,0,3:0:0:0:
288,176,87747,1,2,0:0:0:0:
424,96,87969,1,6,0:0:0:0:
344,248,88192,1,0,0:0:0:0:
240,120,88414,2,0,P|192:96|128:96,1,105,0|0,3:0|3:0,0:0:0:0:
64,176,88858,6,0,P|96:192|136:192,1,70,2|0,1:2|0:0,0:0:0:0:
296,272,89303,2,0,P|264:288|224:288,1,70,2|0,0:0|0:0,0:0:0:0:
352,96,89747,2,0,P|384:128|400:184,1,105,4|0,0:0|0:0,0:0:0:0:
264,144,90192,2,0,P|240:120|224:72,1,70,0|0,1:0|3:0,0:0:0:0:
328,24,90636,1,6,0:0:0:0:
320,184,90858,1,0,1:0:0:0:
472,96,91081,1,0,3:0:0:0:
464,256,91303,1,2,0:0:0:0:
320,328,91525,6,0,P|288:336|240:336,1,70,6|0,0:0|0:0,0:0:0:0:
104,208,91969,2,0,P|136:200|184:200,1,70,2|0,0:0|0:0,0:0:0:0:
248,208,92247,2,0,P|256:208|272:208,1,17.5,0|0,3:0|3:0,3:0:0:0:
344,192,92414,6,0,P|352:144|344:104,1,70,0|0,1:0|3:0,0:0:0:0:
248,48,92858,1,0,0:0:0:0:
96,176,93081,2,0,L|168:136,1,70,2|4,0:0|0:0,0:0:0:0:
248,216,93525,1,0,0:0:0:0:
152,360,93747,2,0,L|224:320,1,70,2|0,1:2|0:0,0:0:0:0:
248,216,94192,1,0,0:0:0:0:
360,72,94414,2,0,L|288:112,1,70,2|0,1:2|0:0,0:0:0:0:
248,216,94858,1,0,0:0:0:0:
120,160,95081,2,2,L|80:96,1,70,4|0,0:2|3:0,0:0:0:0:
392,224,95525,2,0,L|432:288,1,70,8|0,0:0|0:0,0:0:0:0:
288,272,95969,6,0,P|232:288|192:288,1,70,0|0,1:0|3:0,0:0:0:0:
80,224,96414,2,0,P|64:192|64:136,1,70,0|2,0:0|0:0,0:0:0:0:
240,48,96858,2,0,P|256:80|256:136,1,70,4|0,0:0|0:0,0:0:0:0:
160,128,97303,1,2,1:2:0:0:
240,192,97525,1,0,0:0:0:0:
336,136,97747,1,0,0:0:0:0:
160,128,97969,1,2,1:2:0:0:
232,280,98192,1,0,0:0:0:0:
336,136,98414,1,0,1:0:0:0:
160,128,98636,6,2,P|120:192|72:208,1,105,4|0,0:0|0:0,0:0:0:0:
80,120,99081,2,0,P|120:56|168:40,1,105,8|0,3:2|3:0,0:0:0:0:
216,72,99525,6,0,L|288:72,1,70,0|0,1:0|3:0,0:0:0:0:
286,72,99969,1,0,0:0:0:0:
456,160,100192,2,0,L|384:160,1,70,2|4,0:0|0:0,0:0:0:0:
386,160,100636,1,0,0:0:0:0:
296,264,100858,2,0,P|272:288|232:296,1,70,2|0,1:2|0:0,0:0:0:0:
104,200,101303,2,0,P|128:176|168:168,1,70,0|2,0:0|1:2,0:0:0:0:
336,144,101747,2,0,P|328:112|288:80,1,70
176,240,102192,2,0,P|184:272|224:304,1,70,4|0,0:0|3:0,0:0:0:0:
209,297,102636,1,8,3:2:0:0:
344,200,102858,1,0,0:0:0:0:
200,136,103081,5,0,1:0:0:0:
240,216,103303,1,0,3:0:0:0:
304,280,103525,1,0,0:0:0:0:
136,216,103747,2,0,P|112:224|56:224,1,70,2|4,0:0|0:0,0:0:0:0:
216,48,104192,2,0,P|240:40|296:40,1,70,0|2,0:0|1:2,0:0:0:0:
408,136,104636,1,0,3:0:0:0:
368,216,104858,1,0,3:0:0:0:
304,280,105080,1,2,1:2:0:0:
216,312,105303,6,0,P|192:320|128:328,1,70,0|0,0:0|3:0,0:0:0:0:
160,176,105747,2,0,P|168:144|208:104,1,70,4|0,0:0|0:0,0:0:0:0:
432,176,106192,2,0,P|400:216|320:232,1,105,8|0,0:0|3:0,0:0:0:0:
336,240,106636,6,0,L|256:256,1,70,0|0,1:0|3:0,0:0:0:0:
136,264,107081,1,0,0:0:0:0:
216,112,107303,1,2,0:0:0:0:
328,248,107525,2,0,P|368:264|440:256,1,105,4|0,0:0|0:0,0:0:0:0:
428,260,107969,2,0,L|416:184,1,70,2|0,1:2|3:0,0:0:0:0:
288,192,108414,1,0,0:0:0:0:
352,64,108636,2,0,P|328:56|264:48,1,70,2|0,1:2|3:0,0:0:0:0:
312,184,109081,1,0,0:0:0:0:
168,144,109303,2,0,P|152:168|144:216,1,70,4|0,0:0|3:0,0:0:0:0:
320,344,109747,2,0,P|336:320|344:272,1,70,8|0,0:0|0:0,0:0:0:0:
344,200,110025,2,0,P|344:184|352:176,1,17.5
400,112,110192,6,0,P|376:64|232:96,1,210,0|2,1:0|0:0,0:0:0:0:
192,192,111081,2,0,P|160:208|112:216,1,70,6|0,0:0|0:0,0:0:0:0:
72,144,111525,1,2,1:2:0:0:
168,280,111747,1,0,3:0:0:0:
248,136,111969,1,2,0:0:0:0:
96,232,112192,1,0,1:0:0:0:
240,296,112414,2,0,P|272:304|312:304,1,70,0|0,3:0|0:0,0:0:0:0:
440,160,112858,2,0,P|408:152|368:152,1,70,6|0,0:0|0:0,0:0:0:0:
371,151,113303,1,8,0:0:0:0:
208,192,113525,1,0,0:0:0:0:
208,192,113636,1,0,3:0:0:0:
208,192,113747,6,0,P|184:144|152:112,1,70,0|0,1:0|3:0,0:0:0:0:
112,224,114192,2,0,P|136:272|168:304,1,70,0|2,0:0|0:0,0:0:0:0:
264,280,114636,2,2,P|312:240|288:152,1,140,4|2,0:0|1:2,0:0:0:0:
184,64,115303,1,0,0:0:0:0:
184,64,115414,1,0,3:0:0:0:
184,64,115525,6,0,L|120:120,1,70,2|0,0:0|1:0,0:0:0:0:
184,216,115969,2,0,P|216:232|256:232,1,70,0|2,0:0|0:0,0:0:0:0:
336,144,116414,2,0,P|376:200|352:288,1,140,4|8,0:0|0:0,0:0:0:0:
184,312,117081,1,0,0:0:0:0:
184,312,117192,1,0,3:0:0:0:
184,312,117303,6,0,L|120:352,1,70,0|0,1:0|3:0,0:0:0:0:
152,224,117747,1,0,0:0:0:0:
272,288,117969,1,2,0:0:0:0:
272,152,118192,2,0,L|336:112,1,70,4|0,0:0|0:0,0:0:0:0:
440,216,118636,2,0,P|448:248|432:312,1,70,2|0,1:2|0:0,0:0:0:0:
440,216,119081,5,2,3:2:0:0:
408,120,119303,1,0,1:2:0:0:
320,72,119525,1,0,0:0:0:0:
256,192,119747,1,2,0:0:0:0:
72,168,119969,1,6,0:0:0:0:
104,264,120191,1,0,0:0:0:0:
192,312,120413,1,8,0:0:0:0:
256,192,120636,1,0,0:0:0:0:
256,192,120747,1,0,0:0:0:0:
256,192,120858,1,4,1:0:0:0:
256,192,142192,6,0,P|240:232|88:232,1,210,0|2,1:0|3:0,0:0:0:0:
160,168,143081,2,0,L|120:32,1,140,0|2,1:0|3:0,0:0:0:0:
160,168,143747,1,0,0:0:0:0:
408,184,143969,6,0,P|400:208|352:248,1,70,0|2,1:0|3:0,0:0:0:0:
296,136,144414,2,0,P|304:112|352:72,1,70,0|2,0:0|0:0,0:0:0:0:
432,296,144858,2,0,P|376:328|312:296,1,140,2|8,1:3|0:3,0:0:0:0:
64,264,145747,6,0,P|64:216|136:152,1,140,4|2,1:3|0:0,0:0:0:0:
232,112,146414,2,0,P|272:120|320:96,1,70,2|0,3:0|1:0,3:0:0:0:
448,144,146858,2,0,P|432:176|400:208,1,70,0|2,0:0|3:0,0:0:0:0:
280,248,147303,1,0,0:0:0:0:
360,288,147525,5,2,1:2:0:0:
200,144,147747,2,0,P|176:152|136:192,1,70,2|0,3:0|0:0,0:0:0:0:
216,304,148192,2,0,P|240:296|280:256,1,70,2|4,0:0|1:2,0:0:0:0:
320,152,148636,1,2,0:0:0:0:
400,248,148858,1,8,0:0:0:0:
256,96,149081,1,2,0:0:0:0:
168,280,149303,1,4,1:2:0:0:
168,280,150636,5,4,0:0:0:0:
400,200,151081,2,0,P|392:136|344:96,1,105,0|0,1:0|0:0,0:0:0:0:
304,136,151525,2,0,P|272:136|232:128,1,70,0|0,3:0|1:0,0:0:0:0:
168,280,152414,5,4,0:0:0:0:
240,216,152636,1,0,3:0:0:0:
200,128,152858,2,0,P|136:112|64:128,1,140,0|0,1:0|0:0,0:0:0:0:
312,256,153525,2,0,P|376:272|448:256,1,140,0|0,1:0|0:0,0:0:0:0:
384,144,154192,5,4,0:0:0:0:
144,216,154636,2,0,L|144:312,1,70,0|0,1:0|0:0,0:0:0:0:
248,128,155081,1,0,3:0:0:0:
144,286,155303,2,0,L|144:190,1,70,0|0,1:0|0:0,0:0:0:0:
384,144,155969,5,4,0:0:0:0:
304,224,156192,1,0,3:0:0:0:
200,264,156414,2,0,P|144:272|56:240,1,140,0|0,1:0|0:0,0:0:0:0:
176,64,157081,2,0,P|232:56|320:88,1,140,0|0,1:0|0:0,0:0:0:0:
200,168,157747,5,4,0:0:0:0:
320,272,158192,2,0,P|360:288|432:264,1,105,0|0,1:0|0:0,0:0:0:0:
472,200,158636,2,0,P|432:192|392:208,1,70,0|0,3:0|1:0,0:0:0:0:
296,344,159303,1,0,0:0:0:0:
200,168,159525,5,4,0:0:0:0:
296,168,159747,1,0,3:0:0:0:
112,128,159969,2,0,P|96:184|120:224,2,105,0|0|0,1:0|0:0|1:0,0:0:0:0:
392,168,160858,2,0,L|472:168,2,70,0|0|4,0:0|0:0|0:0,0:0:0:0:
264,120,161525,1,0,0:0:0:0:
280,256,161747,6,0,P|304:272|352:288,1,70,0|0,1:0|0:0,0:0:0:0:
192,192,162192,1,0,3:0:0:0:
96,256,162414,2,0,P|80:288|80:336,1,70,0|0,1:0|0:0,0:0:0:0:
40,176,162858,1,0,0:0:0:0:
392,168,163081,5,4,0:0:0:0:
392,168,163525,2,0,P|360:112|232:160,2,210,0|0|4,1:0|1:0|0:0,0:0:0:0:
296,224,165081,1,0,3:0:0:0:
192,272,165303,2,0,L|120:280,1,70,0|0,1:0|0:0,0:0:0:0:
272,304,165747,1,0,3:0:0:0:
152,192,165969,2,0,P|136:168|128:112,1,70,0|0,1:0|0:0,0:0:0:0:
288,152,166414,1,0,0:0:0:0:
128,328,166636,5,4,0:0:0:0:
432,288,167081,2,0,P|432:224|352:184,1,140,0|0,1:0|0:0,0:0:0:0:
160,224,167747,2,0,P|216:256|312:240,1,140,0|0,1:0|0:0,0:0:0:0:
248,104,168414,5,4,0:0:0:0:
248,104,168636,1,0,0:0:0:0:
144,184,168858,2,0,L|96:256,1,70,0|0,1:0|0:0,0:0:0:0:
288,256,169303,1,0,3:0:0:0:
424,176,169525,2,0,P|400:128|304:104,1,140,0|0,1:0|0:0,0:0:0:0:
322,99,170192,5,4,0:0:0:0:
224,128,170414,1,0,3:0:0:0:
152,200,170636,2,0,L|152:288,1,70,0|0,1:0|0:0,0:0:0:0:
408,296,171303,1,0,1:0:0:0:
152,200,171747,1,0,0:0:0:0:
408,296,171969,5,4,0:0:0:0:
368,168,172192,1,0,0:0:0:0:
280,272,172414,1,0,1:0:0:0:
504,192,172636,2,0,L|480:112,1,70,0|0,0:0|3:0,0:0:0:0:
280,272,173081,1,0,1:0:0:0:
56,168,173747,6,0,L|176:112,1,105,4|0,0:0|0:0,0:0:0:0:
192,136,174192,2,0,L|216:208,1,70,0|0,1:0|3:0,0:0:0:0:
256,336,174858,1,0,1:0:0:0:
360,256,175081,1,0,0:0:0:0:
248,184,175303,1,0,0:0:0:0:
152,272,175525,5,4,0:0:0:0:
256,264,175747,1,0,0:0:0:0:
320,168,175969,2,0,P|320:128|296:88,1,70,0|0,1:0|0:0,0:0:0:0:
352,24,176414,1,0,0:0:0:0:
224,144,176636,2,0,L|152:144,1,70,0|0,1:0|0:0,0:0:0:0:
48,96,177081,1,2,0:0:0:0:
24,232,177303,1,4,0:0:0:0:
160,184,177525,1,0,0:0:0:0:
392,280,177747,6,0,L|368:208,1,70,0|0,1:0|3:0,0:0:0:0:
216,88,178192,2,0,L|240:160,1,70,0|0,3:0|1:0,0:0:0:0:
424,136,178636,1,4,0:0:0:0:
344,232,178858,1,2,0:0:0:0:
216,240,179081,2,0,P|176:248|128:248,1,70,4|0,0:0|0:0,0:0:0:0:
146,249,179414,1,0,0:0:0:0:
146,249,179525,5,0,1:3:0:0:
48,168,179747,1,0,3:0:0:0:
168,128,179969,1,2,0:0:0:0:
248,216,180192,2,0,P|248:256|232:304,1,70,0|0,1:0|0:0,0:0:0:0:
168,128,180636,2,0,P|168:88|184:40,2,70,0|4|0,3:0|1:2|3:0,0:0:0:0:
328,200,181303,6,0,P|368:208|416:208,1,70,0|0,1:0|3:0,0:0:0:0:
288,128,181747,2,0,P|248:168|240:208,1,70,0|0,3:0|1:2,0:0:0:0:
376,136,182192,2,0,P|376:96|280:56,1,140,0|4,0:0|0:0,0:0:0:0:
112,144,182858,1,2,0:0:0:0:
216,240,183081,2,0,L|288:264,1,70,0|0,1:0|3:0,0:0:0:0:
120,264,183525,1,2,0:0:0:0:
384,224,183747,2,0,P|376:176|280:144,1,140,0|0,1:3|3:0,0:0:0:0:
272,240,184414,1,4,1:2:0:0:
424,104,184636,1,0,3:0:0:0:
216,72,184858,6,0,L|128:56,1,70,0|0,1:0|3:0,0:0:0:0:
147,59,185303,1,0,3:0:0:0:
192,160,185525,1,0,1:0:0:0:
304,192,185747,2,0,P|328:240|336:304,1,105,4|0,0:0|0:0,0:0:0:0:
232,360,186192,2,0,P|224:336|216:288,1,70,4|2,0:0|0:0,0:0:0:0:
216,292,186525,1,0,0:0:0:0:
216,292,186636,5,0,1:0:0:0:
248,120,186858,1,0,3:0:0:0:
128,216,187081,1,2,0:0:0:0:
336,192,187303,2,0,L|448:192,1,105,0|0,1:0|0:0,0:0:0:0:
128,96,187747,2,0,P|96:104|56:144,2,70,0|4|0,3:0|1:2|3:0,0:0:0:0:
232,200,188414,6,0,L|248:280,1,70,0|0,1:0|3:0,0:0:0:0:
312,160,188858,2,0,P|296:128|240:104,1,70,0|0,3:0|1:0,0:0:0:0:
192,120,189303,2,0,P|163:140|148:171,1,70,0|2,0:0|0:0,0:0:0:0:
256,352,189747,1,4,0:0:0:0:
432,224,189969,1,0,0:0:0:0:
432,224,190081,1,0,0:0:0:0:
432,224,190192,6,0,P|400:192|360:176,1,70,0|0,1:0|0:0,0:0:0:0:
336,288,190636,1,2,0:0:0:0:
400,96,190858,2,0,P|352:72|264:112,1,140,0|0,1:0|3:0,0:0:0:0:
336,184,191525,1,4,1:2:0:0:
176,64,191747,1,0,3:0:0:0:
128,256,191969,6,0,L|128:336,2,70,0|0|0,1:0|3:0|3:0,0:0:0:0:
128,256,192636,1,0,1:0:0:0:
256,112,192858,1,4,0:0:0:0:
304,240,193081,1,2,0:0:0:0:
176,224,193303,1,4,0:0:0:0:
256,112,193525,1,0,0:0:0:0:
256,112,193636,1,0,0:0:0:0:
256,112,193747,6,0,L|336:112,1,70,0|0,1:0|3:0,0:0:0:0:
424,280,194192,2,0,L|400:200,1,70,2|0,0:0|1:0,0:0:0:0:
304,208,194636,1,0,0:0:0:0:
192,96,194858,2,0,L|216:176,1,70,0|4,3:0|1:2,0:0:0:0:
304,208,195303,1,0,3:0:0:0:
168,304,195525,6,0,P|144:312|96:304,2,70,0|0|0,1:0|3:0|3:0,0:0:0:0:
360,304,196192,1,0,1:0:0:0:
264,168,196414,1,0,0:0:0:0:
312,240,196636,1,2,0:0:0:0:
216,240,196858,1,4,0:0:0:0:
352,160,197081,1,0,0:0:0:0:
224,88,197303,6,0,P|192:64|136:56,1,70,0|0,1:0|3:0,0:0:0:0:
96,184,197747,2,0,P|128:208|184:216,1,70,2|0,0:0|1:0,0:0:0:0:
312,168,198192,1,0,0:0:0:0:
312,168,198303,1,0,0:0:0:0:
312,168,198414,2,0,L|312:248,2,70,0|4|0,3:0|1:2|3:0,0:0:0:0:
208,128,199081,5,0,1:0:0:0:
320,80,199303,1,0,3:0:0:0:
408,168,199525,2,0,L|392:240,1,70,0|0,3:0|1:0,0:0:0:0:
272,320,199969,1,4,0:0:0:0:
104,248,200192,1,2,0:0:0:0:
104,248,200303,1,0,0:0:0:0:
104,248,200414,2,0,P|144:232|224:240,1,105,4|0,0:0|0:0,0:0:0:0:
272,208,200858,6,0,L|248:128,1,70,0|0,1:0|3:0,0:0:0:0:
168,56,201303,1,2,0:0:0:0:
376,136,201525,2,0,L|408:240,1,105,0|0,1:0|0:0,0:0:0:0:
400,272,201969,1,0,3:0:0:0:
216,208,202192,1,4,1:2:0:0:
400,272,202414,1,0,3:0:0:0:
216,208,202636,6,0,L|128:216,1,70,0|0,1:0|3:0,0:0:0:0:
248,128,203081,2,0,P|296:184|288:264,1,140,0|0,3:0|3:0,0:0:0:0:
144,216,203747,1,2,0:0:0:0:
352,136,203969,1,4,0:0:0:0:
304,328,204192,1,0,0:0:0:0:
232,128,204414,5,0,1:0:0:0:
352,232,204636,1,0,3:0:0:0:
208,288,204858,1,2,0:0:0:0:
352,112,205081,1,0,1:0:0:0:
128,208,205303,1,0,0:0:0:0:
128,208,205414,1,0,0:0:0:0:
128,208,205525,2,0,L|88:136,2,70,0|4|0,3:0|1:2|3:0,0:0:0:0:
288,256,206192,6,0,P|328:264|376:264,1,70,0|2,1:0|0:3,0:1:0:0:
456,216,206636,1,0,3:0:0:0:
360,160,206858,1,0,0:0:0:0:
360,160,206969,1,0,0:0:0:0:
360,160,207081,2,0,L|312:88,1,70,4|2,0:2|0:0,0:0:0:0:
208,56,207525,2,2,P|160:112|152:168,1,105,4|0,0:0|0:0,0:0:0:0:
248,256,207969,6,0,L|248:184,1,70,8|2,1:3|0:3,0:0:0:0:
152,140,208414,1,2,0:0:0:0:
192,312,208636,2,0,P|232:336|320:296,1,140,0|0,1:0|3:0,0:0:0:0:
152,232,209303,1,4,1:2:0:0:
152,140,209525,1,4,0:3:0:0:
408,184,209747,6,0,P|416:224|400:272,2,70,0|2|0,1:0|0:3|3:0,0:0:0:0:
408,184,210414,1,0,1:0:0:0:
80,184,210636,1,0,3:0:0:0:
144,104,210858,1,2,0:0:0:0:
224,168,211081,2,0,L|256:240,1,70,4|4,0:0|0:2,0:0:0:0:
344,64,211525,5,8,1:3:0:0:
280,160,211747,1,2,0:3:0:0:
128,144,211969,1,2,0:0:0:0:
288,280,212192,1,0,1:0:0:0:
304,80,212414,1,0,0:0:0:0:
184,240,212636,1,0,3:0:0:0:
320,208,212858,1,4,1:2:0:0:
184,112,213081,1,0,3:0:0:0:
56,232,213303,6,0,L|72:312,1,70,0|2,1:0|0:3,0:0:0:0:
160,200,213747,2,0,P|144:152|80:120,1,105,0|0,3:0|0:0,0:0:0:0:
100,122,214192,1,4,0:0:0:0:
56,232,214414,1,2,0:0:0:0:
240,128,214636,1,4,0:0:0:0:
208,280,214858,1,0,0:0:0:0:
384,240,215081,6,0,P|392:192|384:152,1,70,8|2,1:3|0:3,0:1:0:0:
256,96,215525,2,0,P|248:144|256:184,1,70,2|0,0:0|1:0,0:0:0:0:
389,171,215969,1,0,0:0:0:0:
250,164,216192,1,0,3:0:0:0:
384,64,216414,1,4,0:0:0:0:
256,264,216636,1,0,3:0:0:0:
112,88,216858,5,0,1:0:0:0:
48,264,217081,2,0,L|72:192,1,70,2|0,0:3|3:0,0:0:0:0:
112,88,217525,1,0,1:0:0:0:
200,168,217747,2,0,L|344:168,1,140,0|4,3:0|0:0,0:0:0:0:
432,224,218414,1,4,0:0:0:0:
432,104,218636,6,0,P|392:80|336:72,1,70,8|2,1:3|0:3,0:0:0:0:
248,104,219081,1,2,0:0:0:0:
336,224,219303,2,0,L|336:368,1,140,0|0,1:0|3:0,0:0:0:0:
176,272,219969,2,0,P|160:248|144:200,1,70,4|0,1:2|3:0,0:0:0:0:
256,104,220414,6,0,L|352:104,1,83.9999974365235,0|2,1:0|0:3,0:0:0:0:
456,104,220858,1,8,0:3:0:0:
352,248,221081,1,0,1:0:0:0:
248,104,221303,1,4,0:0:0:0:
368,272,221525,1,2,0:0:0:0:
176,176,221747,2,0,P|120:184|56:232,1,125.999996154785,4|0,0:0|0:0,0:0:0:0:
63,222,222192,6,0,L|64:312,1,83.9999974365235,8|2,1:3|0:3,0:1:0:0:
176,176,222636,1,2,0:0:0:0:
264,248,222858,2,0,L|352:248,1,83.9999974365235,8|0,1:3|0:0,0:0:0:0:
348,248,223192,1,0,0:0:0:0:
348,248,223303,1,0,3:0:0:0:
248,104,223525,1,4,1:2:0:0:
152,248,223747,1,0,3:0:0:0:
256,328,223969,5,0,1:0:0:0:
256,200,224192,1,2,0:3:0:0:
136,128,224414,2,0,L|48:152,1,83.9999974365235,8|0,0:3|1:0,0:0:0:0:
368,128,224858,2,0,L|448:104,1,83.9999974365235,0|2,3:0|0:0,0:0:0:0:
256,40,225303,1,4,0:0:0:0:
256,200,225525,1,4,0:0:0:0:
144,312,225747,6,0,P|96:328|32:336,1,83.9999974365235,8|2,1:3|0:3,0:0:0:0:
136,168,226192,1,2,0:0:0:0:
272,288,226414,2,0,P|320:264|320:144,1,167.999994873047,8|0,1:3|3:0,0:0:0:0:
240,192,227081,1,4,1:2:0:0:
344,272,227303,1,0,3:0:0:0:
432,168,227525,6,0,P|440:112|424:72,2,83.9999974365235,0|2|8,1:0|0:3|0:3,0:0:0:0:
320,112,228192,1,0,1:0:0:0:
224,176,228414,2,0,L|144:200,1,83.9999974365235,4|2,0:0|0:0,0:0:0:0:
8,120,228858,2,0,L|88:96,1,83.9999974365235,4|0,0:0|0:0,0:0:0:0:
224,176,229303,6,0,P|232:224|216:280,1,83.9999974365235,8|2,1:3|0:3,0:0:0:0:
144,200,229747,1,2,0:0:0:0:
304,136,229969,2,0,P|312:184|304:272,1,125.999996154785,8|0,1:3|0:0,0:0:0:0:
144,200,230414,1,0,3:0:0:0:
320,304,230636,2,0,P|352:312|408:304,1,83.9999974365235,4|0,1:2|3:0,0:0:0:0:
402,306,230969,1,0,0:0:0:0:
402,306,231081,5,0,1:0:0:0:
336,176,231303,1,2,0:3:0:0:
208,136,231525,1,8,0:3:0:0:
240,296,231747,1,0,1:0:0:0:
336,176,231969,1,0,3:0:0:0:
184,144,232192,2,0,L|80:144,2,97.9999970092774,2|4|4,0:0|0:0|0:0,0:0:0:0:
416,144,232858,6,0,P|392:96|344:56,1,97.9999970092774,8|2,1:3|0:3,0:0:0:0:
416,144,233303,1,2,0:0:0:0:
336,272,233525,1,8,1:3:0:0:
224,176,233747,1,0,0:0:0:0:
320,192,233969,1,0,3:0:0:0:
192,312,234192,1,4,1:2:0:0:
320,192,234414,1,4,0:3:0:0:
88,216,234636,6,0,L|32:128,1,97.9999970092774,0|2,1:0|0:3,0:0:0:0:
208,168,235081,2,0,P|248:128|352:112,1,146.999995513916,8|0,0:3|0:0,0:0:0:0:
312,208,235525,2,0,L|368:296,1,97.9999970092774,4|2,0:3|0:0,0:0:0:0:
224,56,235969,1,4,0:0:0:0:
200,256,236192,1,0,0:0:0:0:
200,256,236303,1,0,0:0:0:0:
200,256,236414,6,0,P|152:280|96:288,1,97.9999970092774,8|2,1:3|0:3,0:0:0:0:
216,152,236858,1,2,0:0:0:0:
360,160,237081,2,0,P|368:192|344:264,1,97.9999970092774,8|0,1:3|0:0,0:0:0:0:
216,152,237525,1,8,0:3:0:0:
64,176,237747,2,0,P|56:144|80:72,1,97.9999970092774,4|4,1:2|0:3,0:0:0:0:
160,272,238192,5,0,1:0:0:0:
248,136,238414,1,2,0:3:0:0:
352,264,238636,1,8,0:3:0:0:
192,200,238858,1,0,1:0:0:0:
320,88,239081,1,4,0:3:0:0:
256,264,239303,1,0,0:0:0:0:
136,128,239525,2,0,L|32:160,1,97.9999970092774,4|4,0:0|0:0,0:0:0:0:
199,215,239969,6,0,P|247:223|303:191,1,97.9999970092774,8|2,1:3|0:3,0:0:0:0:
291,204,240303,1,0,0:0:0:0:
291,204,240414,1,2,0:0:0:0:
408,144,240636,2,0,L|464:248,1,97.9999970092774,8|0,1:3|0:0,0:0:0:0:
104,240,241081,2,0,L|48:136,2,97.9999970092774,8|4|4,0:3|1:2|0:3,0:0:0:0:
288,304,241747,5,0,1:0:0:0:
288,304,241969,1,2,0:3:0:0:
368,104,242192,2,0,P|320:96|264:128,1,97.9999970092774,8|0,0:3|1:0,0:0:0:0:
80,200,242636,2,0,L|168:272,1,97.9999970092774,4|2,0:3|0:0,0:0:0:0:
328,208,243081,1,4,0:0:0:0:
216,56,243303,1,0,0:0:0:0:
96,200,243525,6,0,P|80:240|80:304,1,97.9999970092774,8|2,1:3|0:3,0:0:0:0:
78,294,243969,1,2,0:0:0:0:
216,208,244192,2,0,P|224:144|112:64,1,195.999994018555,8|4,1:3|0:3,0:0:0:0:
128,168,244858,1,4,1:2:0:0:
296,72,245081,1,4,0:3:0:0:
336,256,245303,5,0,1:0:0:0:
248,168,245525,1,2,0:3:0:0:
208,288,245747,1,8,0:3:0:0:
376,136,245969,1,0,1:0:0:0:
176,72,246192,1,4,0:3:0:0:
256,176,246414,1,2,0:0:0:0:
408,168,246636,2,0,L|512:168,1,97.9999970092774,4|4,0:0|0:0,0:0:0:0:
280,296,247081,6,0,P|200:304|168:272,1,97.9999970092774,8|2,1:3|0:3,0:0:0:0:
72,192,247525,1,2,0:0:0:0:
72,192,247747,2,0,L|24:104,1,97.9999970092774,8|0,1:3|0:0,0:0:0:0:
192,80,248192,1,8,0:3:0:0:
24,104,248414,1,4,1:2:0:0:
256,136,248636,1,4,0:3:0:0:
112,272,248858,6,0,P|80:320|40:352,1,97.9999970092774,0|2,1:0|0:3,0:0:0:0:
208,256,249303,2,0,P|248:240|352:256,1,146.999995513916,8|0,0:3|0:0,0:0:0:0:
368,256,249747,2,0,P|400:208|400:160,1,97.9999970092774,4|2,0:3|0:0,0:0:0:0:
280,80,250192,1,4,0:0:0:0:
152,192,250414,1,0,0:0:0:0:
152,192,250525,1,0,0:0:0:0:
152,192,250636,6,0,L|200:280,1,97.9999970092774,8|2,1:3|0:3,0:0:0:0:
152,104,251081,2,0,P|104:120|64:176,1,97.9999970092774,2|8,0:0|1:3,0:0:0:0:
224,152,251525,2,0,P|240:104|208:40,1,97.9999970092774,0|8,0:0|0:3,0:0:0:0:
408,152,251969,1,4,1:2:0:0:
312,272,252192,1,4,0:3:0:0:
176,160,252414,6,0,P|136:152|80:176,2,97.9999970092774,0|2|8,1:0|0:3|0:3,0:0:0:0:
272,312,253081,1,0,1:0:0:0:
432,216,253303,2,0,P|448:160|352:64,1,195.999994018555,4|4,0:3|0:0,0:0:0:0:
336,168,253969,1,4,0:0:0:0:
240,216,254192,6,0,L|136:272,1,97.9999970092774,8|2,1:3|0:3,0:0:0:0:
304,320,254636,1,2,0:0:0:0:
144,152,254858,2,0,L|96:56,1,97.9999970092774,8|0,1:3|0:0,0:0:0:0:
368,232,255303,2,0,L|416:328,2,97.9999970092774,8|4|4,0:3|1:2|0:3,0:0:0:0:
256,192,255969,5,0,1:0:0:0:
144,248,256192,1,2,0:3:0:0:
32,304,256414,1,8,0:3:0:0:
120,208,256636,1,0,1:0:0:0:
216,288,256858,2,0,L|304:344,1,105.000004005432,4|2,0:3|0:0,0:0:0:0:
176,128,257303,2,0,P|128:112|64:120,1,105.000004005432,4|0,0:0|0:0,0:0:0:0:
74,116,257636,1,0,0:0:0:0:
74,116,257747,5,8,1:3:0:0:
288,32,257969,1,2,0:3:0:0:
248,200,258192,2,0,L|304:296,1,105.000004005432,2|8,0:0|1:3,0:0:0:0:
392,176,258636,1,0,0:0:0:0:
176,296,258858,2,0,P|136:304|64:296,2,105.000004005432,8|4|4,0:3|1:2|0:3,0:0:0:0:
368,296,259525,5,0,1:0:0:0:
232,80,259747,1,2,0:3:0:0:
72,296,259969,1,8,0:3:0:0:
296,192,260192,2,0,P|336:176|408:160,1,105.000004005432,0|4,1:0|0:3,0:0:0:0:
296,192,260636,1,0,0:0:0:0:
128,96,260858,1,4,0:0:0:0:
176,240,261081,1,4,0:0:0:0:
336,312,261303,6,0,L|464:312,1,105.000004005432,8|2,1:3|0:3,0:0:0:0:
441,312,261636,1,0,0:0:0:0:
441,312,261747,1,2,0:0:0:0:
320,152,261969,1,8,1:3:0:0:
192,296,262192,1,0,0:0:0:0:
376,232,262414,1,8,0:3:0:0:
224,88,262636,1,4,0:0:0:0:
112,264,262858,1,0,0:0:0:0:
112,264,263081,5,4,1:0:0:0:
