osu file format v14

[General]
AudioFilename: audio.mp3
AudioLeadIn: 0
PreviewTime: 96026
Countdown: 0
SampleSet: Soft
StackLeniency: 0.7
Mode: 0
LetterboxInBreaks: 0
WidescreenStoryboard: 1

[Editor]
DistanceSpacing: 1
BeatDivisor: 4
GridSize: 8
TimelineZoom: 1.1

[Metadata]
Title:Beginnings
TitleUnicode:Beginnings
Artist:La Cataline
ArtistUnicode:La Cataline
Creator:Mirash
Version:LC's Insane
Source:
Tags:pandahero lc lacataline instrumental chillout psybient
BeatmapID:1411003
BeatmapSetID:646603

[Difficulty]
HPDrainRate:8
CircleSize:4
OverallDifficulty:8
ApproachRate:9
SliderMultiplier:2.4
SliderTickRate:1

[Events]
//Background and Video events
0,0,"background.jpg",0,0
//Break Periods
2,96226,111298
2,166044,181662
//Storyboard Layer 0 (Background)
//Storyboard Layer 1 (Fail)
//Storyboard Layer 2 (Pass)
//Storyboard Layer 3 (Foreground)
//Storyboard Sound Samples

[TimingPoints]
26,545.454545454546,4,2,1,5,1,0
26207,-100,4,2,1,50,0,0
111844,-133.333333333333,4,2,1,15,0,0
112594,-133.333333333333,4,2,1,25,0,0
112866,-133.333333333333,4,2,1,35,0,0
113139,-133.333333333333,4,2,1,45,0,0
113821,-133.333333333333,4,2,1,25,0,0
113957,-133.333333333333,4,2,1,45,0,0
114639,-133.333333333333,4,2,1,25,0,0
114776,-133.333333333333,4,2,1,45,0,0
116003,-133.333333333333,4,2,1,25,0,0
116139,-133.333333333333,4,2,1,45,0,0
116821,-133.333333333333,4,2,1,25,0,0
116957,-133.333333333333,4,2,1,45,0,0
118185,-133.333333333333,4,2,1,25,0,0
118321,-133.333333333333,4,2,1,45,0,0
119003,-133.333333333333,4,2,1,25,0,0
119139,-133.333333333333,4,2,1,45,0,0
120366,-133.333333333333,4,2,1,25,0,0
120503,-133.333333333333,4,2,1,45,0,0
121185,-133.333333333333,4,2,1,25,0,0
121321,-133.333333333333,4,2,1,45,0,0
121526,-133.333333333333,4,2,1,30,0,0
121798,-133.333333333333,4,2,1,40,0,0
122071,-133.333333333333,4,2,1,45,0,0
122548,-133.333333333333,4,2,1,25,0,0
122685,-133.333333333333,4,2,1,45,0,0
123366,-133.333333333333,4,2,1,25,0,0
123503,-133.333333333333,4,2,1,45,0,0
124730,-133.333333333333,4,2,1,25,0,0
124866,-133.333333333333,4,2,1,45,0,0
125548,-133.333333333333,4,2,1,25,0,0
125685,-133.333333333333,4,2,1,45,0,0
125889,-133.333333333333,4,2,1,30,0,0
126162,-133.333333333333,4,2,1,40,0,0
126435,-133.333333333333,4,2,1,45,0,0
126912,-133.333333333333,4,2,1,35,0,0
127048,-133.333333333333,4,2,1,45,0,0
127730,-133.333333333333,4,2,1,35,0,0
127866,-133.333333333333,4,2,1,45,0,0
129094,-133.333333333333,4,2,1,35,0,0
129230,-133.333333333333,4,2,1,45,0,0
129912,-133.333333333333,4,2,1,35,0,0
130048,-133.333333333333,4,2,1,45,0,0
130935,-100,4,2,1,55,0,0
132980,-100,4,2,1,35,0,0
133389,-100,4,2,1,55,0,0
133866,-100,4,2,1,45,0,0
134207,-100,4,2,1,55,0,0
137344,-100,4,2,1,35,0,0
137753,-100,4,2,1,55,0,0
138230,-100,4,2,1,45,0,0
138571,-100,4,2,1,55,0,0
139048,-100,4,2,1,30,0,0
139253,-100,4,2,1,55,0,0
139321,-100,4,2,1,40,0,0
139526,-100,4,2,1,55,0,0
141707,-100,4,2,1,40,0,0
142116,-100,4,2,1,55,0,0
142594,-100,4,2,1,50,0,0
142935,-100,4,2,1,55,0,0
143412,-100,4,2,1,30,0,0
143616,-100,4,2,1,55,0,0
143685,-100,4,2,1,40,0,0
143957,-100,4,2,1,55,0,0
182616,-100,4,2,1,25,0,0
183298,-200,4,2,1,25,0,0
186707,-200,4,2,1,5,0,0
186980,-200,4,2,1,10,0,0
187253,-200,4,2,1,15,0,0
187526,-200,4,2,1,25,0,0
199798,-133.333333333333,4,2,1,25,0,0
200071,-133.333333333333,4,2,1,35,0,0
200344,-133.333333333333,4,2,1,45,0,0
200753,-133.333333333333,4,2,1,45,0,0
235662,-100,4,2,1,45,0,0
270571,-100,4,2,1,45,0,0
271048,-100,4,2,0,25,0,0
271185,-100,4,2,1,45,0,0
271662,-100,4,2,0,20,0,0
271730,-100,4,2,1,45,0,0
271866,-100,4,2,1,30,0,0
272003,-100,4,2,1,45,0,0
273230,-100,4,2,0,25,0,0
273366,-100,4,2,1,45,0,0
273844,-100,4,2,0,20,0,0
273912,-100,4,2,1,45,0,0
274048,-100,4,2,1,30,0,0
274185,-100,4,2,1,35,0,0
274526,-100,4,2,1,45,0,0
275412,-100,4,2,0,25,0,0
275548,-100,4,2,1,45,0,0
276026,-100,4,2,0,20,0,0
276094,-100,4,2,1,45,0,0
276230,-100,4,2,1,30,0,0
276366,-100,4,2,1,45,0,0
277594,-100,4,2,0,25,0,0
277730,-100,4,2,1,45,0,0
278207,-100,4,2,0,20,0,0
278276,-100,4,2,1,45,0,0
278412,-100,4,2,1,30,0,0
278548,-100,4,2,1,45,0,0
279776,-100,4,2,0,25,0,0
279912,-100,4,2,1,45,0,0
280389,-100,4,2,0,20,0,0
280457,-100,4,2,1,45,0,0
280594,-100,4,2,1,30,0,0
280730,-100,4,2,1,45,0,0
281957,-100,4,2,0,25,0,0
282094,-100,4,2,1,45,0,0
282571,-100,4,2,0,20,0,0
282639,-100,4,2,1,45,0,0
282776,-100,4,2,1,40,0,0
282980,-100,4,2,1,30,0,0
283253,-100,4,2,1,40,0,0
283526,-100,4,2,1,45,0,0
284139,-100,4,2,0,25,0,0
284276,-100,4,2,1,45,0,0
284753,-100,4,2,0,25,0,0
284821,-100,4,2,1,45,0,0
284957,-100,4,2,1,30,0,0
285094,-100,4,2,1,45,0,0
286321,-100,4,2,0,25,0,0
286457,-100,4,2,1,45,0,0
286935,-100,4,2,0,20,0,0
287003,-100,4,2,1,45,0,0
287139,-100,4,2,1,45,0,0
287344,-100,4,2,1,25,0,0
287616,-100,4,2,1,35,0,0
287957,-100,4,2,1,45,0,0
288503,-100,4,2,0,25,0,0
288639,-100,4,2,1,45,0,0
289116,-100,4,2,0,20,0,0
289185,-100,4,2,1,45,0,0
289526,-100,4,2,1,25,0,0
289594,-100,4,2,1,45,0,0
290548,-100,4,2,1,35,0,0
290685,-100,4,2,0,25,0,0
290821,-100,4,2,1,45,0,0
290957,-100,4,2,1,45,0,0
291298,-100,4,2,0,25,0,0
291366,-100,4,2,1,45,0,0
291503,-100,4,2,1,30,0,0
291707,-100,4,2,1,35,0,0
291980,-100,4,2,1,40,0,0
292253,-100,4,2,1,45,0,0
292730,-100,4,2,1,25,0,0
292866,-100,4,2,0,25,0,0
293003,-100,4,2,1,45,0,0
293480,-100,4,2,0,25,0,0
293548,-100,4,2,1,25,0,0
293685,-100,4,2,1,35,0,0
293821,-100,4,2,1,45,0,0
293889,-100,4,2,1,35,0,0
294162,-100,4,2,1,45,0,0
294912,-100,4,2,1,25,0,0
295048,-100,4,2,0,25,0,0
295185,-100,4,2,1,45,0,0
297230,-100,4,2,0,25,0,0
297435,-100,4,2,1,25,0,0
297503,-100,4,2,1,35,0,0
297844,-100,4,2,0,25,0,0
297912,-100,4,2,1,45,0,0
299412,-100,4,2,0,25,0,0
299616,-100,4,2,1,25,0,0
299685,-100,4,2,1,35,0,0
300026,-100,4,2,0,25,0,0
300094,-100,4,2,1,45,0,0
301594,-100,4,2,0,25,0,0
301798,-100,4,2,1,25,0,0
301866,-100,4,2,1,35,0,0
302207,-100,4,2,0,25,0,0
302276,-100,4,2,1,45,0,0
303776,-100,4,2,0,25,0,0
303980,-100,4,2,1,25,0,0
304048,-100,4,2,1,35,0,0
304389,-100,4,2,0,25,0,0
304457,-100,4,2,1,45,0,0

[Colours]
Combo1 : 173,48,48
Combo2 : 168,160,190
Combo3 : 191,193,149

[HitObjects]
76,80,26207,6,0,B|64:152|64:152|88:183|156:204,1,180,4|8,1:0|0:3,0:0:0:0:
276,240,26753,1,4,3:0:0:0:
280,240,27026,2,0,L|416:232,1,120,8|0,1:0|3:0,0:0:0:0:
216,80,27571,1,4,3:0:0:0:
160,280,27844,2,0,P|165:316|172:340,1,60,8|0,1:0|0:0,0:0:0:0:
278,223,28116,2,0,P|274:193|268:164,1,60,0|0,3:0|0:0,0:0:0:0:
413,172,28389,6,0,P|428:232|436:292,1,120,4|0,3:0|3:0,1:0:0:0:
123,154,28935,1,4,3:0:0:0:
123,154,29207,2,0,P|180:128|240:128,1,120,8|0,1:0|3:0,1:0:0:0:
316,168,29616,1,0,0:0:0:0:
272,256,29753,1,4,3:0:0:0:
432,256,30026,2,0,P|401:251|352:240,1,60,8|0,1:0|0:0,0:0:0:0:
296,96,30298,2,0,P|300:125|304:155,1,60,0|0,3:0|3:0,0:0:0:0:
272,256,30571,6,2,P|208:252|148:244,1,120,4|2,1:3|0:0,0:0:0:0:
408,172,31116,1,4,3:0:0:0:
424,340,31389,2,2,P|360:337|299:331,1,120,8|2,1:0|0:0,0:0:0:0:
216,288,31798,1,0,0:0:0:0:
120,312,31935,1,4,3:0:0:0:
236,40,32207,2,0,L|243:99,1,60,8|0,1:0|0:0,0:0:0:0:
84,144,32480,2,0,L|94:85,1,60,0|0,3:0|0:0,0:0:0:0:
184,208,32753,6,2,P|165:264|150:322,1,120,4|2,3:0|0:0,0:0:0:0:
296,40,33298,1,4,3:0:0:0:
88,56,33571,2,2,P|96:112|100:175,1,120,8|2,1:0|0:0,0:0:0:0:
88,260,33980,1,0,0:0:0:0:
44,332,34116,1,4,3:0:0:0:
408,64,34389,2,0,P|404:96|400:128,1,60,8|0,1:0|0:0,0:0:0:0:
376,216,34662,1,8,1:3:0:0:
400,304,34798,1,0,1:0:0:0:
400,304,34935,6,0,P|310:313|220:314,1,180,4|8,1:3|0:3,0:0:0:0:
312,184,35480,2,0,P|344:184|384:176,1,60,4|0,3:0|0:0,0:0:0:0:
112,144,35753,2,0,P|88:204|104:272,1,120,8|0,1:0|3:0,0:0:0:0:
328,192,36298,1,4,3:0:0:0:
328,192,36571,2,0,P|332:164|328:132,1,60,8|0,1:0|0:0,0:0:0:0:
208,200,36844,2,0,P|204:236|212:264,1,60,0|0,3:0|0:0,0:0:0:0:
416,328,37116,6,0,P|432:272|424:208,1,120,4|0,1:3|3:0,1:0:0:0:
103,215,37662,2,0,P|100:185|104:155,1,60,4|0,3:0|0:0,0:0:0:0:
104,156,37935,2,0,L|240:136,1,120,8|0,1:0|3:0,1:0:0:0:
120,344,38480,1,4,3:0:0:0:
364,164,38753,2,0,L|424:152,1,60,8|0,1:0|0:0,0:0:0:0:
120,344,39026,2,0,P|116:314|112:285,1,60,0|0,1:0|3:0,0:0:0:0:
381,282,39298,6,2,P|374:232|362:156,1,120,4|2,1:3|0:0,0:0:0:0:
228,340,39844,1,4,3:0:0:0:
148,256,40116,2,2,L|132:132,1,120,8|2,1:0|0:0,0:0:0:0:
120,40,40526,1,0,0:0:0:0:
264,160,40662,1,4,3:0:0:0:
264,160,40935,2,0,L|280:100,1,60,8|0,1:0|0:0,0:0:0:0:
264,272,41207,2,0,L|328:288,1,60,0|0,3:0|0:0,0:0:0:0:
88,120,41480,6,2,B|52:164|64:240,1,120,4|2,1:3|0:0,0:0:0:0:
408,204,42026,1,4,3:0:0:0:
408,204,42298,2,2,P|329:200|289:194,1,120,8|2,1:0|0:0,0:0:0:0:
244,120,42707,1,0,0:0:0:0:
56,253,42844,1,4,3:0:0:0:
56,253,43116,2,0,P|100:249|128:233,1,60,8|0,1:0|0:0,0:0:0:0:
180,192,43389,1,8,1:3:0:0:
140,116,43526,1,0,1:0:0:0:
68,168,43662,6,0,B|12:247|52:351,1,180,4|8,1:3|0:3,0:0:0:0:
248,336,44207,1,4,0:3:0:0:
248,336,44480,2,0,L|376:332,1,120,8|0,1:0|3:0,0:0:0:0:
56,112,45026,1,4,0:3:0:0:
160,256,45298,2,0,P|160:300|156:320,1,60,8|0,1:0|0:0,0:0:0:0:
56,112,45571,2,0,P|70:138|91:160,1,60
312,152,45844,6,0,B|252:128|188:144,1,120,4|0,1:3|3:0,0:0:0:0:
408,120,46389,1,4,0:3:0:0:
328,340,46662,2,0,P|360:289|382:234,1,120,8|0,1:0|3:0,0:0:0:0:
288,176,47071,1,0,0:0:0:0:
232,280,47207,1,4,3:0:0:0:
232,280,47480,2,0,P|237:310|257:349,1,60,8|0,1:0|3:0,0:0:0:0:
128,304,47753,2,0,L|68:304,1,60,4|0,3:0|0:0,0:0:0:0:
248,336,48026,6,2,L|384:324,1,120,4|2,0:3|0:0,0:0:0:0:
104,208,48571,2,0,L|40:212,1,60,4|0,0:3|0:0,0:0:0:0:
160,128,48844,2,2,L|292:112,1,120,8|2,1:0|0:0,0:0:0:0:
364,84,49253,1,0,0:0:0:0:
384,176,49389,1,4,3:0:0:0:
101,159,49662,2,0,L|40:169,1,60,8|0,1:0|0:0,0:0:0:0:
136,48,49935,2,0,L|200:40,1,60,4|0,3:0|3:0,0:0:0:0:
325,210,50207,6,2,P|314:152|307:92,1,120,4|2,0:3|0:0,0:0:0:0:
448,280,50753,2,0,P|416:280|376:272,1,60,4|0,3:0|0:0,0:0:0:0:
176,304,51026,2,2,P|240:300|296:302,1,120,8|2,0:1|0:0,0:0:0:0:
292,200,51435,1,0,0:0:0:0:
288,112,51571,2,0,P|287:82|277:53,1,60,4|0,0:3|0:0,0:0:0:0:
64,136,51844,2,0,L|128:128,1,60,8|0,1:0|0:0,0:0:0:0:
184,200,52116,1,8,1:3:0:0:
248,264,52253,1,0,1:0:0:0:
248,264,52389,6,0,B|280:296|280:296|432:288,1,180,4|8,1:3|0:3,0:0:0:0:
300,96,52935,2,0,L|380:92,1,60,4|0,0:3|0:0,0:0:0:0:
180,188,53207,2,2,L|60:200,1,120,8|2,1:0|0:0,0:0:0:0:
320,204,53753,2,0,L|379:200,1,60,4|0,0:3|0:0,0:0:0:0:
208,328,54026,2,0,P|212:300|232:264,1,60,8|0,1:0|0:0,0:0:0:0:
264,80,54298,2,0,P|272:112|268:144,1,60,2|0,0:0|3:0,0:0:0:0:
96,336,54571,6,2,P|96:268|80:212,1,120,4|0,0:3|3:0,0:0:0:0:
264,200,55116,2,0,P|236:204|204:201,1,60,4|0,0:3|0:0,0:0:0:0:
44,88,55389,2,2,P|98:97|168:80,1,120,8|0,1:0|3:0,0:0:0:0:
244,28,55798,1,0,0:0:0:0:
264,128,55935,2,0,L|259:188,1,60,4|0,0:3|0:0,0:0:0:0:
224,332,56207,2,0,L|284:320,1,60,8|0,1:0|0:0,0:0:0:0:
48,200,56480,2,0,P|53:230|57:260,1,60,0|0,1:0|3:0,0:0:0:0:
56,259,56753,6,2,P|115:252|174:243,1,120,4|2,0:3|0:0,0:0:0:0:
424,296,57298,2,0,L|352:288,1,60,4|0,0:3|0:0,0:0:0:0:
328,176,57571,2,2,L|456:152,1,120,8|2,1:0|0:0,0:0:0:0:
480,232,57980,1,0,0:0:0:0:
280,336,58116,6,0,P|274:306|275:277,1,60,4|0,0:3|0:0,0:0:0:0:
328,112,58389,2,0,P|332:143|331:172,1,60,8|0,1:0|0:0,0:0:0:0:
168,128,58662,2,0,P|198:132|232:144,1,60,2|0,0:0|3:0,0:0:0:0:
208,232,58935,6,2,P|148:232|84:204,1,120,4|2,0:3|0:0,0:0:0:0:
36,132,59344,1,0,3:0:0:0:
112,72,59480,2,0,P|135:53|163:42,1,60,4|0,0:3|0:0,0:0:0:0:
280,176,59753,2,2,P|224:155|165:150,1,120,8|2,1:0|0:0,0:0:0:0:
92,210,60162,1,0,3:0:0:0:
40,284,60298,2,0,P|42:314|51:343,1,60,4|0,0:3|0:0,0:0:0:0:
184,304,60571,2,0,P|182:274|174:246,1,60,8|0,1:0|0:0,0:0:0:0:
328,240,60844,2,0,P|330:270|338:299,1,60,0|0,1:0|3:0,0:0:0:0:
460,192,61116,6,0,B|464:129|452:64,1,120,4|8,1:0|0:3,0:0:0:0:
356,40,61526,1,0,3:0:0:0:
280,104,61662,2,0,L|208:116,1,60,4|0,3:0|0:0,0:0:0:0:
328,272,61935,2,0,L|460:296,1,120,8|2,1:0|0:0,0:0:0:0:
132,200,62480,2,0,P|96:195|56:188,1,60,4|0,0:3|0:0,0:0:0:0:
160,52,62753,2,0,P|192:44|220:40,1,60,8|0,1:0|0:0,0:0:0:0:
232,272,63026,2,0,P|236:306|240:360,1,60
86,310,63298,6,0,B|70:170,1,120,4|8,1:3|0:3,0:0:0:0:
96,64,63707,1,0,3:0:0:0:
214,159,63844,2,0,B|217:202|215:219,1,60,4|0,3:0|0:0,0:0:0:0:
216,344,64116,2,0,L|336:336,1,120,8|2,1:0|0:0,0:0:0:0:
215,219,64662,2,0,L|287:211,1,60,4|0,0:3|0:0,0:0:0:0:
120,112,64935,2,0,P|88:108|40:96,1,60,8|0,1:0|0:0,0:0:0:0:
296,32,65207,2,0,P|292:80|292:104,1,60,0|0,1:0|3:0,0:0:0:0:
333,285,65480,6,0,P|393:278|457:270,1,120,4|2,1:3|0:0,1:0:0:0:
472,160,65889,1,0,3:0:0:0:
376,192,66026,2,0,L|304:192,1,60,4|0,0:3|0:0,0:0:0:0:
120,192,66298,2,0,P|128:251|137:310,1,120,8|2,1:0|0:0,1:0:0:0:
104,64,66844,2,0,L|180:52,1,60,4|0,0:3|0:0,0:0:0:0:
344,308,67116,2,0,L|283:318,1,60,8|0,1:0|0:0,0:0:0:0:
336,116,67389,2,0,P|341:89|348:52,1,60,0|0,0:0|3:0,0:0:0:0:
136,136,67662,6,0,P|121:204|112:280,1,120,4|2,1:3|0:0,1:0:0:0:
256,136,68071,1,0,3:0:0:0:
232,264,68207,2,0,P|223:296|221:322,1,60,4|0,3:0|0:0,0:0:0:0:
256,112,68480,2,0,P|208:96|132:116,1,120,8|2,1:0|0:0,1:0:0:0:
404,72,69026,2,0,P|408:100|404:144,1,60,4|0,0:3|0:0,0:0:0:0:
204,200,69298,2,0,L|144:207,1,60,8|0,1:0|0:0,0:0:0:0:
320,316,69571,2,0,L|390:312,1,60,0|0,1:0|0:0,0:0:0:0:
344,96,69844,6,0,P|274:97|207:104,1,120,4|8,1:3|0:3,0:0:0:0:
144,64,70253,1,0,3:0:0:0:
96,136,70389,2,0,P|88:168|95:196,1,60,4|0,0:3|0:0,0:0:0:0:
288,184,70662,2,0,P|352:184|407:176,1,120,8|2,1:0|0:0,0:0:0:0:
232,336,71207,2,0,L|172:332,1,60,4|0,0:3|0:0,0:0:0:0:
64,196,71480,2,0,L|64:256,1,60,8|0,1:0|0:0,0:0:0:0:
168,104,71753,2,0,L|164:44,1,60,2|0,0:0|3:0,0:0:0:0:
416,48,72026,6,0,P|417:112|409:168,1,120,4|8,1:3|0:3,0:0:0:0:
368,240,72435,1,0,3:0:0:0:
288,140,72571,2,0,P|260:136|228:141,1,60,4|0,0:3|0:0,0:0:0:0:
368,240,72844,2,0,P|432:248|476:218,1,120,8|2,1:0|0:0,0:0:0:0:
228,236,73389,2,0,L|219:296,1,60,4|0,0:3|0:0,0:0:0:0:
96,160,73662,2,0,L|156:148,1,60,8|0,1:0|0:0,0:0:0:0:
88,320,73935,2,0,L|64:264,1,60,0|0,1:0|3:0,0:0:0:0:
316,212,74207,6,0,P|312:276|300:352,1,120,4|2,1:0|0:0,1:0:0:0:
148,248,74616,1,0,3:0:0:0:
212,128,74753,2,0,P|255:126|284:120,1,60,4|0,0:3|0:0,0:0:0:0:
84,68,75026,2,0,P|68:120|96:188,1,120,8|2,1:0|0:0,1:0:0:0:
400,180,75571,2,0,L|464:236,1,60,4|0,0:3|0:0,0:0:0:0:
360,56,75844,2,0,L|300:44,1,60,8|0,1:0|0:0,0:0:0:0:
244,224,76116,2,0,L|308:240,1,60,2|0,0:0|3:0,0:0:0:0:
116,180,76389,6,0,P|92:232|104:296,1,120,4|2,1:3|0:0,1:0:0:0:
208,136,76798,1,0,3:0:0:0:
304,156,76935,2,0,P|333:155|363:151,1,60,4|0,0:3|0:0,0:0:0:0:
456,275,77207,2,0,P|397:282|340:300,1,120,8|2,1:0|0:0,1:0:0:0:
200,292,77616,1,0,0:0:0:0:
68,188,77753,2,0,P|104:192|136:188,1,60,4|0,0:3|0:0,0:0:0:0:
280,216,78026,2,0,P|249:215|220:204,1,60,8|0,1:0|0:0,0:0:0:0:
200,36,78298,2,0,P|188:62|184:92,1,60,2|0,0:0|3:0,0:0:0:0:
104,308,78571,6,0,B|120:252|128:188,1,120,4|8,1:3|0:3,0:0:0:0:
96,96,78980,1,0,3:0:0:0:
184,120,79116,2,0,P|216:124|252:120,1,60,4|0,0:3|0:0,0:0:0:0:
440,44,79389,2,0,P|380:36|323:52,1,120,8|0,1:0|3:0,0:0:0:0:
348,232,79935,2,0,L|406:243,1,60,4|0,0:3|0:0,0:0:0:0:
260,316,80207,2,0,L|200:316,1,60,8|0,1:0|0:0,0:0:0:0:
212,128,80480,2,0,L|272:128,1,60
432,216,80753,6,0,B|464:168|440:96,1,120,4|8,1:3|0:3,0:0:0:0:
348,136,81162,1,0,3:0:0:0:
267,67,81298,2,0,P|251:91|243:123,1,60,4|0,0:3|0:0,0:0:0:0:
228,328,81571,2,0,P|272:288|287:231,1,120,8|0,1:0|3:0,0:0:0:0:
232,140,81980,1,0,3:0:0:0:
120,152,82116,2,0,L|40:136,1,60,4|0,0:3|0:0,0:0:0:0:
40,280,82389,2,0,L|112:280,1,60,8|0,1:0|0:0,0:0:0:0:
268,340,82662,2,0,P|256:316|232:295,1,60,8|0,1:0|0:0,0:0:0:0:
260,120,82935,6,0,P|320:104|383:125,1,120,4|2,0:3|0:0,1:0:0:0:
448,192,83344,1,0,0:3:0:0:
344,268,83480,2,0,P|332:244|340:192,1,60,4|0,0:3|0:0,0:0:0:0:
132,212,83753,2,0,P|160:268|148:336,1,120,8|2,1:0|0:0,1:0:0:0:
86,59,84298,2,0,L|62:115,1,60,4|0,0:3|0:0,0:0:0:0:
240,304,84571,2,0,P|272:304|298:289,1,60,8|0,1:0|0:0,0:0:0:0:
312,88,84844,2,0,P|307:116|316:148,1,60,0|0,3:0|3:0,0:0:0:0:
315,146,85116,6,0,P|376:168|416:208,1,120,4|2,1:3|0:0,1:0:0:0:
456,296,85526,1,0,0:3:0:0:
363,342,85662,2,0,L|304:340,1,60,4|0,0:3|0:0,0:0:0:0:
60,252,85935,2,0,L|192:256,1,120,8|2,1:0|0:0,1:0:0:0:
272,188,86344,1,0,3:0:0:0:
364,112,86480,2,0,P|360:80|353:53,1,60,4|0,0:3|0:0,0:0:0:0:
132,96,86753,2,0,P|132:132|136:176,1,60,8|0,1:0|0:0,0:0:0:0:
304,300,87026,2,0,P|276:312|224:320,1,60,0|0,1:0|0:0,0:0:0:0:
36,284,87298,6,0,P|100:268|168:268,1,120,4|8,1:3|0:3,0:0:0:0:
240,212,87707,1,0,3:0:0:0:
328,156,87844,2,0,P|329:126|328:96,1,60,4|0,0:3|0:0,0:0:0:0:
456,280,88116,2,0,P|392:264|324:288,1,120,8|2,1:0|0:0,0:0:0:0:
312,80,88662,2,0,L|252:76,1,60,4|0,0:3|0:0,0:0:0:0:
256,328,88935,2,0,L|315:324,1,60,8|0,1:0|0:0,0:0:0:0:
127,137,89207,2,0,P|126:167|131:196,1,60,2|0,0:0|3:0,0:0:0:0:
131,196,89480,6,0,P|192:200|256:176,1,120,4|8,1:3|0:3,0:0:0:0:
272,72,89889,1,0,3:0:0:0:
247,181,90026,2,0,P|255:209|275:232,1,60,4|0,0:3|0:0,0:0:0:0:
464,168,90298,2,0,P|417:132|359:134,1,120,8|2,1:0|0:0,0:0:0:0:
196,332,90844,2,0,L|260:324,1,60,4|0,0:3|0:0,0:0:0:0:
72,240,91116,2,0,L|156:228,1,60,8|0,1:0|0:0,0:0:0:0:
131,103,91389,2,0,L|200:96,1,60,8|0,1:0|0:0,0:0:0:0:
240,208,91662,6,0,P|300:212|359:192,1,120,12|2,1:0|0:0,1:0:0:0:
420,120,92071,1,0,0:0:0:0:
448,220,92207,2,0,P|456:256|456:292,1,60,4|0,1:3|0:0,0:0:0:0:
140,296,92480,2,2,P|133:237|136:176,1,120,8|4,1:0|0:0,0:0:0:0:
135,176,93026,2,0,L|211:164,1,60,4|0,0:3|0:0,0:0:0:0:
318,36,93298,2,0,L|260:48,1,60,8|0,1:0|0:0,0:0:0:0:
395,209,93571,2,0,L|323:217,1,60,2|0,0:0|3:0,0:0:0:0:
52,288,93844,6,0,P|31:233|56:180,1,120,4|4,1:0|0:0,1:0:0:0:
216,216,94253,1,8,0:3:0:0:
336,216,94389,2,0,P|339:186|330:157,1,60
104,224,94662,2,2,P|100:283|128:336,1,120,4|4,1:0|0:0,0:0:0:0:
260,312,95071,1,0,0:0:0:0:
372,292,95207,2,0,L|448:280,1,60,4|0,0:3|0:0,0:0:0:0:
56,168,95480,5,4,0:2:0:0:
408,128,95753,1,4,0:2:0:0:
236,208,96026,5,4,1:0:0:0:
264,76,112389,5,8,0:1:0:0:
244,160,112526,1,8,1:0:0:0:
268,240,112662,2,0,L|276:288,1,45.0000017166138,0|0,1:0|0:0,0:0:0:0:
184,296,112935,2,0,L|156:352,1,45.0000017166138,0|0,1:0|0:0,0:0:0:0:
156,200,113207,2,0,L|108:192,1,45.0000017166138,0|0,1:0|0:0,0:0:0:0:
244,160,113480,6,0,P|288:148|340:156,1,90.0000034332277,0|0,1:0|3:0,0:0:0:0:
400,236,113889,1,0,1:0:0:0:
400,236,114026,2,0,P|376:241|340:236,1,45.0000017166138,0|0,1:0|0:0,0:0:0:0:
224,312,114298,2,0,P|268:316|320:296,1,90.0000034332277,0|0,1:0|3:0,0:0:0:0:
220,216,114707,1,0,1:0:0:0:
132,240,114844,2,0,P|128:260|132:288,1,45.0000017166138,0|0,1:0|0:0,0:0:0:0:
304,188,115116,2,0,P|312:156|304:96,1,90.0000034332277,0|0,1:0|3:0,0:0:0:0:
112,176,115662,6,0,P|148:164|204:176,1,90.0000034332277,0|0,1:0|3:0,0:0:0:0:
240,252,116071,1,0,1:0:0:0:
152,304,116207,2,0,P|144:280|144:256,1,45.0000017166138,0|0,1:0|0:0,0:0:0:0:
160,128,116480,2,0,P|204:124|248:148,1,90.0000034332277,0|0,1:0|3:0,0:0:0:0:
184,204,116889,1,0,1:0:0:0:
388,268,117026,1,0,1:0:0:0:
72,228,117298,1,0,1:0:0:0:
384,172,117571,1,0,1:0:0:0:
68,260,117844,6,0,L|52:352,1,90.0000034332277,0|0,1:0|3:0,0:0:0:0:
140,144,118253,1,0,1:0:0:0:
168,224,118389,2,0,L|184:268,1,45.0000017166138,0|0,1:0|0:0,0:0:0:0:
220,344,118662,2,0,P|252:332|312:328,1,90.0000034332277,0|0,1:0|3:0,0:0:0:0:
372,268,119071,1,0,1:0:0:0:
456,288,119207,2,0,P|460:312|456:336,1,45.0000017166138,0|0,1:0|0:0,0:0:0:0:
324,192,119480,2,0,P|320:148|332:104,1,90.0000034332277,0|0,1:0|3:0,0:0:0:0:
212,328,120026,6,0,P|207:280|216:240,1,90.0000034332277,0|0,1:0|3:0,0:0:0:0:
320,232,120435,1,0,1:0:0:0:
320,320,120571,2,0,P|348:324|368:312,1,45.0000017166138,0|0,1:0|0:0,0:0:0:0:
412,196,120844,2,0,P|368:196|328:220,1,90.0000034332277,0|0,1:0|3:0,0:0:0:0:
472,268,121253,1,0,1:0:0:0:
440,348,121389,1,0,1:0:0:0:
48,260,121662,1,4,1:2:0:0:
440,348,121935,1,4,1:2:0:0:
48,260,122207,6,0,P|42:299|52:352,1,90.0000034332277,4|0,1:2|3:0,0:0:0:0:
144,292,122616,1,0,1:0:0:0:
120,192,122753,2,0,P|144:188|160:176,1,45.0000017166138,0|0,1:0|0:0,0:0:0:0:
280,108,123026,2,0,P|244:96|188:104,1,90.0000034332277,0|0,1:0|3:0,0:0:0:0:
116,108,123435,1,0,1:0:0:0:
304,196,123571,2,0,P|308:216|304:244,1,45.0000017166138,0|0,1:0|0:0,0:0:0:0:
220,336,123844,2,0,P|208:304|216:248,1,90.0000034332277,0|0,1:0|3:0,0:0:0:0:
360,336,124389,6,0,L|456:348,1,90.0000034332277,0|0,1:0|3:0,0:0:0:0:
468,272,124798,1,0,1:0:0:0:
384,236,124935,2,0,L|332:228,1,45.0000017166138,0|0,1:0|0:0,0:0:0:0:
184,160,125207,2,0,B|276:172,1,90.0000034332277,0|0,1:0|3:0,0:0:0:0:
360,152,125616,1,0,1:0:0:0:
432,112,125753,1,0,1:0:0:0:
72,100,126026,1,4,1:2:0:0:
432,112,126298,1,4,1:2:0:0:
84,188,126571,6,0,P|87:225|80:284,1,90.0000034332277,4|0,1:0|3:0,0:0:0:0:
176,224,126980,1,0,1:0:0:0:
152,120,127116,2,0,P|184:132|200:136,1,45.0000017166138,0|0,1:0|0:0,0:0:0:0:
192,236,127389,2,0,P|227:246|280:256,1,90.0000034332277,0|0,1:0|3:0,0:0:0:0:
308,172,127798,1,0,1:0:0:0:
400,176,127935,2,0,P|404:200|400:224,1,45.0000017166138,0|0,1:0|0:0,0:0:0:0:
368,332,128207,2,0,L|276:336,1,90.0000034332277,0|2,1:0|0:0,0:0:0:0:
228,80,128753,6,0,P|268:72|324:76,1,90.0000034332277,4|0,1:0|3:0,0:0:0:0:
372,128,129162,1,0,1:0:0:0:
344,248,129298,2,0,P|316:252|296:240,1,45.0000017166138,0|0,1:0|0:0,0:0:0:0:
200,124,129571,2,0,P|244:128|288:156,1,90.0000034332277,4|0,1:0|3:0,0:0:0:0:
316,224,129980,1,0,1:0:0:0:
300,336,130116,1,0,1:0:0:0:
392,176,130389,1,8,1:0:0:0:
64,252,130662,1,8,1:0:0:0:
392,176,130935,6,0,P|420:216|416:288,1,120,4|2,1:0|0:0,0:0:0:0:
300,336,131344,1,0,3:0:0:0:
216,296,131480,2,0,P|200:272|196:228,1,60,4|0,0:3|0:0,0:0:0:0:
328,103,131753,2,0,P|360:144|344:228,1,120,8|2,1:0|0:0,0:0:0:0:
248,160,132162,1,0,0:0:0:0:
160,116,132298,2,0,P|169:80|184:60,1,60,4|0,0:3|0:0,0:0:0:0:
324,240,132571,2,0,P|264:256|208:248,1,120,8|0,1:0|0:0,0:0:0:0:
64,104,133116,6,0,P|128:92|180:112,1,120,4|0,1:2|0:0,0:0:0:0:
216,224,133526,1,0,3:0:0:0:
112,293,133662,2,0,P|88:286|60:264,1,60,4|0,0:3|0:0,0:0:0:0:
216,224,133935,2,0,P|248:264|248:344,1,120,4|0,1:2|0:0,0:0:0:0:
120,200,134344,1,0,3:0:0:0:
184,128,134480,2,0,L|248:124,1,60,4|0,0:3|0:0,0:0:0:0:
344,168,134753,2,0,L|341:229,1,60,8|0,1:0|0:0,0:0:0:0:
460,208,135026,2,0,L|472:144,1,60,4|0,0:3|0:0,0:0:0:0:
92,104,135298,6,0,P|81:177|84:227,1,120,4|2,1:3|0:0,0:0:0:0:
208,255,135707,1,0,0:0:0:0:
132,331,135844,1,4,0:3:0:0:
84,267,135980,1,0,0:0:0:0:
168,184,136116,2,0,P|224:176|280:212,1,120,8|2,1:0|0:0,0:0:0:0:
336,348,136526,1,0,0:0:0:0:
196,327,136662,2,0,P|168:335|136:331,1,60,4|0,0:3|0:0,0:0:0:0:
40,223,136935,2,0,P|96:196|156:208,1,120,8|0,1:0|0:0,0:0:0:0:
300,48,137480,6,0,P|288:96|280:172,1,120,4|0,0:2|0:0,0:0:0:0:
264,252,137889,1,0,3:0:0:0:
372,164,138026,2,0,P|398:175|436:188,1,60,4|0,0:3|0:0,0:0:0:0:
360,256,138298,2,0,P|344:304|328:376,1,120,4|0,0:0|0:0,0:0:0:0:
452,276,138707,1,0,3:0:0:0:
264,252,138844,2,0,L|200:264,1,60,4|0,0:3|0:0,0:0:0:0:
272,80,139116,2,0,L|274:145,1,60,4|0,0:0|0:0,0:0:0:0:
104,88,139389,2,0,L|168:84,1,60,4|0,0:0|0:0,0:0:0:0:
114,331,139662,6,0,P|117:279|114:211,1,120,4|2,1:0|0:0,0:0:0:0:
72,128,140071,1,0,0:0:0:0:
144,76,140207,1,4,0:3:0:0:
184,152,140344,1,0,0:0:0:0:
115,212,140480,2,0,P|160:240|228:236,1,120,8|2,1:0|0:0,0:0:0:0:
360,164,140889,1,0,0:0:0:0:
392,260,141026,2,0,P|364:268|332:264,1,60,4|0,0:3|0:0,0:0:0:0:
296,88,141298,2,0,P|352:60|416:72,1,120,8|0,1:0|0:0,0:0:0:0:
56,140,141844,6,0,P|44:188|36:268,1,120,4|0,0:0|0:0,0:0:0:0:
100,312,142253,1,0,3:0:0:0:
148,140,142389,2,0,P|174:151|212:164,1,60,4|0,0:3|0:0,0:0:0:0:
316,96,142662,2,0,P|300:144|288:216,1,120,4|2,0:0|0:0,0:0:0:0:
428,64,143071,1,0,3:0:0:0:
432,220,143207,2,0,L|452:276,1,60,4|0,0:3|0:0,0:0:0:0:
104,148,143480,2,0,L|84:208,1,60,4|0,0:0|0:0,0:0:0:0:
340,284,143753,2,0,L|348:348,1,60,4|0,0:0|0:0,0:0:0:0:
208,224,144026,6,0,P|196:272|192:352,1,120,4|2,1:0|0:0,0:0:0:0:
312,208,144435,1,0,3:0:0:0:
248,128,144571,2,0,P|220:120|192:104,1,60,4|0,0:3|0:0,0:0:0:0:
304,36,144844,2,0,P|360:40|424:72,1,120,8|2,1:0|0:0,0:0:0:0:
384,168,145253,1,0,3:0:0:0:
476,144,145389,2,0,P|487:112|486:87,1,60,4|0,0:3|0:0,0:0:0:0:
372,200,145662,2,0,P|356:256|372:340,1,120,8|0,1:0|0:0,0:0:0:0:
47,211,146207,6,0,L|171:203,1,120,4|2,1:0|0:0,0:0:0:0:
232,132,146616,1,0,3:0:0:0:
167,204,146753,2,0,L|167:272,1,60,4|0,0:3|0:0,0:0:0:0:
300,248,147026,2,0,L|424:240,1,120,4|2,1:0|0:0,0:0:0:0:
464,156,147435,1,0,3:0:0:0:
348,336,147571,2,0,L|288:344,1,60,4|0,0:3|0:0,0:0:0:0:
320,92,147844,2,0,L|384:96,1,60,4|0,0:0|0:0,0:0:0:0:
136,128,148116,2,0,L|76:128,1,60,4|0,0:0|0:0,0:0:0:0:
24,304,148389,6,0,P|83:306|143:307,1,120,4|0,1:0|0:0,0:0:0:0:
208,240,148798,1,0,3:0:0:0:
240,344,148935,1,4,3:0:0:0:
288,200,149071,1,0,0:0:0:0:
328,304,149207,2,0,P|392:296|464:296,1,120,8|0,1:0|0:0,0:0:0:0:
464,216,149616,1,0,0:0:0:0:
288,168,149753,2,0,P|284:140|292:104,1,60,4|0,0:3|0:0,0:0:0:0:
448,40,150026,2,0,P|451:69|443:98,1,60,8|0,1:0|0:0,0:0:0:0:
384,192,150298,1,2,0:0:0:0:
160,312,150571,6,0,P|208:344|276:320,1,120,4|0,1:3|0:0,0:0:0:0:
236,228,150980,1,0,3:0:0:0:
328,200,151116,2,0,P|340:172|348:136,1,60,4|0,0:3|0:0,0:0:0:0:
168,104,151389,2,0,P|152:164|144:224,1,120,8|2,1:0|0:0,0:0:0:0:
256,136,151798,1,0,3:0:0:0:
72,128,151935,2,0,P|64:157|56:192,1,60,4|0,0:3|0:0,0:0:0:0:
224,328,152207,2,0,P|186:328|144:312,1,60,0|0,1:0|0:0,0:0:0:0:
200,56,152480,2,0,P|239:45|268:44,1,60,4|0,0:3|0:0,0:0:0:0:
360,152,152753,6,0,P|377:208|357:264,1,120,4|2,1:3|0:0,0:0:0:0:
256,192,153162,1,0,0:0:0:0:
264,96,153298,1,4,0:3:0:0:
336,152,153435,1,0,0:0:0:0:
240,208,153571,2,0,P|184:216|127:182,1,120,8|2,1:0|0:0,0:0:0:0:
80,104,153980,1,0,0:0:0:0:
48,232,154116,2,0,P|45:262|53:291,1,60,4|0,0:3|0:0,0:0:0:0:
80,96,154389,2,0,P|82:65|74:33,1,60,8|0,1:0|0:0,0:0:0:0:
264,64,154662,1,2,0:0:0:0:
264,64,154935,6,0,P|252:112|244:188,1,120,4|2,1:3|0:0,0:0:0:0:
216,304,155344,1,0,3:0:0:0:
328,336,155480,2,0,P|354:347|392:360,1,60,4|0,0:3|0:0,0:0:0:0:
464,248,155753,2,0,P|416:232|344:216,1,120,8|2,1:0|0:0,0:0:0:0:
136,160,156162,1,0,3:0:0:0:
200,240,156298,2,0,P|207:267|212:304,1,60,4|0,0:3|0:0,0:0:0:0:
77,267,156571,2,0,P|72:240|64:208,1,60,8|0,1:0|0:0,0:0:0:0:
192,48,156844,2,0,P|200:88|208:112,1,60,4|0,0:3|0:0,0:0:0:0:
356,324,157116,6,0,P|368:272|356:204,1,120,4|2,1:3|0:0,0:0:0:0:
352,72,157526,1,0,0:0:0:0:
336,184,157662,1,4,0:3:0:0:
272,128,157798,1,0,0:0:0:0:
248,216,157935,2,0,P|200:224|124:228,1,120,8|2,1:0|0:0,0:0:0:0:
72,152,158344,1,0,0:0:0:0:
48,264,158480,2,0,P|40:304|48:332,1,60,4|0,0:3|0:0,0:0:0:0:
88,120,158753,2,0,P|83:86|75:62,1,60,8|0,1:0|0:0,0:0:0:0:
284,76,159026,1,2,0:0:0:0:
288,80,159298,6,0,P|304:136|336:208,1,120,4|2,1:3|0:0,0:0:0:0:
432,180,159707,1,0,3:0:0:0:
272,268,159844,2,0,P|296:288|312:312,1,60,4|0,0:3|0:0,0:0:0:0:
184,84,160116,2,0,P|176:132|184:208,1,120,8|2,1:0|0:0,0:0:0:0:
428,64,160526,1,0,3:0:0:0:
336,116,160662,2,0,P|324:88|316:60,1,60,4|0,0:3|0:0,0:0:0:0:
128,196,160935,2,0,P|136:166|148:136,1,60,8|0,1:0|0:0,0:0:0:0:
328,324,161207,2,0,P|324:288|320:260,1,60,4|0,0:3|0:0,0:0:0:0:
132,334,161480,6,0,P|129:274|116:216,1,120,4|2,1:0|0:0,0:0:0:0:
52,128,161889,1,0,3:0:0:0:
252,200,162026,2,0,P|224:192|196:176,1,60,4|0,0:3|0:0,0:0:0:0:
328,120,162298,2,0,P|384:124|448:156,1,120,8|2,1:0|0:0,0:0:0:0:
432,256,162707,1,0,3:0:0:0:
464,136,162844,2,0,P|475:104|474:79,1,60,4|0,0:3|0:0,0:0:0:0:
328,208,163116,2,0,L|308:284,1,60,8|0,1:0|0:0,0:0:0:0:
228,76,163389,1,2,0:0:0:0:
228,76,163662,6,0,B|212:140|212:140|176:184,1,120,4|2,1:0|0:0,0:0:0:0:
104,264,164071,1,0,3:0:0:0:
240,348,164207,2,0,B|236:316|236:316|216:292,1,60,4|0,0:3|0:0,0:0:0:0:
340,308,164480,2,0,L|484:324,1,120,4|2,1:0|0:0,0:0:0:0:
468,232,164889,1,0,3:0:0:0:
336,152,165026,2,0,L|320:84,1,60,4|0,0:3|0:0,0:0:0:0:
200,324,165298,2,0,L|264:328,1,60,4|0,1:2|0:0,0:0:0:0:
128,124,165571,2,0,L|60:128,1,60,4|0,0:3|0:0,0:0:0:0:
220,208,165844,5,4,1:0:0:0:
72,184,182753,5,4,0:0:0:0:
72,184,183298,6,0,P|56:212|48:252,1,60,8|0,0:0|0:0,0:0:0:0:
156,240,183844,2,0,P|163:263|188:304,1,60,8|0,0:0|3:0,0:0:0:0:
272,252,184389,2,0,P|300:280|328:296,1,60,8|0,0:0|3:0,0:0:0:0:
216,176,184935,1,0,3:0:0:0:
156,240,185207,1,0,3:0:0:0:
324,168,185480,6,0,P|332:141|332:104,1,60,2|0,0:0|0:0,0:0:0:0:
264,48,186026,1,0,0:0:0:0:
404,288,186298,1,2,0:0:0:0:
264,48,186844,1,2,1:2:0:0:
268,172,187116,1,0,1:0:0:0:
260,300,187389,1,0,1:0:0:0:
164,224,187662,6,0,P|156:252|156:288,1,60,8|0,0:0|0:0,0:0:0:0:
364,312,188207,2,0,P|372:284|372:248,1,60,8|0,0:0|3:0,0:0:0:0:
263,97,188753,2,0,P|263:127|272:156,1,60,8|0,0:0|3:0,0:0:0:0:
376,60,189298,1,2,0:0:0:0:
288,196,189571,1,0,0:0:0:0:
116,224,189844,6,0,P|152:224|180:232,1,60,2|0,0:0|0:0,0:0:0:0:
272,292,190389,1,0,3:0:0:0:
184,344,190662,2,0,P|124:348|64:347,1,120,2|0,0:0|3:0,0:0:0:0:
292,176,191480,2,0,P|334:171|392:168,1,90,2|0,0:0|0:0,0:0:0:0:
364,244,192026,6,0,P|352:264|344:308,1,60,8|0,0:0|0:0,0:0:0:0:
464,280,192571,2,0,P|476:312|484:348,1,60,8|0,0:0|3:0,0:0:0:0:
448,116,193116,2,0,P|444:152|444:180,1,60,8|0,0:0|3:0,0:0:0:0:
368,40,193662,1,0,3:0:0:0:
288,188,193935,1,2,0:0:0:0:
192,212,194207,6,0,P|188:184|196:140,1,60
384,192,194753,1,0,3:0:0:0:
332,308,195026,2,2,B|282:300|282:300|262:304|262:304|214:296,1,120,2|4,0:0|3:2,0:0:0:0:
84,324,195844,1,0,3:0:0:0:
232,140,196116,1,0,3:0:0:0:
440,244,196389,6,0,L|428:308,1,60,8|0,0:0|0:0,0:0:0:0:
272,272,196935,1,8,0:0:0:0:
124,256,197207,1,0,1:0:0:0:
276,248,197480,2,0,L|280:184,1,60,8|0,0:0|0:0,0:0:0:0:
140,64,198026,1,2,1:2:0:0:
280,92,198298,1,0,0:0:0:0:
124,208,198571,6,0,L|120:336,1,120,2|0,0:0|3:0,0:0:0:0:
280,92,199389,2,0,L|276:156,1,60,2|4,0:0|0:0,0:0:0:0:
336,248,199935,5,0,1:0:0:0:
120,160,200207,1,8,1:2:0:0:
360,112,200480,1,0,1:0:0:0:
252,272,200753,6,0,P|176:284|120:260,1,135.000005149841,4|0,1:0|0:0,0:0:0:0:
56,200,201298,1,2,0:0:0:0:
280,176,201571,1,8,1:0:0:0:
460,268,201844,2,0,P|472:232|460:172,1,90.0000034332277,4|2,3:0|0:0,0:0:0:0:
320,52,202389,1,8,1:0:0:0:
168,120,202662,2,0,P|165:142|166:165,1,45.0000017166138,0|0,3:0|0:0,0:0:0:0:
168,284,202935,6,0,P|223:272|271:196,1,135.000005149841,4|0,1:3|0:0,0:0:0:0:
272,80,203480,1,2,0:0:0:0:
92,152,203753,2,0,P|122:149|158:153,1,45.0000017166138,8|0,1:0|0:0,0:0:0:0:
56,236,204026,1,4,0:0:0:0:
368,92,204298,2,0,P|364:116|360:140,1,45.0000017166138,0|0,1:0|0:0,0:0:0:0:
264,200,204571,2,0,L|212:212,1,45.0000017166138,0|0,1:0|3:0,0:0:0:0:
416,248,204844,2,0,L|472:276,1,45.0000017166138,0|0,3:0|3:0,0:0:0:0:
316,312,205116,6,0,L|176:328,1,135.000005149841,4|0,1:0|0:0,0:0:0:0:
76,340,205662,1,2,0:0:0:0:
264,144,205935,1,8,1:0:0:0:
340,156,206071,1,0,3:0:0:0:
416,172,206207,2,0,P|424:216|412:264,2,90.0000034332277,4|2|8,3:0|3:2|1:0,0:0:0:0:
187,312,207026,2,0,P|191:292|191:264,1,45.0000017166138,0|0,3:0|3:0,0:0:0:0:
192,268,207298,6,0,P|186:202|188:132,1,135.000005149841,4|0,1:3|0:0,0:0:0:0:
200,40,207844,1,2,3:2:0:0:
322,259,208116,2,0,P|327:233|328:208,1,45.0000017166138,8|0,1:0|0:0,0:0:0:0:
336,112,208389,1,4,0:0:0:0:
80,124,208662,2,0,P|76:148|72:176,1,45.0000017166138,0|0,1:0|0:0,0:0:0:0:
52,264,208935,2,0,L|187:261,1,135.000005149841,8|0,1:2|3:2,1:0:0:0:
394,147,209480,6,0,L|260:144,1,135.000005149841,4|0,1:0|0:0,0:0:0:0:
168,96,210026,1,2,0:0:0:0:
384,256,210298,1,8,1:0:0:0:
200,216,210571,2,0,L|136:208,1,45.0000017166138,4|0,3:0|0:0,0:0:0:0:
60,180,210844,1,2,1:2:0:0:
204,316,211116,2,0,L|268:324,1,45.0000017166138,8|0,1:0|0:0,0:0:0:0:
372,340,211389,1,0,3:0:0:0:
256,152,211662,6,0,P|316:120|392:136,1,135.000005149841,4|0,1:3|0:0,0:0:0:0:
452,192,212207,1,2,3:2:0:0:
236,260,212480,2,0,P|260:264|292:260,1,45.0000017166138,8|0,1:0|0:0,0:0:0:0:
348,208,212753,1,4,0:0:0:0:
156,152,213026,2,0,P|148:180|148:212,1,45.0000017166138,0|0,1:0|0:0,0:0:0:0:
284,272,213298,2,0,P|264:284|228:284,1,45.0000017166138,0|0,1:0|3:0,0:0:0:0:
80,344,213571,2,0,P|100:320|132:308,1,45.0000017166138,0|0,3:0|3:0,0:0:0:0:
256,152,213844,6,0,P|300:150|340:168,2,90.0000034332277,4|0|2,1:0|3:0|0:0,0:0:0:0:
56,232,214662,1,8,1:0:0:0:
200,68,214935,2,0,P|172:58|136:60,1,45.0000017166138,4|0,3:0|0:0,0:0:0:0:
68,80,215207,1,2,0:0:0:0:
200,232,215480,2,0,P|232:244|256:244,1,45.0000017166138,8|0,1:0|0:0,0:0:0:0:
336,208,215753,1,0,0:0:0:0:
116,196,216026,6,0,L|100:248,1,45.0000017166138,4|0,1:3|0:0,0:0:0:0:
264,336,216298,1,0,0:0:0:0:
276,112,216571,1,2,3:2:0:0:
136,60,216844,2,0,L|128:112,1,45.0000017166138,8|0,1:0|0:0,0:0:0:0:
224,208,217116,1,4,0:0:0:0:
408,164,217389,1,2,0:0:0:0:
296,48,217662,2,0,P|299:93|300:188,1,135.000005149841,8|0,1:2|3:0,0:0:0:0:
144,312,218207,6,0,P|144:228|150:160,1,135.000005149841,4|0,1:0|0:0,0:0:0:0:
192,68,218753,1,2,0:0:0:0:
412,72,219026,1,8,1:0:0:0:
404,152,219162,1,0,3:0:0:0:
448,216,219298,2,0,P|448:260|440:320,2,90.0000034332277,4|2|8,3:0|0:0|1:0,0:0:0:0:
208,176,220116,2,0,P|205:198|206:221,1,45.0000017166138,2|0,0:0|0:0,0:0:0:0:
206,221,220389,6,0,P|261:209|346:225,1,135.000005149841,4|0,1:3|0:0,0:0:0:0:
412,292,220935,1,2,0:0:0:0:
116,328,221207,2,0,P|116:300|108:272,1,45.0000017166138,8|0,1:0|0:0,0:0:0:0:
80,180,221480,1,4,0:0:0:0:
324,52,221753,2,0,P|320:76|316:100,1,45.0000017166138,0|0,1:0|0:0,0:0:0:0:
200,56,222026,2,0,L|148:68,1,45.0000017166138,0|0,1:0|3:0,0:0:0:0:
304,204,222298,2,0,L|360:224,1,45.0000017166138,0|0,3:0|3:0,0:0:0:0:
248,296,222571,6,0,L|152:312,1,90.0000034332277,4|0,1:0|0:0,0:0:0:0:
108,252,222980,1,0,0:0:0:0:
52,192,223116,1,2,0:0:0:0:
336,124,223389,2,0,L|328:176,1,45.0000017166138,8|0,1:0|0:0,0:0:0:0:
320,264,223662,1,4,1:3:0:0:
464,344,223935,2,0,L|460:292,1,45.0000017166138,2|0,0:0|0:0,0:0:0:0:
452,192,224207,1,8,1:0:0:0:
304,292,224480,2,0,P|284:296|256:288,1,45.0000017166138,0|0,3:0|0:0,0:0:0:0:
152,132,224753,6,0,P|224:112|288:136,1,135.000005149841,4|0,1:3|0:0,0:0:0:0:
356,204,225298,1,8,3:2:0:0:
152,308,225571,2,0,P|160:276|174:257,1,45.0000017166138,8|0,1:0|0:0,0:0:0:0:
248,212,225844,1,4,0:0:0:0:
373,340,226116,2,0,P|380:320|380:296,1,45.0000017166138,0|0,1:0|3:0,0:0:0:0:
136,296,226389,2,0,P|129:317|129:339,1,45.0000017166138,8|0,1:2|3:0,0:0:0:0:
208,260,226662,1,0,3:0:0:0:
180,180,226798,1,0,3:0:0:0:
100,212,226935,6,0,P|167:208|234:207,1,135.000005149841,4|0,1:0|0:0,0:0:0:0:
448,280,227480,2,0,P|416:276|344:264,1,90.0000034332277,2|8,0:0|1:0,0:0:0:0:
276,292,227889,1,0,1:0:0:0:
188,320,228026,2,0,L|98:313,1,90.0000034332277,4|0,3:0|0:0,0:0:0:0:
340,113,228571,2,0,L|296:108,1,45.0000017166138,8|0,1:0|0:0,0:0:0:0:
148,200,228844,1,2,0:0:0:0:
148,200,229116,6,0,P|140:144|164:60,1,135.000005149841,4|0,1:3|0:0,0:0:0:0:
252,36,229662,1,0,3:0:0:0:
312,156,229935,2,0,L|364:164,1,45.0000017166138,8|0,1:0|0:0,0:0:0:0:
432,208,230207,1,4,0:0:0:0:
72,220,230480,2,0,L|64:280,1,45.0000017166138,0|0,1:0|0:0,0:0:0:0:
248,196,230753,2,0,P|228:208|192:208,1,45.0000017166138,0|0,1:0|3:0,0:0:0:0:
120,100,231026,2,0,P|140:76|172:64,1,45.0000017166138,0|0,3:0|3:0,0:0:0:0:
392,56,231298,6,0,P|332:44|288:64,1,90.0000034332277,4|2,1:0|0:0,0:0:0:0:
288,256,231844,1,0,0:0:0:0:
176,136,232116,1,8,1:0:0:0:
152,292,232389,2,0,P|124:298|96:296,1,45.0000017166138,4|0,3:0|0:0,0:0:0:0:
36,248,232662,1,2,0:0:0:0:
176,136,232935,2,0,P|198:139|218:148,1,45.0000017166138,8|0,1:0|0:0,0:0:0:0:
288,256,233207,1,2,0:0:0:0:
384,132,233480,6,0,L|440:136,1,45.0000017166138,4|0,1:3|0:0,0:0:0:0:
272,336,233753,1,0,3:0:0:0:
216,168,234026,1,0,3:0:0:0:
320,248,234298,2,0,L|372:256,1,45.0000017166138,8|0,1:0|0:0,0:0:0:0:
156,280,234571,1,4,0:0:0:0:
244,76,234844,2,0,P|268:72|288:72,1,45.0000017166138,0|0,1:0|3:0,0:0:0:0:
424,100,235116,1,8,1:2:0:0:
424,100,235253,1,0,3:0:0:0:
424,100,235389,1,0,1:0:0:0:
424,100,235526,1,0,3:0:0:0:
424,100,235662,6,0,P|444:156|436:228,1,120,4|0,1:0|3:0,0:0:0:0:
280,172,236071,1,0,1:0:0:0:
148,136,236207,2,0,P|140:108|144:64,1,60,4|0,1:3|0:0,0:0:0:0:
323,273,236480,2,0,L|204:264,1,120,4|8,0:2|0:0,0:0:0:0:
408,188,236889,1,0,3:0:0:0:
408,188,237026,2,0,L|416:116,1,60,4|0,1:3|0:0,0:0:0:0:
275,119,237298,2,0,L|156:116,1,120,8|0,1:0|0:0,0:0:0:0:
440,312,237844,6,0,P|376:316|312:308,1,120,4|0,1:3|3:0,0:0:0:0:
196,220,238253,1,0,1:0:0:0:
196,220,238389,2,0,P|231:205|256:204,1,60,4|0,1:3|0:0,0:0:0:0:
108,284,238662,2,2,P|88:228|108:160,1,120,8|8,1:0|0:0,0:0:0:0:
188,88,239071,1,0,3:0:0:0:
296,116,239207,2,0,P|312:92|304:44,1,60,4|0,1:3|0:0,0:0:0:0:
88,52,239480,1,0,1:0:0:0:
416,184,239753,1,0,1:0:0:0:
76,192,240026,6,0,L|64:320,1,120,4|0,1:0|3:0,0:0:0:0:
224,240,240435,1,0,1:0:0:0:
224,240,240571,2,0,L|292:236,1,60,4|0,1:3|0:0,0:0:0:0:
439,337,240844,2,0,L|320:328,1,120,4|8,0:2|0:0,0:0:0:0:
408,188,241253,1,0,3:0:0:0:
408,188,241389,2,0,L|416:116,1,60,4|0,1:3|0:0,0:0:0:0:
275,119,241662,2,0,L|156:116,1,120,8|0,1:0|0:0,0:0:0:0:
440,312,242207,6,0,P|376:316|312:308,1,120,4|0,1:3|3:0,0:0:0:0:
196,220,242616,1,0,1:0:0:0:
196,220,242753,2,0,P|231:205|256:204,1,60,4|0,1:3|0:0,0:0:0:0:
108,284,243026,2,2,P|88:228|108:160,1,120,8|8,1:0|0:0,0:0:0:0:
208,124,243435,1,0,3:0:0:0:
320,96,243571,2,0,L|400:104,1,60,4|0,1:3|0:0,0:0:0:0:
452,176,243844,1,8,1:0:0:0:
80,228,244116,1,8,1:0:0:0:
256,192,244389,6,0,P|276:248|272:307,1,120,4|0,1:0|3:0,0:0:0:0:
152,124,244798,1,0,1:0:0:0:
148,120,244935,2,0,P|140:92|140:48,1,60,4|0,1:3|0:0,0:0:0:0:
272,48,245207,2,0,L|420:36,1,120,4|8,0:2|0:0,0:0:0:0:
392,184,245616,1,0,3:0:0:0:
392,184,245753,2,0,L|388:256,1,60,4|0,1:3|0:0,0:0:0:0:
232,232,246026,2,0,P|163:227|113:229,1,120,8|0,1:0|0:0,0:0:0:0:
224,88,246571,6,0,P|160:80|96:84,1,120,4|0,1:3|3:0,0:0:0:0:
296,184,246980,1,0,1:0:0:0:
296,184,247116,2,0,P|297:220|292:260,1,60,4|0,1:3|0:0,0:0:0:0:
112,328,247389,2,2,P|108:268|112:204,1,120,8|8,1:0|0:0,0:0:0:0:
200,188,247798,1,0,3:0:0:0:
300,288,247935,2,0,L|364:292,1,60,4|0,1:3|0:0,0:0:0:0:
412,92,248207,1,0,1:0:0:0:
160,108,248480,1,0,1:0:0:0:
280,204,248753,6,0,L|416:208,1,120,4|0,1:0|3:0,0:0:0:0:
116,280,249162,1,0,1:0:0:0:
116,280,249298,2,0,L|184:276,1,60,4|0,1:3|0:0,0:0:0:0:
248,60,249571,2,0,L|128:60,1,120,4|8,0:2|0:0,0:0:0:0:
328,320,249980,1,0,3:0:0:0:
328,320,250116,2,0,P|341:288|336:248,1,60,4|0,1:3|0:0,0:0:0:0:
145,168,250389,2,0,P|117:216|117:284,1,120,8|0,1:0|0:0,0:0:0:0:
400,124,250935,6,0,P|336:96|272:120,1,120,4|0,1:3|3:0,0:0:0:0:
184,224,251344,1,0,1:0:0:0:
184,224,251480,2,0,P|220:224|244:208,1,60,4|0,1:3|0:0,0:0:0:0:
344,328,251753,2,2,P|364:272|344:204,1,120,8|8,1:0|0:0,0:0:0:0:
208,112,252162,1,0,3:0:0:0:
112,160,252298,2,0,L|96:228,1,60,4|0,1:3|0:0,0:0:0:0:
76,336,252571,1,8,1:0:0:0:
328,284,252844,1,8,1:0:0:0:
288,88,253116,6,0,P|268:144|280:208,1,120,4|0,1:0|3:0,0:0:0:0:
164,192,253526,1,0,1:0:0:0:
112,288,253662,2,0,P|113:317|121:346,1,60,4|0,1:3|0:0,0:0:0:0:
236,304,253935,2,0,P|296:328|372:316,1,120,4|8,0:2|0:0,0:0:0:0:
440,240,254344,1,0,3:0:0:0:
376,140,254480,2,0,L|384:68,1,60,4|0,1:3|0:0,0:0:0:0:
216,48,254753,2,0,L|205:167,1,120,8|0,1:0|0:0,0:0:0:0:
200,292,255298,6,0,P|144:312|72:288,1,120,4|0,1:3|3:0,0:0:0:0:
136,208,255707,1,0,1:0:0:0:
184,128,255844,2,0,P|219:113|244:112,1,60,4|0,1:3|0:0,0:0:0:0:
441,221,256116,2,2,P|383:208|328:228,1,120,8|8,1:0|0:0,0:0:0:0:
288,324,256526,1,0,3:0:0:0:
336,120,256662,2,0,P|332:84|324:36,1,60,4|0,1:3|0:0,0:0:0:0:
172,132,256935,2,0,P|176:96|184:48,1,60,8|0,1:0|0:0,0:0:0:0:
368,328,257207,2,0,P|364:292|356:244,1,60,0|0,1:0|0:0,0:0:0:0:
192,340,257480,6,0,L|203:220,1,120,4|0,1:0|3:0,0:0:0:0:
260,112,257889,1,0,1:0:0:0:
340,180,258026,2,0,L|408:176,1,60,4|0,1:3|0:0,0:0:0:0:
203,220,258298,2,0,L|63:212,1,120,4|8,0:2|0:0,0:0:0:0:
96,320,258707,1,0,3:0:0:0:
56,192,258844,2,0,P|52:153|64:120,1,60,4|0,1:3|0:0,0:0:0:0:
224,116,259116,2,0,L|343:119,1,120,8|0,1:0|0:0,0:0:0:0:
384,216,259526,1,0,0:0:0:0:
416,320,259662,6,0,L|288:316,1,120,4|0,1:3|3:0,0:0:0:0:
168,248,260071,1,0,3:0:0:0:
276,168,260207,2,0,P|311:153|336:152,1,60,4|0,1:3|0:0,0:0:0:0:
168,276,260480,2,2,P|112:296|44:276,1,120,8|8,1:0|0:0,0:0:0:0:
80,172,260889,1,0,0:0:0:0:
144,64,261026,2,0,L|224:72,1,60,4|0,1:3|0:0,0:0:0:0:
392,192,261298,2,0,L|332:186,1,60,8|0,1:0|0:0,0:0:0:0:
132,288,261571,2,0,L|212:296,1,60,8|0,1:0|0:0,0:0:0:0:
448,344,261844,6,0,L|324:324,1,120,4|0,1:0|3:0,0:0:0:0:
248,224,262253,1,0,1:0:0:0:
152,152,262389,2,0,L|80:148,1,60,4|0,1:3|0:0,0:0:0:0:
260,96,262662,2,0,L|408:84,1,120,4|8,0:2|0:0,0:0:0:0:
464,128,263071,1,0,3:0:0:0:
432,228,263207,2,0,L|428:300,1,60,4|0,1:3|0:0,0:0:0:0:
344,192,263480,2,0,P|275:187|225:189,1,120,8|0,1:0|0:0,0:0:0:0:
124,212,263889,1,0,0:0:0:0:
236,216,264026,6,0,P|242:288|220:340,1,120,4|0,1:3|3:0,0:0:0:0:
140,244,264435,1,0,0:0:0:0:
72,184,264571,2,0,P|65:155|72:124,1,60,4|0,1:3|0:0,0:0:0:0:
308,48,264844,2,2,P|244:40|193:66,1,120,8|8,1:0|0:0,0:0:0:0:
268,168,265253,1,0,3:0:0:0:
340,256,265389,2,0,P|371:264|404:260,1,60,4|0,1:3|0:0,0:0:0:0:
196,244,265662,2,0,P|172:256|148:288,1,60,8|0,1:0|0:0,0:0:0:0:
320,104,265935,2,0,P|324:80|312:44,1,60,0|0,1:0|0:0,0:0:0:0:
200,52,266207,6,0,L|68:56,1,120,4|0,1:0|3:0,0:0:0:0:
256,196,266616,1,0,1:0:0:0:
256,196,266753,2,0,L|192:200,1,60,4|0,1:3|0:0,0:0:0:0:
56,336,267026,2,0,L|192:328,1,120,4|8,0:2|0:0,0:0:0:0:
328,320,267435,1,0,3:0:0:0:
328,320,267571,2,0,P|341:288|336:248,1,60,4|0,1:3|0:0,0:0:0:0:
344,48,267844,2,0,P|316:96|324:160,1,120,8|0,1:0|0:0,0:0:0:0:
416,120,268253,1,0,3:0:0:0:
456,260,268389,5,4,1:1:0:0:
456,260,268526,1,0,3:0:0:0:
456,260,268662,1,0,3:0:0:0:
456,260,268798,1,0,3:0:0:0:
456,260,268935,1,4,1:2:0:0:
456,260,269071,1,0,3:0:0:0:
456,260,269207,1,0,1:0:0:0:
456,260,269344,1,0,1:0:0:0:
456,260,269480,6,0,L|408:312,1,60,8|0,0:0|0:0,0:0:0:0:
292,256,269753,2,0,L|240:208,1,60,4|0,1:0|0:0,0:0:0:0:
144,308,270026,2,0,L|148:352,2,30,4|0|0,1:0|3:0|3:0,3:0:0:0:
104,148,270298,2,0,L|116:120,2,30,4|0|0,1:0|3:0|3:0,3:0:0:0:
248,192,270571,6,0,B|312:192|313:284|395:283,1,180,4|0,1:0|3:0,0:0:0:0:
424,176,271116,1,8,0:1:0:0:
112,208,271389,2,2,P|87:261|102:317,1,120,0|8,1:0|0:1,0:0:0:0:
176,256,271798,1,0,3:0:0:0:
248,192,271935,1,0,1:0:0:0:
44,240,272207,2,0,P|24:304|48:360,1,120,8|2,1:0|0:0,0:0:0:0:
416,288,272753,6,0,P|440:212|408:116,1,180,0|0,1:0|3:0,0:0:0:0:
328,48,273298,1,8,0:1:0:0:
100,204,273571,2,2,L|228:208,1,120,0|8,1:0|0:1,0:0:0:0:
312,288,273980,1,0,3:0:0:0:
208,328,274116,1,0,1:0:0:0:
416,248,274389,1,0,1:0:0:0:
128,120,274662,1,0,1:0:0:0:
384,80,274935,6,0,B|348:120|348:120|340:252,1,180,4|0,1:0|3:0,0:0:0:0:
336,344,275480,1,8,0:1:0:0:
224,328,275753,2,2,L|232:196,1,120,0|8,1:0|0:1,0:0:0:0:
228,80,276162,1,0,3:0:0:0:
120,108,276298,1,0,1:0:0:0:
0,232,276571,2,0,L|132:228,1,120,8|2,1:0|0:0,0:0:0:0:
400,168,277116,6,0,B|303:171|303:171|212:224,1,180,0|0,1:0|3:0,0:0:0:0:
128,324,277662,1,8,0:1:0:0:
344,72,277935,2,2,B|280:72|280:72|224:100,1,120,0|8,1:0|0:1,0:0:0:0:
144,160,278344,1,0,3:0:0:0:
60,112,278480,1,0,1:0:0:0:
104,296,278753,1,0,1:0:0:0:
252,56,279026,1,0,1:0:0:0:
292,248,279298,6,0,B|472:256,1,180,4|0,1:0|3:0,0:0:0:0:
212,176,279844,1,8,0:1:0:0:
212,176,280116,2,2,L|80:172,1,120,0|8,1:0|1:0,0:0:0:0:
44,240,280526,1,0,3:0:0:0:
40,76,280662,1,0,1:0:0:0:
40,76,280935,2,0,L|168:80,1,120,8|2,1:0|0:0,0:0:0:0:
416,184,281480,6,0,P|464:252|433:363,1,180,0|0,1:0|3:0,0:0:0:0:
184,256,282026,1,8,0:1:0:0:
184,256,282298,2,2,P|160:208|176:136,1,120,0|8,1:1|0:1,0:0:0:0:
256,144,282707,1,0,3:0:0:0:
320,88,282844,1,0,1:0:0:0:
360,272,283116,1,4,1:0:0:0:
152,128,283389,1,0,1:0:0:0:
192,312,283662,6,0,B|268:301|372:309,1,180,4|0,1:0|3:0,0:0:0:0:
464,192,284207,1,8,0:1:0:0:
88,192,284480,2,2,P|159:195|224:192,1,120,0|8,1:0|0:1,0:0:0:0:
184,64,284889,1,0,3:0:0:0:
80,96,285026,1,0,1:0:0:0:
444,78,285298,2,0,P|468:134|456:210,1,120,8|2,1:0|0:0,0:0:0:0:
107,330,285844,6,0,B|56:248|104:144,1,180,0|0,1:0|3:0,0:0:0:0:
240,192,286389,1,8,0:1:0:0:
240,192,286662,2,2,P|297:217|361:209,1,120,0|8,1:0|0:1,0:0:0:0:
424,112,287071,1,0,3:0:0:0:
472,224,287207,1,0,1:0:0:0:
256,104,287480,1,4,1:0:0:0:
216,336,287753,1,0,1:0:0:0:
256,104,288026,6,0,B|128:112,1,120,4|0,1:0|3:0,0:0:0:0:
40,136,288435,1,0,3:0:0:0:
72,256,288571,1,8,0:1:0:0:
72,256,288844,2,2,L|192:240,1,120,0|8,1:0|0:1,0:0:0:0:
368,240,289253,1,0,3:0:0:0:
288,352,289389,2,0,P|280:320|276:283,1,60,0|0,1:0|0:0,0:0:0:0:
360,208,289662,2,0,P|352:152|336:80,1,120,8|2,1:0|0:0,0:0:0:0:
338,90,290208,6,0,L|200:82,1,120,0|2,1:0|0:0,0:0:0:0:
104,72,290616,1,0,3:0:0:0:
104,192,290753,1,8,0:1:0:0:
104,192,291026,2,2,P|110:260|120:312,1,120,0|8,1:0|1:0,0:0:0:0:
224,224,291435,1,0,3:0:0:0:
192,104,291571,1,0,1:0:0:0:
48,344,291844,1,4,1:0:0:0:
384,216,292117,1,0,1:0:0:0:
384,216,292390,6,0,P|320:208|256:184,1,120,4|2,1:0|0:0,0:0:0:0:
208,112,292798,1,0,1:0:0:0:
280,56,292935,1,8,0:1:0:0:
122,304,293208,2,2,P|178:320|250:328,1,120,0|8,1:0|0:1,0:0:0:0:
320,240,293617,1,0,3:0:0:0:
224,176,293753,1,0,1:0:0:0:
56,336,294026,1,4,1:0:0:0:
208,208,294298,1,2,0:0:0:0:
184,56,294571,6,0,B|112:32|64:80,1,120,4|0,1:0|3:0,0:0:0:0:
40,168,294980,1,0,1:0:0:0:
286,170,295117,1,8,0:1:0:0:
286,170,295390,2,2,B|352:192|400:144,1,120,0|4,1:0|0:0,0:0:0:0:
448,80,295799,1,0,3:0:0:0:
464,208,295935,1,0,1:0:0:0:
288,56,296208,1,4,1:0:0:0:
376,336,296481,1,0,1:0:0:0:
224,120,296753,6,0,P|168:88|104:96,1,120,4|0,1:0|3:0,0:0:0:0:
48,176,297162,1,0,0:0:0:0:
144,280,297298,2,0,P|160:248|157:219,1,60,8|0,0:1|0:0,0:0:0:0:
264,152,297571,2,0,L|386:160,1,120,4|8,1:0|0:1,0:0:0:0:
440,96,297980,1,0,3:0:0:0:
432,264,298116,2,0,L|416:336,1,60,0|0,1:0|0:0,0:0:0:0:
232,312,298390,2,0,L|113:309,1,120,8|2,1:0|0:0,0:0:0:0:
216,56,298935,6,0,P|256:112|248:176,1,120,4|0,1:0|0:0,0:0:0:0:
184,272,299344,1,0,0:0:0:0:
80,168,299480,2,0,P|112:160|152:160,1,60,8|0,0:1|0:0,3:0:0:0:
80,352,299753,2,0,P|48:312|48:232,1,120,4|8,1:0|0:1,0:0:0:0:
144,176,300162,1,0,3:0:0:0:
224,248,300299,1,0,1:0:0:0:
328,48,300571,1,0,1:0:0:0:
392,240,300844,1,0,1:0:0:0:
88,80,301117,6,0,B|152:112|208:80,1,120,4|0,1:0|3:0,0:0:0:0:
296,24,301526,1,0,3:0:0:0:
336,144,301662,2,0,P|336:176|328:216,1,60,8|0,0:1|0:0,0:0:0:0:
280,336,301935,2,0,P|224:312|144:336,1,120,4|8,1:0|0:1,0:0:0:0:
72,352,302344,1,0,3:0:0:0:
176,200,302480,2,0,P|176:168|171:115,1,60,0|0,1:0|0:0,0:0:0:0:
136,32,302753,1,0,1:0:0:0:
336,264,303026,1,2,0:0:0:0:
376,64,303299,6,0,B|240:64,1,120,4|2,1:0|0:0,0:0:0:0:
176,120,303708,1,0,3:0:0:0:
80,176,303844,2,0,L|88:256,1,60,8|0,0:1|0:0,0:0:0:0:
336,248,304116,2,0,L|200:248,1,120,4|8,1:0|0:1,0:0:0:0:
128,272,304526,1,0,0:0:0:0:
192,344,304662,1,0,1:0:0:0:
192,64,304935,1,4,1:0:0:0:
416,240,305208,1,2,1:2:0:0:
256,192,305480,5,4,1:0:0:0:
