osu file format v14

[General]
AudioFilename: audio.mp3
AudioLeadIn: 0
PreviewTime: 96026
Countdown: 0
SampleSet: Soft
StackLeniency: 0.7
Mode: 0
LetterboxInBreaks: 0
WidescreenStoryboard: 0

[Editor]
Bookmarks: 61116,96026,130935,165870,200753,235662,270571,305480
DistanceSpacing: 1
BeatDivisor: 4
GridSize: 4
TimelineZoom: 0.5999999

[Metadata]
Title:Beginnings
TitleUnicode:Beginnings
Artist:La Cataline
ArtistUnicode:La Cataline
Creator:Mirash
Version:Hard
Source:
Tags:pandahero lc lacataline instrumental chillout psybient
BeatmapID:1372284
BeatmapSetID:646603

[Difficulty]
HPDrainRate:6
CircleSize:4
OverallDifficulty:6
ApproachRate:6
SliderMultiplier:1.5
SliderTickRate:1

[Events]
//Background and Video events
0,0,"background.jpg",0,0
//Break Periods
2,96226,111612
2,166044,182248
//Storyboard Layer 0 (Background)
//Storyboard Layer 1 (Fail)
//Storyboard Layer 2 (Pass)
//Storyboard Layer 3 (Foreground)
//Storyboard Sound Samples

[TimingPoints]
26,545.454545454546,4,2,1,5,1,0
26207,-100,4,2,1,50,0,0
61116,-100,4,2,1,55,0,0
112662,-100,4,2,1,40,0,0
113480,-100,4,2,1,50,0,0
130935,-90.9090909090909,4,2,1,55,0,0
132571,-90.9090909090909,4,2,1,50,0,0
133116,-90.9090909090909,4,2,1,50,0,0
136935,-90.9090909090909,4,2,1,50,0,0
137480,-90.9090909090909,4,2,1,50,0,0
145662,-90.9090909090909,4,2,1,50,0,0
146207,-90.9090909090909,4,2,1,50,0,0
183298,-100,4,2,1,25,0,0
198298,-100,4,2,1,30,0,0
199116,-100,4,2,1,35,0,0
199935,-100,4,2,1,40,0,0
200752,-90.9090909090909,4,2,1,50,0,0
235662,-90.9090909090909,4,2,1,40,0,0
270571,-100,4,2,1,35,0,0
305480,-100,4,2,1,20,0,0
305753,-100,4,2,1,15,0,0

[Colours]
Combo1 : 173,48,48
Combo2 : 168,160,190
Combo3 : 191,193,149

[HitObjects]
42,247,26207,6,0,P|150:239|220:241,1,150,4|8,0:3|0:3,0:0:0:0:
250,285,27026,1,8,0:1:0:0:
316,251,27298,2,0,L|376:257,2,37.5,2|0|4,0:0|0:0|0:3,0:0:0:0:
272,189,27844,2,0,P|270:133|271:82,1,75,8|2,0:1|0:0,0:0:0:0:
334,75,28389,6,0,P|382:74|454:81,1,112.5,4|0,0:3|0:0,0:0:0:0:
480,64,28935,2,0,P|483:119|483:173,1,75,8|8,0:3|0:1,0:0:0:0:
429,191,29480,2,0,L|439:239,1,37.5,2|0,0:0|0:0,0:0:0:0:
446,263,29753,2,0,L|337:258,2,75,4|8|4,0:3|0:1|0:3,0:0:0:0:
494,319,30571,5,4,0:3:0:0:
346,347,31116,2,0,P|283:350|242:360,1,75,8|8,0:3|0:1,0:0:0:0:
196,353,31662,2,0,L|193:306,1,37.5,2|0,0:0|0:0,0:0:0:0:
222,291,31935,2,0,L|232:187,1,75,4|8,0:3|0:1,0:0:0:0:
187,153,32480,1,0,0:0:0:0:
228,90,32753,5,4,0:3:0:0:
79,69,33298,2,0,L|95:116,1,37.5,8|0,0:3|0:0,0:0:0:0:
75,138,33571,2,0,L|68:188,1,37.5,8|0,0:1|0:0,0:0:0:0:
97,200,33844,2,0,P|157:198|204:199,1,75,2|4,0:0|0:3,0:0:0:0:
237,234,34389,1,8,0:1:0:0:
312,235,34662,1,4,0:3:0:0:
310,310,34935,6,0,P|268:308|216:310,2,75,4|0|8,0:3|0:0|0:3,0:0:0:0:
382,338,35753,2,0,P|385:273|390:205,1,112.5,8|0,0:1|0:0,0:0:0:0:
374,190,36298,2,0,L|432:191,1,37.5,4|0,0:3|0:0,0:0:0:0:
444,171,36571,2,0,L|488:171,1,37.5,8|0,0:1|0:0,0:0:0:0:
511,148,36844,1,2,0:0:0:0:
360,64,37116,6,0,P|322:67|283:63,2,75,4|0|8,0:3|0:0|0:3,0:0:0:0:
388,139,37935,2,0,P|386:198|404:300,1,150,8|4,0:1|0:3,0:0:0:0:
328,310,38753,2,0,P|256:341|236:355,1,75,8|4,0:1|0:3,0:0:0:0:
184,347,39298,6,0,P|181:237|194:166,1,150,4|8,0:3|0:3,0:0:0:0:
173,123,40116,2,0,P|225:125|297:134,1,112.5,8|4,0:1|0:3,0:0:0:0:
313,157,40662,1,4,0:3:0:0:
387,167,40935,1,8,0:1:0:0:
439,26,41480,6,0,P|358:24|284:32,1,150,4|8,0:3|0:3,0:0:0:0:
233,80,42298,2,0,P|251:151|270:212,1,112.5,8|0,0:1|0:0,0:0:0:0:
294,208,42844,1,4,0:3:0:0:
238,258,43116,1,8,0:1:0:0:
187,313,43389,1,4,0:3:0:0:
259,330,43662,6,0,B|362:315|308:352|421:331,1,150,4|8,0:3|0:3,0:0:0:0:
435,263,44480,2,0,P|422:220|426:137,1,112.5,8|0,0:1|0:0,0:0:0:0:
448,125,45026,2,0,L|490:130,1,37.5,4|0,0:3|0:0,0:0:0:0:
506,160,45298,1,8,0:1:0:0:
413,42,45844,6,0,P|348:40|264:48,1,150,4|8,0:3|0:3,0:0:0:0:
206,97,46662,1,8,0:1:0:0:
139,62,46935,2,0,L|93:60,2,37.5,2|0|4,0:0|0:0|0:3,0:0:0:0:
140,137,47480,1,8,0:1:0:0:
140,212,47753,1,4,0:3:0:0:
137,287,48026,6,0,P|208:287|302:298,1,150,4|8,0:3|0:3,0:0:0:0:
327,358,48844,2,0,P|331:283|336:241,1,112.5,8|0,0:1|0:0,0:0:0:0:
363,220,49389,2,0,L|416:228,1,37.5,4|0,0:3|0:0,0:0:0:0:
427,251,49662,1,8,0:1:0:0:
327,358,50207,6,0,P|260:359|192:364,1,112.5,4|0,0:3|0:0,0:0:0:0:
179,375,50753,2,0,L|161:319,1,37.5,8|0,0:3|0:0,0:0:0:0:
179,303,51026,2,0,L|186:181,1,112.5,8|0,0:1|0:0,0:0:0:0:
210,163,51571,2,0,L|256:167,1,37.5,4|0,0:3|0:0,0:0:0:0:
284,171,51844,1,8,0:1:0:0:
357,183,52116,1,4,0:3:0:0:
371,109,52389,6,0,P|288:94|207:87,1,150,4|8,0:3|0:3,0:0:0:0:
153,116,53207,2,0,P|98:112|28:107,1,112.5,8|4,0:1|0:3,0:0:0:0:
8,127,53753,2,0,P|13:157|18:177,1,37.5,4|0,0:3|0:0,0:0:0:0:
38,193,54026,2,0,P|14:272|2:348,1,150,8|4,0:1|0:3,0:0:0:0:
77,343,54844,5,0,0:0:0:0:
151,347,55116,1,8,0:3:0:0:
225,351,55389,2,0,P|286:351|358:352,1,112.5,8|0,0:1|0:0,0:0:0:0:
372,364,55935,1,4,0:3:0:0:
376,289,56207,1,8,0:1:0:0:
380,214,56480,1,4,0:3:0:0:
390,139,56753,6,0,P|442:144|477:155,2,75,4|0|8,0:3|0:0|0:3,0:0:0:0:
318,161,57571,1,8,0:1:0:0:
256,204,57844,2,0,P|264:240|267:277,2,75,2|4|8,0:0|0:3|0:1,0:0:0:0:
249,129,58662,1,2,0:0:0:0:
287,64,58935,6,0,P|362:62|442:66,1,150,4|8,0:3|0:3,0:0:0:0:
477,128,59753,2,0,L|473:261,1,112.5,8|0,0:1|0:0,0:0:0:0:
447,266,60298,2,0,L|386:263,1,37.5,8|0,0:3|0:0,0:0:0:0:
372,260,60571,1,8,0:1:0:0:
297,252,60844,1,8,0:1:0:0:
229,284,61116,6,0,P|146:284|56:290,1,150,4|8,0:3|0:3,0:0:0:0:
7,312,61935,2,0,P|1:257|0:188,1,112.5,8|4,0:1|0:3,0:0:0:0:
17,167,62480,1,4,0:3:0:0:
17,167,62753,1,8,0:1:0:0:
164,193,63298,6,0,P|252:188|334:189,1,150,4|8,0:3|0:3,0:0:0:0:
377,228,64116,2,0,P|385:296|387:342,1,112.5,8|4,0:1|0:3,0:0:0:0:
364,370,64662,2,0,L|285:366,1,75,4|8,0:3|0:1,0:0:0:0:
219,338,65207,1,4,0:3:0:0:
144,348,65480,6,0,B|131:255|159:290|144:185,1,150,4|8,0:3|0:3,0:0:0:0:
164,126,66298,2,0,P|208:107|293:168,1,150,8|4,0:1|0:3,0:0:0:0:
236,209,67116,1,8,0:1:0:0:
420,184,67662,6,0,P|388:140|292:161,1,150,4|4,0:3|0:3,0:0:0:0:
310,226,68480,2,0,P|403:266|441:287,1,112.5,8|0,0:1|0:0,0:0:0:0:
429,304,69026,2,0,P|416:329|407:353,1,37.5,4|0,0:3|0:0,0:0:0:0:
375,340,69298,1,8,0:1:0:0:
300,346,69571,1,4,0:3:0:0:
225,352,69844,6,0,P|164:356|103:363,1,112.5,4|0,0:3|0:0,0:0:0:0:
76,370,70389,2,0,P|68:334|61:287,1,75,8|8,0:3|0:1,0:0:0:0:
102,232,70935,2,0,P|125:229|153:228,2,37.5,2|0|4,0:0|0:0|0:3,0:0:0:0:
52,175,71480,1,8,0:1:0:0:
172,85,72026,6,0,B|243:75|243:75|318:102,1,150,4|8,0:3|0:3,0:0:0:0:
307,175,72844,2,0,B|236:185|236:185|161:158,1,150,8|4,0:1|0:3,0:0:0:0:
100,116,73662,1,8,0:1:0:0:
25,110,73935,1,4,0:3:0:0:
54,178,74207,6,0,P|44:243|27:319,1,112.5,4|8,0:3|0:3,0:0:0:0:
6,314,74753,2,0,P|49:319|103:325,1,75,8|8,0:3|0:1,0:0:0:0:
148,291,75298,2,0,L|150:246,2,37.5,2|4|4,0:0|0:3|0:3,0:0:0:0:
210,332,75844,2,0,P|274:335|308:338,1,75,8|2,0:1|0:0,0:0:0:0:
359,344,76389,6,0,L|474:356,1,112.5,4|8,0:3|0:3,0:0:0:0:
503,337,76935,2,0,L|474:243,1,75,8|8,0:3|0:1,0:0:0:0:
420,221,77480,2,0,L|398:259,2,37.5,2|0|4,0:0|0:0|0:3,0:0:0:0:
466,161,78026,1,8,0:1:0:0:
458,86,78298,1,4,0:3:0:0:
402,35,78571,6,0,P|329:35|265:39,1,112.5,4|8,0:3|0:3,0:0:0:0:
262,63,79116,1,8,0:3:0:0:
262,63,79389,2,0,P|274:155|276:227,1,150,8|4,0:1|0:3,0:0:0:0:
243,279,80207,1,8,0:1:0:0:
115,358,80753,6,0,B|212:349|175:382|288:362,1,150,4|4,0:3|0:3,0:0:0:0:
322,319,81571,2,0,P|385:337|476:327,1,150,8|4,0:1|0:3,0:0:0:0:
486,256,82389,1,8,0:1:0:0:
503,182,82662,1,4,0:3:0:0:
470,114,82935,6,0,P|415:115|327:138,1,112.5,4|0,0:3|0:0,0:0:0:0:
323,139,83480,2,0,L|345:213,1,75,8|8,0:3|0:1,0:0:0:0:
290,264,84026,2,0,L|331:295,2,37.5,2|4|4,0:0|0:3|0:3,0:0:0:0:
224,227,84571,2,0,P|132:241|74:252,2,150,8|4|8,0:1|0:3|0:3,0:0:0:0:
245,153,85935,1,8,0:1:0:0:
273,83,86207,2,0,L|319:88,2,37.5,2|0|4,0:0|0:0|0:3,0:0:0:0:
198,92,86753,1,8,0:1:0:0:
123,97,87026,1,4,0:3:0:0:
48,103,87298,6,0,P|64:201|57:283,1,150,4|4,0:3|0:3,0:0:0:0:
11,306,88116,1,8,0:1:0:0:
83,325,88389,2,0,L|77:375,2,37.5,2|0|4,0:0|0:0|0:3,0:0:0:0:
138,273,88935,1,8,0:1:0:0:
273,336,89480,6,0,P|365:334|400:336,1,112.5,4|8,0:3|0:3,0:0:0:0:
423,335,90026,2,0,L|412:272,1,37.5,8|0,0:3|0:0,0:0:0:0:
438,267,90298,2,0,P|440:205|445:152,1,112.5,8|4,0:1|0:3,0:0:0:0:
464,122,90844,2,0,P|437:116|410:113,1,37.5,4|0,0:3|0:0,0:0:0:0:
390,106,91116,1,8,0:1:0:0:
316,89,91389,1,4,0:3:0:0:
242,74,91662,6,0,B|236:173|271:129|257:233,1,150,4|8,0:3|0:3,0:0:0:0:
207,276,92480,1,8,0:1:0:0:
255,333,92753,2,0,L|289:350,2,37.5,0|0|4,0:0|0:0|0:3,0:0:0:0:
180,344,93298,2,0,P|94:354|43:353,1,112.5,8|0,0:1|0:0,0:0:0:0:
34,371,93844,6,0,L|28:233,1,112.5,4|0,0:3|0:0,0:0:0:0:
18,222,94389,2,0,L|89:222,1,37.5,8|0,0:3|0:0,0:0:0:0:
88,204,94662,2,0,L|205:209,1,112.5,8|0,0:1|0:0,0:0:0:0:
230,230,95207,5,4,0:3:0:0:
337,251,95480,1,8,0:1:0:0:
358,144,95753,1,2,0:0:0:0:
251,123,96026,1,4,0:0:0:0:
12,194,112662,5,4,0:3:0:0:
12,194,112935,1,2,0:0:0:0:
12,194,113207,1,4,0:3:0:0:
82,168,113480,6,0,P|91:266|88:332,1,150,4|10,1:2|0:3,0:0:0:0:
155,352,114298,2,0,B|248:340|218:373|324:354,1,150,8|2,1:0|1:2,0:0:0:0:
377,371,115116,1,8,0:1:0:0:
377,371,115662,6,0,P|379:283|372:222,1,150,2|10,1:2|0:3,0:0:0:0:
308,181,116480,2,0,P|300:132|303:27,1,150,8|2,1:0|1:2,0:0:0:0:
373,56,117298,1,8,0:1:0:0:
444,80,117571,1,2,0:0:0:0:
511,111,117844,6,0,P|502:176|507:283,1,150,4|10,1:2|0:3,0:0:0:0:
458,320,118662,2,0,P|408:315|294:315,1,150,8|2,1:0|1:2,0:0:0:0:
239,345,119480,1,8,0:1:0:0:
239,345,120026,6,0,P|171:343|77:323,1,150,2|10,1:2|0:3,0:0:0:0:
58,259,120844,2,0,B|51:167|86:200|78:113,1,150,8|2,1:0|1:2,0:0:0:0:
132,21,121662,1,2,1:2:0:0:
163,98,121935,1,2,1:2:0:0:
236,49,122207,6,0,P|303:40|385:71,1,150,4|10,1:2|0:3,0:0:0:0:
436,17,123026,2,0,P|424:102|418:188,1,150,8|2,1:0|0:0,0:0:0:0:
442,247,123844,1,8,0:1:0:0:
442,247,124389,6,0,P|357:244|289:260,1,150,2|10,1:2|0:3,0:0:0:0:
219,283,125207,2,0,P|304:280|372:296,1,150,8|2,1:0|1:2,0:0:0:0:
392,377,126026,1,2,1:2:0:0:
298,359,126298,1,2,1:2:0:0:
210,375,126571,6,0,P|153:374|51:341,1,150,4|10,1:2|0:3,0:0:0:0:
14,292,127389,2,0,B|37:216|6:136,1,150,8|2,1:0|0:0,0:0:0:0:
22,70,128207,2,0,L|107:80,1,75,8|2,0:1|0:0,0:0:0:0:
139,140,128753,6,0,P|217:138|308:139,1,150,2|2,1:2|1:2,0:0:0:0:
354,174,129571,2,0,P|411:173|467:169,1,112.5,8|2,1:1|0:0,0:0:0:0:
497,189,130116,2,0,L|496:245,1,37.5,2|0,1:2|0:0,0:0:0:0:
489,263,130389,1,8,0:1:0:0:
497,337,130662,1,4,0:3:0:0:
424,371,130935,6,0,P|362:363|243:381,1,165.000005035401,4|10,1:0|0:3,0:0:0:0:
178,376,131753,2,0,B|168:277|200:328|189:204,1,165.000005035401,8|2,1:0|1:2,0:0:0:0:
157,136,132571,2,0,P|214:137|269:194,1,123.75000377655,8|0,1:0|0:0,0:0:0:0:
272,219,133116,6,0,P|381:181|434:185,1,165.000005035401,2|10,1:2|0:3,0:0:0:0:
479,249,133935,2,0,P|433:328|355:382,1,165.000005035401,8|4,1:0|0:3,0:0:0:0:
293,372,134753,1,8,1:0:0:0:
270,292,135026,1,4,1:3:0:0:
193,331,135298,6,0,P|92:333|31:365,1,165.000005035401,4|10,1:2|0:3,0:0:0:0:
6,265,136116,2,0,P|1:158|2:117,1,123.75000377655,8|0,1:0|1:0,0:0:0:0:
31,113,136662,1,2,1:2:0:0:
124,117,136935,1,8,1:0:0:0:
123,117,137480,6,0,B|223:147|194:103|295:134,1,165.000005035401,2|10,1:2|0:3,0:0:0:0:
340,191,138298,2,0,P|407:194|474:187,1,123.75000377655,8|0,1:0|0:0,0:0:0:0:
503,178,138844,1,6,0:3:0:0:
500,260,139116,1,2,1:2:0:0:
495,346,139389,1,2,1:2:0:0:
495,346,139662,6,0,P|425:343|328:351,1,165.000005035401,4|10,1:2|0:3,0:0:0:0:
251,327,140480,2,0,P|191:326|68:291,1,165.000005035401,8|2,1:0|0:0,0:0:0:0:
57,224,141298,1,8,1:0:0:0:
57,224,141844,6,0,B|47:139|47:139|92:62,1,165.000005035401,2|10,1:2|0:3,0:0:0:0:
168,84,142662,2,0,B|178:174|178:174|133:246,1,165.000005035401,8|6,1:0|0:3,0:0:0:0:
110,368,143480,1,8,1:0:0:0:
165,311,143753,1,2,1:2:0:0:
220,254,144026,6,0,B|344:247|260:275|396:264,1,165.000005035401,4|10,1:2|0:3,0:0:0:0:
442,208,144844,2,0,P|412:281|437:367,1,165.000005035401,8|2,1:0|1:2,0:0:0:0:
350,363,145662,2,0,L|204:358,1,123.75000377655,8|0,1:0|0:0,0:0:0:0:
185,357,146207,6,0,P|177:279|205:232,1,123.75000377655,2|0,1:2|0:0,0:0:0:0:
233,220,146753,2,0,L|288:228,1,41.2500012588501,10|0,0:3|0:0,0:0:0:0:
313,237,147026,2,0,P|328:159|304:101,1,123.75000377655,8|0,1:0|0:0,0:0:0:0:
283,91,147571,1,6,0:3:0:0:
202,109,147844,1,2,1:2:0:0:
122,129,148116,1,2,1:2:0:0:
44,158,148389,6,0,P|39:225|85:331,1,165.000005035401,4|10,1:2|0:3,0:0:0:0:
155,315,149207,1,8,0:1:0:0:
219,263,149480,2,0,P|215:235|217:202,2,41.2500012588501,2|0|4,0:0|0:0|0:3,0:0:0:0:
299,281,150026,1,8,0:1:0:0:
378,259,150298,6,0,P|410:253|467:252,2,82.5000025177003,2|2|0,0:0|1:2|0:0,0:0:0:0:
318,201,151116,2,0,P|286:195|229:194,2,82.5000025177003,2|8|0,0:0|1:0|0:0,0:0:0:0:
397,179,151935,1,2,0:0:0:0:
434,105,152207,1,8,1:0:0:0:
355,80,152480,1,2,0:0:0:0:
275,57,152753,6,0,B|172:36|213:77|111:52,1,165.000005035401,4|10,1:2|0:3,0:0:0:0:
36,86,153571,2,0,P|48:173|20:274,1,165.000005035401,8|4,0:1|0:3,0:0:0:0:
20,329,154389,1,8,0:1:0:0:
99,305,154662,6,0,P|145:309|188:324,2,82.5000025177003,2|2|0,0:0|1:2|0:0,0:0:0:0:
125,226,155480,2,0,P|141:178|142:133,2,82.5000025177003,2|8|0,0:0|1:0|0:0,0:0:0:0:
205,244,156298,1,2,0:0:0:0:
284,266,156571,1,8,1:0:0:0:
333,199,156844,1,2,0:0:0:0:
253,176,157116,6,0,P|235:258|244:351,1,165.000005035401,4|10,1:2|0:3,0:0:0:0:
324,360,157935,2,0,P|342:278|326:179,1,165.000005035401,8|4,0:1|0:3,0:0:0:0:
314,117,158753,1,8,0:1:0:0:
253,60,159026,6,0,P|190:61|151:69,2,82.5000025177003,2|2|0,0:0|1:2|0:0,0:0:0:0:
332,37,159844,2,0,P|395:38|435:43,2,82.5000025177003,2|8|0,0:0|1:0|0:0,0:0:0:0:
253,60,160662,1,2,0:0:0:0:
231,139,160935,1,8,1:0:0:0:
278,206,161207,1,2,0:0:0:0:
315,132,161480,6,0,P|399:121|458:123,1,123.75000377655,4|2,1:2|0:0,0:0:0:0:
477,134,162026,2,0,L|469:185,1,41.2500012588501,10|0,0:3|0:0,0:0:0:0:
445,207,162298,2,0,P|454:271|447:347,1,123.75000377655,8|0,0:1|0:0,0:0:0:0:
423,361,162844,2,0,L|359:354,1,41.2500012588501,4|0,0:3|0:0,0:0:0:0:
343,370,163116,1,8,0:1:0:0:
261,356,163389,6,0,P|203:359|155:368,2,82.5000025177003,2|2|0,0:0|1:2|0:0,0:0:0:0:
308,288,164207,2,0,P|305:230|296:184,2,82.5000025177003,2|8|0,0:0|1:0|0:0,0:0:0:0:
179,284,165026,1,2,0:0:0:0:
94,285,165298,1,8,1:0:0:0:
129,200,165571,1,2,0:0:0:0:
214,199,165844,1,4,1:0:0:0:
505,195,183298,5,4,0:0:0:0:
360,236,183844,1,10,0:0:0:0:
214,198,184389,1,10,0:0:0:0:
214,198,185207,5,0,0:0:0:0:
287,183,185480,1,2,0:0:0:0:
287,183,186026,5,0,0:0:0:0:
360,198,186298,1,2,0:0:0:0:
360,198,186844,5,0,0:0:0:0:
287,183,187116,1,2,0:0:0:0:
214,198,187389,1,0,0:0:0:0:
201,272,187662,6,0,P|141:298|58:302,2,150,4|8|10,0:0|0:0|0:0,0:0:0:0:
201,272,189571,5,0,0:0:0:0:
273,291,189844,1,2,0:0:0:0:
273,291,190389,5,0,0:0:0:0:
345,272,190662,1,2,0:0:0:0:
345,272,191207,5,0,0:0:0:0:
417,291,191480,1,2,0:0:0:0:
417,291,192026,6,0,P|436:232|417:112,2,150,4|8|10,0:0|0:0|0:0,0:0:0:0:
417,291,193935,5,0,0:0:0:0:
349,259,194207,1,2,0:0:0:0:
349,259,194753,5,0,0:0:0:0:
281,227,195026,1,2,0:0:0:0:
281,227,195571,5,0,0:0:0:0:
213,195,195844,1,2,0:0:0:0:
142,157,196116,1,0,0:0:0:0:
76,121,196389,6,0,P|65:202|85:289,2,150,4|8|10,0:0|0:0|0:0,0:0:0:0:
76,121,198298,5,2,0:0:0:0:
149,106,198571,1,2,0:0:0:0:
149,106,199116,5,2,0:0:0:0:
222,121,199389,1,2,0:0:0:0:
222,121,199935,6,0,L|317:108,2,75,2|2|2,1:2|0:0|0:0,0:0:0:0:
172,186,200753,6,0,B|160:287|217:253|201:365,1,165.000005035401,4|10,1:0|0:3,0:0:0:0:
286,341,201571,1,8,0:1:0:0:
352,292,201844,2,0,P|339:244|315:202,1,82.5000025177003,2|4,0:0|0:3,0:0:0:0:
255,169,202389,1,8,0:1:0:0:
328,130,202662,6,0,P|364:110|402:94,2,82.5000025177003,2|2|0,0:0|1:2|0:0,0:0:0:0:
254,92,203480,2,0,P|213:82|172:77,2,82.5000025177003,8|8|0,0:3|1:0|0:0,0:0:0:0:
328,130,204298,1,2,1:2:0:0:
393,180,204571,1,8,1:0:0:0:
457,232,204844,5,2,0:0:0:0:
483,263,204980,1,0,0:0:0:0:
510,294,205116,2,0,P|454:307|336:295,1,165.000005035401,4|10,1:2|0:3,0:0:0:0:
286,243,205935,1,8,0:1:0:0:
205,261,206207,2,0,P|185:328|196:367,1,82.5000025177003,2|4,0:0|0:3,0:0:0:0:
257,381,206753,1,8,0:1:0:0:
186,339,207026,6,0,P|135:351|99:367,2,82.5000025177003,2|2|0,0:0|1:2|0:0,0:0:0:0:
261,305,207844,2,0,P|312:317|348:333,2,82.5000025177003,2|8|0,0:0|1:0|0:0,0:0:0:0:
194,256,208662,1,2,0:0:0:0:
128,205,208935,2,0,P|155:154|243:162,1,123.75000377655,8|0,1:0|0:0,0:0:0:0:
245,173,209480,1,4,1:0:0:0:
391,65,210026,5,10,0:3:0:0:
327,130,210298,2,0,L|429:147,1,82.5000025177003,8|2,0:1|0:0,0:0:0:0:
449,215,210844,1,4,0:3:0:0:
449,215,211116,1,8,0:1:0:0:
395,278,211389,6,0,P|399:336|413:376,2,82.5000025177003,2|2|0,0:0|1:2|0:0,0:0:0:0:
339,217,212207,2,0,P|299:233|267:263,2,82.5000025177003,8|8|4,0:3|1:0|0:3,0:0:0:0:
382,146,213026,1,2,0:0:0:0:
301,126,213298,1,8,1:0:0:0:
221,146,213571,5,2,0:0:0:0:
197,179,213707,1,0,0:0:0:0:
184,220,213844,2,0,P|177:282|206:381,1,165.000005035401,4|8,1:2|0:3,0:0:0:0:
122,377,214662,2,0,P|64:376|19:384,1,82.5000025177003,8|4,0:1|0:3,0:0:0:0:
66,301,215207,2,0,P|66:254|73:215,1,82.5000025177003,8|8,0:3|0:1,0:0:0:0:
131,161,215753,5,2,0:0:0:0:
212,171,216026,1,2,1:2:0:0:
226,90,216298,1,2,0:0:0:0:
291,139,216571,5,2,0:0:0:0:
372,153,216844,1,8,1:0:0:0:
391,73,217116,1,2,1:2:0:0:
452,127,217389,5,2,0:0:0:0:
429,206,217662,2,0,P|425:275|441:340,1,123.75000377655,8|0,1:0|0:0,0:0:0:0:
466,356,218207,6,0,B|372:340|390:388|274:368,1,165.000005035401,4|10,1:0|0:3,0:0:0:0:
240,306,219026,1,8,0:1:0:0:
290,241,219298,2,0,P|288:197|271:152,1,82.5000025177003,2|4,0:0|0:3,0:0:0:0:
206,114,219844,1,8,0:1:0:0:
282,83,220116,6,0,P|331:79|376:65,2,82.5000025177003,2|2|0,0:0|1:2|0:0,0:0:0:0:
215,33,220935,2,0,P|160:14|133:-12,2,82.5000025177003,2|8|2,0:0|1:0|1:2,0:0:0:0:
282,83,221753,1,0,0:0:0:0:
292,164,222026,1,8,1:0:0:0:
255,237,222298,5,2,0:0:0:0:
230,270,222435,1,0,0:0:0:0:
217,309,222571,2,0,P|290:297|389:306,1,165.000005035401,4|10,1:2|0:3,0:0:0:0:
453,343,223389,1,8,0:1:0:0:
484,266,223662,2,0,P|470:210|470:161,1,82.5000025177003,2|4,0:3|0:3,0:0:0:0:
504,111,224207,1,8,0:1:0:0:
421,118,224480,6,0,P|367:113|316:115,2,82.5000025177003,2|2|0,0:0|1:2|0:0,0:0:0:0:
386,192,225298,2,0,P|385:233|381:274,2,82.5000025177003,2|8|2,0:0|1:0|1:2,0:0:0:0:
303,189,226116,1,2,0:2:0:0:
233,233,226389,1,8,1:0:0:0:
163,278,226662,1,2,1:2:0:0:
94,324,226935,6,0,B|70:230|108:253|82:139,1,165.000005035401,4|10,1:0|0:3,0:0:0:0:
20,111,227753,2,0,P|98:103|123:96,1,82.5000025177003,8|2,0:1|0:0,0:0:0:0:
166,51,228298,1,4,0:3:0:0:
246,68,228571,1,8,0:1:0:0:
325,46,228844,6,0,P|378:51|445:67,2,82.5000025177003,2|2|0,0:0|1:2|0:0,0:0:0:0:
307,126,229662,2,0,P|302:179|286:246,2,82.5000025177003,2|8|4,0:0|1:0|0:3,0:0:0:0:
389,116,230480,1,2,0:0:0:0:
469,135,230753,1,8,1:0:0:0:
459,217,231026,5,2,0:0:0:0:
418,208,231162,1,0,0:0:0:0:
378,198,231298,2,0,P|384:263|363:373,1,165.000005035401,4|10,1:3|0:3,0:0:0:0:
290,331,232116,2,0,P|224:334|199:340,1,82.5000025177003,8|2,0:1|0:0,0:0:0:0:
128,315,232662,2,0,P|66:340|26:366,1,82.5000025177003,4|8,0:3|0:1,0:0:0:0:
44,265,233207,6,0,P|37:211|39:165,2,82.5000025177003,2|2|2,0:0|1:2|0:0,0:0:0:0:
119,229,234026,2,0,P|173:236|219:234,2,82.5000025177003,2|8|2,0:0|1:0|0:0,0:0:0:0:
111,146,234844,1,2,0:0:0:0:
116,63,235116,1,8,1:0:0:0:
198,63,235389,1,2,0:0:0:0:
196,145,235662,6,0,P|269:137|366:139,1,165.000005035401,4|10,1:0|0:3,0:0:0:0:
347,220,236480,2,0,P|331:280|354:380,1,165.000005035401,8|4,0:1|0:3,0:0:0:0:
435,375,237298,2,0,P|451:315|428:215,1,165.000005035401,8|4,0:1|0:3,0:0:0:0:
481,146,238116,1,2,0:0:0:0:
481,146,238253,1,0,0:0:0:0:
481,146,238389,1,10,0:3:0:0:
393,110,238662,2,0,P|321:119|225:153,1,165.000005035401,8|4,0:1|0:3,0:0:0:0:
207,226,239480,1,8,0:1:0:0:
223,306,239753,1,8,0:1:0:0:
297,341,240026,6,0,P|369:332|465:298,1,165.000005035401,4|10,0:3|0:3,0:0:0:0:
385,220,240844,2,0,P|369:172|365:84,1,123.75000377655,8|0,0:1|0:0,0:0:0:0:
394,72,241389,2,0,L|290:62,1,82.5000025177003,4|8,0:3|0:1,0:0:0:0:
175,39,242207,6,0,P|213:100|205:212,1,165.000005035401,4|10,0:3|0:3,0:0:0:0:
130,192,243026,1,8,0:1:0:0:
59,155,243298,1,2,0:0:0:0:
59,155,243435,1,0,0:0:0:0:
59,155,243571,1,4,0:3:0:0:
12,226,243844,1,8,0:1:0:0:
86,264,244116,1,4,0:3:0:0:
76,346,244389,6,0,P|156:370|256:343,1,165.000005035401,4|10,0:0|0:3,0:0:0:0:
256,259,245207,2,0,P|253:189|270:133,1,123.75000377655,8|0,0:1|0:0,0:0:0:0:
243,104,245753,2,0,L|348:124,1,82.5000025177003,4|8,0:3|0:1,0:0:0:0:
450,178,246571,6,0,P|468:244|446:346,1,165.000005035401,4|10,0:3|0:3,0:0:0:0:
371,360,247389,1,8,0:1:0:0:
375,277,247662,1,2,0:0:0:0:
375,277,247798,1,0,0:0:0:0:
375,277,247935,1,4,0:3:0:0:
300,313,248207,1,8,0:1:0:0:
217,314,248480,1,8,0:1:0:0:
134,318,248753,6,0,P|116:252|121:155,1,165.000005035401,4|10,0:3|0:3,0:0:0:0:
120,156,249571,2,0,L|302:164,1,165.000005035401,8|4,0:1|0:3,0:0:0:0:
293,170,250389,1,8,0:1:0:0:
293,170,250935,6,0,L|475:178,1,165.000005035401,4|10,0:3|0:3,0:0:0:0:
457,177,251753,2,0,P|475:111|470:14,1,165.000005035401,8|4,0:1|0:3,0:0:0:0:
470,15,252571,1,8,0:1:0:0:
389,31,252844,1,2,0:0:0:0:
302,50,253116,6,0,P|234:70|187:95,1,123.75000377655,4|0,0:0|0:0,0:0:0:0:
147,103,253662,2,0,P|184:161|199:193,1,82.5000025177003,10|8,0:3|0:1,0:0:0:0:
154,256,254207,1,2,0:0:0:0:
154,256,254344,1,0,0:0:0:0:
154,256,254480,1,4,0:3:0:0:
66,228,254753,2,0,P|33:273|21:344,1,123.75000377655,8|0,0:1|0:0,0:0:0:0:
46,370,255298,6,0,P|125:365|178:345,1,123.75000377655,4|0,0:3|0:0,0:0:0:0:
196,322,255844,1,10,0:3:0:0:
277,333,256116,1,8,0:1:0:0:
356,354,256389,2,0,L|398:362,2,41.2500012588501,0|0|4,0:0|0:0|0:3,0:0:0:0:
277,333,256935,1,8,0:1:0:0:
196,322,257207,1,8,0:1:0:0:
138,262,257480,6,0,P|126:192|136:89,1,165.000005035401,4|10,0:3|0:3,0:0:0:0:
200,50,258298,1,8,0:1:0:0:
214,139,258571,1,2,0:0:0:0:
214,139,258707,1,0,0:0:0:0:
214,139,258844,1,4,0:3:0:0:
277,86,259116,2,0,P|317:81|358:87,1,82.5000025177003,8|2,0:1|0:0,0:0:0:0:
427,134,259662,6,0,P|438:236|421:323,1,165.000005035401,4|10,0:3|0:3,0:0:0:0:
370,356,260480,1,8,0:1:0:0:
297,315,260753,2,0,L|246:320,2,41.2500012588501,2|0|4,0:0|0:0|0:3,0:0:0:0:
354,256,261298,1,8,0:1:0:0:
345,173,261571,1,4,0:3:0:0:
269,139,261844,6,0,P|210:126|104:133,1,165.000005035401,4|10,0:0|0:3,0:0:0:0:
25,148,262662,2,0,P|43:216|112:309,1,165.000005035401,8|4,0:1|0:3,0:0:0:0:
177,290,263480,1,8,0:1:0:0:
177,290,264026,6,0,P|277:281|349:236,1,165.000005035401,4|10,0:3|0:3,0:0:0:0:
407,215,264844,2,0,P|361:161|270:128,1,165.000005035401,8|4,0:1|0:3,0:0:0:0:
198,160,265662,1,8,0:1:0:0:
141,219,265935,1,8,0:1:0:0:
94,151,266207,6,0,P|143:94|241:64,1,165.000005035401,4|10,0:3|0:3,0:0:0:0:
297,23,267026,2,0,P|374:48|429:108,1,165.000005035401,8|4,0:1|0:3,0:0:0:0:
355,145,267844,2,0,B|264:142|282:193|194:186,1,165.000005035401,8|6,0:1|0:3,0:0:0:0:
198,186,268935,6,0,L|212:307,1,82.5000025177003,10|6,0:3|0:3,0:0:0:0:
347,346,269753,1,6,0:3:0:0:
264,346,270026,1,10,0:3:0:0:
181,346,270298,5,10,0:3:0:0:
143,362,270435,1,0,0:0:0:0:
112,376,270571,2,0,P|101:319|68:258,1,112.5,4|0,0:0|0:0,0:0:0:0:
42,257,271116,2,0,L|118:226,1,75,10|8,0:3|0:1,0:0:0:0:
186,237,271662,2,0,L|195:278,2,37.5,2|0|4,0:0|0:0|0:3,0:0:0:0:
156,167,272207,2,0,P|136:116|84:59,1,112.5,8|0,0:1|0:0,0:0:0:0:
72,45,272753,6,0,L|237:41,1,150,4|10,0:3|0:3,0:0:0:0:
278,90,273571,1,8,0:1:0:0:
342,51,273844,2,0,L|359:17,2,37.5,2|0|4,0:0|0:0|0:3,0:0:0:0:
345,126,274389,1,8,0:1:0:0:
282,167,274662,1,8,0:3:0:0:
285,241,274935,6,0,P|331:273|422:246,1,150,4|10,0:3|0:3,0:0:0:0:
475,203,275753,2,0,P|464:291|485:354,1,150,8|4,0:1|0:3,0:0:0:0:
410,370,276571,2,0,P|351:374|265:377,1,112.5,8|0,0:1|0:0,0:0:0:0:
267,353,277116,5,4,0:3:0:0:
191,354,277389,2,0,L|145:362,2,37.5,2|0|10,0:0|0:0|0:3,0:0:0:0:
228,288,277935,2,0,P|236:245|225:159,1,112.5,8|0,0:1|0:0,0:0:0:0:
202,152,278480,1,4,0:3:0:0:
215,78,278753,1,8,0:1:0:0:
228,4,279026,1,8,0:3:0:0:
158,30,279298,6,0,P|106:39|28:69,1,112.5,4|0,0:0|0:0,0:0:0:0:
12,57,279844,2,0,P|39:128|44:157,1,75,10|8,0:3|0:1,0:0:0:0:
93,178,280389,2,0,P|121:179|147:173,2,37.5,2|0|4,0:0|0:0|0:3,0:0:0:0:
22,205,280935,2,0,P|26:272|48:350,1,112.5,8|0,0:1|0:0,0:0:0:0:
22,351,281480,6,0,P|118:335|185:332,1,150,4|10,0:3|0:3,0:0:0:0:
245,333,282298,2,0,P|309:338|414:364,1,150,8|4,0:1|0:3,0:0:0:0:
496,370,283116,1,8,0:1:0:0:
496,370,283389,1,8,0:3:0:0:
448,265,283662,6,0,P|442:183|452:111,1,150,4|10,0:3|0:3,0:0:0:0:
505,64,284480,1,8,0:1:0:0:
432,45,284753,2,0,L|415:11,2,37.5,2|0|4,0:0|0:0|0:3,0:0:0:0:
375,138,285298,1,8,0:1:0:0:
375,138,285844,6,0,B|293:131|309:169|219:160,1,150,4|10,0:3|0:3,0:0:0:0:
160,128,286662,1,8,0:1:0:0:
165,202,286935,2,0,L|187:260,2,37.5,2|0|4,0:0|0:0|0:3,0:0:0:0:
89,202,287480,1,8,0:1:0:0:
80,127,287753,1,4,0:3:0:0:
53,56,288026,6,0,P|114:50|172:52,1,112.5,4|0,0:0|0:0,0:0:0:0:
191,78,288571,2,0,P|244:81|289:74,1,75,10|8,0:3|0:1,0:0:0:0:
333,46,289116,2,0,L|377:40,2,37.5,2|0|4,0:0|0:0|0:3,0:0:0:0:
328,121,289662,2,0,P|335:178|354:247,1,112.5,8|0,0:1|0:0,0:0:0:0:
381,249,290207,5,4,0:0:0:0:
254,329,290753,1,2,0:0:0:0:
178,330,291026,1,8,0:1:0:0:
103,331,291298,1,2,0:0:0:0:
28,336,291571,1,4,0:3:0:0:
28,336,291844,2,0,P|18:267|23:227,1,75,8|0,0:1|0:0,0:0:0:0:
92,250,292389,6,0,L|249:248,1,150,4|10,0:0|0:3,0:0:0:0:
299,200,293207,1,8,0:1:0:0:
313,273,293480,2,0,L|326:321,2,37.5,2|0|4,0:0|0:0|0:3,0:0:0:0:
371,225,294026,5,2,0:0:0:0:
364,150,294298,1,2,0:0:0:0:
355,75,294571,2,0,P|270:84|188:110,1,150,6|10,0:0|0:3,0:0:0:0:
164,163,295389,1,8,0:1:0:0:
133,94,295662,2,0,L|136:53,2,37.5,2|0|4,0:0|0:0|0:3,0:0:0:0:
90,155,296207,1,8,0:1:0:0:
88,230,296480,1,4,0:3:0:0:
83,304,296753,6,0,P|139:303|205:312,1,112.5,4|0,0:0|0:0,0:0:0:0:
230,321,297298,1,2,0:0:0:0:
302,341,297571,1,8,0:1:0:0:
377,337,297844,1,2,0:0:0:0:
439,296,298116,1,2,0:0:0:0:
439,296,298389,1,8,0:1:0:0:
343,179,298935,6,0,P|321:110|279:40,1,150,4|10,0:0|0:3,0:0:0:0:
209,24,299753,1,8,0:1:0:0:
220,98,300026,2,0,P|215:148|211:167,2,37.5,2|0|4,0:0|0:0|0:3,0:0:0:0:
146,83,300571,6,0,P|79:83|55:81,1,75,2|2,0:0|0:0,0:0:0:0:
17,135,301116,2,0,P|25:200|27:296,1,150,4|10,0:0|0:3,0:0:0:0:
75,342,301935,1,8,0:1:0:0:
108,275,302207,2,0,P|108:244|107:225,2,37.5,2|0|4,0:0|0:0|0:3,0:0:0:0:
151,336,302753,5,2,0:0:0:0:
225,344,303026,1,2,0:0:0:0:
299,352,303298,2,0,P|358:348|425:335,1,112.5,4|4,0:0|0:3,0:0:0:0:
447,347,303844,2,0,P|432:290|410:245,1,75,10|8,0:3|0:1,0:0:0:0:
364,232,304389,5,2,0:0:0:0:
241,145,304935,1,8,0:1:0:0:
119,45,305480,1,4,0:0:0:0:
