osu file format v14

[General]
AudioFilename: audio.mp3
AudioLeadIn: 0
PreviewTime: 96026
Countdown: 0
SampleSet: Soft
StackLeniency: 0.7
Mode: 0
LetterboxInBreaks: 0
WidescreenStoryboard: 0

[Editor]
Bookmarks: 61116,96026,130935,165870,200753,235662,270571,305480
DistanceSpacing: 0.6
BeatDivisor: 4
GridSize: 4
TimelineZoom: 1.3

[Metadata]
Title:Beginnings
TitleUnicode:Beginnings
Artist:La Cataline
ArtistUnicode:La Cataline
Creator:Mirash
Version:Collab Insane
Source:
Tags:pandahero lc lacataline instrumental chillout psybient
BeatmapID:1369985
BeatmapSetID:646603

[Difficulty]
HPDrainRate:7
CircleSize:4
OverallDifficulty:7
ApproachRate:8
SliderMultiplier:1.6
SliderTickRate:1

[Events]
//Background and Video events
0,0,"background.jpg",0,0
//Break Periods
2,96226,111912
2,166044,182548
//Storyboard Layer 0 (Background)
//Storyboard Layer 1 (Fail)
//Storyboard Layer 2 (Pass)
//Storyboard Layer 3 (Foreground)
//Storyboard Sound Samples

[TimingPoints]
26,545.454545454546,4,2,1,5,1,0
26207,-83.3333333333333,4,2,1,50,0,0
61116,-83.3333333333333,4,2,1,55,0,0
112662,-125,4,2,1,40,0,0
113480,-100,4,2,1,50,0,0
130935,-100,4,2,1,55,0,0
132571,-200,4,2,1,50,0,0
133116,-100,4,2,1,50,0,0
136935,-200,4,2,1,50,0,0
137480,-100,4,2,1,50,0,0
145662,-200,4,2,1,50,0,0
146207,-100,4,2,1,50,0,0
183298,-166.666666666667,4,2,1,25,0,0
198298,-166.666666666667,4,2,1,30,0,0
199116,-166.666666666667,4,2,1,35,0,0
199935,-166.666666666667,4,2,1,40,0,0
200752,-83.3333333333333,4,2,1,50,0,0
235662,-83.3333333333333,4,2,1,40,0,0
270571,-125,4,2,1,35,0,0
305480,-62.5,4,2,1,20,0,0

[Colours]
Combo1 : 173,48,48
Combo2 : 168,160,190
Combo3 : 191,193,149

[HitObjects]
21,279,26207,6,2,P|80:284|136:273,1,95.9999970703126,4|0,0:3|0:0,0:0:0:0:
238,162,26753,2,0,P|246:207|241:257,1,95.9999970703126,8|8,0:3|0:1,0:0:0:0:
85,190,27298,1,2,0:0:0:0:
88,156,27435,1,0,0:0:0:0:
101,125,27571,1,4,0:3:0:0:
181,80,27844,1,8,0:1:0:0:
181,80,28116,1,2,0:0:0:0:
341,32,28389,6,0,P|332:95|366:229,1,191.999994140625,4|8,0:3|0:3,0:0:0:0:
360,218,29207,1,8,0:1:0:0:
292,343,29480,1,2,0:0:0:0:
287,309,29616,1,0,0:0:0:0:
292,275,29753,1,4,0:3:0:0:
403,324,30026,2,0,L|480:336,1,47.9999985351563,8|0,0:1|0:0,0:0:0:0:
192,337,30298,2,0,L|130:349,1,47.9999985351563,4|0,0:3|0:0,0:0:0:0:
252,197,30571,6,0,P|246:130|172:16,1,191.999994140625,4|8,0:3|0:3,0:0:0:0:
73,183,31389,1,8,0:1:0:0:
98,106,31662,1,2,0:0:0:0:
127,122,31798,1,0,0:0:0:0:
147,148,31935,1,4,0:3:0:0:
157,255,32207,2,0,P|218:281|329:263,1,143.999995605469,8|0,0:1|0:0,0:0:0:0:
294,277,32753,5,4,0:3:0:0:
481,204,33162,1,8,0:3:0:0:
481,204,33298,1,8,0:3:0:0:
407,229,33571,1,8,0:1:0:0:
374,158,33844,1,2,0:0:0:0:
341,165,33980,1,0,0:0:0:0:
308,172,34116,1,4,0:3:0:0:
116,110,34389,5,8,0:1:0:0:
215,275,34662,1,4,0:3:0:0:
127,318,34935,6,0,L|283:308,1,143.999995605469,4|0,0:3|0:0,0:0:0:0:
270,308,35480,2,0,L|271:369,1,47.9999985351563,8|0,0:3|0:0,0:0:0:0:
389,295,35753,2,0,L|381:162,1,95.9999970703126,8|2,0:1|0:0,0:0:0:0:
268,183,36162,1,0,0:0:0:0:
268,183,36298,2,0,L|275:71,2,95.9999970703126,4|8|2,0:3|0:1|0:0,0:0:0:0:
168,172,37116,6,0,L|63:181,1,95.9999970703126,4|0,0:3|0:0,0:0:0:0:
56,210,37526,1,8,0:3:0:0:
39,239,37662,1,8,0:3:0:0:
129,87,37935,2,0,L|234:96,1,95.9999970703126,8|2,0:1|0:0,0:0:0:0:
241,125,38344,1,4,0:3:0:0:
258,154,38480,1,4,0:3:0:0:
352,166,38753,1,8,0:1:0:0:
453,179,39026,1,4,0:3:0:0:
389,296,39298,6,0,P|340:328|267:336,1,95.9999970703126,4|0,0:3|0:0,0:0:0:0:
304,336,39707,1,8,0:3:0:0:
304,336,39844,1,8,0:3:0:0:
375,221,40116,1,8,0:1:0:0:
375,221,40253,1,4,0:3:0:0:
473,327,40526,1,4,0:3:0:0:
473,327,40662,1,4,0:3:0:0:
465,133,40935,2,0,P|408:132|342:139,1,95.9999970703126,8|2,0:1|0:0,0:0:0:0:
87,171,41480,5,4,0:3:0:0:
87,171,41616,1,4,0:3:0:0:
197,163,41889,1,8,0:3:0:0:
197,163,42026,1,8,0:3:0:0:
201,277,42298,2,0,P|155:266|138:263,1,47.9999985351563,8|0,0:1|0:0,0:0:0:0:
199,358,42571,2,0,P|232:349|255:344,1,47.9999985351563,2|0,0:0|0:0,0:0:0:0:
293,275,42844,1,4,0:3:0:0:
407,309,43116,1,8,0:1:0:0:
437,182,43389,1,4,0:3:0:0:
307,152,43662,6,0,P|226:149|113:168,1,191.999994140625,4|8,0:3|0:3,0:0:0:0:
120,58,44480,2,0,P|168:56|227:64,2,95.9999970703126,8|2|4,0:1|0:0|0:3,0:0:0:0:
395,105,45298,2,0,P|399:159|390:226,1,95.9999970703126,8|2,0:1|0:0,0:0:0:0:
189,262,45844,5,4,0:3:0:0:
189,262,45980,1,4,0:3:0:0:
299,241,46253,1,8,0:3:0:0:
299,241,46389,1,8,0:3:0:0:
411,218,46662,1,8,0:1:0:0:
314,349,46935,1,2,0:0:0:0:
266,344,47071,1,0,0:0:0:0:
218,339,47207,1,4,0:3:0:0:
365,291,47480,2,0,P|413:297|469:309,1,95.9999970703126,8|4,0:1|0:3,0:0:0:0:
273,252,48026,6,0,P|320:204|439:219,1,191.999994140625,4|8,0:3|0:3,0:0:0:0:
246,153,48844,1,8,0:1:0:0:
399,98,49116,1,2,0:0:0:0:
350,88,49253,1,0,0:0:0:0:
304,80,49389,1,4,0:3:0:0:
126,98,49662,6,0,P|131:156|112:298,1,191.999994140625,8|4,0:1|0:3,0:0:0:0:
114,288,50344,1,4,0:3:0:0:
114,288,50480,1,0,0:2:0:0:
35,353,50753,1,8,0:3:0:0:
35,353,50889,1,0,0:0:0:0:
35,353,51026,2,0,L|22:295,1,47.9999985351563,8|0,0:1|0:0,0:0:0:0:
56,242,51298,1,2,0:0:0:0:
56,242,51435,1,0,0:0:0:0:
56,242,51571,1,4,0:3:0:0:
117,379,51844,2,0,P|189:375|246:363,1,95.9999970703126,8|4,0:1|0:3,0:0:0:0:
300,264,52389,5,4,0:3:0:0:
353,334,52662,1,2,0:0:0:0:
426,276,52935,1,8,0:3:0:0:
372,206,53207,1,8,0:1:0:0:
239,191,53616,1,4,0:3:0:0:
239,191,53753,1,4,0:3:0:0:
160,137,54026,1,8,0:1:0:0:
148,232,54298,1,2,0:0:0:0:
256,94,54571,6,0,P|356:95|446:112,1,191.999994140625,4|8,0:3|0:3,0:0:0:0:
285,174,55389,2,0,P|286:232|281:262,1,47.9999985351563,8|0,0:1|0:0,0:0:0:0:
362,253,55662,2,0,P|339:294|330:315,1,47.9999985351563,2|0,0:0|0:0,0:0:0:0:
257,299,55935,1,4,0:3:0:0:
130,365,56207,2,0,P|188:366|218:361,1,47.9999985351563,8|0,0:1|0:0,0:0:0:0:
161,289,56480,2,0,P|184:248|193:227,1,47.9999985351563,4|0,0:3|0:0,0:0:0:0:
216,119,56753,6,0,P|237:160|254:243,1,95.9999970703126,4|0,0:3|0:0,0:0:0:0:
108,191,57298,1,8,0:3:0:0:
58,110,57571,1,8,0:1:0:0:
26,265,57844,1,2,0:0:0:0:
140,279,58116,1,4,0:3:0:0:
214,194,58389,2,0,P|272:193|335:195,1,95.9999970703126,8|2,0:1|0:0,0:0:0:0:
256,192,58935,12,4,61116,0:3:0:0:
464,64,61526,5,8,0:3:0:0:
464,64,61662,2,0,P|406:63|343:65,1,95.9999970703126,8|8,0:3|0:1,0:0:0:0:
191,148,62207,1,2,0:0:0:0:
191,148,62344,1,4,0:3:0:0:
191,148,62480,2,0,P|249:147|312:149,1,95.9999970703126,0|8,0:0|0:1,0:0:0:0:
392,248,63026,5,4,0:3:0:0:
392,248,63162,1,8,0:3:0:0:
432,336,63435,1,4,0:3:0:0:
488,232,63707,1,8,0:3:0:0:
496,200,63844,2,0,P|497:152|496:104,1,95.9999970703126,8|8,0:3|0:1,0:0:0:0:
360,64,64389,5,2,0:0:0:0:
384,48,64526,1,4,0:3:0:0:
416,32,64662,2,0,P|391:73|367:115,1,95.9999970703126,4|8,0:3|0:1,0:0:0:0:
320,192,65207,1,4,0:3:0:0:
224,64,65480,6,0,P|166:63|103:65,1,95.9999970703126,4|2,0:3|0:0,0:0:0:0:
104,64,65889,1,8,0:3:0:0:
80,64,66026,1,8,0:3:0:0:
24,168,66298,6,0,P|82:167|145:169,1,95.9999970703126,8|2,0:1|0:0,0:0:0:0:
144,168,66707,1,4,0:3:0:0:
168,168,66844,1,4,0:3:0:0:
96,280,67116,2,0,P|38:279|-25:281,1,95.9999970703126,8|2,0:1|0:0,0:0:0:0:
210,353,67662,5,4,0:3:0:0:
233,353,67798,1,4,0:3:0:0:
257,353,67935,1,8,0:3:0:0:
384,352,68207,1,4,0:3:0:0:
480,240,68480,5,8,0:1:0:0:
432,240,68616,1,0,0:0:0:0:
384,240,68753,1,2,0:0:0:0:
264,240,69026,1,4,0:3:0:0:
168,352,69298,1,8,0:1:0:0:
64,240,69571,1,4,0:3:0:0:
160,64,69844,6,0,L|160:176,2,95.9999970703126,4|2|8,0:3|0:0|0:3,0:0:0:0:
160,24,70526,1,8,0:3:0:0:
192,48,70662,1,4,0:3:0:0:
224,72,70798,1,4,0:3:0:0:
256,96,70935,2,0,P|292:126|336:168,1,95.9999970703126,2|4,0:0|0:3,0:0:0:0:
428,40,71480,2,0,P|432:87|433:147,1,95.9999970703126,8|2,0:1|0:0,0:0:0:0:
248,224,72026,5,4,0:3:0:0:
416,280,72298,1,8,0:3:0:0:
378,265,72435,1,4,0:3:0:0:
341,250,72571,1,8,0:3:0:0:
480,344,72844,1,8,0:1:0:0:
448,192,73116,1,2,0:0:0:0:
410,177,73253,1,4,0:3:0:0:
373,162,73389,1,4,0:3:0:0:
224,144,73662,2,0,P|170:163|110:189,1,95.9999970703126,8|4,0:1|0:3,0:0:0:0:
24,288,74207,6,0,P|91:299|180:304,1,143.999995605469,4|8,0:3|0:3,0:0:0:0:
166,303,74753,1,8,0:3:0:0:
264,272,75026,1,8,0:1:0:0:
286,130,75298,1,2,0:0:0:0:
286,155,75435,1,4,0:3:0:0:
286,177,75571,1,4,0:3:0:0:
392,144,75844,2,0,P|380:192|365:244,1,95.9999970703126,8|2,0:1|0:0,0:0:0:0:
451,353,76389,6,0,P|479:277|503:193,1,143.999995605469,4|8,0:3|0:3,0:0:0:0:
496,216,76935,1,8,0:3:0:0:
473,92,77207,2,0,P|432:117|379:152,1,95.9999970703126,8|2,0:1|0:0,0:0:0:0:
286,203,77753,1,4,0:3:0:0:
317,293,78026,1,8,0:1:0:0:
240,350,78298,1,4,0:3:0:0:
26,281,78571,6,0,P|31:228|42:161,1,95.9999970703126,4|0,0:3|0:0,0:0:0:0:
42,161,78980,1,8,0:3:0:0:
50,137,79116,1,8,0:3:0:0:
165,56,79389,2,0,P|163:104|149:176,2,95.9999970703126,8|2|4,0:1|0:0|0:3,0:0:0:0:
234,201,80207,2,0,P|219:246|187:312,1,95.9999970703126,8|2,0:1|0:0,0:0:0:0:
304,128,80753,5,4,0:3:0:0:
351,132,80889,1,4,0:3:0:0:
398,141,81026,1,8,0:3:0:0:
444,156,81162,1,8,0:3:0:0:
488,176,81298,1,4,0:3:0:0:
479,68,81571,6,0,P|432:47|369:34,1,95.9999970703126,8|2,0:1|0:0,0:0:0:0:
328,224,82116,1,4,0:3:0:0:
227,101,82389,2,0,P|181:81|118:67,1,95.9999970703126,8|4,0:1|0:3,0:0:0:0:
32,192,82935,6,0,L|32:272,2,47.9999985351563,4|0|2,0:3|0:0|0:0,0:0:0:0:
32,96,83480,1,8,0:3:0:0:
152,192,83753,1,8,0:1:0:0:
240,64,84026,1,2,0:0:0:0:
208,48,84162,1,4,0:3:0:0:
168,40,84298,1,4,0:3:0:0:
296,136,84571,2,0,P|272:184|240:240,1,95.9999970703126,8|2,0:1|0:0,0:0:0:0:
144,328,85116,6,0,P|120:344|96:360,2,47.9999985351563,4|0|2,0:3|0:0|0:0,0:0:0:0:
232,352,85662,1,8,0:3:0:0:
392,260,85935,6,0,P|416:276|440:292,2,47.9999985351563,8|0|2,0:1|0:0|0:0,0:0:0:0:
304,284,86480,1,4,0:3:0:0:
240,220,86753,1,8,0:1:0:0:
288,140,87026,1,4,0:3:0:0:
460,44,87298,5,4,0:3:0:0:
420,44,87435,1,4,0:3:0:0:
388,44,87571,1,8,0:3:0:0:
348,44,87707,1,8,0:3:0:0:
308,44,87844,1,4,0:3:0:0:
124,44,88116,2,0,L|252:44,2,95.9999970703126,8|2|4,0:1|0:0|0:3,0:0:0:0:
32,140,88935,1,8,0:1:0:0:
184,140,89207,1,2,0:0:0:0:
32,140,89480,6,0,P|18:190|8:252,1,95.9999970703126,4|2,0:3|0:0,0:0:0:0:
8,284,89889,1,8,0:3:0:0:
16,332,90026,1,8,0:3:0:0:
176,360,90298,5,8,0:1:0:0:
192,264,90571,1,2,0:0:0:0:
200,216,90707,1,4,0:3:0:0:
213,170,90844,1,4,0:3:0:0:
368,176,91116,1,8,0:1:0:0:
288,232,91389,1,4,0:3:0:0:
160,40,91662,6,0,P|232:64|336:88,1,143.999995605469,4|0,0:3|0:0,0:0:0:0:
298,80,92207,1,8,0:3:0:0:
40,120,92480,6,0,P|112:144|216:168,1,143.999995605469,8|0,0:1|0:0,0:0:0:0:
178,160,93026,1,4,0:3:0:0:
120,256,93298,2,0,P|64:242|1:220,1,95.9999970703126,8|2,0:1|0:0,0:0:0:0:
216,352,93844,6,0,P|285:334|354:311,1,143.999995605469,4|0,0:3|0:0,0:0:0:0:
353,311,94389,1,8,0:3:0:0:
480,352,94662,2,0,P|488:264|476:192,1,143.999995605469,8|0,0:1|0:3,0:0:0:0:
480,209,95207,1,4,0:3:0:0:
184,192,95480,5,8,0:1:0:0:
296,256,95753,1,2,0:0:0:0:
464,56,96026,1,4,0:0:0:0:
80,328,112662,5,4,0:3:0:0:
149,295,112935,1,2,0:0:0:0:
224,310,113207,1,4,0:3:0:0:
305,263,113480,2,0,P|372:270|468:304,1,160,4|10,1:2|0:3,0:0:0:0:
317,157,114298,1,8,1:0:0:0:
317,157,114707,5,0,1:0:0:0:
317,157,114844,1,2,1:2:0:0:
218,103,115116,2,0,P|204:171|203:233,1,120,8|0,0:1|0:0,0:0:0:0:
121,207,115662,6,0,P|127:140|156:41,1,160,2|10,1:2|0:3,0:0:0:0:
27,191,116480,2,0,P|42:240|89:308,1,120,8|0,1:0|0:0,0:0:0:0:
99,297,117026,1,2,1:2:0:0:
245,352,117298,1,8,0:1:0:0:
396,256,117571,1,2,0:0:0:0:
369,67,117844,6,0,B|298:52|282:88|207:65,1,160,4|10,1:2|0:3,0:0:0:0:
102,48,118662,2,0,P|91:102|138:154,1,120,8|0,1:0|0:0,0:0:0:0:
128,150,119207,2,0,L|181:130,1,40,2|0,1:2|0:0,0:0:0:0:
114,237,119480,1,8,0:1:0:0:
114,237,119889,5,2,0:0:0:0:
114,237,120026,2,0,B|105:295|105:295|133:356,1,120,2|0,1:2|0:0,0:0:0:0:
130,350,120571,2,0,L|194:338,1,40,10|0,0:3|0:0,0:0:0:0:
218,256,120844,2,0,L|345:267,1,120,8|0,1:0|0:0,0:0:0:0:
337,266,121389,2,0,L|334:322,1,40,2|0,1:2|0:0,0:0:0:0:
488,172,121662,5,2,1:2:0:0:
359,99,121935,1,2,1:2:0:0:
215,142,122207,2,0,B|130:147|58:176,1,160,4|10,1:2|0:3,0:0:0:0:
344,211,123026,2,0,P|396:222|495:265,1,160,8|2,1:0|0:0,0:0:0:0:
280,266,123844,2,0,P|236:258|197:243,1,80,8|0,0:1|0:0,0:0:0:0:
299,30,124389,6,0,B|294:130|272:86|272:198,1,160,2|10,1:2|0:3,0:0:0:0:
361,295,125207,1,8,1:0:0:0:
361,295,125616,1,0,1:0:0:0:
361,295,125753,1,2,1:2:0:0:
188,333,126026,5,2,1:2:0:0:
75,240,126298,1,2,1:2:0:0:
86,95,126571,2,0,P|145:74|249:83,1,160,4|10,1:2|0:3,0:0:0:0:
354,59,127389,2,0,P|342:120|275:198,1,160,8|2,1:0|0:0,0:0:0:0:
181,177,128207,1,8,0:1:0:0:
181,177,128480,1,2,0:0:0:0:
430,350,128753,5,2,1:2:0:0:
188,335,129162,1,2,0:0:0:0:
188,335,129298,1,2,1:2:0:0:
418,244,129571,1,8,1:1:0:0:
336,271,129980,5,2,0:0:0:0:
336,271,130116,1,2,1:2:0:0:
110,266,130389,1,8,0:1:0:0:
381,166,130662,1,4,0:3:0:0:
82,34,130935,6,2,P|136:64|209:74,1,120,4|0,1:0|0:0,0:0:0:0:
216,75,131480,1,10,0:3:0:0:
280,200,131753,1,8,1:0:0:0:
376,80,132162,1,0,1:0:0:0:
376,80,132298,1,2,1:2:0:0:
376,236,132571,6,0,L|376:308,1,60,8|0,1:0|0:0,0:0:0:0:
272,352,133116,6,0,P|210:341|141:323,1,120,2|0,1:2|0:0,0:0:0:0:
128,312,133662,1,10,0:3:0:0:
64,56,133935,6,0,P|125:66|194:84,1,120,8|0,1:0|0:0,0:0:0:0:
208,96,134480,1,4,0:3:0:0:
304,192,134753,1,8,1:0:0:0:
256,272,135026,1,4,1:3:0:0:
32,360,135298,6,0,P|42:298|60:229,1,120,4|0,1:2|0:0,0:0:0:0:
64,216,135844,1,10,0:3:0:0:
156,301,136116,1,8,1:0:0:0:
316,208,136526,1,0,1:0:0:0:
316,208,136662,1,2,1:2:0:0:
276,352,136935,6,0,P|259:325|244:288,1,60,8|0,1:0|0:0,0:0:0:0:
328,132,137480,6,0,B|412:116|412:156|504:136,1,160,2|10,1:2|0:3,0:0:0:0:
328,36,138298,2,0,B|244:52|244:12|152:32,1,160,8|6,1:0|0:3,0:0:0:0:
320,184,139116,6,0,L|360:192,1,40,2|0,1:2|0:0,0:0:0:0:
288,216,139389,2,0,L|328:224,1,40,2|0,1:2|0:0,0:0:0:0:
75,85,139662,6,0,P|72:149|75:205,1,120,4|0,1:2|0:0,0:0:0:0:
51,229,140207,2,0,L|83:277,1,40,10|0,0:3|0:0,0:0:0:0:
139,325,140480,1,8,1:0:0:0:
334,345,140753,6,0,L|296:336,1,40,2|0,0:0|0:0,0:0:0:0:
416,312,141026,2,0,L|480:328,1,40,2|0,0:0|0:0,0:0:0:0:
488,203,141298,2,0,P|490:156|488:92,1,80,8|0,1:0|0:0,0:0:0:0:
216,40,141844,6,0,P|156:64|76:77,1,120,2|0,1:2|0:0,0:0:0:0:
72,72,142389,1,10,0:3:0:0:
296,190,142662,6,0,P|355:214|435:227,1,120,8|0,1:0|0:0,0:0:0:0:
440,222,143207,1,6,0:3:0:0:
206,286,143480,5,8,1:0:0:0:
296,190,143753,1,2,1:2:0:0:
162,56,144026,1,4,1:2:0:0:
464,88,144435,5,0,0:0:0:0:
464,88,144571,1,10,0:3:0:0:
424,176,144844,1,8,1:0:0:0:
48,88,145389,1,2,1:2:0:0:
104,232,145662,6,0,P|118:264|138:299,1,60,8|0,1:0|0:0,0:0:0:0:
332,351,146207,6,0,P|344:288|347:222,1,120,2|0,1:2|0:0,0:0:0:0:
344,208,146753,1,10,0:3:0:0:
186,33,147026,2,0,P|172:106|174:192,1,160,8|6,1:0|0:3,0:0:0:0:
432,312,147844,2,0,L|432:376,1,40,2|0,1:2|0:0,0:0:0:0:
304,304,148116,2,0,L|304:264,1,40,2|0,1:2|0:0,0:0:0:0:
472,112,148389,6,0,P|440:176|400:224,1,120,4|0,1:2|0:0,0:0:0:0:
383,200,148935,2,0,P|377:218|372:238,1,40,10|0,0:3|0:0,0:0:0:0:
400,344,149207,1,8,0:1:0:0:
192,288,149480,1,2,0:0:0:0:
176,292,149616,1,0,0:0:0:0:
160,296,149753,1,4,0:3:0:0:
56,272,150026,1,8,0:1:0:0:
255,352,150298,5,2,0:0:0:0:
255,133,150571,1,2,1:2:0:0:
255,251,151116,5,2,0:0:0:0:
255,32,151389,1,8,1:0:0:0:
255,352,151935,5,2,0:0:0:0:
255,133,152207,1,8,1:0:0:0:
255,251,152480,5,2,0:0:0:0:
255,32,152753,1,4,1:2:0:0:
120,120,153026,6,0,L|79:158,1,40,2|0,0:0|0:0,0:0:0:0:
32,216,153298,1,10,0:3:0:0:
64,304,153571,1,8,0:1:0:0:
160,312,153844,6,0,L|215:298,1,40,2|0,0:0|0:0,0:0:0:0:
288,352,154116,1,4,0:3:0:0:
360,248,154389,1,8,0:1:0:0:
496,344,154662,5,2,0:0:0:0:
432,160,154935,1,2,1:2:0:0:
504,192,155480,5,2,0:0:0:0:
320,256,155753,1,8,1:0:0:0:
456,352,156298,5,2,0:0:0:0:
424,159,156571,1,8,1:0:0:0:
490,203,156844,5,2,0:0:0:0:
297,234,157116,1,4,1:2:0:0:
384,48,157526,5,2,0:0:0:0:
368,32,157662,1,10,0:3:0:0:
296,88,157935,1,8,0:1:0:0:
128,48,158207,5,2,0:0:0:0:
144,32,158344,1,0,0:0:0:0:
168,32,158480,1,4,0:3:0:0:
352,160,158753,1,8,0:1:0:0:
255,352,159026,5,2,0:0:0:0:
28,352,159298,1,2,1:2:0:0:
143,352,159844,5,2,0:0:0:0:
370,352,160116,1,8,1:0:0:0:
482,337,160662,5,2,0:0:0:0:
255,337,160935,1,8,1:0:0:0:
370,337,161207,5,2,0:0:0:0:
143,337,161480,1,4,1:2:0:0:
22,153,161889,5,2,0:0:0:0:
32,163,162026,2,0,P|54:200|78:244,1,80,10|8,0:3|0:1,0:0:0:0:
152,108,162571,1,2,0:0:0:0:
162,146,162707,1,0,0:0:0:0:
172,185,162844,1,4,0:3:0:0:
280,84,163116,1,8,0:1:0:0:
200,352,163389,5,2,0:0:0:0:
375,221,163662,1,2,1:2:0:0:
80,168,164207,5,2,0:0:0:0:
255,299,164480,1,8,1:0:0:0:
375,85,165026,5,2,0:0:0:0:
200,216,165298,1,8,1:0:0:0:
80,32,165571,5,2,0:0:0:0:
255,163,165844,1,4,1:0:0:0:
64,352,183298,6,0,P|120:336|169:330,2,95.9999970703126,4|10|10,0:0|0:0|0:0,0:0:0:0:
44,218,185207,2,0,P|80:227|108:226,1,47.9999985351563,0|2,0:0|0:0,0:0:0:0:
127,136,186026,2,0,P|91:127|63:128,1,47.9999985351563,0|2,0:0|0:0,0:0:0:0:
179,212,186844,1,0,0:0:0:0:
255,214,187116,1,2,0:0:0:0:
331,216,187389,1,0,0:0:0:0:
407,218,187662,6,0,P|420:312|421:329,2,95.9999970703126,4|8|10,0:0|0:0|0:0,0:0:0:0:
332,301,189571,2,0,P|298:306|273:316,1,47.9999985351563,0|2,0:0|0:0,0:0:0:0:
202,247,190389,2,0,P|237:240|255:233,1,47.9999985351563,0|2,0:0|0:0,0:0:0:0:
387,153,191207,1,0,0:0:0:0:
301,141,191480,1,2,0:0:0:0:
301,141,192026,6,0,P|309:102|334:46,2,95.9999970703126,4|8|10,0:0|0:0|0:0,0:0:0:0:
164,61,193935,2,0,L|171:127,1,47.9999985351563,0|2,0:0|0:0,0:0:0:0:
37,205,194753,2,0,L|30:150,1,47.9999985351563,0|2,0:0|0:0,0:0:0:0:
138,160,195571,1,0,0:0:0:0:
149,236,195844,1,2,0:0:0:0:
160,311,196116,1,0,0:0:0:0:
253,344,196389,6,0,P|251:320|255:296,1,47.9999985351563,4|0,0:0|0:0,0:0:0:0:
323,212,196935,2,0,P|331:240|337:261,1,47.9999985351563,8|0,0:0|0:0,0:0:0:0:
423,341,197480,2,0,P|424:317|420:293,1,47.9999985351563,10|0,0:0|0:0,0:0:0:0:
402,219,198026,1,0,0:0:0:0:
252,155,198298,1,0,0:0:0:0:
252,155,198572,2,0,P|275:151|297:142,1,47.9999985351563,2|2,0:0|0:0,0:0:0:0:
189,216,199116,2,0,P|184:240|175:263,2,47.9999985351563,2|2|0,0:0|0:0|0:0,0:0:0:0:
21,217,199935,2,0,P|62:215|85:210,1,47.9999985351563,2|2,1:2|0:0,0:0:0:0:
113,301,200480,1,2,0:0:0:0:
32,336,200753,6,2,B|144:304|124:369|250:326,1,191.999994140625,4|10,1:0|0:3,0:0:0:0:
304,288,201571,1,8,0:1:0:0:
400,304,201844,2,0,P|448:328|488:360,2,95.9999970703126,2|4|8,0:0|0:3|0:1,0:0:0:0:
216,312,202662,5,2,0:0:0:0:
96,352,202935,2,2,P|48:296|40:216,1,143.999995605469,2|0,1:2|0:0,0:0:0:0:
40,208,203480,1,8,0:3:0:0:
232,72,203753,2,2,P|176:120|96:128,1,143.999995605469,8|0,1:0|0:0,0:0:0:0:
88,128,204298,1,2,1:2:0:0:
56,248,204571,1,8,1:0:0:0:
48,120,204844,1,2,0:0:0:0:
152,288,205116,6,2,P|208:336|288:344,1,143.999995605469,4|0,1:2|0:0,0:0:0:0:
296,344,205662,1,10,0:3:0:0:
384,304,205935,1,8,0:1:0:0:
479,189,206207,2,0,P|483:237|481:286,1,95.9999970703126,2|4,0:0|0:3,0:0:0:0:
385,213,206753,1,8,0:1:0:0:
328,40,207026,5,2,0:0:0:0:
176,96,207298,1,2,1:2:0:0:
184,224,207844,5,2,0:0:0:0:
328,280,208116,1,8,1:0:0:0:
328,40,208662,5,2,0:0:0:0:
176,96,208935,2,0,P|221:116|286:137,1,95.9999970703126,8|2,1:0|0:0,0:0:0:0:
479,135,209480,6,2,B|511:247|445:227|488:353,1,191.999994140625,4|10,1:0|0:3,0:0:0:0:
378,353,210298,2,0,P|374:309|375:241,2,95.9999970703126,8|2|4,0:1|0:0|0:3,0:0:0:0:
288,219,211116,1,8,0:1:0:0:
463,359,211389,5,2,0:0:0:0:
272,320,211662,2,2,P|189:326|117:350,1,143.999995605469,2|0,1:2|0:0,0:0:0:0:
96,360,212207,2,0,P|83:301|80:240,1,95.9999970703126,8|8,0:3|1:0,0:0:0:0:
216,144,212753,5,4,0:3:0:0:
160,232,213026,1,2,0:0:0:0:
16,144,213298,1,8,1:0:0:0:
72,232,213571,1,2,0:0:0:0:
224,96,213844,6,2,P|264:128|312:176,1,95.9999970703126,4|0,1:2|0:0,0:0:0:0:
309,179,214253,1,8,0:3:0:0:
322,198,214389,1,8,0:3:0:0:
360,88,214662,5,8,0:1:0:0:
418,158,214935,2,0,P|432:180|446:213,1,47.9999985351563,4|4,0:3|0:3,0:0:0:0:
470,283,215207,1,8,0:3:0:0:
505,126,215480,1,8,0:1:0:0:
312,256,215753,5,2,0:0:0:0:
80,312,216026,5,2,1:2:0:0:
32,232,216298,1,2,0:0:0:0:
104,136,216571,1,2,0:0:0:0:
198,62,216844,5,8,1:0:0:0:
104,136,217116,1,2,0:0:0:0:
130,226,217389,1,2,0:0:0:0:
198,62,217662,5,8,1:0:0:0:
288,36,217935,1,2,0:0:0:0:
376,172,218207,6,2,B|410:268|345:248|377:360,1,191.999994140625,4|10,1:0|0:3,0:0:0:0:
478,354,219026,2,0,P|486:298|478:242,1,95.9999970703126,8|2,0:1|0:0,0:0:0:0:
478,234,219435,1,4,0:3:0:0:
470,210,219571,1,4,0:3:0:0:
382,122,219844,1,8,0:1:0:0:
123,179,220116,5,2,0:0:0:0:
227,19,220389,1,2,1:2:0:0:
121,79,220935,5,2,0:0:0:0:
216,142,221207,1,8,1:0:0:0:
184,249,221753,5,2,1:2:0:0:
294,215,222026,1,8,1:0:0:0:
325,305,222298,1,2,0:0:0:0:
218,348,222571,1,4,1:2:0:0:
408,248,222844,6,0,P|431:266|456:288,1,47.9999985351563,2|0,0:0|0:0,0:0:0:0:
496,352,223116,1,10,0:3:0:0:
504,192,223389,2,0,P|504:136|496:72,2,95.9999970703126,8|2|4,0:1|0:3|0:3,0:0:0:0:
400,328,224207,1,8,0:1:0:0:
184,232,224480,5,2,0:0:0:0:
328,104,224753,2,2,P|328:184|312:264,1,143.999995605469,2|0,1:2|0:0,0:0:0:0:
316,246,225298,1,2,0:0:0:0:
240,352,225571,1,8,1:0:0:0:
104,272,225844,1,2,1:2:0:0:
192,136,226116,6,0,L|240:168,1,47.9999985351563,2|0,1:2|0:0,0:0:0:0:
352,160,226389,2,0,L|312:133,1,47.9999985351563,8|0,1:0|0:0,0:0:0:0:
432,128,226662,2,0,L|480:160,1,47.9999985351563,2|0,1:2|0:0,0:0:0:0:
264,40,226935,6,2,B|168:74|188:9|76:41,1,191.999994140625,4|10,1:0|0:3,0:0:0:0:
8,96,227753,1,8,0:1:0:0:
56,209,228026,2,0,P|67:238|74:279,1,47.9999985351563,2|0,0:0|0:0,0:0:0:0:
79,349,228298,1,4,0:3:0:0:
184,238,228571,5,8,0:1:0:0:
388,350,228844,1,2,0:0:0:0:
488,227,229116,6,2,P|495:140|477:24,1,191.999994140625,2|2,1:2|0:0,0:0:0:0:
353,35,229935,2,0,P|345:82|341:151,1,95.9999970703126,8|4,1:0|0:3,0:0:0:0:
358,266,230480,5,2,0:0:0:0:
263,312,230753,1,8,1:0:0:0:
179,216,231026,1,2,0:0:0:0:
382,45,231298,6,2,P|439:58|501:86,1,95.9999970703126,4|2,1:3|0:0,0:0:0:0:
290,96,231844,1,10,0:3:0:0:
382,209,232116,6,2,P|439:222|501:250,2,95.9999970703126,8|2|4,0:1|0:0|0:3,0:0:0:0:
235,257,232935,1,8,0:1:0:0:
37,40,233207,5,2,0:0:0:0:
176,112,233480,5,2,1:2:0:0:
136,200,233753,1,2,0:0:0:0:
40,208,234026,1,2,0:0:0:0:
206,193,234298,5,8,1:0:0:0:
127,249,234571,1,2,0:0:0:0:
40,208,234844,1,2,0:0:0:0:
192,278,235116,5,8,1:0:0:0:
95,287,235389,1,2,0:0:0:0:
40,208,235662,1,4,1:0:0:0:
239,139,236071,5,0,0:0:0:0:
239,139,236207,2,0,B|282:132|282:132|338:147,1,95.9999970703126,10|8,0:3|0:1,0:0:0:0:
328,300,236753,2,0,B|285:307|285:307|229:292,1,95.9999970703126,2|4,0:0|0:3,0:0:0:0:
41,110,237298,1,8,0:1:0:0:
41,110,237844,6,0,P|56:160|60:214,1,95.9999970703126,4|2,0:3|0:0,0:0:0:0:
24,282,238389,1,10,0:3:0:0:
143,127,238662,2,0,P|199:131|244:140,1,95.9999970703126,8|2,0:1|0:0,0:0:0:0:
276,214,239071,1,0,0:0:0:0:
276,214,239207,1,4,0:3:0:0:
450,249,239480,5,8,0:1:0:0:
135,339,239753,1,8,0:1:0:0:
234,358,240026,6,0,P|306:354|355:366,1,95.9999970703126,4|2,0:3|0:0,0:0:0:0:
404,325,240571,1,10,0:3:0:0:
241,275,240844,1,8,0:1:0:0:
241,275,241253,1,0,0:0:0:0:
241,275,241389,1,4,0:3:0:0:
447,249,241662,1,8,0:1:0:0:
208,110,242207,6,0,P|271:106|321:106,1,95.9999970703126,4|2,0:3|0:0,0:0:0:0:
361,163,242616,1,0,0:0:0:0:
361,163,242753,2,0,P|361:211|365:259,1,95.9999970703126,10|8,0:3|0:1,0:0:0:0:
238,276,243298,1,2,0:0:0:0:
205,279,243435,1,0,0:0:0:0:
172,282,243571,1,4,0:3:0:0:
139,286,243707,1,0,0:0:0:0:
99,253,243844,5,8,0:1:0:0:
478,267,244116,1,4,0:3:0:0:
391,309,244389,6,0,B|398:263|398:263|354:157,1,143.999995605469,4|0,0:0|0:0,0:0:0:0:
325,149,244935,2,0,L|393:131,1,47.9999985351563,10|0,0:3|0:0,0:0:0:0:
240,90,245207,2,0,P|238:146|246:217,1,95.9999970703126,8|0,0:1|0:0,0:0:0:0:
288,246,245616,2,0,L|255:311,2,47.9999985351563,0|4|0,0:0|0:3|0:0,0:0:0:0:
462,176,246026,2,0,P|465:128|463:80,1,95.9999970703126,8|2,0:1|0:0,0:0:0:0:
330,63,246571,5,4,0:3:0:0:
330,63,246980,1,0,0:0:0:0:
330,63,247116,1,10,0:3:0:0:
117,106,247389,2,0,P|164:100|216:98,1,95.9999970703126,8|0,0:1|0:0,0:0:0:0:
212,97,247798,1,0,0:0:0:0:
212,97,247935,1,4,0:3:0:0:
478,190,248207,5,8,0:1:0:0:
189,296,248480,1,8,0:1:0:0:
127,188,248753,6,0,B|113:231|113:231|117:297,1,95.9999970703126,4|2,0:3|0:0,0:0:0:0:
38,175,249298,1,10,0:3:0:0:
275,213,249571,2,0,B|278:263|278:263|264:306,2,95.9999970703126,8|2|4,0:1|0:0|0:3,0:0:0:0:
465,52,250389,2,0,B|385:31|406:85|305:53,1,143.999995605469,8|0,0:1|0:0,0:0:0:0:
282,21,250935,6,0,P|283:81|277:133,1,95.9999970703126,4|2,0:3|0:0,0:0:0:0:
345,157,251344,1,0,0:0:0:0:
345,157,251480,2,0,L|338:215,1,47.9999985351563,10|0,0:3|0:0,0:0:0:0:
246,190,251753,2,0,L|265:297,1,95.9999970703126,8|0,0:1|0:0,0:0:0:0:
159,243,252162,2,0,L|85:237,2,47.9999985351563,0|4|0,0:0|0:3|0:0,0:0:0:0:
340,284,252571,2,0,L|404:288,1,47.9999985351563,8|0,0:1|0:0,0:0:0:0:
165,142,252844,2,0,L|108:138,1,47.9999985351563,2|0,0:0|0:0,0:0:0:0:
401,211,253116,5,4,0:0:0:0:
401,211,253526,1,0,0:0:0:0:
401,211,253662,1,10,0:3:0:0:
221,313,253935,1,8,0:1:0:0:
305,361,254207,1,2,0:0:0:0:
305,361,254344,1,0,0:0:0:0:
305,361,254480,1,4,0:3:0:0:
134,363,254753,2,0,P|130:292|144:181,1,143.999995605469,8|0,0:1|0:0,0:0:0:0:
169,223,255298,5,4,0:3:0:0:
202,228,255435,1,0,0:0:0:0:
234,234,255571,1,2,0:0:0:0:
314,203,255844,1,10,0:3:0:0:
461,307,256116,1,8,0:1:0:0:
461,307,256526,1,0,0:0:0:0:
461,307,256662,1,4,0:3:0:0:
424,139,256935,5,8,0:1:0:0:
310,333,257207,1,8,0:1:0:0:
221,195,257480,6,0,P|201:138|190:-2,1,191.999994140625,4|10,0:3|0:3,0:0:0:0:
44,238,258298,2,0,P|100:218|140:226,1,95.9999970703126,8|2,0:1|0:0,0:0:0:0:
196,288,258707,1,0,0:0:0:0:
196,288,258844,2,0,P|252:284|294:260,2,95.9999970703126,4|8|2,0:3|0:1|0:0,0:0:0:0:
362,302,259662,5,4,0:3:0:0:
362,302,260071,1,0,0:0:0:0:
362,302,260207,1,10,0:3:0:0:
432,246,260480,1,8,0:1:0:0:
372,313,260753,1,2,0:0:0:0:
372,313,260889,1,0,0:0:0:0:
372,313,261026,1,4,0:3:0:0:
368,186,261298,5,8,0:1:0:0:
158,156,261571,1,4,0:3:0:0:
101,260,261844,6,0,P|136:326|251:353,1,191.999994140625,4|10,0:0|0:3,0:0:0:0:
196,242,262662,2,0,P|179:181|149:149,1,95.9999970703126,8|2,0:1|0:0,0:0:0:0:
134,153,263071,1,0,0:0:0:0:
110,156,263207,1,4,0:3:0:0:
345,268,263480,2,0,P|326:198|324:90,1,143.999995605469,8|0,0:1|0:0,0:0:0:0:
423,168,264026,6,0,P|441:272|440:340,1,143.999995605469,4|0,0:3|0:0,0:0:0:0:
441,310,264571,2,0,L|382:321,1,47.9999985351563,10|0,0:3|0:0,0:0:0:0:
190,333,264844,2,0,L|136:323,1,47.9999985351563,8|0,0:1|0:0,0:0:0:0:
294,187,265116,1,2,0:0:0:0:
293,220,265253,1,0,0:0:0:0:
292,253,265389,1,4,0:3:0:0:
291,286,265526,1,0,0:0:0:0:
330,330,265662,5,8,0:1:0:0:
252,147,265935,1,8,0:1:0:0:
376,28,266207,6,0,P|386:103|374:228,1,191.999994140625,4|10,0:3|0:3,0:0:0:0:
293,49,267026,2,0,P|236:51|196:58,1,95.9999970703126,8|2,0:1|0:0,0:0:0:0:
65,163,267435,1,0,0:0:0:0:
65,163,267571,2,0,P|122:165|162:172,1,95.9999970703126,4|8,0:3|0:1,0:0:0:0:
155,286,268389,5,4,3:3:0:0:
187,294,268526,1,0,3:3:0:0:
220,292,268662,1,0,3:3:0:0:
252,282,268798,1,0,3:3:0:0:
278,241,268935,5,8,3:3:0:0:
311,243,269071,1,0,3:3:0:0:
344,245,269207,1,4,3:3:0:0:
377,247,269344,1,0,3:3:0:0:
435,236,269480,5,0,3:3:0:0:
435,236,269616,1,0,3:3:0:0:
435,236,269753,1,4,3:3:0:0:
435,236,269889,1,0,3:3:0:0:
472,208,270026,6,0,L|476:163,7,23.9999992675781,8|0|0|0|8|0|0|0,3:3|3:3|3:3|3:3|3:3|3:3|3:3|3:3,3:3:0:0:
472,208,270571,6,2,B|392:192|424:224|344:208,1,128,4|10,0:0|0:3,0:0:0:0:
272,240,271389,1,8,0:1:0:0:
280,136,271662,2,0,L|240:160,2,32,2|0|4,0:0|0:0|0:3,0:0:0:0:
360,88,272207,2,0,P|387:71|416:57,1,64,8|0,0:1|0:0,0:0:0:0:
240,40,272753,6,0,P|189:42|144:40,1,96,4|0,0:3|0:0,0:0:0:0:
144,40,273298,1,10,0:3:0:0:
32,128,273571,2,0,P|82:130|112:128,2,64,8|2|4,0:1|0:0|0:3,0:0:0:0:
176,144,274389,2,0,L|176:192,1,32,8|0,0:1|0:0,0:0:0:0:
216,168,274662,2,0,L|216:200,1,32,8|0,0:3|0:0,0:0:0:0:
38,255,274935,6,0,P|36:301|38:351,1,96,4|0,0:3|0:0,0:0:0:0:
37,350,275480,1,10,0:3:0:0:
200,352,275753,2,0,L|248:352,2,32,8|0|2,0:1|0:0|0:0,0:0:0:0:
127,305,276298,1,4,0:3:0:0:
300,309,276571,2,0,P|333:307|372:309,1,64,8|0,0:1|0:0,0:0:0:0:
168,204,277116,5,4,0:3:0:0:
164,56,277389,2,0,L|164:0,2,32,2|0|10,0:0|0:0|0:3,0:0:0:0:
84,204,277935,5,8,0:1:0:0:
252,204,278207,2,0,L|308:204,2,32,2|0|4,0:0|0:0|0:3,0:0:0:0:
76,292,278753,5,8,0:1:0:0:
168,204,279026,1,8,0:3:0:0:
344,256,279298,6,0,P|374:269|416:296,1,64,4|2,0:0|0:0,0:0:0:0:
400,285,279707,2,0,L|424:336,1,32,0|10,0:0|0:3,0:0:0:0:
392,156,280116,6,0,P|422:169|464:196,1,64,8|2,0:1|0:0,0:0:0:0:
448,185,280526,2,0,L|472:236,1,32,0|4,0:0|0:3,0:0:0:0:
432,48,280935,6,0,P|462:61|504:88,1,64,8|0,0:1|0:0,0:0:0:0:
304,40,281480,6,0,L|248:40,1,32,4|0,0:3|0:0,0:0:0:0:
264,120,281753,2,0,L|208:120,1,32,2|0,0:0|0:0,0:0:0:0:
88,64,282026,5,10,0:3:0:0:
8,152,282298,1,8,0:1:0:0:
136,240,282571,2,0,L|176:240,2,32,2|0|4,0:0|0:0|0:3,0:0:0:0:
248,264,283116,1,8,0:1:0:0:
176,352,283389,1,8,0:3:0:0:
232,160,283662,5,4,0:3:0:0:
296,32,284071,1,0,0:0:0:0:
312,48,284207,1,10,0:3:0:0:
208,32,284480,1,8,0:1:0:0:
336,136,284753,2,0,L|336:176,2,32,2|0|4,0:0|0:0|0:3,0:0:0:0:
436,68,285298,2,0,P|439:117|437:171,1,96,8|0,0:1|0:0,0:0:0:0:
437,163,285844,1,4,0:3:0:0:
320,340,286253,5,0,0:0:0:0:
320,340,286389,2,0,L|232:340,1,64,10|8,0:3|0:1,0:0:0:0:
160,340,286935,2,0,L|112:340,2,32,2|0|4,0:0|0:0|0:3,0:0:0:0:
264,252,287480,2,0,L|336:252,1,64,8|4,0:1|0:3,0:0:0:0:
32,208,288026,6,0,L|32:128,1,64,4|2,0:0|0:0,0:0:0:0:
33,128,288435,1,0,0:0:0:0:
33,112,288571,1,10,0:3:0:0:
124,48,288844,1,8,0:1:0:0:
228,180,289116,1,2,0:0:0:0:
228,196,289253,1,0,0:0:0:0:
227,211,289389,1,4,0:3:0:0:
124,276,289662,2,0,L|124:164,1,96,8|0,0:1|0:0,0:0:0:0:
124,48,290207,5,4,0:0:0:0:
472,32,290753,1,2,0:0:0:0:
288,192,291026,1,8,0:1:0:0:
389,182,291298,1,2,0:0:0:0:
447,266,291571,1,4,0:3:0:0:
377,341,291844,1,8,0:1:0:0:
288,192,292389,1,4,0:0:0:0:
24,152,292798,5,4,0:3:0:0:
48,152,292935,2,0,P|81:145|116:128,1,64,10|8,0:3|0:1,0:0:0:0:
212,96,293480,2,0,L|208:140,1,32,2|0,0:0|0:0,0:0:0:0:
200,220,293753,1,4,0:3:0:0:
100,348,294026,5,2,0:0:0:0:
31,272,294298,1,2,0:0:0:0:
108,133,294571,1,6,0:0:0:0:
127,148,294980,5,4,0:3:0:0:
143,164,295116,2,0,P|159:191|174:229,1,64,10|8,0:3|0:1,0:0:0:0:
396,336,295662,5,2,0:0:0:0:
465,232,295935,1,4,0:3:0:0:
308,128,296207,2,0,L|312:176,1,32,8|0,0:1|0:0,0:0:0:0:
324,252,296480,1,4,0:3:0:0:
479,33,296753,5,4,0:0:0:0:
171,92,297298,1,2,0:0:0:0:
69,78,297571,1,8,0:1:0:0:
149,141,297844,1,2,0:0:0:0:
250,125,298116,1,2,0:0:0:0:
173,192,298389,1,8,0:1:0:0:
35,37,298935,5,4,0:0:0:0:
173,192,299344,5,4,0:3:0:0:
173,216,299480,2,0,P|165:248|149:284,1,64,10|8,0:3|0:1,0:0:0:0:
60,316,300026,2,0,L|24:332,2,32,2|0|4,0:0|0:0|0:3,0:0:0:0:
255,336,300571,5,2,0:0:0:0:
331,267,300844,1,2,0:0:0:0:
477,350,301116,1,4,0:0:0:0:
180,312,301526,5,4,0:3:0:0:
160,316,301662,2,0,P|123:333|84:356,1,64,10|8,0:3|0:1,0:0:0:0:
32,268,302207,2,0,L|72:240,1,32,2|0,0:0|0:0,0:0:0:0:
144,212,302480,1,4,0:3:0:0:
255,104,302753,5,2,0:0:0:0:
179,35,303026,1,2,0:0:0:0:
35,111,303298,1,4,0:0:0:0:
348,136,303707,5,4,0:3:0:0:
332,152,303844,1,10,0:3:0:0:
188,272,304116,1,8,0:1:0:0:
280,356,304389,1,2,0:0:0:0:
360,304,304662,1,4,0:3:0:0:
90,321,304935,6,0,L|10:362,1,64,8|4,0:1|0:3,0:0:0:0:
160,88,305480,1,4,0:0:0:0:
