osu file format v14

[General]
AudioFilename: audio70.mp3
AudioLeadIn: 0
PreviewTime: -1
Countdown: 1
SampleSet: None
StackLeniency: 0.7
Mode: 3
LetterboxInBreaks: 0
SpecialStyle: 0
WidescreenStoryboard: 0

[Editor]
DistanceSpacing: 0.6
BeatDivisor: 2
GridSize: 4
TimelineZoom: 1.6

[Metadata]
Title:Be My Lover
TitleUnicode:Be My Lover
Artist:La Bouche
ArtistUnicode:La Bouche
Creator:jasionnn
Version:Extra [0,7x Rate]
Source:
Tags:
BeatmapID:1759624
BeatmapSetID:840680

[Difficulty]
HPDrainRate:9
CircleSize:4
OverallDifficulty:8
ApproachRate:5
SliderMultiplier:1.4
SliderTickRate:1

[Events]
//Background and Video events
0,0,"redgbedregb.jpg",0,0
//Break Periods
2,227216,232941
//Storyboard Layer 0 (Background)
//Storyboard Layer 1 (Fail)
//Storyboard Layer 2 (Pass)
//Storyboard Layer 3 (Foreground)
//Storyboard Sound Samples

[TimingPoints]
23551,317.842906143639,4,1,0,30,1,0
234696,317.842906143639,4,1,0,30,1,0

[HitObjects]
64,192,23551,5,0,0:0:0:0:
320,192,23551,1,0,0:0:0:0:
192,192,23551,1,0,0:0:0:0:
320,192,23869,1,0,0:0:0:0:
448,192,23869,1,0,0:0:0:0:
64,192,24186,1,0,0:0:0:0:
448,192,24186,1,0,0:0:0:0:
192,192,24186,1,0,0:0:0:0:
320,192,24504,1,0,0:0:0:0:
64,192,24504,1,0,0:0:0:0:
320,192,24821,1,0,0:0:0:0:
448,192,24821,1,0,0:0:0:0:
64,192,25140,1,0,0:0:0:0:
448,192,25140,1,0,0:0:0:0:
320,192,25457,1,0,0:0:0:0:
64,192,25457,1,0,0:0:0:0:
192,192,25457,1,0,0:0:0:0:
192,192,25776,1,0,0:0:0:0:
448,192,25776,1,0,0:0:0:0:
64,192,26093,1,0,0:0:0:0:
192,192,26093,1,0,0:0:0:0:
448,192,26411,1,0,0:0:0:0:
64,192,26411,1,0,0:0:0:0:
192,192,26729,1,0,0:0:0:0:
320,192,26729,1,0,0:0:0:0:
448,192,26729,1,0,0:0:0:0:
64,192,27047,1,0,0:0:0:0:
320,192,27047,1,0,0:0:0:0:
64,192,27364,1,0,0:0:0:0:
448,192,27364,1,0,0:0:0:0:
192,192,27683,1,0,0:0:0:0:
320,192,27683,1,0,0:0:0:0:
64,192,28000,1,0,0:0:0:0:
192,192,28000,1,0,0:0:0:0:
448,192,28000,1,0,0:0:0:0:
320,192,28319,1,0,0:0:0:0:
64,192,28319,1,0,0:0:0:0:
448,192,28477,1,0,0:0:0:0:
192,192,28477,1,0,0:0:0:0:
320,192,28636,1,0,0:0:0:0:
192,192,28636,1,0,0:0:0:0:
64,192,28636,1,0,0:0:0:0:
448,192,28954,1,0,0:0:0:0:
192,192,28954,1,0,0:0:0:0:
64,192,29271,1,0,0:0:0:0:
320,192,29271,1,0,0:0:0:0:
448,192,29271,1,0,0:0:0:0:
192,192,29590,1,0,0:0:0:0:
64,192,29590,1,0,0:0:0:0:
448,192,29907,1,0,0:0:0:0:
192,192,29907,1,0,0:0:0:0:
320,192,30226,1,0,0:0:0:0:
192,192,30226,1,0,0:0:0:0:
192,192,30543,1,0,0:0:0:0:
448,192,30543,1,0,0:0:0:0:
64,192,30543,1,0,0:0:0:0:
320,192,30861,1,0,0:0:0:0:
64,192,30861,1,0,0:0:0:0:
192,192,31179,1,0,0:0:0:0:
320,192,31179,1,0,0:0:0:0:
192,192,31497,1,0,0:0:0:0:
448,192,31497,1,0,0:0:0:0:
320,192,31814,1,0,0:0:0:0:
64,192,31814,1,0,0:0:0:0:
448,192,31814,1,0,0:0:0:0:
448,192,32133,1,0,0:0:0:0:
64,192,32133,1,0,0:0:0:0:
192,192,32450,1,0,0:0:0:0:
320,192,32450,1,0,0:0:0:0:
448,192,32769,1,0,0:0:0:0:
192,192,32769,1,0,0:0:0:0:
192,192,33086,1,0,0:0:0:0:
320,192,33086,1,0,0:0:0:0:
64,192,33086,1,0,0:0:0:0:
64,192,33404,1,0,0:0:0:0:
320,192,33404,1,0,0:0:0:0:
448,192,33721,5,0,0:0:0:0:
192,192,33721,1,0,0:0:0:0:
64,192,33721,1,0,0:0:0:0:
320,192,34040,1,0,0:0:0:0:
64,192,34040,1,0,0:0:0:0:
192,192,34199,1,0,0:0:0:0:
448,192,34199,1,0,0:0:0:0:
320,192,34357,1,0,0:0:0:0:
64,192,34357,1,0,0:0:0:0:
192,192,34357,1,0,0:0:0:0:
320,192,34676,1,0,0:0:0:0:
448,192,34676,1,0,0:0:0:0:
192,192,34834,1,0,0:0:0:0:
64,192,34834,1,0,0:0:0:0:
320,192,34993,1,0,0:0:0:0:
448,192,34993,1,0,0:0:0:0:
64,192,34993,1,0,0:0:0:0:
192,192,35311,1,0,0:0:0:0:
448,192,35311,1,0,0:0:0:0:
64,192,35470,1,0,0:0:0:0:
320,192,35470,1,0,0:0:0:0:
192,192,35629,1,0,0:0:0:0:
320,192,35629,1,0,0:0:0:0:
448,192,35629,1,0,0:0:0:0:
64,192,35946,1,0,0:0:0:0:
192,192,35946,1,0,0:0:0:0:
320,192,36106,1,0,0:0:0:0:
448,192,36106,1,0,0:0:0:0:
64,192,36264,1,0,0:0:0:0:
192,192,36264,1,0,0:0:0:0:
448,192,36264,1,0,0:0:0:0:
320,192,36581,1,0,0:0:0:0:
192,192,36581,1,0,0:0:0:0:
64,192,36741,1,0,0:0:0:0:
448,192,36741,1,0,0:0:0:0:
320,192,36900,1,0,0:0:0:0:
192,192,36900,1,0,0:0:0:0:
64,192,36900,1,0,0:0:0:0:
448,192,37217,1,0,0:0:0:0:
64,192,37217,1,0,0:0:0:0:
192,192,37377,1,0,0:0:0:0:
320,192,37377,1,0,0:0:0:0:
448,192,37536,1,0,0:0:0:0:
64,192,37536,1,0,0:0:0:0:
320,192,37536,1,0,0:0:0:0:
192,192,37853,1,0,0:0:0:0:
448,192,37853,1,0,0:0:0:0:
64,192,38013,1,0,0:0:0:0:
320,192,38013,1,0,0:0:0:0:
192,192,38171,1,0,0:0:0:0:
448,192,38171,1,0,0:0:0:0:
64,192,38171,1,0,0:0:0:0:
320,192,38489,1,0,0:0:0:0:
448,192,38489,1,0,0:0:0:0:
192,192,38649,1,0,0:0:0:0:
320,192,38649,1,0,0:0:0:0:
192,192,38807,1,0,0:0:0:0:
64,192,38807,1,0,0:0:0:0:
448,192,38807,1,0,0:0:0:0:
448,192,38966,1,0,0:0:0:0:
320,192,38966,1,0,0:0:0:0:
64,192,39124,1,0,0:0:0:0:
192,192,39124,1,0,0:0:0:0:
448,192,39124,1,0,0:0:0:0:
320,192,39124,1,0,0:0:0:0:
64,192,39284,1,0,0:0:0:0:
192,192,39284,1,0,0:0:0:0:
448,192,39443,1,0,0:0:0:0:
320,192,39443,1,0,0:0:0:0:
64,192,39443,1,0,0:0:0:0:
192,192,39601,1,0,0:0:0:0:
448,192,39601,1,0,0:0:0:0:
320,192,39601,1,0,0:0:0:0:
64,192,39601,1,0,0:0:0:0:
192,192,39760,1,0,0:0:0:0:
448,192,39760,1,0,0:0:0:0:
320,192,39920,1,0,0:0:0:0:
64,192,39920,1,0,0:0:0:0:
448,192,40079,1,0,0:0:0:0:
320,192,40079,1,0,0:0:0:0:
192,192,40079,1,0,0:0:0:0:
64,192,40079,1,0,0:0:0:0:
64,192,40237,1,0,0:0:0:0:
192,192,40237,1,0,0:0:0:0:
448,192,40396,1,0,0:0:0:0:
320,192,40396,1,0,0:0:0:0:
192,192,40396,1,0,0:0:0:0:
192,192,40556,1,0,0:0:0:0:
448,192,40556,1,0,0:0:0:0:
320,192,40556,1,0,0:0:0:0:
64,192,40556,1,0,0:0:0:0:
64,192,40714,1,0,0:0:0:0:
192,192,40714,1,0,0:0:0:0:
448,192,40714,1,0,0:0:0:0:
320,192,40873,1,0,0:0:0:0:
64,192,40873,1,0,0:0:0:0:
320,192,41031,1,0,0:0:0:0:
192,192,41031,1,0,0:0:0:0:
64,192,41031,1,0,0:0:0:0:
448,192,41031,1,0,0:0:0:0:
448,192,41191,1,0,0:0:0:0:
192,192,41191,1,0,0:0:0:0:
320,192,41350,1,0,0:0:0:0:
448,192,41350,1,0,0:0:0:0:
64,192,41350,1,0,0:0:0:0:
192,192,41509,1,0,0:0:0:0:
64,192,41509,1,0,0:0:0:0:
64,192,41667,1,0,0:0:0:0:
192,192,41667,1,0,0:0:0:0:
320,192,41667,1,0,0:0:0:0:
448,192,41667,1,0,0:0:0:0:
448,192,41826,1,0,0:0:0:0:
320,192,41826,1,0,0:0:0:0:
64,192,41986,1,0,0:0:0:0:
192,192,41986,1,0,0:0:0:0:
448,192,41986,1,0,0:0:0:0:
192,192,42144,1,0,0:0:0:0:
64,192,42144,1,0,0:0:0:0:
320,192,42144,1,0,0:0:0:0:
448,192,42144,1,0,0:0:0:0:
320,192,42303,1,0,0:0:0:0:
192,192,42303,1,0,0:0:0:0:
64,192,42461,1,0,0:0:0:0:
192,192,42461,1,0,0:0:0:0:
320,192,42461,1,0,0:0:0:0:
448,192,42461,1,0,0:0:0:0:
448,192,42621,1,0,0:0:0:0:
320,192,42621,1,0,0:0:0:0:
64,192,42621,1,0,0:0:0:0:
192,192,42621,1,0,0:0:0:0:
64,192,42780,1,0,0:0:0:0:
192,192,42780,1,0,0:0:0:0:
64,192,42939,1,0,0:0:0:0:
192,192,42939,1,0,0:0:0:0:
320,192,42939,1,0,0:0:0:0:
448,192,42939,1,0,0:0:0:0:
448,192,43097,1,0,0:0:0:0:
320,192,43097,1,0,0:0:0:0:
192,192,43097,1,0,0:0:0:0:
64,192,43097,1,0,0:0:0:0:
320,192,43257,1,0,0:0:0:0:
448,192,43257,1,0,0:0:0:0:
192,192,43257,1,0,0:0:0:0:
64,192,43416,1,0,0:0:0:0:
192,192,43416,1,0,0:0:0:0:
320,192,43416,1,0,0:0:0:0:
448,192,43416,1,0,0:0:0:0:
448,192,43574,1,0,0:0:0:0:
320,192,43574,1,0,0:0:0:0:
192,192,43574,1,0,0:0:0:0:
64,192,43574,1,0,0:0:0:0:
192,192,43733,1,0,0:0:0:0:
64,192,43733,1,0,0:0:0:0:
64,192,43893,1,0,0:0:0:0:
192,192,43893,1,0,0:0:0:0:
320,192,43893,1,0,0:0:0:0:
448,192,43893,1,0,0:0:0:0:
320,192,44051,1,0,0:0:0:0:
448,192,44051,1,0,0:0:0:0:
64,192,44210,1,0,0:0:0:0:
192,192,44210,1,0,0:0:0:0:
320,192,44210,1,0,0:0:0:0:
448,192,44210,1,0,0:0:0:0:
192,192,44369,1,0,0:0:0:0:
64,192,44369,1,0,0:0:0:0:
448,192,44529,1,0,0:0:0:0:
320,192,44529,1,0,0:0:0:0:
192,192,44529,1,0,0:0:0:0:
448,192,44687,1,0,0:0:0:0:
320,192,44687,1,0,0:0:0:0:
192,192,44687,1,0,0:0:0:0:
64,192,44687,1,0,0:0:0:0:
64,192,44846,1,0,0:0:0:0:
320,192,44846,1,0,0:0:0:0:
192,192,45004,1,0,0:0:0:0:
448,192,45004,1,0,0:0:0:0:
64,192,45164,1,0,0:0:0:0:
192,192,45164,1,0,0:0:0:0:
320,192,45164,1,0,0:0:0:0:
448,192,45164,1,0,0:0:0:0:
320,192,45323,1,0,0:0:0:0:
448,192,45323,1,0,0:0:0:0:
192,192,45481,1,0,0:0:0:0:
64,192,45481,1,0,0:0:0:0:
64,192,45640,1,0,0:0:0:0:
192,192,45640,1,0,0:0:0:0:
320,192,45640,1,0,0:0:0:0:
448,192,45640,1,0,0:0:0:0:
320,192,45800,1,0,0:0:0:0:
448,192,45800,1,0,0:0:0:0:
64,192,45800,1,0,0:0:0:0:
192,192,45959,1,0,0:0:0:0:
448,192,45959,1,0,0:0:0:0:
448,192,46117,1,0,0:0:0:0:
320,192,46117,1,0,0:0:0:0:
192,192,46117,1,0,0:0:0:0:
64,192,46117,1,0,0:0:0:0:
64,192,46276,1,0,0:0:0:0:
192,192,46276,1,0,0:0:0:0:
320,192,46436,1,0,0:0:0:0:
448,192,46436,1,0,0:0:0:0:
448,192,46594,1,0,0:0:0:0:
192,192,46594,1,0,0:0:0:0:
320,192,46753,1,0,0:0:0:0:
192,192,46753,1,0,0:0:0:0:
64,192,46753,1,0,0:0:0:0:
320,192,46911,1,0,0:0:0:0:
448,192,46911,1,0,0:0:0:0:
64,192,47071,1,0,0:0:0:0:
192,192,47071,1,0,0:0:0:0:
448,192,47071,1,0,0:0:0:0:
320,192,47230,1,0,0:0:0:0:
64,192,47230,1,0,0:0:0:0:
192,192,47389,1,0,0:0:0:0:
448,192,47389,1,0,0:0:0:0:
320,192,47389,1,0,0:0:0:0:
448,192,47547,1,0,0:0:0:0:
64,192,47547,1,0,0:0:0:0:
192,192,47547,1,0,0:0:0:0:
320,192,47707,1,0,0:0:0:0:
64,192,47707,1,0,0:0:0:0:
192,192,47866,1,0,0:0:0:0:
448,192,47866,1,0,0:0:0:0:
320,192,48024,1,0,0:0:0:0:
64,192,48024,1,0,0:0:0:0:
448,192,48024,1,0,0:0:0:0:
192,192,48183,1,0,0:0:0:0:
64,192,48183,1,0,0:0:0:0:
448,192,48341,1,0,0:0:0:0:
192,192,48341,1,0,0:0:0:0:
320,192,48341,1,0,0:0:0:0:
320,192,48501,1,0,0:0:0:0:
64,192,48501,1,0,0:0:0:0:
448,192,48660,1,0,0:0:0:0:
192,192,48660,1,0,0:0:0:0:
320,192,48660,1,0,0:0:0:0:
320,192,48819,1,0,0:0:0:0:
192,192,48819,1,0,0:0:0:0:
448,192,48819,1,0,0:0:0:0:
192,192,48977,1,0,0:0:0:0:
64,192,48977,1,0,0:0:0:0:
448,192,48977,1,0,0:0:0:0:
320,192,48977,1,0,0:0:0:0:
64,192,49137,1,0,0:0:0:0:
448,192,49296,1,0,0:0:0:0:
320,192,49296,1,0,0:0:0:0:
192,192,49296,1,0,0:0:0:0:
64,192,49296,1,0,0:0:0:0:
448,192,49454,1,0,0:0:0:0:
320,192,49454,1,0,0:0:0:0:
192,192,49454,1,0,0:0:0:0:
448,192,49613,1,0,0:0:0:0:
192,192,49613,1,0,0:0:0:0:
64,192,49613,1,0,0:0:0:0:
320,192,49613,1,0,0:0:0:0:
64,192,49773,1,0,0:0:0:0:
64,192,49931,1,0,0:0:0:0:
448,192,49931,1,0,0:0:0:0:
320,192,49931,1,0,0:0:0:0:
192,192,49931,1,0,0:0:0:0:
448,192,50090,1,0,0:0:0:0:
320,192,50090,1,0,0:0:0:0:
192,192,50090,1,0,0:0:0:0:
64,192,50249,1,0,0:0:0:0:
448,192,50249,1,0,0:0:0:0:
192,192,50249,1,0,0:0:0:0:
320,192,50249,1,0,0:0:0:0:
64,192,50409,1,0,0:0:0:0:
448,192,50567,1,0,0:0:0:0:
64,192,50567,1,0,0:0:0:0:
192,192,50567,1,0,0:0:0:0:
320,192,50567,1,0,0:0:0:0:
448,192,50726,1,0,0:0:0:0:
192,192,50726,1,0,0:0:0:0:
320,192,50726,1,0,0:0:0:0:
448,192,50884,1,0,0:0:0:0:
64,192,50884,1,0,0:0:0:0:
192,192,50884,1,0,0:0:0:0:
320,192,50884,1,0,0:0:0:0:
64,192,51044,1,0,0:0:0:0:
64,192,51203,1,0,0:0:0:0:
448,192,51203,1,0,0:0:0:0:
192,192,51203,1,0,0:0:0:0:
320,192,51203,1,0,0:0:0:0:
448,192,51361,1,0,0:0:0:0:
192,192,51361,1,0,0:0:0:0:
320,192,51361,1,0,0:0:0:0:
64,192,51520,1,0,0:0:0:0:
448,192,51520,1,0,0:0:0:0:
192,192,51520,1,0,0:0:0:0:
320,192,51520,1,0,0:0:0:0:
64,192,51680,1,0,0:0:0:0:
448,192,51839,1,0,0:0:0:0:
64,192,51839,1,0,0:0:0:0:
192,192,51839,1,0,0:0:0:0:
320,192,51839,1,0,0:0:0:0:
448,192,51997,1,0,0:0:0:0:
192,192,51997,1,0,0:0:0:0:
320,192,51997,1,0,0:0:0:0:
448,192,52156,1,0,0:0:0:0:
64,192,52156,1,0,0:0:0:0:
192,192,52156,1,0,0:0:0:0:
320,192,52156,1,0,0:0:0:0:
64,192,52316,1,0,0:0:0:0:
448,192,52474,1,0,0:0:0:0:
64,192,52474,1,0,0:0:0:0:
192,192,52474,1,0,0:0:0:0:
320,192,52474,1,0,0:0:0:0:
448,192,52633,1,0,0:0:0:0:
192,192,52633,1,0,0:0:0:0:
320,192,52633,1,0,0:0:0:0:
192,192,52791,1,0,0:0:0:0:
320,192,52791,1,0,0:0:0:0:
448,192,52791,1,0,0:0:0:0:
64,192,52791,1,0,0:0:0:0:
64,192,52951,1,0,0:0:0:0:
448,192,53110,1,0,0:0:0:0:
64,192,53110,1,0,0:0:0:0:
192,192,53110,1,0,0:0:0:0:
320,192,53110,1,0,0:0:0:0:
448,192,53269,1,0,0:0:0:0:
192,192,53269,1,0,0:0:0:0:
320,192,53269,1,0,0:0:0:0:
448,192,53427,1,0,0:0:0:0:
320,192,53427,1,0,0:0:0:0:
192,192,53427,1,0,0:0:0:0:
64,192,53427,1,0,0:0:0:0:
64,192,53587,1,0,0:0:0:0:
64,192,53746,1,0,0:0:0:0:
192,192,53746,1,0,0:0:0:0:
320,192,53746,1,0,0:0:0:0:
64,192,53904,1,0,0:0:0:0:
192,192,53904,1,0,0:0:0:0:
320,192,53904,1,0,0:0:0:0:
192,192,54063,1,0,0:0:0:0:
64,192,54063,1,0,0:0:0:0:
448,192,54063,1,0,0:0:0:0:
320,192,54063,1,0,0:0:0:0:
448,192,54221,1,0,0:0:0:0:
64,192,54381,1,0,0:0:0:0:
448,192,54381,1,0,0:0:0:0:
320,192,54381,1,0,0:0:0:0:
192,192,54381,1,0,0:0:0:0:
64,192,54540,1,0,0:0:0:0:
192,192,54540,1,0,0:0:0:0:
320,192,54540,1,0,0:0:0:0:
448,192,54699,1,0,0:0:0:0:
320,192,54699,1,0,0:0:0:0:
192,192,54699,1,0,0:0:0:0:
64,192,54699,1,0,0:0:0:0:
448,192,54857,1,0,0:0:0:0:
64,192,55017,1,0,0:0:0:0:
448,192,55017,1,0,0:0:0:0:
192,192,55017,1,0,0:0:0:0:
320,192,55017,1,0,0:0:0:0:
64,192,55176,1,0,0:0:0:0:
192,192,55176,1,0,0:0:0:0:
320,192,55176,1,0,0:0:0:0:
64,192,55334,1,0,0:0:0:0:
192,192,55334,1,0,0:0:0:0:
320,192,55334,1,0,0:0:0:0:
448,192,55334,1,0,0:0:0:0:
448,192,55493,1,0,0:0:0:0:
64,192,55653,1,0,0:0:0:0:
448,192,55653,1,0,0:0:0:0:
192,192,55653,1,0,0:0:0:0:
320,192,55653,1,0,0:0:0:0:
64,192,55811,1,0,0:0:0:0:
192,192,55811,1,0,0:0:0:0:
320,192,55811,1,0,0:0:0:0:
448,192,55970,1,0,0:0:0:0:
320,192,55970,1,0,0:0:0:0:
192,192,55970,1,0,0:0:0:0:
64,192,55970,1,0,0:0:0:0:
448,192,56129,1,0,0:0:0:0:
64,192,56289,1,0,0:0:0:0:
448,192,56289,1,0,0:0:0:0:
320,192,56289,1,0,0:0:0:0:
192,192,56289,1,0,0:0:0:0:
64,192,56447,1,0,0:0:0:0:
192,192,56447,1,0,0:0:0:0:
320,192,56447,1,0,0:0:0:0:
64,192,56606,1,0,0:0:0:0:
192,192,56606,1,0,0:0:0:0:
448,192,56606,1,0,0:0:0:0:
320,192,56606,1,0,0:0:0:0:
448,192,56764,1,0,0:0:0:0:
64,192,56924,1,0,0:0:0:0:
448,192,56924,1,0,0:0:0:0:
320,192,56924,1,0,0:0:0:0:
192,192,56924,1,0,0:0:0:0:
64,192,57083,1,0,0:0:0:0:
192,192,57083,1,0,0:0:0:0:
320,192,57083,1,0,0:0:0:0:
64,192,57241,1,0,0:0:0:0:
192,192,57241,1,0,0:0:0:0:
448,192,57241,1,0,0:0:0:0:
320,192,57241,1,0,0:0:0:0:
448,192,57400,1,0,0:0:0:0:
64,192,57560,1,0,0:0:0:0:
448,192,57560,1,0,0:0:0:0:
320,192,57560,1,0,0:0:0:0:
192,192,57560,1,0,0:0:0:0:
64,192,57719,1,0,0:0:0:0:
192,192,57719,1,0,0:0:0:0:
320,192,57719,1,0,0:0:0:0:
64,192,57877,1,0,0:0:0:0:
448,192,57877,1,0,0:0:0:0:
192,192,57877,1,0,0:0:0:0:
320,192,57877,1,0,0:0:0:0:
448,192,58036,1,0,0:0:0:0:
64,192,58196,1,0,0:0:0:0:
448,192,58196,1,0,0:0:0:0:
320,192,58196,1,0,0:0:0:0:
192,192,58196,1,0,0:0:0:0:
64,192,58354,1,0,0:0:0:0:
192,192,58354,1,0,0:0:0:0:
320,192,58354,1,0,0:0:0:0:
64,192,58513,1,0,0:0:0:0:
192,192,58513,1,0,0:0:0:0:
448,192,58513,1,0,0:0:0:0:
320,192,58513,1,0,0:0:0:0:
448,192,58671,1,0,0:0:0:0:
448,192,58831,1,0,0:0:0:0:
192,192,58831,1,0,0:0:0:0:
320,192,58831,1,0,0:0:0:0:
64,192,58831,1,0,0:0:0:0:
192,192,58990,1,0,0:0:0:0:
320,192,58990,1,0,0:0:0:0:
64,192,58990,1,0,0:0:0:0:
192,192,59149,1,0,0:0:0:0:
320,192,59149,1,0,0:0:0:0:
448,192,59149,1,0,0:0:0:0:
64,192,59149,1,0,0:0:0:0:
448,192,59307,1,0,0:0:0:0:
320,192,59307,1,0,0:0:0:0:
320,192,59467,1,0,0:0:0:0:
64,192,59467,1,0,0:0:0:0:
448,192,59467,1,0,0:0:0:0:
192,192,59467,1,0,0:0:0:0:
320,192,59626,1,0,0:0:0:0:
192,192,59626,1,0,0:0:0:0:
64,192,59626,1,0,0:0:0:0:
448,192,59784,1,0,0:0:0:0:
320,192,59784,1,0,0:0:0:0:
192,192,59784,1,0,0:0:0:0:
64,192,59784,1,0,0:0:0:0:
448,192,59943,1,0,0:0:0:0:
320,192,59943,1,0,0:0:0:0:
320,192,60101,1,0,0:0:0:0:
448,192,60101,1,0,0:0:0:0:
192,192,60101,1,0,0:0:0:0:
64,192,60101,1,0,0:0:0:0:
192,192,60261,1,0,0:0:0:0:
320,192,60261,1,0,0:0:0:0:
64,192,60261,1,0,0:0:0:0:
192,192,60420,1,0,0:0:0:0:
320,192,60420,1,0,0:0:0:0:
448,192,60420,1,0,0:0:0:0:
64,192,60420,1,0,0:0:0:0:
448,192,60579,1,0,0:0:0:0:
320,192,60579,1,0,0:0:0:0:
64,192,60737,1,0,0:0:0:0:
192,192,60737,1,0,0:0:0:0:
320,192,60737,1,0,0:0:0:0:
448,192,60737,1,0,0:0:0:0:
320,192,60897,1,0,0:0:0:0:
192,192,60897,1,0,0:0:0:0:
64,192,60897,1,0,0:0:0:0:
448,192,61056,1,0,0:0:0:0:
320,192,61056,1,0,0:0:0:0:
192,192,61056,1,0,0:0:0:0:
64,192,61056,1,0,0:0:0:0:
320,192,61214,1,0,0:0:0:0:
448,192,61214,1,0,0:0:0:0:
64,192,61373,1,0,0:0:0:0:
192,192,61373,1,0,0:0:0:0:
320,192,61373,1,0,0:0:0:0:
448,192,61373,1,0,0:0:0:0:
64,192,61533,1,0,0:0:0:0:
192,192,61533,1,0,0:0:0:0:
320,192,61533,1,0,0:0:0:0:
320,192,61691,1,0,0:0:0:0:
64,192,61691,1,0,0:0:0:0:
192,192,61691,1,0,0:0:0:0:
448,192,61691,1,0,0:0:0:0:
448,192,61850,1,0,0:0:0:0:
320,192,61850,1,0,0:0:0:0:
448,192,62009,1,0,0:0:0:0:
320,192,62009,1,0,0:0:0:0:
192,192,62009,1,0,0:0:0:0:
64,192,62009,1,0,0:0:0:0:
192,192,62169,1,0,0:0:0:0:
320,192,62169,1,0,0:0:0:0:
64,192,62169,1,0,0:0:0:0:
64,192,62327,1,0,0:0:0:0:
320,192,62327,1,0,0:0:0:0:
448,192,62327,1,0,0:0:0:0:
192,192,62327,1,0,0:0:0:0:
64,192,62486,1,0,0:0:0:0:
192,192,62486,1,0,0:0:0:0:
192,192,62644,1,0,0:0:0:0:
320,192,62644,1,0,0:0:0:0:
448,192,62644,1,0,0:0:0:0:
64,192,62644,1,0,0:0:0:0:
192,192,62804,1,0,0:0:0:0:
320,192,62804,1,0,0:0:0:0:
448,192,62804,1,0,0:0:0:0:
448,192,62963,1,0,0:0:0:0:
320,192,62963,1,0,0:0:0:0:
192,192,62963,1,0,0:0:0:0:
64,192,62963,1,0,0:0:0:0:
320,192,63121,1,0,0:0:0:0:
448,192,63121,1,0,0:0:0:0:
64,192,63121,1,0,0:0:0:0:
64,192,63280,1,0,0:0:0:0:
192,192,63280,1,0,0:0:0:0:
320,192,63280,1,0,0:0:0:0:
448,192,63280,1,0,0:0:0:0:
192,192,63440,1,0,0:0:0:0:
64,192,63440,1,0,0:0:0:0:
320,192,63440,1,0,0:0:0:0:
320,192,63599,1,0,0:0:0:0:
192,192,63599,1,0,0:0:0:0:
64,192,63599,1,0,0:0:0:0:
448,192,63599,1,0,0:0:0:0:
448,192,63757,1,0,0:0:0:0:
192,192,63757,1,0,0:0:0:0:
320,192,63757,1,0,0:0:0:0:
448,192,63916,1,0,0:0:0:0:
320,192,63916,1,0,0:0:0:0:
64,192,63916,1,0,0:0:0:0:
192,192,63916,1,0,0:0:0:0:
64,192,64076,1,0,0:0:0:0:
192,192,64076,1,0,0:0:0:0:
448,192,64076,1,0,0:0:0:0:
320,192,64234,1,0,0:0:0:0:
192,192,64234,1,0,0:0:0:0:
64,192,64234,1,0,0:0:0:0:
448,192,64234,1,0,0:0:0:0:
320,192,64393,1,0,0:0:0:0:
192,192,64393,1,0,0:0:0:0:
320,192,64551,1,0,0:0:0:0:
448,192,64551,1,0,0:0:0:0:
192,192,64551,1,0,0:0:0:0:
64,192,64551,1,0,0:0:0:0:
192,192,64711,1,0,0:0:0:0:
320,192,64711,1,0,0:0:0:0:
448,192,64711,1,0,0:0:0:0:
64,192,64870,1,0,0:0:0:0:
192,192,64870,1,0,0:0:0:0:
320,192,64870,1,0,0:0:0:0:
448,192,64870,1,0,0:0:0:0:
192,192,65029,1,0,0:0:0:0:
320,192,65029,1,0,0:0:0:0:
448,192,65187,1,0,0:0:0:0:
320,192,65187,1,0,0:0:0:0:
192,192,65187,1,0,0:0:0:0:
64,192,65187,1,0,0:0:0:0:
192,192,65347,1,0,0:0:0:0:
320,192,65347,1,0,0:0:0:0:
64,192,65347,1,0,0:0:0:0:
448,192,65506,1,0,0:0:0:0:
320,192,65506,1,0,0:0:0:0:
192,192,65506,1,0,0:0:0:0:
64,192,65506,1,0,0:0:0:0:
320,192,65664,1,0,0:0:0:0:
192,192,65664,1,0,0:0:0:0:
64,192,65823,1,0,0:0:0:0:
192,192,65823,1,0,0:0:0:0:
320,192,65823,1,0,0:0:0:0:
448,192,65823,1,0,0:0:0:0:
320,192,65983,1,0,0:0:0:0:
192,192,65983,1,0,0:0:0:0:
448,192,65983,1,0,0:0:0:0:
448,192,66141,1,0,0:0:0:0:
320,192,66141,1,0,0:0:0:0:
192,192,66141,1,0,0:0:0:0:
64,192,66141,1,0,0:0:0:0:
192,192,66300,1,0,0:0:0:0:
320,192,66300,1,0,0:0:0:0:
64,192,66459,1,0,0:0:0:0:
192,192,66459,1,0,0:0:0:0:
448,192,66459,1,0,0:0:0:0:
320,192,66459,1,0,0:0:0:0:
192,192,66617,1,0,0:0:0:0:
320,192,66617,1,0,0:0:0:0:
64,192,66617,1,0,0:0:0:0:
64,192,66777,1,0,0:0:0:0:
192,192,66777,1,0,0:0:0:0:
320,192,66777,1,0,0:0:0:0:
448,192,66777,1,0,0:0:0:0:
320,192,66936,1,0,0:0:0:0:
192,192,66936,1,0,0:0:0:0:
64,192,67094,1,0,0:0:0:0:
448,192,67094,1,0,0:0:0:0:
320,192,67094,1,0,0:0:0:0:
192,192,67094,1,0,0:0:0:0:
320,192,67253,1,0,0:0:0:0:
192,192,67253,1,0,0:0:0:0:
448,192,67253,1,0,0:0:0:0:
64,192,67413,1,0,0:0:0:0:
192,192,67413,1,0,0:0:0:0:
320,192,67413,1,0,0:0:0:0:
448,192,67413,1,0,0:0:0:0:
192,192,67571,1,0,0:0:0:0:
320,192,67571,1,0,0:0:0:0:
64,192,67730,1,0,0:0:0:0:
448,192,67730,1,0,0:0:0:0:
320,192,67730,1,0,0:0:0:0:
192,192,67730,1,0,0:0:0:0:
192,192,67889,1,0,0:0:0:0:
320,192,67889,1,0,0:0:0:0:
64,192,67889,1,0,0:0:0:0:
64,192,68049,1,0,0:0:0:0:
448,192,68049,1,0,0:0:0:0:
192,192,68049,1,0,0:0:0:0:
320,192,68049,1,0,0:0:0:0:
320,192,68207,1,0,0:0:0:0:
192,192,68207,1,0,0:0:0:0:
64,192,68366,1,0,0:0:0:0:
320,192,68366,1,0,0:0:0:0:
448,192,68366,1,0,0:0:0:0:
192,192,68366,1,0,0:0:0:0:
320,192,68524,1,0,0:0:0:0:
192,192,68524,1,0,0:0:0:0:
448,192,68524,1,0,0:0:0:0:
64,192,68684,1,0,0:0:0:0:
192,192,68684,1,0,0:0:0:0:
320,192,68684,1,0,0:0:0:0:
448,192,68684,1,0,0:0:0:0:
192,192,68843,1,0,0:0:0:0:
320,192,68843,1,0,0:0:0:0:
448,192,69001,1,0,0:0:0:0:
320,192,69001,1,0,0:0:0:0:
192,192,69001,1,0,0:0:0:0:
64,192,69001,1,0,0:0:0:0:
320,192,69160,1,0,0:0:0:0:
192,192,69160,1,0,0:0:0:0:
64,192,69160,1,0,0:0:0:0:
64,192,69320,1,0,0:0:0:0:
192,192,69320,1,0,0:0:0:0:
448,192,69320,1,0,0:0:0:0:
320,192,69320,1,0,0:0:0:0:
448,192,69479,1,0,0:0:0:0:
192,192,69479,1,0,0:0:0:0:
64,192,69637,1,0,0:0:0:0:
192,192,69637,1,0,0:0:0:0:
320,192,69637,1,0,0:0:0:0:
448,192,69637,1,0,0:0:0:0:
448,192,69796,1,0,0:0:0:0:
64,192,69796,1,0,0:0:0:0:
320,192,69796,1,0,0:0:0:0:
192,192,69956,1,0,0:0:0:0:
64,192,69956,1,0,0:0:0:0:
320,192,69956,1,0,0:0:0:0:
448,192,69956,1,0,0:0:0:0:
64,192,70114,1,0,0:0:0:0:
192,192,70114,1,0,0:0:0:0:
448,192,70273,1,0,0:0:0:0:
320,192,70273,1,0,0:0:0:0:
192,192,70273,1,0,0:0:0:0:
64,192,70273,1,0,0:0:0:0:
320,192,70431,1,0,0:0:0:0:
448,192,70431,1,0,0:0:0:0:
192,192,70431,1,0,0:0:0:0:
64,192,70591,1,0,0:0:0:0:
192,192,70591,1,0,0:0:0:0:
320,192,70591,1,0,0:0:0:0:
448,192,70591,1,0,0:0:0:0:
64,192,70750,1,0,0:0:0:0:
320,192,70750,1,0,0:0:0:0:
64,192,70909,1,0,0:0:0:0:
192,192,70909,1,0,0:0:0:0:
320,192,70909,1,0,0:0:0:0:
448,192,70909,1,0,0:0:0:0:
448,192,71067,1,0,0:0:0:0:
64,192,71067,1,0,0:0:0:0:
192,192,71067,1,0,0:0:0:0:
448,192,71227,1,0,0:0:0:0:
320,192,71227,1,0,0:0:0:0:
192,192,71227,1,0,0:0:0:0:
64,192,71227,1,0,0:0:0:0:
448,192,71386,1,0,0:0:0:0:
320,192,71386,1,0,0:0:0:0:
64,192,71544,1,0,0:0:0:0:
192,192,71544,1,0,0:0:0:0:
320,192,71544,1,0,0:0:0:0:
448,192,71544,1,0,0:0:0:0:
320,192,71703,1,0,0:0:0:0:
192,192,71703,1,0,0:0:0:0:
64,192,71703,1,0,0:0:0:0:
448,192,71863,1,0,0:0:0:0:
320,192,71863,1,0,0:0:0:0:
192,192,71863,1,0,0:0:0:0:
64,192,71863,1,0,0:0:0:0:
448,192,72021,1,0,0:0:0:0:
192,192,72021,1,0,0:0:0:0:
64,192,72180,1,0,0:0:0:0:
192,192,72180,1,0,0:0:0:0:
320,192,72180,1,0,0:0:0:0:
448,192,72180,1,0,0:0:0:0:
320,192,72339,1,0,0:0:0:0:
448,192,72339,1,0,0:0:0:0:
64,192,72339,1,0,0:0:0:0:
448,192,72497,1,0,0:0:0:0:
192,192,72497,1,0,0:0:0:0:
64,192,72497,1,0,0:0:0:0:
320,192,72497,1,0,0:0:0:0:
64,192,72657,1,0,0:0:0:0:
192,192,72657,1,0,0:0:0:0:
64,192,72816,1,0,0:0:0:0:
192,192,72816,1,0,0:0:0:0:
320,192,72816,1,0,0:0:0:0:
448,192,72816,1,0,0:0:0:0:
320,192,72974,1,0,0:0:0:0:
192,192,72974,1,0,0:0:0:0:
448,192,72974,1,0,0:0:0:0:
448,192,73133,1,0,0:0:0:0:
320,192,73133,1,0,0:0:0:0:
192,192,73133,1,0,0:0:0:0:
64,192,73133,1,0,0:0:0:0:
64,192,73293,1,0,0:0:0:0:
320,192,73293,1,0,0:0:0:0:
64,192,73451,1,0,0:0:0:0:
192,192,73451,1,0,0:0:0:0:
320,192,73451,1,0,0:0:0:0:
448,192,73451,1,0,0:0:0:0:
192,192,73610,1,0,0:0:0:0:
64,192,73610,1,0,0:0:0:0:
448,192,73610,1,0,0:0:0:0:
448,192,73769,1,0,0:0:0:0:
320,192,73769,1,0,0:0:0:0:
64,192,73769,1,0,0:0:0:0:
192,192,73769,1,0,0:0:0:0:
448,192,73929,1,0,0:0:0:0:
320,192,73929,1,0,0:0:0:0:
448,192,74087,1,0,0:0:0:0:
320,192,74087,1,0,0:0:0:0:
192,192,74087,1,0,0:0:0:0:
64,192,74087,1,0,0:0:0:0:
64,192,74246,1,0,0:0:0:0:
320,192,74246,1,0,0:0:0:0:
192,192,74246,1,0,0:0:0:0:
64,192,74404,1,0,0:0:0:0:
192,192,74404,1,0,0:0:0:0:
320,192,74404,1,0,0:0:0:0:
448,192,74404,1,0,0:0:0:0:
448,192,74564,1,0,0:0:0:0:
192,192,74564,1,0,0:0:0:0:
64,192,74723,1,0,0:0:0:0:
192,192,74723,1,0,0:0:0:0:
320,192,74723,1,0,0:0:0:0:
448,192,74723,1,0,0:0:0:0:
448,192,74881,1,0,0:0:0:0:
64,192,74881,1,0,0:0:0:0:
192,192,74881,1,0,0:0:0:0:
448,192,75040,1,0,0:0:0:0:
320,192,75040,1,0,0:0:0:0:
192,192,75040,1,0,0:0:0:0:
64,192,75040,1,0,0:0:0:0:
320,192,75200,1,0,0:0:0:0:
64,192,75200,1,0,0:0:0:0:
64,192,75359,1,0,0:0:0:0:
192,192,75359,1,0,0:0:0:0:
448,192,75359,1,0,0:0:0:0:
320,192,75359,1,0,0:0:0:0:
320,192,75517,1,0,0:0:0:0:
448,192,75517,1,0,0:0:0:0:
192,192,75517,1,0,0:0:0:0:
448,192,75676,1,0,0:0:0:0:
320,192,75676,1,0,0:0:0:0:
192,192,75676,1,0,0:0:0:0:
64,192,75676,1,0,0:0:0:0:
192,192,75836,1,0,0:0:0:0:
64,192,75836,1,0,0:0:0:0:
64,192,75994,1,0,0:0:0:0:
192,192,75994,1,0,0:0:0:0:
320,192,75994,1,0,0:0:0:0:
448,192,75994,1,0,0:0:0:0:
320,192,76153,1,0,0:0:0:0:
448,192,76153,1,0,0:0:0:0:
64,192,76153,1,0,0:0:0:0:
448,192,76311,1,0,0:0:0:0:
320,192,76311,1,0,0:0:0:0:
192,192,76311,1,0,0:0:0:0:
64,192,76311,1,0,0:0:0:0:
448,192,76471,1,0,0:0:0:0:
192,192,76471,1,0,0:0:0:0:
64,192,76630,1,0,0:0:0:0:
192,192,76630,1,0,0:0:0:0:
320,192,76630,1,0,0:0:0:0:
448,192,76630,1,0,0:0:0:0:
320,192,76789,1,0,0:0:0:0:
64,192,76789,1,0,0:0:0:0:
192,192,76789,1,0,0:0:0:0:
448,192,76947,1,0,0:0:0:0:
320,192,76947,1,0,0:0:0:0:
192,192,76947,1,0,0:0:0:0:
64,192,76947,1,0,0:0:0:0:
320,192,77107,1,0,0:0:0:0:
448,192,77107,1,0,0:0:0:0:
64,192,77266,1,0,0:0:0:0:
448,192,77266,1,0,0:0:0:0:
192,192,77266,1,0,0:0:0:0:
320,192,77266,1,0,0:0:0:0:
64,192,77424,1,0,0:0:0:0:
192,192,77424,1,0,0:0:0:0:
448,192,77424,1,0,0:0:0:0:
64,192,77583,1,0,0:0:0:0:
192,192,77583,1,0,0:0:0:0:
320,192,77583,1,0,0:0:0:0:
448,192,77583,1,0,0:0:0:0:
320,192,77743,1,0,0:0:0:0:
64,192,77743,1,0,0:0:0:0:
64,192,77901,1,0,0:0:0:0:
192,192,77901,1,0,0:0:0:0:
320,192,77901,1,0,0:0:0:0:
448,192,77901,1,0,0:0:0:0:
192,192,78060,1,0,0:0:0:0:
320,192,78060,1,0,0:0:0:0:
448,192,78060,1,0,0:0:0:0:
64,192,78219,1,0,0:0:0:0:
192,192,78219,1,0,0:0:0:0:
320,192,78219,1,0,0:0:0:0:
448,192,78219,1,0,0:0:0:0:
192,192,78377,1,0,0:0:0:0:
64,192,78377,1,0,0:0:0:0:
320,192,78537,1,0,0:0:0:0:
192,192,78537,1,0,0:0:0:0:
64,192,78537,1,0,0:0:0:0:
448,192,78537,1,0,0:0:0:0:
320,192,78696,1,0,0:0:0:0:
448,192,78696,1,0,0:0:0:0:
64,192,78696,1,0,0:0:0:0:
448,192,78854,1,0,0:0:0:0:
320,192,78854,1,0,0:0:0:0:
192,192,78854,1,0,0:0:0:0:
64,192,78854,1,0,0:0:0:0:
192,192,79013,1,0,0:0:0:0:
448,192,79013,1,0,0:0:0:0:
64,192,79173,1,0,0:0:0:0:
320,192,79173,1,0,0:0:0:0:
448,192,79173,1,0,0:0:0:0:
192,192,79173,1,0,0:0:0:0:
320,192,79331,1,0,0:0:0:0:
64,192,79331,1,0,0:0:0:0:
448,192,79331,1,0,0:0:0:0:
448,192,79490,1,0,0:0:0:0:
320,192,79490,1,0,0:0:0:0:
192,192,79490,1,0,0:0:0:0:
64,192,79490,1,0,0:0:0:0:
192,192,79649,1,0,0:0:0:0:
64,192,79649,1,0,0:0:0:0:
64,192,79809,1,0,0:0:0:0:
192,192,79809,1,0,0:0:0:0:
320,192,79809,1,0,0:0:0:0:
448,192,79809,1,0,0:0:0:0:
448,192,79967,1,0,0:0:0:0:
320,192,79967,1,0,0:0:0:0:
192,192,79967,1,0,0:0:0:0:
64,192,80126,1,0,0:0:0:0:
192,192,80126,1,0,0:0:0:0:
320,192,80126,1,0,0:0:0:0:
448,192,80126,1,0,0:0:0:0:
64,192,80284,1,0,0:0:0:0:
320,192,80284,1,0,0:0:0:0:
64,192,80444,1,0,0:0:0:0:
192,192,80444,1,0,0:0:0:0:
320,192,80444,1,0,0:0:0:0:
448,192,80444,1,0,0:0:0:0:
192,192,80603,1,0,0:0:0:0:
64,192,80603,1,0,0:0:0:0:
448,192,80603,1,0,0:0:0:0:
64,192,80761,1,0,0:0:0:0:
192,192,80761,1,0,0:0:0:0:
320,192,80761,1,0,0:0:0:0:
448,192,80761,1,0,0:0:0:0:
448,192,80920,1,0,0:0:0:0:
320,192,80920,1,0,0:0:0:0:
64,192,81080,1,0,0:0:0:0:
192,192,81080,1,0,0:0:0:0:
320,192,81080,1,0,0:0:0:0:
448,192,81080,1,0,0:0:0:0:
320,192,81239,1,0,0:0:0:0:
192,192,81239,1,0,0:0:0:0:
64,192,81239,1,0,0:0:0:0:
64,192,81397,1,0,0:0:0:0:
192,192,81397,1,0,0:0:0:0:
320,192,81397,1,0,0:0:0:0:
448,192,81397,1,0,0:0:0:0:
320,192,81556,1,0,0:0:0:0:
448,192,81556,1,0,0:0:0:0:
448,192,81716,1,0,0:0:0:0:
320,192,81716,1,0,0:0:0:0:
192,192,81716,1,0,0:0:0:0:
64,192,81716,1,0,0:0:0:0:
192,192,81874,1,0,0:0:0:0:
64,192,81874,1,0,0:0:0:0:
448,192,81874,1,0,0:0:0:0:
64,192,82033,1,0,0:0:0:0:
192,192,82033,1,0,0:0:0:0:
320,192,82033,1,0,0:0:0:0:
448,192,82033,1,0,0:0:0:0:
320,192,82191,1,0,0:0:0:0:
448,192,82191,1,0,0:0:0:0:
64,192,82351,1,0,0:0:0:0:
192,192,82351,1,0,0:0:0:0:
448,192,82351,1,0,0:0:0:0:
320,192,82351,1,0,0:0:0:0:
64,192,82510,1,0,0:0:0:0:
192,192,82510,1,0,0:0:0:0:
320,192,82510,1,0,0:0:0:0:
192,192,82669,1,0,0:0:0:0:
320,192,82669,1,0,0:0:0:0:
448,192,82669,1,0,0:0:0:0:
64,192,82669,1,0,0:0:0:0:
192,192,82827,1,0,0:0:0:0:
320,192,82827,1,0,0:0:0:0:
448,192,82827,1,0,0:0:0:0:
448,192,82987,1,0,0:0:0:0:
320,192,82987,1,0,0:0:0:0:
192,192,82987,1,0,0:0:0:0:
64,192,82987,1,0,0:0:0:0:
192,192,83146,1,0,0:0:0:0:
64,192,83146,1,0,0:0:0:0:
448,192,83146,1,0,0:0:0:0:
320,192,83304,1,0,0:0:0:0:
192,192,83304,1,0,0:0:0:0:
64,192,83304,1,0,0:0:0:0:
448,192,83304,1,0,0:0:0:0:
448,192,83463,1,0,0:0:0:0:
320,192,83463,1,0,0:0:0:0:
64,192,83623,1,0,0:0:0:0:
192,192,83623,1,0,0:0:0:0:
320,192,83623,1,0,0:0:0:0:
448,192,83623,1,0,0:0:0:0:
448,192,83781,1,0,0:0:0:0:
320,192,83781,1,0,0:0:0:0:
192,192,83781,1,0,0:0:0:0:
448,192,83940,1,0,0:0:0:0:
320,192,83940,1,0,0:0:0:0:
192,192,83940,1,0,0:0:0:0:
64,192,83940,1,0,0:0:0:0:
192,192,84099,1,0,0:0:0:0:
64,192,84099,1,0,0:0:0:0:
64,192,84259,1,0,0:0:0:0:
192,192,84259,1,0,0:0:0:0:
320,192,84259,1,0,0:0:0:0:
448,192,84259,1,0,0:0:0:0:
320,192,84417,1,0,0:0:0:0:
64,192,84417,1,0,0:0:0:0:
448,192,84417,1,0,0:0:0:0:
448,192,84576,1,0,0:0:0:0:
320,192,84576,1,0,0:0:0:0:
64,192,84576,1,0,0:0:0:0:
192,192,84576,1,0,0:0:0:0:
320,192,84734,1,0,0:0:0:0:
448,192,84734,1,0,0:0:0:0:
64,192,84893,1,0,0:0:0:0:
192,192,84893,1,0,0:0:0:0:
320,192,84893,1,0,0:0:0:0:
448,192,84893,1,0,0:0:0:0:
64,192,85053,1,0,0:0:0:0:
192,192,85053,1,0,0:0:0:0:
448,192,85053,1,0,0:0:0:0:
320,192,85211,1,0,0:0:0:0:
448,192,85211,1,0,0:0:0:0:
192,192,85211,1,0,0:0:0:0:
64,192,85211,1,0,0:0:0:0:
320,192,85370,1,0,0:0:0:0:
192,192,85370,1,0,0:0:0:0:
64,192,85529,1,0,0:0:0:0:
192,192,85529,1,0,0:0:0:0:
320,192,85529,1,0,0:0:0:0:
448,192,85529,1,0,0:0:0:0:
64,192,85689,1,0,0:0:0:0:
320,192,85689,1,0,0:0:0:0:
448,192,85689,1,0,0:0:0:0:
64,192,85847,1,0,0:0:0:0:
192,192,85847,1,0,0:0:0:0:
320,192,85847,1,0,0:0:0:0:
448,192,85847,1,0,0:0:0:0:
192,192,86006,1,0,0:0:0:0:
320,192,86006,1,0,0:0:0:0:
320,192,86164,1,0,0:0:0:0:
448,192,86164,1,0,0:0:0:0:
192,192,86164,1,0,0:0:0:0:
64,192,86164,1,0,0:0:0:0:
64,192,86324,1,0,0:0:0:0:
192,192,86324,1,0,0:0:0:0:
448,192,86324,1,0,0:0:0:0:
448,192,86483,1,0,0:0:0:0:
320,192,86483,1,0,0:0:0:0:
192,192,86483,1,0,0:0:0:0:
64,192,86483,1,0,0:0:0:0:
192,192,86641,1,0,0:0:0:0:
320,192,86641,1,0,0:0:0:0:
64,192,86800,1,0,0:0:0:0:
192,192,86800,1,0,0:0:0:0:
320,192,86800,1,0,0:0:0:0:
448,192,86800,1,0,0:0:0:0:
320,192,86960,1,0,0:0:0:0:
448,192,86960,1,0,0:0:0:0:
64,192,86960,1,0,0:0:0:0:
448,192,87119,1,0,0:0:0:0:
320,192,87119,1,0,0:0:0:0:
192,192,87119,1,0,0:0:0:0:
64,192,87119,1,0,0:0:0:0:
320,192,87277,1,0,0:0:0:0:
192,192,87277,1,0,0:0:0:0:
64,192,87436,1,0,0:0:0:0:
192,192,87436,1,0,0:0:0:0:
320,192,87436,1,0,0:0:0:0:
448,192,87436,1,0,0:0:0:0:
64,192,87596,1,0,0:0:0:0:
192,192,87596,1,0,0:0:0:0:
448,192,87596,1,0,0:0:0:0:
448,192,87754,1,0,0:0:0:0:
192,192,87754,1,0,0:0:0:0:
64,192,87754,1,0,0:0:0:0:
320,192,87754,1,0,0:0:0:0:
320,192,87913,1,0,0:0:0:0:
192,192,87913,1,0,0:0:0:0:
64,192,88071,1,0,0:0:0:0:
192,192,88071,1,0,0:0:0:0:
320,192,88071,1,0,0:0:0:0:
448,192,88071,1,0,0:0:0:0:
448,192,88231,1,0,0:0:0:0:
64,192,88231,1,0,0:0:0:0:
192,192,88231,1,0,0:0:0:0:
64,192,88390,1,0,0:0:0:0:
192,192,88390,1,0,0:0:0:0:
320,192,88390,1,0,0:0:0:0:
448,192,88390,1,0,0:0:0:0:
192,192,88549,1,0,0:0:0:0:
320,192,88549,1,0,0:0:0:0:
64,192,88707,1,0,0:0:0:0:
448,192,88707,1,0,0:0:0:0:
320,192,88707,1,0,0:0:0:0:
192,192,88707,1,0,0:0:0:0:
320,192,88867,1,0,0:0:0:0:
448,192,88867,1,0,0:0:0:0:
64,192,88867,1,0,0:0:0:0:
192,192,89026,1,0,0:0:0:0:
448,192,89026,1,0,0:0:0:0:
320,192,89026,1,0,0:0:0:0:
64,192,89026,1,0,0:0:0:0:
192,192,89184,1,0,0:0:0:0:
448,192,89184,1,0,0:0:0:0:
64,192,89343,1,0,0:0:0:0:
192,192,89343,1,0,0:0:0:0:
320,192,89343,1,0,0:0:0:0:
448,192,89343,1,0,0:0:0:0:
64,192,89503,1,0,0:0:0:0:
320,192,89503,1,0,0:0:0:0:
192,192,89503,1,0,0:0:0:0:
64,192,89661,1,0,0:0:0:0:
192,192,89661,1,0,0:0:0:0:
320,192,89661,1,0,0:0:0:0:
448,192,89661,1,0,0:0:0:0:
448,192,89820,1,0,0:0:0:0:
320,192,89820,1,0,0:0:0:0:
448,192,89979,1,0,0:0:0:0:
320,192,89979,1,0,0:0:0:0:
192,192,89979,1,0,0:0:0:0:
64,192,89979,1,0,0:0:0:0:
64,192,90139,1,0,0:0:0:0:
448,192,90139,1,0,0:0:0:0:
192,192,90139,1,0,0:0:0:0:
64,192,90297,1,0,0:0:0:0:
320,192,90297,1,0,0:0:0:0:
192,192,90297,1,0,0:0:0:0:
448,192,90297,1,0,0:0:0:0:
64,192,90456,1,0,0:0:0:0:
320,192,90456,1,0,0:0:0:0:
448,192,90614,1,0,0:0:0:0:
320,192,90614,1,0,0:0:0:0:
192,192,90614,1,0,0:0:0:0:
64,192,90614,1,0,0:0:0:0:
192,192,90773,1,0,0:0:0:0:
320,192,90773,1,0,0:0:0:0:
448,192,90773,1,0,0:0:0:0:
64,192,90933,1,0,0:0:0:0:
192,192,90933,1,0,0:0:0:0:
320,192,90933,1,0,0:0:0:0:
448,192,90933,1,0,0:0:0:0:
64,192,91091,1,0,0:0:0:0:
192,192,91091,1,0,0:0:0:0:
448,192,91250,1,0,0:0:0:0:
320,192,91250,1,0,0:0:0:0:
192,192,91250,1,0,0:0:0:0:
64,192,91250,1,0,0:0:0:0:
192,192,91409,1,0,0:0:0:0:
320,192,91409,1,0,0:0:0:0:
448,192,91409,1,0,0:0:0:0:
64,192,91569,1,0,0:0:0:0:
192,192,91569,1,0,0:0:0:0:
320,192,91569,1,0,0:0:0:0:
448,192,91569,1,0,0:0:0:0:
64,192,91727,1,0,0:0:0:0:
320,192,91727,1,0,0:0:0:0:
448,192,91886,1,0,0:0:0:0:
320,192,91886,1,0,0:0:0:0:
192,192,91886,1,0,0:0:0:0:
64,192,91886,1,0,0:0:0:0:
64,192,92044,1,0,0:0:0:0:
192,192,92044,1,0,0:0:0:0:
448,192,92044,1,0,0:0:0:0:
64,192,92204,1,0,0:0:0:0:
320,192,92204,1,0,0:0:0:0:
448,192,92204,1,0,0:0:0:0:
192,192,92204,1,0,0:0:0:0:
320,192,92363,1,0,0:0:0:0:
448,192,92363,1,0,0:0:0:0:
64,192,92521,1,0,0:0:0:0:
192,192,92521,1,0,0:0:0:0:
320,192,92521,1,0,0:0:0:0:
448,192,92521,1,0,0:0:0:0:
64,192,92680,1,0,0:0:0:0:
192,192,92680,1,0,0:0:0:0:
448,192,92680,1,0,0:0:0:0:
448,192,92840,1,0,0:0:0:0:
320,192,92840,1,0,0:0:0:0:
192,192,92840,1,0,0:0:0:0:
64,192,92840,1,0,0:0:0:0:
320,192,92999,1,0,0:0:0:0:
64,192,92999,1,0,0:0:0:0:
64,192,93157,1,0,0:0:0:0:
192,192,93157,1,0,0:0:0:0:
320,192,93157,1,0,0:0:0:0:
448,192,93157,1,0,0:0:0:0:
64,192,93316,1,0,0:0:0:0:
192,192,93316,1,0,0:0:0:0:
448,192,93316,1,0,0:0:0:0:
448,192,93476,1,0,0:0:0:0:
320,192,93476,1,0,0:0:0:0:
192,192,93476,1,0,0:0:0:0:
64,192,93476,1,0,0:0:0:0:
320,192,93634,1,0,0:0:0:0:
448,192,93634,1,0,0:0:0:0:
64,192,93793,1,0,0:0:0:0:
192,192,93793,1,0,0:0:0:0:
448,192,93793,1,0,0:0:0:0:
320,192,93793,1,0,0:0:0:0:
64,192,93951,1,0,0:0:0:0:
192,192,93951,1,0,0:0:0:0:
320,192,93951,1,0,0:0:0:0:
192,192,94111,1,0,0:0:0:0:
64,192,94111,1,0,0:0:0:0:
320,192,94111,1,0,0:0:0:0:
448,192,94111,1,0,0:0:0:0:
448,192,94270,1,0,0:0:0:0:
192,192,94270,1,0,0:0:0:0:
64,192,94429,1,0,0:0:0:0:
192,192,94429,1,0,0:0:0:0:
320,192,94429,1,0,0:0:0:0:
448,192,94429,1,0,0:0:0:0:
320,192,94587,1,0,0:0:0:0:
448,192,94587,1,0,0:0:0:0:
64,192,94587,1,0,0:0:0:0:
320,192,94747,1,0,0:0:0:0:
192,192,94747,1,0,0:0:0:0:
64,192,94747,1,0,0:0:0:0:
448,192,94747,1,0,0:0:0:0:
64,192,94906,1,0,0:0:0:0:
192,192,94906,1,0,0:0:0:0:
320,192,95064,1,0,0:0:0:0:
448,192,95064,1,0,0:0:0:0:
64,192,95064,1,0,0:0:0:0:
192,192,95064,1,0,0:0:0:0:
320,192,95223,1,0,0:0:0:0:
448,192,95223,1,0,0:0:0:0:
192,192,95223,1,0,0:0:0:0:
64,192,95383,1,0,0:0:0:0:
192,192,95383,1,0,0:0:0:0:
320,192,95383,1,0,0:0:0:0:
448,192,95383,1,0,0:0:0:0:
320,192,95541,1,0,0:0:0:0:
64,192,95541,1,0,0:0:0:0:
192,192,95700,1,0,0:0:0:0:
64,192,95700,1,0,0:0:0:0:
320,192,95700,1,0,0:0:0:0:
448,192,95700,1,0,0:0:0:0:
448,192,95859,1,0,0:0:0:0:
192,192,95859,1,0,0:0:0:0:
64,192,95859,1,0,0:0:0:0:
320,192,96019,1,0,0:0:0:0:
64,192,96019,1,0,0:0:0:0:
448,192,96019,1,0,0:0:0:0:
192,192,96019,1,0,0:0:0:0:
320,192,96177,1,0,0:0:0:0:
448,192,96177,1,0,0:0:0:0:
64,192,96336,1,0,0:0:0:0:
192,192,96336,1,0,0:0:0:0:
448,192,96336,1,0,0:0:0:0:
320,192,96336,1,0,0:0:0:0:
64,192,96494,1,0,0:0:0:0:
192,192,96494,1,0,0:0:0:0:
320,192,96494,1,0,0:0:0:0:
64,192,96653,1,0,0:0:0:0:
192,192,96653,1,0,0:0:0:0:
320,192,96653,1,0,0:0:0:0:
448,192,96653,1,0,0:0:0:0:
320,192,96813,1,0,0:0:0:0:
448,192,96813,1,0,0:0:0:0:
64,192,96971,1,0,0:0:0:0:
192,192,96971,1,0,0:0:0:0:
320,192,96971,1,0,0:0:0:0:
448,192,96971,1,0,0:0:0:0:
64,192,97130,1,0,0:0:0:0:
192,192,97130,1,0,0:0:0:0:
448,192,97130,1,0,0:0:0:0:
448,192,97289,1,0,0:0:0:0:
320,192,97289,1,0,0:0:0:0:
64,192,97289,1,0,0:0:0:0:
192,192,97289,1,0,0:0:0:0:
320,192,97449,1,0,0:0:0:0:
64,192,97449,1,0,0:0:0:0:
192,192,97607,1,0,0:0:0:0:
320,192,97607,1,0,0:0:0:0:
448,192,97607,1,0,0:0:0:0:
64,192,97607,1,0,0:0:0:0:
192,192,97766,1,0,0:0:0:0:
320,192,97766,1,0,0:0:0:0:
448,192,97766,1,0,0:0:0:0:
64,192,97924,1,0,0:0:0:0:
192,192,97924,1,0,0:0:0:0:
448,192,97924,1,0,0:0:0:0:
320,192,97924,1,0,0:0:0:0:
64,192,98084,1,0,0:0:0:0:
192,192,98084,1,0,0:0:0:0:
448,192,98243,1,0,0:0:0:0:
320,192,98243,1,0,0:0:0:0:
192,192,98243,1,0,0:0:0:0:
64,192,98243,1,0,0:0:0:0:
320,192,98401,1,0,0:0:0:0:
192,192,98401,1,0,0:0:0:0:
448,192,98401,1,0,0:0:0:0:
64,192,98560,1,0,0:0:0:0:
192,192,98560,1,0,0:0:0:0:
320,192,98560,1,0,0:0:0:0:
448,192,98560,1,0,0:0:0:0:
64,192,98720,1,0,0:0:0:0:
320,192,98720,1,0,0:0:0:0:
64,192,98879,1,0,0:0:0:0:
320,192,98879,1,0,0:0:0:0:
448,192,98879,1,0,0:0:0:0:
192,192,98879,1,0,0:0:0:0:
448,192,99037,1,0,0:0:0:0:
192,192,99037,1,0,0:0:0:0:
64,192,99037,1,0,0:0:0:0:
192,192,99196,1,0,0:0:0:0:
320,192,99196,1,0,0:0:0:0:
448,192,99196,1,0,0:0:0:0:
64,192,99196,1,0,0:0:0:0:
320,192,99356,1,0,0:0:0:0:
448,192,99356,1,0,0:0:0:0:
64,192,99514,1,0,0:0:0:0:
192,192,99514,1,0,0:0:0:0:
448,192,99514,1,0,0:0:0:0:
320,192,99514,1,0,0:0:0:0:
64,192,99673,1,0,0:0:0:0:
192,192,99673,1,0,0:0:0:0:
320,192,99673,1,0,0:0:0:0:
448,192,99831,1,0,0:0:0:0:
320,192,99831,1,0,0:0:0:0:
192,192,99831,1,0,0:0:0:0:
64,192,99831,1,0,0:0:0:0:
448,192,99991,1,0,0:0:0:0:
192,192,99991,1,0,0:0:0:0:
64,192,100150,1,0,0:0:0:0:
192,192,100150,1,0,0:0:0:0:
320,192,100150,1,0,0:0:0:0:
448,192,100150,1,0,0:0:0:0:
320,192,100309,1,0,0:0:0:0:
448,192,100309,1,0,0:0:0:0:
64,192,100309,1,0,0:0:0:0:
320,192,100467,1,0,0:0:0:0:
64,192,100467,1,0,0:0:0:0:
192,192,100467,1,0,0:0:0:0:
448,192,100467,1,0,0:0:0:0:
192,192,100627,1,0,0:0:0:0:
64,192,100627,1,0,0:0:0:0:
448,192,100786,1,0,0:0:0:0:
192,192,100786,1,0,0:0:0:0:
64,192,100786,1,0,0:0:0:0:
320,192,100786,1,0,0:0:0:0:
192,192,100944,1,0,0:0:0:0:
320,192,100944,1,0,0:0:0:0:
448,192,100944,1,0,0:0:0:0:
192,192,101103,1,0,0:0:0:0:
448,192,101103,1,0,0:0:0:0:
320,192,101103,1,0,0:0:0:0:
64,192,101103,1,0,0:0:0:0:
64,192,101263,1,0,0:0:0:0:
320,192,101263,1,0,0:0:0:0:
64,192,101421,1,0,0:0:0:0:
320,192,101421,1,0,0:0:0:0:
448,192,101421,1,0,0:0:0:0:
192,192,101421,1,0,0:0:0:0:
64,192,101580,1,0,0:0:0:0:
192,192,101580,1,0,0:0:0:0:
448,192,101580,1,0,0:0:0:0:
448,192,101739,1,0,0:0:0:0:
192,192,101739,1,0,0:0:0:0:
64,192,101739,1,0,0:0:0:0:
320,192,101739,1,0,0:0:0:0:
320,192,101899,1,0,0:0:0:0:
448,192,101899,1,0,0:0:0:0:
64,192,102057,1,0,0:0:0:0:
192,192,102057,1,0,0:0:0:0:
320,192,102057,1,0,0:0:0:0:
448,192,102057,1,0,0:0:0:0:
64,192,102216,1,0,0:0:0:0:
192,192,102216,1,0,0:0:0:0:
320,192,102216,1,0,0:0:0:0:
448,192,102374,1,0,0:0:0:0:
320,192,102374,1,0,0:0:0:0:
192,192,102374,1,0,0:0:0:0:
64,192,102374,1,0,0:0:0:0:
448,192,102534,1,0,0:0:0:0:
192,192,102534,1,0,0:0:0:0:
64,192,102693,1,0,0:0:0:0:
192,192,102693,1,0,0:0:0:0:
320,192,102693,1,0,0:0:0:0:
448,192,102693,1,0,0:0:0:0:
320,192,102851,1,0,0:0:0:0:
448,192,102851,1,0,0:0:0:0:
64,192,102851,1,0,0:0:0:0:
448,192,103010,1,0,0:0:0:0:
320,192,103010,1,0,0:0:0:0:
64,192,103010,1,0,0:0:0:0:
192,192,103010,1,0,0:0:0:0:
64,192,103169,1,0,0:0:0:0:
192,192,103169,1,0,0:0:0:0:
64,192,103329,1,0,0:0:0:0:
192,192,103329,1,0,0:0:0:0:
320,192,103329,1,0,0:0:0:0:
448,192,103329,1,0,0:0:0:0:
320,192,103487,1,0,0:0:0:0:
448,192,103487,1,0,0:0:0:0:
192,192,103487,1,0,0:0:0:0:
448,192,103646,1,0,0:0:0:0:
192,192,103646,1,0,0:0:0:0:
64,192,103646,1,0,0:0:0:0:
320,192,103646,1,0,0:0:0:0:
320,192,103804,1,0,0:0:0:0:
448,192,103804,1,0,0:0:0:0:
64,192,103964,1,0,0:0:0:0:
320,192,103964,1,0,0:0:0:0:
448,192,103964,1,0,0:0:0:0:
192,192,103964,1,0,0:0:0:0:
64,192,104123,1,0,0:0:0:0:
192,192,104123,1,0,0:0:0:0:
320,192,104123,1,0,0:0:0:0:
64,192,104281,1,0,0:0:0:0:
192,192,104281,1,0,0:0:0:0:
320,192,104281,1,0,0:0:0:0:
448,192,104281,1,0,0:0:0:0:
320,192,104440,1,0,0:0:0:0:
448,192,104440,1,0,0:0:0:0:
64,192,104440,1,0,0:0:0:0:
192,192,104600,1,0,0:0:0:0:
320,192,104600,1,0,0:0:0:0:
448,192,104600,1,0,0:0:0:0:
64,192,104600,1,0,0:0:0:0:
192,192,104759,1,0,0:0:0:0:
448,192,104759,1,0,0:0:0:0:
320,192,104759,1,0,0:0:0:0:
64,192,104917,1,0,0:0:0:0:
192,192,104917,1,0,0:0:0:0:
448,192,104917,1,0,0:0:0:0:
320,192,104917,1,0,0:0:0:0:
64,192,105076,1,0,0:0:0:0:
320,192,105076,1,0,0:0:0:0:
64,192,105236,1,0,0:0:0:0:
192,192,105236,1,0,0:0:0:0:
320,192,105236,1,0,0:0:0:0:
448,192,105236,1,0,0:0:0:0:
320,192,105394,1,0,0:0:0:0:
192,192,105394,1,0,0:0:0:0:
448,192,105394,1,0,0:0:0:0:
64,192,105553,1,0,0:0:0:0:
192,192,105553,1,0,0:0:0:0:
320,192,105553,1,0,0:0:0:0:
448,192,105553,1,0,0:0:0:0:
192,192,105711,1,0,0:0:0:0:
320,192,105711,1,0,0:0:0:0:
64,192,105871,1,0,0:0:0:0:
192,192,105871,1,0,0:0:0:0:
320,192,105871,1,0,0:0:0:0:
448,192,105871,1,0,0:0:0:0:
320,192,106030,1,0,0:0:0:0:
448,192,106030,1,0,0:0:0:0:
64,192,106030,1,0,0:0:0:0:
64,192,106189,1,0,0:0:0:0:
320,192,106189,1,0,0:0:0:0:
448,192,106189,1,0,0:0:0:0:
192,192,106189,1,0,0:0:0:0:
192,192,106347,1,0,0:0:0:0:
448,192,106347,1,0,0:0:0:0:
64,192,106507,1,0,0:0:0:0:
192,192,106507,1,0,0:0:0:0:
320,192,106507,1,0,0:0:0:0:
448,192,106507,1,0,0:0:0:0:
64,192,106666,1,0,0:0:0:0:
192,192,106666,1,0,0:0:0:0:
320,192,106666,1,0,0:0:0:0:
448,192,106824,1,0,0:0:0:0:
320,192,106824,1,0,0:0:0:0:
192,192,106824,1,0,0:0:0:0:
64,192,106824,1,0,0:0:0:0:
192,192,106983,1,0,0:0:0:0:
320,192,106983,1,0,0:0:0:0:
64,192,107143,1,0,0:0:0:0:
192,192,107143,1,0,0:0:0:0:
448,192,107143,1,0,0:0:0:0:
320,192,107143,1,0,0:0:0:0:
192,192,107301,1,0,0:0:0:0:
64,192,107301,1,0,0:0:0:0:
448,192,107301,1,0,0:0:0:0:
64,192,107460,1,0,0:0:0:0:
192,192,107460,1,0,0:0:0:0:
320,192,107460,1,0,0:0:0:0:
448,192,107460,1,0,0:0:0:0:
320,192,107619,1,0,0:0:0:0:
64,192,107619,1,0,0:0:0:0:
64,192,107779,1,0,0:0:0:0:
320,192,107779,1,0,0:0:0:0:
192,192,107779,1,0,0:0:0:0:
448,192,107779,1,0,0:0:0:0:
192,192,107937,1,0,0:0:0:0:
448,192,107937,1,0,0:0:0:0:
320,192,107937,1,0,0:0:0:0:
448,192,108096,1,0,0:0:0:0:
192,192,108096,1,0,0:0:0:0:
64,192,108096,1,0,0:0:0:0:
320,192,108096,1,0,0:0:0:0:
64,192,108254,1,0,0:0:0:0:
192,192,108254,1,0,0:0:0:0:
64,192,108414,1,0,0:0:0:0:
192,192,108414,1,0,0:0:0:0:
448,192,108414,1,0,0:0:0:0:
320,192,108414,1,0,0:0:0:0:
320,192,108573,1,0,0:0:0:0:
448,192,108573,1,0,0:0:0:0:
64,192,108573,1,0,0:0:0:0:
448,192,108731,1,0,0:0:0:0:
320,192,108731,1,0,0:0:0:0:
64,192,108731,1,0,0:0:0:0:
192,192,108731,1,0,0:0:0:0:
192,192,108890,1,0,0:0:0:0:
448,192,108890,1,0,0:0:0:0:
64,192,109049,1,0,0:0:0:0:
192,192,109049,1,0,0:0:0:0:
320,192,109049,1,0,0:0:0:0:
448,192,109049,1,0,0:0:0:0:
320,192,109209,1,0,0:0:0:0:
64,192,109209,1,0,0:0:0:0:
192,192,109209,1,0,0:0:0:0:
448,192,109367,1,0,0:0:0:0:
320,192,109367,1,0,0:0:0:0:
192,192,109367,1,0,0:0:0:0:
64,192,109367,1,0,0:0:0:0:
448,192,109526,1,0,0:0:0:0:
192,192,109526,1,0,0:0:0:0:
64,192,109684,1,0,0:0:0:0:
192,192,109684,1,0,0:0:0:0:
320,192,109684,1,0,0:0:0:0:
448,192,109684,1,0,0:0:0:0:
320,192,109844,1,0,0:0:0:0:
448,192,109844,1,0,0:0:0:0:
64,192,109844,1,0,0:0:0:0:
448,192,110003,1,0,0:0:0:0:
320,192,110003,1,0,0:0:0:0:
192,192,110003,1,0,0:0:0:0:
64,192,110003,1,0,0:0:0:0:
192,192,110161,1,0,0:0:0:0:
448,192,110161,1,0,0:0:0:0:
64,192,110320,1,0,0:0:0:0:
192,192,110320,1,0,0:0:0:0:
320,192,110320,1,0,0:0:0:0:
448,192,110320,1,0,0:0:0:0:
192,192,110480,1,0,0:0:0:0:
64,192,110480,1,0,0:0:0:0:
320,192,110480,1,0,0:0:0:0:
448,192,110639,1,0,0:0:0:0:
320,192,110639,1,0,0:0:0:0:
192,192,110639,1,0,0:0:0:0:
64,192,110639,1,0,0:0:0:0:
448,192,110797,1,0,0:0:0:0:
192,192,110797,1,0,0:0:0:0:
64,192,110956,1,0,0:0:0:0:
192,192,110956,1,0,0:0:0:0:
320,192,110956,1,0,0:0:0:0:
448,192,110956,1,0,0:0:0:0:
64,192,111116,1,0,0:0:0:0:
320,192,111116,1,0,0:0:0:0:
448,192,111116,1,0,0:0:0:0:
448,192,111274,1,0,0:0:0:0:
64,192,111274,1,0,0:0:0:0:
192,192,111274,1,0,0:0:0:0:
320,192,111274,1,0,0:0:0:0:
192,192,111433,1,0,0:0:0:0:
64,192,111433,1,0,0:0:0:0:
64,192,111591,1,0,0:0:0:0:
192,192,111591,1,0,0:0:0:0:
320,192,111591,1,0,0:0:0:0:
448,192,111591,1,0,0:0:0:0:
448,192,111751,1,0,0:0:0:0:
320,192,111751,1,0,0:0:0:0:
192,192,111751,1,0,0:0:0:0:
448,192,111910,1,0,0:0:0:0:
320,192,111910,1,0,0:0:0:0:
64,192,111910,1,0,0:0:0:0:
192,192,111910,1,0,0:0:0:0:
64,192,112069,1,0,0:0:0:0:
320,192,112069,1,0,0:0:0:0:
64,192,112227,1,0,0:0:0:0:
192,192,112227,1,0,0:0:0:0:
320,192,112227,1,0,0:0:0:0:
448,192,112227,1,0,0:0:0:0:
64,192,112387,1,0,0:0:0:0:
192,192,112387,1,0,0:0:0:0:
448,192,112387,1,0,0:0:0:0:
320,192,112546,1,0,0:0:0:0:
192,192,112546,1,0,0:0:0:0:
448,192,112546,1,0,0:0:0:0:
64,192,112546,1,0,0:0:0:0:
320,192,112704,1,0,0:0:0:0:
448,192,112704,1,0,0:0:0:0:
64,192,112863,1,0,0:0:0:0:
192,192,112863,1,0,0:0:0:0:
320,192,112863,1,0,0:0:0:0:
448,192,112863,1,0,0:0:0:0:
64,192,113023,1,0,0:0:0:0:
320,192,113023,1,0,0:0:0:0:
192,192,113023,1,0,0:0:0:0:
448,192,113181,1,0,0:0:0:0:
64,192,113181,1,0,0:0:0:0:
320,192,113181,1,0,0:0:0:0:
192,192,113181,1,0,0:0:0:0:
448,192,113340,1,0,0:0:0:0:
192,192,113340,1,0,0:0:0:0:
192,192,113499,1,0,0:0:0:0:
64,192,113499,1,0,0:0:0:0:
320,192,113499,1,0,0:0:0:0:
448,192,113499,1,0,0:0:0:0:
64,192,113659,1,0,0:0:0:0:
320,192,113659,1,0,0:0:0:0:
448,192,113659,1,0,0:0:0:0:
448,192,113817,1,0,0:0:0:0:
320,192,113817,1,0,0:0:0:0:
192,192,113817,1,0,0:0:0:0:
64,192,113817,1,0,0:0:0:0:
192,192,113976,1,0,0:0:0:0:
448,192,113976,1,0,0:0:0:0:
64,192,114134,1,0,0:0:0:0:
192,192,114134,1,0,0:0:0:0:
320,192,114134,1,0,0:0:0:0:
448,192,114134,1,0,0:0:0:0:
64,192,114294,1,0,0:0:0:0:
192,192,114294,1,0,0:0:0:0:
320,192,114294,1,0,0:0:0:0:
448,192,114453,1,0,0:0:0:0:
320,192,114453,1,0,0:0:0:0:
192,192,114453,1,0,0:0:0:0:
64,192,114453,1,0,0:0:0:0:
192,192,114611,1,0,0:0:0:0:
448,192,114611,1,0,0:0:0:0:
448,192,114770,1,0,0:0:0:0:
320,192,114770,1,0,0:0:0:0:
64,192,114770,1,0,0:0:0:0:
192,192,114770,1,0,0:0:0:0:
64,192,114929,1,0,0:0:0:0:
320,192,114929,1,0,0:0:0:0:
192,192,114929,1,0,0:0:0:0:
448,192,115089,1,0,0:0:0:0:
320,192,115089,1,0,0:0:0:0:
64,192,115089,1,0,0:0:0:0:
192,192,115089,1,0,0:0:0:0:
448,192,115247,1,0,0:0:0:0:
320,192,115247,1,0,0:0:0:0:
320,192,115406,1,0,0:0:0:0:
448,192,115406,1,0,0:0:0:0:
64,192,115406,1,0,0:0:0:0:
192,192,115406,1,0,0:0:0:0:
64,192,115564,1,0,0:0:0:0:
192,192,115564,1,0,0:0:0:0:
448,192,115564,1,0,0:0:0:0:
320,192,115724,1,0,0:0:0:0:
448,192,115724,1,0,0:0:0:0:
64,192,115724,1,0,0:0:0:0:
192,192,115724,1,0,0:0:0:0:
192,192,115883,1,0,0:0:0:0:
320,192,115883,1,0,0:0:0:0:
320,192,116041,1,0,0:0:0:0:
448,192,116041,1,0,0:0:0:0:
64,192,116041,1,0,0:0:0:0:
192,192,116041,1,0,0:0:0:0:
64,192,116200,1,0,0:0:0:0:
320,192,116200,1,0,0:0:0:0:
448,192,116200,1,0,0:0:0:0:
320,192,116360,1,0,0:0:0:0:
448,192,116360,1,0,0:0:0:0:
64,192,116360,1,0,0:0:0:0:
192,192,116360,1,0,0:0:0:0:
192,192,116519,1,0,0:0:0:0:
320,192,116519,1,0,0:0:0:0:
320,192,116677,1,0,0:0:0:0:
448,192,116677,1,0,0:0:0:0:
64,192,116677,1,0,0:0:0:0:
192,192,116677,1,0,0:0:0:0:
64,192,116836,1,0,0:0:0:0:
192,192,116836,1,0,0:0:0:0:
448,192,116836,1,0,0:0:0:0:
320,192,116996,1,0,0:0:0:0:
448,192,116996,1,0,0:0:0:0:
64,192,116996,1,0,0:0:0:0:
192,192,116996,1,0,0:0:0:0:
192,192,117154,1,0,0:0:0:0:
320,192,117154,1,0,0:0:0:0:
320,192,117313,1,0,0:0:0:0:
448,192,117313,1,0,0:0:0:0:
64,192,117313,1,0,0:0:0:0:
192,192,117313,1,0,0:0:0:0:
448,192,117471,1,0,0:0:0:0:
320,192,117471,1,0,0:0:0:0:
64,192,117471,1,0,0:0:0:0:
448,192,117631,1,0,0:0:0:0:
320,192,117631,1,0,0:0:0:0:
64,192,117631,1,0,0:0:0:0:
192,192,117631,1,0,0:0:0:0:
192,192,117790,1,0,0:0:0:0:
448,192,117790,1,0,0:0:0:0:
320,192,117949,1,0,0:0:0:0:
448,192,117949,1,0,0:0:0:0:
64,192,117949,1,0,0:0:0:0:
192,192,117949,1,0,0:0:0:0:
64,192,118107,1,0,0:0:0:0:
192,192,118107,1,0,0:0:0:0:
320,192,118107,1,0,0:0:0:0:
320,192,118267,1,0,0:0:0:0:
448,192,118267,1,0,0:0:0:0:
64,192,118267,1,0,0:0:0:0:
192,192,118267,1,0,0:0:0:0:
448,192,118426,1,0,0:0:0:0:
320,192,118426,1,0,0:0:0:0:
320,192,118584,1,0,0:0:0:0:
448,192,118584,1,0,0:0:0:0:
64,192,118584,1,0,0:0:0:0:
192,192,118584,1,0,0:0:0:0:
64,192,118743,1,0,0:0:0:0:
192,192,118743,1,0,0:0:0:0:
448,192,118743,1,0,0:0:0:0:
320,192,118903,1,0,0:0:0:0:
448,192,118903,1,0,0:0:0:0:
192,192,118903,1,0,0:0:0:0:
64,192,118903,1,0,0:0:0:0:
320,192,119061,1,0,0:0:0:0:
64,192,119061,1,0,0:0:0:0:
192,192,119220,1,0,0:0:0:0:
64,192,119220,1,0,0:0:0:0:
320,192,119220,1,0,0:0:0:0:
448,192,119220,1,0,0:0:0:0:
192,192,119379,1,0,0:0:0:0:
448,192,119379,1,0,0:0:0:0:
320,192,119379,1,0,0:0:0:0:
64,192,119539,1,0,0:0:0:0:
192,192,119539,1,0,0:0:0:0:
320,192,119539,1,0,0:0:0:0:
448,192,119539,1,0,0:0:0:0:
64,192,119697,1,0,0:0:0:0:
320,192,119697,1,0,0:0:0:0:
64,192,119856,1,0,0:0:0:0:
192,192,119856,1,0,0:0:0:0:
320,192,119856,1,0,0:0:0:0:
448,192,119856,1,0,0:0:0:0:
448,192,120014,1,0,0:0:0:0:
192,192,120014,1,0,0:0:0:0:
64,192,120014,1,0,0:0:0:0:
192,192,120174,1,0,0:0:0:0:
64,192,120174,1,0,0:0:0:0:
320,192,120174,1,0,0:0:0:0:
448,192,120174,1,0,0:0:0:0:
320,192,120333,1,0,0:0:0:0:
448,192,120333,1,0,0:0:0:0:
64,192,120491,1,0,0:0:0:0:
192,192,120491,1,0,0:0:0:0:
320,192,120491,1,0,0:0:0:0:
448,192,120491,1,0,0:0:0:0:
192,192,120650,1,0,0:0:0:0:
448,192,120650,1,0,0:0:0:0:
64,192,120650,1,0,0:0:0:0:
64,192,120810,1,0,0:0:0:0:
192,192,120810,1,0,0:0:0:0:
320,192,120810,1,0,0:0:0:0:
448,192,120810,1,0,0:0:0:0:
320,192,120969,1,0,0:0:0:0:
192,192,120969,1,0,0:0:0:0:
64,192,121127,1,0,0:0:0:0:
192,192,121127,1,0,0:0:0:0:
320,192,121127,1,0,0:0:0:0:
448,192,121127,1,0,0:0:0:0:
448,192,121286,1,0,0:0:0:0:
320,192,121286,1,0,0:0:0:0:
64,192,121286,1,0,0:0:0:0:
64,192,121444,1,0,0:0:0:0:
192,192,121444,1,0,0:0:0:0:
320,192,121444,1,0,0:0:0:0:
448,192,121444,1,0,0:0:0:0:
192,192,121604,1,0,0:0:0:0:
448,192,121604,1,0,0:0:0:0:
64,192,121763,1,0,0:0:0:0:
192,192,121763,1,0,0:0:0:0:
320,192,121763,1,0,0:0:0:0:
448,192,121763,1,0,0:0:0:0:
64,192,121921,1,0,0:0:0:0:
192,192,121921,1,0,0:0:0:0:
320,192,121921,1,0,0:0:0:0:
64,192,122080,1,0,0:0:0:0:
192,192,122080,1,0,0:0:0:0:
320,192,122080,1,0,0:0:0:0:
448,192,122080,1,0,0:0:0:0:
320,192,122240,1,0,0:0:0:0:
448,192,122240,1,0,0:0:0:0:
64,192,122399,1,0,0:0:0:0:
192,192,122399,1,0,0:0:0:0:
320,192,122399,1,0,0:0:0:0:
448,192,122399,1,0,0:0:0:0:
64,192,122557,1,0,0:0:0:0:
192,192,122557,1,0,0:0:0:0:
448,192,122557,1,0,0:0:0:0:
64,192,122716,1,0,0:0:0:0:
192,192,122716,1,0,0:0:0:0:
320,192,122716,1,0,0:0:0:0:
448,192,122716,1,0,0:0:0:0:
192,192,122876,1,0,0:0:0:0:
320,192,122876,1,0,0:0:0:0:
64,192,123034,1,0,0:0:0:0:
192,192,123034,1,0,0:0:0:0:
320,192,123034,1,0,0:0:0:0:
448,192,123034,1,0,0:0:0:0:
320,192,123193,1,0,0:0:0:0:
448,192,123193,1,0,0:0:0:0:
64,192,123193,1,0,0:0:0:0:
64,192,123351,1,0,0:0:0:0:
192,192,123351,1,0,0:0:0:0:
320,192,123351,1,0,0:0:0:0:
448,192,123351,1,0,0:0:0:0:
192,192,123511,1,0,0:0:0:0:
64,192,123511,1,0,0:0:0:0:
448,192,123511,1,0,0:0:0:0:
64,192,123670,1,0,0:0:0:0:
192,192,123670,1,0,0:0:0:0:
320,192,123670,1,0,0:0:0:0:
448,192,123670,1,0,0:0:0:0:
320,192,123829,1,0,0:0:0:0:
448,192,123829,1,0,0:0:0:0:
64,192,123829,1,0,0:0:0:0:
64,192,123987,1,0,0:0:0:0:
192,192,123987,1,0,0:0:0:0:
320,192,123987,1,0,0:0:0:0:
448,192,123987,1,0,0:0:0:0:
64,192,124147,1,0,0:0:0:0:
192,192,124147,1,0,0:0:0:0:
320,192,124147,1,0,0:0:0:0:
448,192,124147,1,0,0:0:0:0:
64,192,124306,1,0,0:0:0:0:
192,192,124306,1,0,0:0:0:0:
320,192,124306,1,0,0:0:0:0:
448,192,124306,1,0,0:0:0:0:
448,192,124464,1,0,0:0:0:0:
320,192,124464,1,0,0:0:0:0:
192,192,124464,1,0,0:0:0:0:
64,192,124464,1,0,0:0:0:0:
64,192,124623,1,0,0:0:0:0:
192,192,124623,1,0,0:0:0:0:
320,192,124623,1,0,0:0:0:0:
448,192,124623,1,0,0:0:0:0:
448,192,124783,1,0,0:0:0:0:
64,192,124783,1,0,0:0:0:0:
192,192,124783,1,0,0:0:0:0:
320,192,124783,1,0,0:0:0:0:
64,192,124941,1,0,0:0:0:0:
192,192,124941,1,0,0:0:0:0:
320,192,124941,1,0,0:0:0:0:
448,192,124941,1,0,0:0:0:0:
64,192,125100,1,0,0:0:0:0:
192,192,125100,1,0,0:0:0:0:
320,192,125100,1,0,0:0:0:0:
448,192,125100,1,0,0:0:0:0:
64,192,125259,1,0,0:0:0:0:
192,192,125259,1,0,0:0:0:0:
320,192,125259,1,0,0:0:0:0:
448,192,125259,1,0,0:0:0:0:
192,192,125419,1,0,0:0:0:0:
448,192,125419,1,0,0:0:0:0:
64,192,125577,1,0,0:0:0:0:
192,192,125577,1,0,0:0:0:0:
320,192,125577,1,0,0:0:0:0:
448,192,125577,1,0,0:0:0:0:
64,192,125736,1,0,0:0:0:0:
192,192,125736,1,0,0:0:0:0:
320,192,125736,1,0,0:0:0:0:
64,192,125894,1,0,0:0:0:0:
192,192,125894,1,0,0:0:0:0:
320,192,125894,1,0,0:0:0:0:
448,192,125894,1,0,0:0:0:0:
320,192,126054,1,0,0:0:0:0:
448,192,126054,1,0,0:0:0:0:
64,192,126213,1,0,0:0:0:0:
192,192,126213,1,0,0:0:0:0:
320,192,126213,1,0,0:0:0:0:
448,192,126213,1,0,0:0:0:0:
64,192,126371,1,0,0:0:0:0:
192,192,126371,1,0,0:0:0:0:
448,192,126371,1,0,0:0:0:0:
448,192,126530,1,0,0:0:0:0:
320,192,126530,1,0,0:0:0:0:
192,192,126530,1,0,0:0:0:0:
64,192,126530,1,0,0:0:0:0:
320,192,126690,1,0,0:0:0:0:
64,192,126690,1,0,0:0:0:0:
64,192,126849,1,0,0:0:0:0:
192,192,126849,1,0,0:0:0:0:
448,192,126849,1,0,0:0:0:0:
320,192,126849,1,0,0:0:0:0:
192,192,127007,1,0,0:0:0:0:
448,192,127007,1,0,0:0:0:0:
320,192,127007,1,0,0:0:0:0:
320,192,127166,1,0,0:0:0:0:
448,192,127166,1,0,0:0:0:0:
64,192,127166,1,0,0:0:0:0:
192,192,127166,1,0,0:0:0:0:
64,192,127324,1,0,0:0:0:0:
192,192,127324,1,0,0:0:0:0:
64,192,127484,1,0,0:0:0:0:
192,192,127484,1,0,0:0:0:0:
320,192,127484,1,0,0:0:0:0:
448,192,127484,1,0,0:0:0:0:
448,192,127643,1,0,0:0:0:0:
320,192,127643,1,0,0:0:0:0:
64,192,127643,1,0,0:0:0:0:
448,192,127801,1,0,0:0:0:0:
192,192,127801,1,0,0:0:0:0:
64,192,127801,1,0,0:0:0:0:
320,192,127801,1,0,0:0:0:0:
192,192,127960,1,0,0:0:0:0:
320,192,127960,1,0,0:0:0:0:
64,192,128120,1,0,0:0:0:0:
448,192,128120,1,0,0:0:0:0:
192,192,128120,1,0,0:0:0:0:
320,192,128120,1,0,0:0:0:0:
448,192,128279,1,0,0:0:0:0:
320,192,128279,1,0,0:0:0:0:
64,192,128279,1,0,0:0:0:0:
448,192,128437,1,0,0:0:0:0:
320,192,128437,1,0,0:0:0:0:
192,192,128437,1,0,0:0:0:0:
64,192,128437,1,0,0:0:0:0:
64,192,128596,1,0,0:0:0:0:
192,192,128596,1,0,0:0:0:0:
64,192,128756,1,0,0:0:0:0:
192,192,128756,1,0,0:0:0:0:
320,192,128756,1,0,0:0:0:0:
448,192,128756,1,0,0:0:0:0:
448,192,128914,1,0,0:0:0:0:
192,192,128914,1,0,0:0:0:0:
320,192,128914,1,0,0:0:0:0:
448,192,129073,1,0,0:0:0:0:
320,192,129073,1,0,0:0:0:0:
192,192,129073,1,0,0:0:0:0:
64,192,129073,1,0,0:0:0:0:
64,192,129231,1,0,0:0:0:0:
320,192,129231,1,0,0:0:0:0:
64,192,129391,1,0,0:0:0:0:
448,192,129391,1,0,0:0:0:0:
320,192,129391,1,0,0:0:0:0:
192,192,129391,1,0,0:0:0:0:
448,192,129550,1,0,0:0:0:0:
192,192,129550,1,0,0:0:0:0:
320,192,129550,1,0,0:0:0:0:
64,192,129709,1,0,0:0:0:0:
192,192,129709,1,0,0:0:0:0:
320,192,129709,1,0,0:0:0:0:
448,192,129709,1,0,0:0:0:0:
64,192,129867,1,0,0:0:0:0:
320,192,129867,1,0,0:0:0:0:
64,192,130027,1,0,0:0:0:0:
192,192,130027,1,0,0:0:0:0:
320,192,130027,1,0,0:0:0:0:
448,192,130027,1,0,0:0:0:0:
64,192,130186,1,0,0:0:0:0:
192,192,130186,1,0,0:0:0:0:
448,192,130186,1,0,0:0:0:0:
448,192,130344,1,0,0:0:0:0:
320,192,130344,1,0,0:0:0:0:
192,192,130344,1,0,0:0:0:0:
64,192,130344,1,0,0:0:0:0:
192,192,130503,1,0,0:0:0:0:
320,192,130503,1,0,0:0:0:0:
64,192,130663,1,0,0:0:0:0:
192,192,130663,1,0,0:0:0:0:
448,192,130663,1,0,0:0:0:0:
320,192,130663,1,0,0:0:0:0:
448,192,130821,1,0,0:0:0:0:
192,192,130821,1,0,0:0:0:0:
320,192,130821,1,0,0:0:0:0:
320,192,130980,1,0,0:0:0:0:
448,192,130980,1,0,0:0:0:0:
64,192,130980,1,0,0:0:0:0:
192,192,130980,1,0,0:0:0:0:
64,192,131139,1,0,0:0:0:0:
192,192,131139,1,0,0:0:0:0:
320,192,131139,1,0,0:0:0:0:
64,192,131299,1,0,0:0:0:0:
192,192,131299,1,0,0:0:0:0:
320,192,131299,1,0,0:0:0:0:
448,192,131299,1,0,0:0:0:0:
192,192,131457,1,0,0:0:0:0:
320,192,131457,1,0,0:0:0:0:
448,192,131457,1,0,0:0:0:0:
192,192,131616,1,0,0:0:0:0:
64,192,131616,1,0,0:0:0:0:
320,192,131616,1,0,0:0:0:0:
448,192,131616,1,0,0:0:0:0:
64,192,131774,1,0,0:0:0:0:
448,192,131774,1,0,0:0:0:0:
192,192,131774,1,0,0:0:0:0:
64,192,131934,1,0,0:0:0:0:
448,192,131934,1,0,0:0:0:0:
192,192,131934,1,0,0:0:0:0:
320,192,131934,1,0,0:0:0:0:
64,192,132093,1,0,0:0:0:0:
448,192,132093,1,0,0:0:0:0:
320,192,132093,1,0,0:0:0:0:
448,192,132251,1,0,0:0:0:0:
320,192,132251,1,0,0:0:0:0:
192,192,132251,1,0,0:0:0:0:
64,192,132251,1,0,0:0:0:0:
64,192,132410,1,0,0:0:0:0:
192,192,132410,1,0,0:0:0:0:
320,192,132410,1,0,0:0:0:0:
64,192,132570,1,0,0:0:0:0:
192,192,132570,1,0,0:0:0:0:
320,192,132570,1,0,0:0:0:0:
448,192,132570,1,0,0:0:0:0:
192,192,132729,1,0,0:0:0:0:
320,192,132729,1,0,0:0:0:0:
448,192,132729,1,0,0:0:0:0:
448,192,132887,1,0,0:0:0:0:
320,192,132887,1,0,0:0:0:0:
64,192,132887,1,0,0:0:0:0:
192,192,132967,1,0,0:0:0:0:
320,192,133046,1,0,0:0:0:0:
448,192,133127,1,0,0:0:0:0:
64,192,133207,1,0,0:0:0:0:
192,192,133207,1,0,0:0:0:0:
320,192,133286,1,0,0:0:0:0:
448,192,133366,1,0,0:0:0:0:
192,192,133366,1,0,0:0:0:0:
64,192,133444,1,0,0:0:0:0:
320,192,133524,1,0,0:0:0:0:
448,192,133524,1,0,0:0:0:0:
192,192,133524,1,0,0:0:0:0:
64,192,133604,1,0,0:0:0:0:
320,192,133683,1,0,0:0:0:0:
192,192,133763,1,0,0:0:0:0:
64,192,133840,1,0,0:0:0:0:
320,192,133843,1,0,0:0:0:0:
448,192,133921,1,0,0:0:0:0:
192,192,134000,1,0,0:0:0:0:
64,192,134001,1,0,0:0:0:0:
320,192,134080,1,0,0:0:0:0:
448,192,134159,1,0,0:0:0:0:
192,192,134160,1,0,0:0:0:0:
64,192,134160,1,0,0:0:0:0:
320,192,134240,1,0,0:0:0:0:
192,192,134319,1,0,0:0:0:0:
64,192,134399,1,0,0:0:0:0:
320,192,134479,1,0,0:0:0:0:
448,192,134479,1,0,0:0:0:0:
192,192,134556,1,0,0:0:0:0:
320,192,134636,1,0,0:0:0:0:
64,192,134636,1,0,0:0:0:0:
448,192,134714,1,0,0:0:0:0:
64,192,134794,1,0,0:0:0:0:
320,192,134794,1,0,0:0:0:0:
192,192,134794,1,0,0:0:0:0:
448,192,134874,1,0,0:0:0:0:
192,192,134954,1,0,0:0:0:0:
320,192,135034,1,0,0:0:0:0:
448,192,135114,1,0,0:0:0:0:
192,192,135114,1,0,0:0:0:0:
64,192,135193,1,0,0:0:0:0:
320,192,135273,1,0,0:0:0:0:
448,192,135273,1,0,0:0:0:0:
192,192,135351,1,0,0:0:0:0:
64,192,135431,1,0,0:0:0:0:
320,192,135431,1,0,0:0:0:0:
448,192,135431,1,0,0:0:0:0:
192,192,135511,1,0,0:0:0:0:
320,192,135590,1,0,0:0:0:0:
448,192,135670,1,0,0:0:0:0:
192,192,135749,1,0,0:0:0:0:
64,192,135749,1,0,0:0:0:0:
320,192,135829,1,0,0:0:0:0:
448,192,135909,1,0,0:0:0:0:
192,192,135909,1,0,0:0:0:0:
64,192,135987,1,0,0:0:0:0:
192,192,136067,1,0,0:0:0:0:
320,192,136067,1,0,0:0:0:0:
448,192,136067,1,0,0:0:0:0:
64,192,136147,1,0,0:0:0:0:
320,192,136226,1,0,0:0:0:0:
192,192,136306,1,0,0:0:0:0:
320,192,136384,1,0,0:0:0:0:
64,192,136384,1,0,0:0:0:0:
448,192,136464,1,0,0:0:0:0:
192,192,136544,1,0,0:0:0:0:
64,192,136544,1,0,0:0:0:0:
320,192,136623,1,0,0:0:0:0:
64,192,136703,1,0,0:0:0:0:
192,192,136703,1,0,0:0:0:0:
448,192,136703,1,0,0:0:0:0:
320,192,136783,1,0,0:0:0:0:
192,192,136861,1,0,0:0:0:0:
64,192,136941,1,0,0:0:0:0:
320,192,137020,1,0,0:0:0:0:
448,192,137020,1,0,0:0:0:0:
192,192,137100,1,0,0:0:0:0:
64,192,137180,1,0,0:0:0:0:
320,192,137180,1,0,0:0:0:0:
448,192,137259,1,0,0:0:0:0:
64,192,137339,1,0,0:0:0:0:
192,192,137339,1,0,0:0:0:0:
320,192,137339,1,0,0:0:0:0:
448,192,137419,1,0,0:0:0:0:
192,192,137497,1,0,0:0:0:0:
320,192,137577,1,0,0:0:0:0:
64,192,137656,1,0,0:0:0:0:
192,192,137656,1,0,0:0:0:0:
448,192,137736,1,0,0:0:0:0:
320,192,137816,1,0,0:0:0:0:
64,192,137816,1,0,0:0:0:0:
192,192,137894,1,0,0:0:0:0:
320,192,137974,1,0,0:0:0:0:
448,192,137974,1,0,0:0:0:0:
64,192,137974,1,0,0:0:0:0:
192,192,138054,1,0,0:0:0:0:
448,192,138133,1,0,0:0:0:0:
320,192,138213,1,0,0:0:0:0:
192,192,138291,1,0,0:0:0:0:
64,192,138291,1,0,0:0:0:0:
448,192,138371,1,0,0:0:0:0:
320,192,138451,1,0,0:0:0:0:
64,192,138451,1,0,0:0:0:0:
192,192,138530,1,0,0:0:0:0:
320,192,138610,1,0,0:0:0:0:
448,192,138610,1,0,0:0:0:0:
64,192,138610,1,0,0:0:0:0:
192,192,138690,1,0,0:0:0:0:
320,192,138769,1,0,0:0:0:0:
448,192,138849,1,0,0:0:0:0:
64,192,138927,1,0,0:0:0:0:
192,192,138927,1,0,0:0:0:0:
320,192,139007,1,0,0:0:0:0:
448,192,139087,1,0,0:0:0:0:
192,192,139087,1,0,0:0:0:0:
320,192,139166,1,0,0:0:0:0:
64,192,139246,1,0,0:0:0:0:
192,192,139246,1,0,0:0:0:0:
448,192,139246,1,0,0:0:0:0:
320,192,139324,1,0,0:0:0:0:
64,192,139404,1,0,0:0:0:0:
192,192,139484,1,0,0:0:0:0:
320,192,139563,1,0,0:0:0:0:
448,192,139563,1,0,0:0:0:0:
64,192,139643,1,0,0:0:0:0:
192,192,139723,1,0,0:0:0:0:
448,192,139723,1,0,0:0:0:0:
320,192,139801,1,0,0:0:0:0:
64,192,139881,1,0,0:0:0:0:
192,192,139881,1,0,0:0:0:0:
448,192,139881,1,0,0:0:0:0:
320,192,139960,1,0,0:0:0:0:
192,192,140040,1,0,0:0:0:0:
64,192,140040,1,0,0:0:0:0:
448,192,140120,1,0,0:0:0:0:
320,192,140199,1,0,0:0:0:0:
64,192,140199,1,0,0:0:0:0:
192,192,140279,1,0,0:0:0:0:
448,192,140359,1,0,0:0:0:0:
320,192,140359,1,0,0:0:0:0:
64,192,140437,1,0,0:0:0:0:
448,192,140517,1,0,0:0:0:0:
320,192,140517,1,0,0:0:0:0:
192,192,140517,1,0,0:0:0:0:
64,192,140596,1,0,0:0:0:0:
192,192,140676,1,0,0:0:0:0:
320,192,140756,1,0,0:0:0:0:
192,192,140834,1,0,0:0:0:0:
448,192,140834,1,0,0:0:0:0:
64,192,140914,1,0,0:0:0:0:
320,192,140994,1,0,0:0:0:0:
448,192,140994,1,0,0:0:0:0:
192,192,141073,1,0,0:0:0:0:
448,192,141153,1,0,0:0:0:0:
64,192,141153,1,0,0:0:0:0:
320,192,141153,1,0,0:0:0:0:
192,192,141231,1,0,0:0:0:0:
320,192,141311,1,0,0:0:0:0:
64,192,141391,1,0,0:0:0:0:
448,192,141470,1,0,0:0:0:0:
192,192,141470,1,0,0:0:0:0:
320,192,141550,1,0,0:0:0:0:
64,192,141630,1,0,0:0:0:0:
192,192,141630,1,0,0:0:0:0:
448,192,141709,1,0,0:0:0:0:
320,192,141789,1,0,0:0:0:0:
192,192,141789,1,0,0:0:0:0:
64,192,141789,1,0,0:0:0:0:
448,192,141867,1,0,0:0:0:0:
320,192,141947,1,0,0:0:0:0:
192,192,142027,1,0,0:0:0:0:
320,192,142106,1,0,0:0:0:0:
448,192,142106,1,0,0:0:0:0:
64,192,142186,1,0,0:0:0:0:
192,192,142266,1,0,0:0:0:0:
448,192,142266,1,0,0:0:0:0:
320,192,142344,1,0,0:0:0:0:
64,192,142424,1,0,0:0:0:0:
192,192,142424,1,0,0:0:0:0:
448,192,142424,1,0,0:0:0:0:
320,192,142503,1,0,0:0:0:0:
192,192,142583,1,0,0:0:0:0:
64,192,142663,1,0,0:0:0:0:
320,192,142741,1,0,0:0:0:0:
448,192,142741,1,0,0:0:0:0:
192,192,142821,1,0,0:0:0:0:
320,192,142901,1,0,0:0:0:0:
64,192,142901,1,0,0:0:0:0:
448,192,142980,1,0,0:0:0:0:
64,192,143060,1,0,0:0:0:0:
192,192,143060,1,0,0:0:0:0:
320,192,143060,1,0,0:0:0:0:
448,192,143139,1,0,0:0:0:0:
192,192,143219,1,0,0:0:0:0:
320,192,143299,1,0,0:0:0:0:
448,192,143377,1,0,0:0:0:0:
192,192,143377,1,0,0:0:0:0:
64,192,143457,1,0,0:0:0:0:
320,192,143536,1,0,0:0:0:0:
448,192,143536,1,0,0:0:0:0:
192,192,143616,1,0,0:0:0:0:
64,192,143696,1,0,0:0:0:0:
320,192,143696,1,0,0:0:0:0:
448,192,143696,1,0,0:0:0:0:
192,192,143774,1,0,0:0:0:0:
320,192,143854,1,0,0:0:0:0:
64,192,143934,1,0,0:0:0:0:
192,192,144013,1,0,0:0:0:0:
448,192,144013,1,0,0:0:0:0:
320,192,144093,1,0,0:0:0:0:
192,192,144171,1,0,0:0:0:0:
448,192,144171,1,0,0:0:0:0:
64,192,144171,1,0,0:0:0:0:
320,192,144251,1,0,0:0:0:0:
192,192,144331,1,0,0:0:0:0:
448,192,144331,1,0,0:0:0:0:
64,192,144331,1,0,0:0:0:0:
320,192,144490,1,0,0:0:0:0:
192,192,144570,1,0,0:0:0:0:
64,192,144649,1,0,0:0:0:0:
320,192,144649,1,0,0:0:0:0:
448,192,144729,1,0,0:0:0:0:
192,192,144807,1,0,0:0:0:0:
64,192,144807,1,0,0:0:0:0:
320,192,144887,1,0,0:0:0:0:
448,192,144967,1,0,0:0:0:0:
192,192,144967,1,0,0:0:0:0:
64,192,144967,1,0,0:0:0:0:
320,192,145046,1,0,0:0:0:0:
192,192,145126,1,0,0:0:0:0:
448,192,145206,1,0,0:0:0:0:
320,192,145284,1,0,0:0:0:0:
64,192,145284,1,0,0:0:0:0:
192,192,145364,1,0,0:0:0:0:
320,192,145443,1,0,0:0:0:0:
448,192,145443,1,0,0:0:0:0:
64,192,145523,1,0,0:0:0:0:
320,192,145603,1,0,0:0:0:0:
448,192,145603,1,0,0:0:0:0:
192,192,145603,1,0,0:0:0:0:
64,192,145681,1,0,0:0:0:0:
192,192,145761,1,0,0:0:0:0:
320,192,145841,1,0,0:0:0:0:
448,192,145920,1,0,0:0:0:0:
192,192,145920,1,0,0:0:0:0:
64,192,146000,1,0,0:0:0:0:
320,192,146079,1,0,0:0:0:0:
448,192,146079,1,0,0:0:0:0:
192,192,146159,1,0,0:0:0:0:
64,192,146239,1,0,0:0:0:0:
320,192,146239,1,0,0:0:0:0:
448,192,146239,1,0,0:0:0:0:
192,192,146317,1,0,0:0:0:0:
320,192,146397,1,0,0:0:0:0:
192,192,146477,1,0,0:0:0:0:
448,192,146556,1,0,0:0:0:0:
320,192,146556,1,0,0:0:0:0:
64,192,146636,1,0,0:0:0:0:
192,192,146714,1,0,0:0:0:0:
448,192,146714,1,0,0:0:0:0:
320,192,146794,1,0,0:0:0:0:
64,192,146874,1,0,0:0:0:0:
192,192,146874,1,0,0:0:0:0:
448,192,146874,1,0,0:0:0:0:
320,192,146953,1,0,0:0:0:0:
192,192,147033,1,0,0:0:0:0:
64,192,147033,1,0,0:0:0:0:
448,192,147113,1,0,0:0:0:0:
320,192,147191,1,0,0:0:0:0:
64,192,147191,1,0,0:0:0:0:
192,192,147271,1,0,0:0:0:0:
320,192,147350,1,0,0:0:0:0:
448,192,147350,1,0,0:0:0:0:
64,192,147430,1,0,0:0:0:0:
192,192,147510,1,0,0:0:0:0:
320,192,147510,1,0,0:0:0:0:
448,192,147510,1,0,0:0:0:0:
64,192,147589,1,0,0:0:0:0:
448,192,147669,1,0,0:0:0:0:
192,192,147669,1,0,0:0:0:0:
320,192,147747,1,0,0:0:0:0:
64,192,147827,1,0,0:0:0:0:
192,192,147827,1,0,0:0:0:0:
448,192,147907,1,0,0:0:0:0:
320,192,147986,1,0,0:0:0:0:
64,192,147986,1,0,0:0:0:0:
192,192,148066,1,0,0:0:0:0:
320,192,148146,1,0,0:0:0:0:
448,192,148146,1,0,0:0:0:0:
64,192,148146,1,0,0:0:0:0:
192,192,148224,1,0,0:0:0:0:
320,192,148304,1,0,0:0:0:0:
64,192,148383,1,0,0:0:0:0:
192,192,148463,1,0,0:0:0:0:
448,192,148463,1,0,0:0:0:0:
320,192,148543,1,0,0:0:0:0:
192,192,148621,1,0,0:0:0:0:
64,192,148621,1,0,0:0:0:0:
448,192,148701,1,0,0:0:0:0:
192,192,148781,1,0,0:0:0:0:
320,192,148781,1,0,0:0:0:0:
64,192,148781,1,0,0:0:0:0:
448,192,148860,1,0,0:0:0:0:
320,192,148940,1,0,0:0:0:0:
192,192,149019,1,0,0:0:0:0:
320,192,149099,1,0,0:0:0:0:
448,192,149099,1,0,0:0:0:0:
64,192,149179,1,0,0:0:0:0:
192,192,149257,1,0,0:0:0:0:
448,192,149257,1,0,0:0:0:0:
320,192,149337,1,0,0:0:0:0:
448,192,149417,1,0,0:0:0:0:
192,192,149417,1,0,0:0:0:0:
64,192,149417,1,0,0:0:0:0:
320,192,149496,1,0,0:0:0:0:
192,192,149576,1,0,0:0:0:0:
64,192,149654,1,0,0:0:0:0:
448,192,149734,1,0,0:0:0:0:
320,192,149734,1,0,0:0:0:0:
192,192,149814,1,0,0:0:0:0:
64,192,149893,1,0,0:0:0:0:
320,192,149893,1,0,0:0:0:0:
448,192,149973,1,0,0:0:0:0:
64,192,150053,1,0,0:0:0:0:
192,192,150053,1,0,0:0:0:0:
320,192,150053,1,0,0:0:0:0:
448,192,150131,1,0,0:0:0:0:
192,192,150211,1,0,0:0:0:0:
320,192,150290,1,0,0:0:0:0:
192,192,150370,1,0,0:0:0:0:
448,192,150370,1,0,0:0:0:0:
64,192,150450,1,0,0:0:0:0:
320,192,150529,1,0,0:0:0:0:
448,192,150529,1,0,0:0:0:0:
192,192,150609,1,0,0:0:0:0:
64,192,150689,1,0,0:0:0:0:
320,192,150689,1,0,0:0:0:0:
448,192,150689,1,0,0:0:0:0:
192,192,150767,1,0,0:0:0:0:
320,192,150847,1,0,0:0:0:0:
64,192,150847,1,0,0:0:0:0:
192,192,150926,1,0,0:0:0:0:
320,192,151006,1,0,0:0:0:0:
448,192,151006,1,0,0:0:0:0:
64,192,151086,1,0,0:0:0:0:
448,192,151164,1,0,0:0:0:0:
192,192,151164,1,0,0:0:0:0:
320,192,151244,1,0,0:0:0:0:
192,192,151323,1,0,0:0:0:0:
448,192,151323,1,0,0:0:0:0:
64,192,151323,1,0,0:0:0:0:
320,192,151403,1,0,0:0:0:0:
64,192,151483,1,0,0:0:0:0:
192,192,151483,1,0,0:0:0:0:
448,192,151561,1,0,0:0:0:0:
64,192,151641,1,0,0:0:0:0:
320,192,151641,1,0,0:0:0:0:
192,192,151721,1,0,0:0:0:0:
320,192,151800,1,0,0:0:0:0:
192,192,151880,1,0,0:0:0:0:
320,192,151959,1,0,0:0:0:0:
64,192,151959,1,0,0:0:0:0:
448,192,151959,1,0,0:0:0:0:
192,192,152039,1,0,0:0:0:0:
320,192,152119,1,0,0:0:0:0:
448,192,152119,1,0,0:0:0:0:
64,192,152197,1,0,0:0:0:0:
192,192,152277,1,0,0:0:0:0:
448,192,152277,1,0,0:0:0:0:
320,192,152357,1,0,0:0:0:0:
192,192,152436,1,0,0:0:0:0:
64,192,152436,1,0,0:0:0:0:
448,192,152516,1,0,0:0:0:0:
320,192,152594,1,0,0:0:0:0:
192,192,152594,1,0,0:0:0:0:
64,192,152594,1,0,0:0:0:0:
448,192,152674,1,0,0:0:0:0:
320,192,152754,1,0,0:0:0:0:
64,192,152754,1,0,0:0:0:0:
192,192,152833,1,0,0:0:0:0:
320,192,152913,1,0,0:0:0:0:
448,192,152913,1,0,0:0:0:0:
64,192,152993,1,0,0:0:0:0:
192,192,153071,1,0,0:0:0:0:
448,192,153071,1,0,0:0:0:0:
320,192,153151,1,0,0:0:0:0:
64,192,153230,1,0,0:0:0:0:
448,192,153230,1,0,0:0:0:0:
192,192,153230,1,0,0:0:0:0:
64,192,153549,1,0,0:0:0:0:
192,192,153549,1,0,0:0:0:0:
320,192,153549,1,0,0:0:0:0:
448,192,153707,1,0,0:0:0:0:
320,192,153707,1,0,0:0:0:0:
64,192,153707,1,0,0:0:0:0:
192,192,153866,1,0,0:0:0:0:
320,192,153866,1,0,0:0:0:0:
448,192,153866,1,0,0:0:0:0:
64,192,154026,1,0,0:0:0:0:
192,192,154026,1,0,0:0:0:0:
320,192,154026,1,0,0:0:0:0:
192,192,154184,1,0,0:0:0:0:
320,192,154184,1,0,0:0:0:0:
448,192,154184,1,0,0:0:0:0:
64,192,154343,1,0,0:0:0:0:
192,192,154343,1,0,0:0:0:0:
320,192,154343,1,0,0:0:0:0:
448,192,154501,1,0,0:0:0:0:
64,192,154501,1,0,0:0:0:0:
192,192,154501,1,0,0:0:0:0:
320,192,154820,1,0,0:0:0:0:
448,192,154820,1,0,0:0:0:0:
64,192,154820,1,0,0:0:0:0:
192,192,154979,1,0,0:0:0:0:
320,192,154979,1,0,0:0:0:0:
448,192,154979,1,0,0:0:0:0:
64,192,155137,1,0,0:0:0:0:
192,192,155137,1,0,0:0:0:0:
448,192,155137,1,0,0:0:0:0:
320,192,155456,1,0,0:0:0:0:
64,192,155456,1,0,0:0:0:0:
448,192,155456,1,0,0:0:0:0:
448,192,155773,1,0,0:0:0:0:
192,192,155773,1,0,0:0:0:0:
320,192,155773,1,0,0:0:0:0:
64,192,155773,1,0,0:0:0:0:
192,192,155933,1,0,0:0:0:0:
448,192,155933,1,0,0:0:0:0:
64,192,156091,1,0,0:0:0:0:
192,192,156091,1,0,0:0:0:0:
320,192,156091,1,0,0:0:0:0:
320,192,156250,1,0,0:0:0:0:
448,192,156250,1,0,0:0:0:0:
64,192,156250,1,0,0:0:0:0:
64,192,156409,1,0,0:0:0:0:
192,192,156409,1,0,0:0:0:0:
320,192,156409,1,0,0:0:0:0:
448,192,156409,1,0,0:0:0:0:
192,192,156569,1,0,0:0:0:0:
320,192,156569,1,0,0:0:0:0:
448,192,156727,1,0,0:0:0:0:
64,192,156727,1,0,0:0:0:0:
192,192,156727,1,0,0:0:0:0:
192,192,156886,1,0,0:0:0:0:
320,192,156886,1,0,0:0:0:0:
448,192,156886,1,0,0:0:0:0:
64,192,157044,1,0,0:0:0:0:
192,192,157044,1,0,0:0:0:0:
320,192,157044,1,0,0:0:0:0:
448,192,157044,1,0,0:0:0:0:
64,192,157204,1,0,0:0:0:0:
192,192,157204,1,0,0:0:0:0:
448,192,157363,1,0,0:0:0:0:
320,192,157363,1,0,0:0:0:0:
64,192,157363,1,0,0:0:0:0:
192,192,157521,1,0,0:0:0:0:
320,192,157521,1,0,0:0:0:0:
448,192,157521,1,0,0:0:0:0:
64,192,157680,1,0,0:0:0:0:
192,192,157680,1,0,0:0:0:0:
320,192,157680,1,0,0:0:0:0:
448,192,157680,1,0,0:0:0:0:
64,192,157840,1,0,0:0:0:0:
320,192,157840,1,0,0:0:0:0:
448,192,157999,1,0,0:0:0:0:
192,192,157999,1,0,0:0:0:0:
320,192,157999,1,0,0:0:0:0:
192,192,158157,1,0,0:0:0:0:
64,192,158157,1,0,0:0:0:0:
448,192,158157,1,0,0:0:0:0:
64,192,158316,1,0,0:0:0:0:
320,192,158316,1,0,0:0:0:0:
192,192,158316,1,0,0:0:0:0:
448,192,158316,1,0,0:0:0:0:
192,192,158476,1,0,0:0:0:0:
320,192,158476,1,0,0:0:0:0:
64,192,158634,1,0,0:0:0:0:
320,192,158634,1,0,0:0:0:0:
448,192,158634,1,0,0:0:0:0:
320,192,158793,1,0,0:0:0:0:
192,192,158793,1,0,0:0:0:0:
64,192,158793,1,0,0:0:0:0:
64,192,158951,1,0,0:0:0:0:
192,192,158951,1,0,0:0:0:0:
320,192,158951,1,0,0:0:0:0:
448,192,158951,1,0,0:0:0:0:
192,192,159110,1,0,0:0:0:0:
320,192,159110,1,0,0:0:0:0:
64,192,159270,1,0,0:0:0:0:
192,192,159270,1,0,0:0:0:0:
448,192,159270,1,0,0:0:0:0:
320,192,159429,1,0,0:0:0:0:
448,192,159429,1,0,0:0:0:0:
192,192,159429,1,0,0:0:0:0:
64,192,159587,1,0,0:0:0:0:
192,192,159587,1,0,0:0:0:0:
320,192,159587,1,0,0:0:0:0:
448,192,159587,1,0,0:0:0:0:
192,192,159746,1,0,0:0:0:0:
64,192,159746,1,0,0:0:0:0:
320,192,159906,1,0,0:0:0:0:
448,192,159906,1,0,0:0:0:0:
64,192,159906,1,0,0:0:0:0:
192,192,160064,1,0,0:0:0:0:
320,192,160064,1,0,0:0:0:0:
448,192,160064,1,0,0:0:0:0:
64,192,160223,1,0,0:0:0:0:
192,192,160223,1,0,0:0:0:0:
320,192,160223,1,0,0:0:0:0:
448,192,160223,1,0,0:0:0:0:
192,192,160381,1,0,0:0:0:0:
448,192,160381,1,0,0:0:0:0:
320,192,160541,1,0,0:0:0:0:
64,192,160541,1,0,0:0:0:0:
448,192,160541,1,0,0:0:0:0:
64,192,160700,1,0,0:0:0:0:
192,192,160700,1,0,0:0:0:0:
320,192,160700,1,0,0:0:0:0:
448,192,160859,1,0,0:0:0:0:
320,192,160859,1,0,0:0:0:0:
192,192,160859,1,0,0:0:0:0:
64,192,160859,1,0,0:0:0:0:
64,192,161017,1,0,0:0:0:0:
320,192,161017,1,0,0:0:0:0:
192,192,161177,1,0,0:0:0:0:
320,192,161177,1,0,0:0:0:0:
448,192,161177,1,0,0:0:0:0:
64,192,161336,1,0,0:0:0:0:
192,192,161336,1,0,0:0:0:0:
448,192,161336,1,0,0:0:0:0:
64,192,161494,1,0,0:0:0:0:
320,192,161494,1,0,0:0:0:0:
192,192,161494,1,0,0:0:0:0:
448,192,161494,1,0,0:0:0:0:
320,192,161653,1,0,0:0:0:0:
448,192,161653,1,0,0:0:0:0:
64,192,161813,1,0,0:0:0:0:
192,192,161813,1,0,0:0:0:0:
448,192,161813,1,0,0:0:0:0:
320,192,161971,1,0,0:0:0:0:
192,192,161971,1,0,0:0:0:0:
64,192,161971,1,0,0:0:0:0:
448,192,162130,1,0,0:0:0:0:
320,192,162130,1,0,0:0:0:0:
192,192,162130,1,0,0:0:0:0:
64,192,162130,1,0,0:0:0:0:
448,192,162289,1,0,0:0:0:0:
192,192,162289,1,0,0:0:0:0:
192,192,162449,1,0,0:0:0:0:
64,192,162449,1,0,0:0:0:0:
320,192,162449,1,0,0:0:0:0:
64,192,162607,1,0,0:0:0:0:
448,192,162607,1,0,0:0:0:0:
320,192,162607,1,0,0:0:0:0:
192,192,162766,1,0,0:0:0:0:
64,192,162766,1,0,0:0:0:0:
320,192,162766,1,0,0:0:0:0:
448,192,162766,1,0,0:0:0:0:
192,192,162924,1,0,0:0:0:0:
320,192,162924,1,0,0:0:0:0:
64,192,163084,1,0,0:0:0:0:
192,192,163084,1,0,0:0:0:0:
320,192,163084,1,0,0:0:0:0:
320,192,163243,1,0,0:0:0:0:
448,192,163243,1,0,0:0:0:0:
64,192,163243,1,0,0:0:0:0:
448,192,163401,1,0,0:0:0:0:
320,192,163401,1,0,0:0:0:0:
192,192,163401,1,0,0:0:0:0:
64,192,163401,1,0,0:0:0:0:
192,192,163560,1,0,0:0:0:0:
448,192,163560,1,0,0:0:0:0:
64,192,163720,1,0,0:0:0:0:
448,192,163720,1,0,0:0:0:0:
320,192,163720,1,0,0:0:0:0:
192,192,163879,1,0,0:0:0:0:
320,192,163879,1,0,0:0:0:0:
448,192,163879,1,0,0:0:0:0:
64,192,164037,1,0,0:0:0:0:
320,192,164037,1,0,0:0:0:0:
192,192,164037,1,0,0:0:0:0:
448,192,164037,1,0,0:0:0:0:
192,192,164196,1,0,0:0:0:0:
448,192,164196,1,0,0:0:0:0:
320,192,164356,1,0,0:0:0:0:
192,192,164356,1,0,0:0:0:0:
64,192,164356,1,0,0:0:0:0:
192,192,164514,1,0,0:0:0:0:
448,192,164514,1,0,0:0:0:0:
64,192,164514,1,0,0:0:0:0:
64,192,164673,1,0,0:0:0:0:
192,192,164673,1,0,0:0:0:0:
320,192,164673,1,0,0:0:0:0:
448,192,164673,1,0,0:0:0:0:
64,192,164831,1,0,0:0:0:0:
320,192,164831,1,0,0:0:0:0:
64,192,164991,1,0,0:0:0:0:
192,192,164991,1,0,0:0:0:0:
448,192,164991,1,0,0:0:0:0:
320,192,165150,1,0,0:0:0:0:
192,192,165150,1,0,0:0:0:0:
64,192,165150,1,0,0:0:0:0:
448,192,165309,1,0,0:0:0:0:
320,192,165309,1,0,0:0:0:0:
192,192,165309,1,0,0:0:0:0:
64,192,165309,1,0,0:0:0:0:
320,192,165467,1,0,0:0:0:0:
448,192,165467,1,0,0:0:0:0:
64,192,165627,1,0,0:0:0:0:
192,192,165627,1,0,0:0:0:0:
448,192,165627,1,0,0:0:0:0:
320,192,165786,1,0,0:0:0:0:
192,192,165786,1,0,0:0:0:0:
64,192,165786,1,0,0:0:0:0:
64,192,165944,1,0,0:0:0:0:
192,192,165944,1,0,0:0:0:0:
320,192,165944,1,0,0:0:0:0:
448,192,165944,1,0,0:0:0:0:
448,192,166103,1,0,0:0:0:0:
320,192,166103,1,0,0:0:0:0:
64,192,166263,1,0,0:0:0:0:
192,192,166263,1,0,0:0:0:0:
448,192,166263,1,0,0:0:0:0:
192,192,166421,1,0,0:0:0:0:
320,192,166421,1,0,0:0:0:0:
448,192,166421,1,0,0:0:0:0:
64,192,166580,1,0,0:0:0:0:
192,192,166580,1,0,0:0:0:0:
320,192,166580,1,0,0:0:0:0:
448,192,166580,1,0,0:0:0:0:
320,192,166739,1,0,0:0:0:0:
64,192,166739,1,0,0:0:0:0:
320,192,166899,1,0,0:0:0:0:
448,192,166899,1,0,0:0:0:0:
192,192,166899,1,0,0:0:0:0:
64,192,167057,1,0,0:0:0:0:
192,192,167057,1,0,0:0:0:0:
448,192,167057,1,0,0:0:0:0:
448,192,167216,1,0,0:0:0:0:
320,192,167216,1,0,0:0:0:0:
192,192,167216,1,0,0:0:0:0:
64,192,167216,1,0,0:0:0:0:
320,192,167374,1,0,0:0:0:0:
448,192,167374,1,0,0:0:0:0:
64,192,167533,1,0,0:0:0:0:
192,192,167533,1,0,0:0:0:0:
320,192,167533,1,0,0:0:0:0:
448,192,167693,1,0,0:0:0:0:
64,192,167693,1,0,0:0:0:0:
192,192,167693,1,0,0:0:0:0:
64,192,167851,1,0,0:0:0:0:
320,192,167851,1,0,0:0:0:0:
192,192,167851,1,0,0:0:0:0:
448,192,167851,1,0,0:0:0:0:
64,192,168010,1,0,0:0:0:0:
320,192,168010,1,0,0:0:0:0:
192,192,168169,1,0,0:0:0:0:
320,192,168169,1,0,0:0:0:0:
448,192,168169,1,0,0:0:0:0:
64,192,168329,1,0,0:0:0:0:
192,192,168329,1,0,0:0:0:0:
448,192,168329,1,0,0:0:0:0:
64,192,168487,1,0,0:0:0:0:
192,192,168487,1,0,0:0:0:0:
320,192,168487,1,0,0:0:0:0:
448,192,168487,1,0,0:0:0:0:
320,192,168646,1,0,0:0:0:0:
192,192,168646,1,0,0:0:0:0:
448,192,168804,1,0,0:0:0:0:
320,192,168804,1,0,0:0:0:0:
64,192,168804,1,0,0:0:0:0:
192,192,168964,1,0,0:0:0:0:
448,192,168964,1,0,0:0:0:0:
64,192,168964,1,0,0:0:0:0:
448,192,169123,1,0,0:0:0:0:
320,192,169123,1,0,0:0:0:0:
64,192,169123,1,0,0:0:0:0:
192,192,169123,1,0,0:0:0:0:
320,192,169281,1,0,0:0:0:0:
64,192,169281,1,0,0:0:0:0:
448,192,169440,1,0,0:0:0:0:
320,192,169440,1,0,0:0:0:0:
192,192,169440,1,0,0:0:0:0:
192,192,169600,1,0,0:0:0:0:
64,192,169600,1,0,0:0:0:0:
320,192,169600,1,0,0:0:0:0:
64,192,169759,1,0,0:0:0:0:
192,192,169759,1,0,0:0:0:0:
320,192,169759,1,0,0:0:0:0:
448,192,169759,1,0,0:0:0:0:
448,192,169917,1,0,0:0:0:0:
320,192,169917,1,0,0:0:0:0:
64,192,169917,1,0,0:0:0:0:
192,192,170076,1,0,0:0:0:0:
320,192,170076,1,0,0:0:0:0:
448,192,170076,1,0,0:0:0:0:
64,192,170236,1,0,0:0:0:0:
192,192,170236,1,0,0:0:0:0:
448,192,170236,1,0,0:0:0:0:
448,192,170394,1,0,0:0:0:0:
192,192,170394,1,0,0:0:0:0:
64,192,170394,1,0,0:0:0:0:
320,192,170394,1,0,0:0:0:0:
320,192,170553,1,0,0:0:0:0:
448,192,170553,1,0,0:0:0:0:
64,192,170711,1,0,0:0:0:0:
192,192,170711,1,0,0:0:0:0:
448,192,170711,1,0,0:0:0:0:
320,192,170871,1,0,0:0:0:0:
192,192,170871,1,0,0:0:0:0:
64,192,170871,1,0,0:0:0:0:
64,192,171030,1,0,0:0:0:0:
192,192,171030,1,0,0:0:0:0:
320,192,171030,1,0,0:0:0:0:
448,192,171030,1,0,0:0:0:0:
448,192,171189,1,0,0:0:0:0:
192,192,171189,1,0,0:0:0:0:
320,192,171347,1,0,0:0:0:0:
64,192,171347,1,0,0:0:0:0:
448,192,171347,1,0,0:0:0:0:
192,192,171507,1,0,0:0:0:0:
320,192,171507,1,0,0:0:0:0:
448,192,171507,1,0,0:0:0:0:
448,192,171666,1,0,0:0:0:0:
320,192,171666,1,0,0:0:0:0:
64,192,171666,1,0,0:0:0:0:
192,192,171666,1,0,0:0:0:0:
64,192,171824,1,0,0:0:0:0:
192,192,171824,1,0,0:0:0:0:
448,192,171983,1,0,0:0:0:0:
320,192,171983,1,0,0:0:0:0:
64,192,171983,1,0,0:0:0:0:
192,192,172143,1,0,0:0:0:0:
320,192,172143,1,0,0:0:0:0:
448,192,172143,1,0,0:0:0:0:
64,192,172301,1,0,0:0:0:0:
192,192,172301,1,0,0:0:0:0:
320,192,172301,1,0,0:0:0:0:
448,192,172301,1,0,0:0:0:0:
64,192,172460,1,0,0:0:0:0:
320,192,172460,1,0,0:0:0:0:
192,192,172619,1,0,0:0:0:0:
64,192,172619,1,0,0:0:0:0:
448,192,172619,1,0,0:0:0:0:
192,192,172779,1,0,0:0:0:0:
320,192,172779,1,0,0:0:0:0:
64,192,172779,1,0,0:0:0:0:
448,192,172937,1,0,0:0:0:0:
320,192,172937,1,0,0:0:0:0:
192,192,172937,1,0,0:0:0:0:
64,192,172937,1,0,0:0:0:0:
320,192,173096,1,0,0:0:0:0:
448,192,173096,1,0,0:0:0:0:
64,192,173254,1,0,0:0:0:0:
448,192,173254,1,0,0:0:0:0:
192,192,173254,1,0,0:0:0:0:
192,192,173414,1,0,0:0:0:0:
320,192,173414,1,0,0:0:0:0:
64,192,173414,1,0,0:0:0:0:
320,192,173573,1,0,0:0:0:0:
448,192,173573,1,0,0:0:0:0:
64,192,173573,1,0,0:0:0:0:
192,192,173651,1,0,0:0:0:0:
320,192,173731,1,0,0:0:0:0:
448,192,173811,1,0,0:0:0:0:
64,192,173890,1,0,0:0:0:0:
320,192,173890,1,0,0:0:0:0:
192,192,173890,1,0,0:0:0:0:
448,192,173970,1,0,0:0:0:0:
64,192,174050,1,0,0:0:0:0:
192,192,174050,1,0,0:0:0:0:
320,192,174129,1,0,0:0:0:0:
64,192,174209,1,0,0:0:0:0:
192,192,174209,1,0,0:0:0:0:
448,192,174209,1,0,0:0:0:0:
320,192,174287,1,0,0:0:0:0:
192,192,174367,1,0,0:0:0:0:
64,192,174447,1,0,0:0:0:0:
448,192,174526,1,0,0:0:0:0:
192,192,174526,1,0,0:0:0:0:
320,192,174526,1,0,0:0:0:0:
64,192,174606,1,0,0:0:0:0:
320,192,174686,1,0,0:0:0:0:
448,192,174686,1,0,0:0:0:0:
192,192,174764,1,0,0:0:0:0:
64,192,174844,1,0,0:0:0:0:
320,192,174844,1,0,0:0:0:0:
448,192,174844,1,0,0:0:0:0:
192,192,174923,1,0,0:0:0:0:
320,192,175003,1,0,0:0:0:0:
64,192,175003,1,0,0:0:0:0:
448,192,175083,1,0,0:0:0:0:
192,192,175161,1,0,0:0:0:0:
320,192,175161,1,0,0:0:0:0:
64,192,175161,1,0,0:0:0:0:
448,192,175241,1,0,0:0:0:0:
64,192,175320,1,0,0:0:0:0:
192,192,175320,1,0,0:0:0:0:
320,192,175400,1,0,0:0:0:0:
64,192,175480,1,0,0:0:0:0:
192,192,175480,1,0,0:0:0:0:
448,192,175480,1,0,0:0:0:0:
320,192,175559,1,0,0:0:0:0:
192,192,175639,1,0,0:0:0:0:
448,192,175639,1,0,0:0:0:0:
64,192,175719,1,0,0:0:0:0:
192,192,175797,1,0,0:0:0:0:
320,192,175797,1,0,0:0:0:0:
448,192,175797,1,0,0:0:0:0:
64,192,175877,1,0,0:0:0:0:
320,192,175956,1,0,0:0:0:0:
448,192,175956,1,0,0:0:0:0:
192,192,176036,1,0,0:0:0:0:
64,192,176116,1,0,0:0:0:0:
320,192,176116,1,0,0:0:0:0:
448,192,176116,1,0,0:0:0:0:
192,192,176274,1,0,0:0:0:0:
320,192,176274,1,0,0:0:0:0:
448,192,176274,1,0,0:0:0:0:
64,192,176433,1,0,0:0:0:0:
192,192,176433,1,0,0:0:0:0:
448,192,176433,1,0,0:0:0:0:
320,192,176433,1,0,0:0:0:0:
64,192,176591,1,0,0:0:0:0:
192,192,176591,1,0,0:0:0:0:
448,192,176591,1,0,0:0:0:0:
64,192,176751,1,0,0:0:0:0:
192,192,176751,1,0,0:0:0:0:
320,192,176751,1,0,0:0:0:0:
448,192,176751,1,0,0:0:0:0:
320,192,176910,1,0,0:0:0:0:
448,192,176910,1,0,0:0:0:0:
64,192,177069,1,0,0:0:0:0:
192,192,177069,1,0,0:0:0:0:
448,192,177069,1,0,0:0:0:0:
320,192,177069,1,0,0:0:0:0:
64,192,177227,1,0,0:0:0:0:
192,192,177227,1,0,0:0:0:0:
320,192,177227,1,0,0:0:0:0:
448,192,177387,1,0,0:0:0:0:
320,192,177387,1,0,0:0:0:0:
64,192,177387,1,0,0:0:0:0:
192,192,177387,1,0,0:0:0:0:
448,192,177546,1,0,0:0:0:0:
192,192,177546,1,0,0:0:0:0:
64,192,177704,1,0,0:0:0:0:
192,192,177704,1,0,0:0:0:0:
320,192,177704,1,0,0:0:0:0:
448,192,177704,1,0,0:0:0:0:
320,192,177863,1,0,0:0:0:0:
448,192,177863,1,0,0:0:0:0:
64,192,177863,1,0,0:0:0:0:
448,192,178023,1,0,0:0:0:0:
64,192,178023,1,0,0:0:0:0:
192,192,178023,1,0,0:0:0:0:
320,192,178023,1,0,0:0:0:0:
192,192,178181,1,0,0:0:0:0:
64,192,178181,1,0,0:0:0:0:
64,192,178340,1,0,0:0:0:0:
192,192,178340,1,0,0:0:0:0:
320,192,178340,1,0,0:0:0:0:
448,192,178340,1,0,0:0:0:0:
192,192,178499,1,0,0:0:0:0:
320,192,178499,1,0,0:0:0:0:
448,192,178499,1,0,0:0:0:0:
64,192,178659,1,0,0:0:0:0:
192,192,178659,1,0,0:0:0:0:
320,192,178659,1,0,0:0:0:0:
448,192,178659,1,0,0:0:0:0:
64,192,178817,1,0,0:0:0:0:
320,192,178817,1,0,0:0:0:0:
448,192,178976,1,0,0:0:0:0:
64,192,178976,1,0,0:0:0:0:
320,192,178976,1,0,0:0:0:0:
192,192,178976,1,0,0:0:0:0:
64,192,179134,1,0,0:0:0:0:
192,192,179134,1,0,0:0:0:0:
448,192,179134,1,0,0:0:0:0:
64,192,179294,1,0,0:0:0:0:
192,192,179294,1,0,0:0:0:0:
320,192,179294,1,0,0:0:0:0:
448,192,179294,1,0,0:0:0:0:
320,192,179453,1,0,0:0:0:0:
448,192,179453,1,0,0:0:0:0:
448,192,179611,1,0,0:0:0:0:
320,192,179611,1,0,0:0:0:0:
192,192,179611,1,0,0:0:0:0:
64,192,179611,1,0,0:0:0:0:
64,192,179770,1,0,0:0:0:0:
192,192,179770,1,0,0:0:0:0:
320,192,179770,1,0,0:0:0:0:
64,192,179930,1,0,0:0:0:0:
192,192,179930,1,0,0:0:0:0:
320,192,179930,1,0,0:0:0:0:
448,192,179930,1,0,0:0:0:0:
448,192,180089,1,0,0:0:0:0:
192,192,180089,1,0,0:0:0:0:
448,192,180247,1,0,0:0:0:0:
320,192,180247,1,0,0:0:0:0:
64,192,180247,1,0,0:0:0:0:
192,192,180247,1,0,0:0:0:0:
64,192,180406,1,0,0:0:0:0:
320,192,180406,1,0,0:0:0:0:
448,192,180406,1,0,0:0:0:0:
64,192,180566,1,0,0:0:0:0:
192,192,180566,1,0,0:0:0:0:
448,192,180566,1,0,0:0:0:0:
320,192,180566,1,0,0:0:0:0:
192,192,180724,1,0,0:0:0:0:
64,192,180724,1,0,0:0:0:0:
64,192,180883,1,0,0:0:0:0:
192,192,180883,1,0,0:0:0:0:
320,192,180883,1,0,0:0:0:0:
448,192,180883,1,0,0:0:0:0:
192,192,181041,1,0,0:0:0:0:
320,192,181041,1,0,0:0:0:0:
448,192,181041,1,0,0:0:0:0:
64,192,181201,1,0,0:0:0:0:
192,192,181201,1,0,0:0:0:0:
320,192,181201,1,0,0:0:0:0:
448,192,181201,1,0,0:0:0:0:
64,192,181360,1,0,0:0:0:0:
320,192,181360,1,0,0:0:0:0:
64,192,181519,1,0,0:0:0:0:
192,192,181519,1,0,0:0:0:0:
320,192,181519,1,0,0:0:0:0:
448,192,181519,1,0,0:0:0:0:
64,192,181677,1,0,0:0:0:0:
192,192,181677,1,0,0:0:0:0:
448,192,181677,1,0,0:0:0:0:
64,192,181837,1,0,0:0:0:0:
192,192,181837,1,0,0:0:0:0:
320,192,181837,1,0,0:0:0:0:
448,192,181837,1,0,0:0:0:0:
320,192,181996,1,0,0:0:0:0:
448,192,181996,1,0,0:0:0:0:
64,192,182154,1,0,0:0:0:0:
192,192,182154,1,0,0:0:0:0:
320,192,182154,1,0,0:0:0:0:
448,192,182154,1,0,0:0:0:0:
64,192,182313,1,0,0:0:0:0:
192,192,182313,1,0,0:0:0:0:
320,192,182313,1,0,0:0:0:0:
64,192,182473,1,0,0:0:0:0:
192,192,182473,1,0,0:0:0:0:
320,192,182473,1,0,0:0:0:0:
448,192,182473,1,0,0:0:0:0:
192,192,182631,1,0,0:0:0:0:
448,192,182631,1,0,0:0:0:0:
64,192,182790,1,0,0:0:0:0:
192,192,182790,1,0,0:0:0:0:
320,192,182790,1,0,0:0:0:0:
448,192,182790,1,0,0:0:0:0:
64,192,182949,1,0,0:0:0:0:
320,192,182949,1,0,0:0:0:0:
448,192,182949,1,0,0:0:0:0:
192,192,183107,1,0,0:0:0:0:
64,192,183107,1,0,0:0:0:0:
320,192,183107,1,0,0:0:0:0:
448,192,183107,1,0,0:0:0:0:
192,192,183267,1,0,0:0:0:0:
64,192,183267,1,0,0:0:0:0:
192,192,183426,1,0,0:0:0:0:
64,192,183426,1,0,0:0:0:0:
320,192,183426,1,0,0:0:0:0:
448,192,183426,1,0,0:0:0:0:
192,192,183584,1,0,0:0:0:0:
320,192,183584,1,0,0:0:0:0:
448,192,183584,1,0,0:0:0:0:
64,192,183743,1,0,0:0:0:0:
192,192,183743,1,0,0:0:0:0:
320,192,183743,1,0,0:0:0:0:
448,192,183743,1,0,0:0:0:0:
64,192,183903,1,0,0:0:0:0:
320,192,183903,1,0,0:0:0:0:
64,192,184061,1,0,0:0:0:0:
192,192,184061,1,0,0:0:0:0:
448,192,184061,1,0,0:0:0:0:
320,192,184061,1,0,0:0:0:0:
448,192,184220,1,0,0:0:0:0:
192,192,184220,1,0,0:0:0:0:
320,192,184220,1,0,0:0:0:0:
64,192,184379,1,0,0:0:0:0:
192,192,184379,1,0,0:0:0:0:
320,192,184379,1,0,0:0:0:0:
448,192,184379,1,0,0:0:0:0:
64,192,184539,1,0,0:0:0:0:
192,192,184539,1,0,0:0:0:0:
64,192,184697,1,0,0:0:0:0:
192,192,184697,1,0,0:0:0:0:
320,192,184697,1,0,0:0:0:0:
448,192,184697,1,0,0:0:0:0:
448,192,184856,1,0,0:0:0:0:
320,192,184856,1,0,0:0:0:0:
64,192,184856,1,0,0:0:0:0:
64,192,185014,1,0,0:0:0:0:
192,192,185014,1,0,0:0:0:0:
320,192,185014,1,0,0:0:0:0:
448,192,185014,1,0,0:0:0:0:
192,192,185174,1,0,0:0:0:0:
448,192,185174,1,0,0:0:0:0:
64,192,185333,1,0,0:0:0:0:
192,192,185333,1,0,0:0:0:0:
320,192,185333,1,0,0:0:0:0:
448,192,185333,1,0,0:0:0:0:
64,192,185491,1,0,0:0:0:0:
192,192,185491,1,0,0:0:0:0:
320,192,185491,1,0,0:0:0:0:
64,192,185650,1,0,0:0:0:0:
192,192,185650,1,0,0:0:0:0:
320,192,185650,1,0,0:0:0:0:
448,192,185650,1,0,0:0:0:0:
320,192,185810,1,0,0:0:0:0:
448,192,185810,1,0,0:0:0:0:
64,192,185969,1,0,0:0:0:0:
192,192,185969,1,0,0:0:0:0:
320,192,185969,1,0,0:0:0:0:
448,192,185969,1,0,0:0:0:0:
64,192,186127,1,0,0:0:0:0:
192,192,186127,1,0,0:0:0:0:
448,192,186127,1,0,0:0:0:0:
64,192,186286,1,0,0:0:0:0:
192,192,186286,1,0,0:0:0:0:
448,192,186286,1,0,0:0:0:0:
320,192,186286,1,0,0:0:0:0:
64,192,186446,1,0,0:0:0:0:
320,192,186446,1,0,0:0:0:0:
64,192,186604,1,0,0:0:0:0:
192,192,186604,1,0,0:0:0:0:
320,192,186604,1,0,0:0:0:0:
448,192,186604,1,0,0:0:0:0:
448,192,186763,1,0,0:0:0:0:
192,192,186763,1,0,0:0:0:0:
64,192,186763,1,0,0:0:0:0:
192,192,186921,1,0,0:0:0:0:
64,192,186921,1,0,0:0:0:0:
320,192,186921,1,0,0:0:0:0:
448,192,186921,1,0,0:0:0:0:
320,192,187081,1,0,0:0:0:0:
448,192,187081,1,0,0:0:0:0:
64,192,187240,1,0,0:0:0:0:
192,192,187240,1,0,0:0:0:0:
320,192,187240,1,0,0:0:0:0:
448,192,187240,1,0,0:0:0:0:
64,192,187399,1,0,0:0:0:0:
192,192,187399,1,0,0:0:0:0:
320,192,187399,1,0,0:0:0:0:
64,192,187557,1,0,0:0:0:0:
192,192,187557,1,0,0:0:0:0:
320,192,187557,1,0,0:0:0:0:
448,192,187557,1,0,0:0:0:0:
448,192,187717,1,0,0:0:0:0:
192,192,187717,1,0,0:0:0:0:
64,192,187876,1,0,0:0:0:0:
192,192,187876,1,0,0:0:0:0:
320,192,187876,1,0,0:0:0:0:
448,192,187876,1,0,0:0:0:0:
320,192,188034,1,0,0:0:0:0:
448,192,188034,1,0,0:0:0:0:
64,192,188034,1,0,0:0:0:0:
64,192,188193,1,0,0:0:0:0:
192,192,188193,1,0,0:0:0:0:
448,192,188193,1,0,0:0:0:0:
320,192,188193,1,0,0:0:0:0:
192,192,188353,1,0,0:0:0:0:
320,192,188353,1,0,0:0:0:0:
64,192,188511,1,0,0:0:0:0:
192,192,188511,1,0,0:0:0:0:
448,192,188511,1,0,0:0:0:0:
320,192,188511,1,0,0:0:0:0:
64,192,188670,1,0,0:0:0:0:
192,192,188670,1,0,0:0:0:0:
448,192,188670,1,0,0:0:0:0:
192,192,188829,1,0,0:0:0:0:
64,192,188829,1,0,0:0:0:0:
448,192,188829,1,0,0:0:0:0:
320,192,188829,1,0,0:0:0:0:
320,192,188989,1,0,0:0:0:0:
448,192,188989,1,0,0:0:0:0:
192,192,189147,1,0,0:0:0:0:
64,192,189147,1,0,0:0:0:0:
320,192,189147,1,0,0:0:0:0:
448,192,189147,1,0,0:0:0:0:
64,192,189306,1,0,0:0:0:0:
192,192,189306,1,0,0:0:0:0:
320,192,189306,1,0,0:0:0:0:
64,192,189464,1,0,0:0:0:0:
192,192,189464,1,0,0:0:0:0:
320,192,189464,1,0,0:0:0:0:
448,192,189464,1,0,0:0:0:0:
192,192,189624,1,0,0:0:0:0:
448,192,189624,1,0,0:0:0:0:
192,192,189783,1,0,0:0:0:0:
64,192,189783,1,0,0:0:0:0:
320,192,189783,1,0,0:0:0:0:
448,192,189783,1,0,0:0:0:0:
320,192,189941,1,0,0:0:0:0:
448,192,189941,1,0,0:0:0:0:
64,192,189941,1,0,0:0:0:0:
192,192,190100,1,0,0:0:0:0:
64,192,190100,1,0,0:0:0:0:
320,192,190100,1,0,0:0:0:0:
448,192,190100,1,0,0:0:0:0:
192,192,190260,1,0,0:0:0:0:
64,192,190260,1,0,0:0:0:0:
64,192,190419,1,0,0:0:0:0:
192,192,190419,1,0,0:0:0:0:
448,192,190419,1,0,0:0:0:0:
320,192,190419,1,0,0:0:0:0:
192,192,190577,1,0,0:0:0:0:
320,192,190577,1,0,0:0:0:0:
448,192,190577,1,0,0:0:0:0:
192,192,190736,1,0,0:0:0:0:
64,192,190736,1,0,0:0:0:0:
448,192,190736,1,0,0:0:0:0:
320,192,190736,1,0,0:0:0:0:
320,192,190896,1,0,0:0:0:0:
64,192,190896,1,0,0:0:0:0:
64,192,191054,1,0,0:0:0:0:
192,192,191054,1,0,0:0:0:0:
320,192,191054,1,0,0:0:0:0:
448,192,191054,1,0,0:0:0:0:
448,192,191213,1,0,0:0:0:0:
64,192,191213,1,0,0:0:0:0:
192,192,191213,1,0,0:0:0:0:
64,192,191371,1,0,0:0:0:0:
192,192,191371,1,0,0:0:0:0:
320,192,191371,1,0,0:0:0:0:
448,192,191371,1,0,0:0:0:0:
320,192,191530,1,0,0:0:0:0:
192,192,191530,1,0,0:0:0:0:
64,192,191690,1,0,0:0:0:0:
192,192,191690,1,0,0:0:0:0:
320,192,191690,1,0,0:0:0:0:
448,192,191690,1,0,0:0:0:0:
448,192,191849,1,0,0:0:0:0:
320,192,191849,1,0,0:0:0:0:
64,192,191849,1,0,0:0:0:0:
64,192,192007,1,0,0:0:0:0:
192,192,192007,1,0,0:0:0:0:
320,192,192007,1,0,0:0:0:0:
448,192,192007,1,0,0:0:0:0:
448,192,192166,1,0,0:0:0:0:
192,192,192166,1,0,0:0:0:0:
64,192,192326,1,0,0:0:0:0:
192,192,192326,1,0,0:0:0:0:
320,192,192326,1,0,0:0:0:0:
448,192,192326,1,0,0:0:0:0:
320,192,192484,1,0,0:0:0:0:
64,192,192484,1,0,0:0:0:0:
192,192,192484,1,0,0:0:0:0:
64,192,192643,1,0,0:0:0:0:
192,192,192643,1,0,0:0:0:0:
320,192,192643,1,0,0:0:0:0:
448,192,192643,1,0,0:0:0:0:
