osu file format v14

[General]
AudioFilename: audio.mp3
AudioLeadIn: 0
PreviewTime: -1
Countdown: 0
SampleSet: None
StackLeniency: 0.7
Mode: 0
LetterboxInBreaks: 0
WidescreenStoryboard: 0

[Editor]
Bookmarks: 91671
DistanceSpacing: 0.2
BeatDivisor: 4
GridSize: 32
TimelineZoom: 1

[Metadata]
Title:Be My Lover
TitleUnicode:Be My Lover
Artist:La Bouche
ArtistUnicode:La Bouche
Creator:DominicsHase
Version:i need friends
Source:
Tags:
BeatmapID:1716761
BeatmapSetID:818795

[Difficulty]
HPDrainRate:4
CircleSize:4.2
OverallDifficulty:4
ApproachRate:9
SliderMultiplier:1.4
SliderTickRate:1

[Events]
//Background and Video events
0,0,"be my lover pic.png",0,0
//Break Periods
2,70953,72824
//Storyboard Layer 0 (Background)
//Storyboard Layer 1 (Fail)
//Storyboard Layer 2 (Pass)
//Storyboard Layer 3 (Foreground)
//Storyboard Sound Samples

[TimingPoints]
23579.4842544059,445.044444444445,4,1,0,100,1,0
23580,-100,4,1,0,50,0,0

[Colours]
Combo1 : 247,83,198
Combo2 : 255,255,255

[HitObjects]
405,143,23579,6,0,L|451:60,2,70
363,234,24247,1,0,0:0:0:0:
282,155,24469,2,0,L|226:86,2,70
363,234,25137,1,0,0:0:0:0:
342,35,25359,5,0,0:0:0:0:
160,154,25582,1,0,0:0:0:0:
369,111,25804,1,0,0:0:0:0:
193,37,26027,1,0,0:0:0:0:
227,237,26249,2,0,P|286:252|368:209,1,140
101,266,27139,5,0,0:0:0:0:
298,173,27362,1,0,0:0:0:0:
258,154,27473,1,0,0:0:0:0:
215,137,27584,1,0,0:0:0:0:
261,288,27807,1,0,0:0:0:0:
316,86,28029,1,0,0:0:0:0:
124,215,28252,1,0,0:0:0:0:
84,255,28474,1,0,0:0:0:0:
365,148,28697,2,0,L|399:102,2,35
195,57,29142,6,0,P|134:75|123:88,1,70
351,123,29587,1,0,0:0:0:0:
108,149,29810,1,0,0:0:0:0:
226,106,30032,1,0,0:0:0:0:
72,199,30255,1,0,0:0:0:0:
284,106,30477,1,0,0:0:0:0:
148,297,30700,6,0,P|195:321|265:318,1,105
301,306,31145,1,0,0:0:0:0:
314,205,31367,1,0,0:0:0:0:
160,284,31590,1,0,0:0:0:0:
326,211,31812,1,0,0:0:0:0:
176,329,32035,1,0,0:0:0:0:
305,151,32257,1,0,0:0:0:0:
256,192,32480,12,0,34149,0:0:0:0:
237,56,34260,5,0,0:0:0:0:
351,221,34483,1,0,0:0:0:0:
169,45,34705,1,0,0:0:0:0:
394,172,34928,2,0,L|458:238,1,70
246,47,35373,5,0,0:0:0:0:
286,237,35595,1,0,0:0:0:0:
316,89,35818,1,0,0:0:0:0:
211,149,36040,1,0,0:0:0:0:
396,184,36263,5,0,0:0:0:0:
169,61,36485,1,0,0:0:0:0:
301,123,36708,2,0,L|238:167,2,70
350,96,37264,2,0,L|359:134,1,35
405,253,37598,1,0,0:0:0:0:
208,126,37820,1,0,0:0:0:0:
414,119,38043,1,0,0:0:0:0:
247,230,38265,1,0,0:0:0:0:
318,46,38488,1,0,0:0:0:0:
390,230,38710,1,0,0:0:0:0:
236,114,38933,5,0,0:0:0:0:
315,228,39156,1,0,0:0:0:0:
198,294,39378,1,0,0:0:0:0:
191,163,39601,1,0,0:0:0:0:
68,176,39823,1,0,0:0:0:0:
144,324,40046,1,0,0:0:0:0:
212,181,40268,1,0,0:0:0:0:
319,323,40491,2,0,P|370:335|398:316,1,70
458,167,40936,5,0,0:0:0:0:
440,107,41158,1,0,0:0:0:0:
194,259,41381,1,0,0:0:0:0:
383,123,41826,1,0,0:0:0:0:
97,132,42271,2,0,P|120:197|131:206,2,70
311,57,43161,5,0,0:0:0:0:
151,297,43383,2,0,L|121:246,1,35
109,224,43606,1,0,0:0:0:0:
359,122,43829,2,0,L|324:149,1,35
294,172,44052,1,0,0:0:0:0:
191,300,44274,1,0,0:0:0:0:
91,136,44496,2,0,P|152:121|186:139,1,70
376,181,44941,5,0,0:0:0:0:
147,111,45164,1,0,0:0:0:0:
347,98,45386,1,0,0:0:0:0:
299,215,45609,1,0,0:0:0:0:
131,73,45831,2,0,P|166:52|199:50,1,70
232,182,46276,5,0,0:0:0:0:
302,314,46499,1,0,0:0:0:0:
120,123,46721,1,0,0:0:0:0:
316,78,46944,1,0,0:0:0:0:
141,270,47166,1,0,0:0:0:0:
194,48,47389,2,0,L|264:97,2,70
417,184,48279,5,0,0:0:0:0:
181,189,48501,1,0,0:0:0:0:
375,243,48724,1,0,0:0:0:0:
225,141,48946,1,0,0:0:0:0:
304,253,49169,1,0,0:0:0:0:
291,132,49392,1,0,0:0:0:0:
236,239,49614,5,0,0:0:0:0:
370,137,49837,1,0,0:0:0:0:
200,107,50059,1,0,0:0:0:0:
392,234,50282,1,0,0:0:0:0:
226,39,50504,1,0,0:0:0:0:
357,299,50727,1,0,0:0:0:0:
161,54,50949,2,0,L|103:117,1,70
309,160,51394,6,0,L|309:57,1,70
93,193,51839,1,0,0:0:0:0:
432,189,52062,5,0,0:0:0:0:
93,193,52507,1,0,0:0:0:0:
258,240,52952,2,0,L|256:156,1,70
254,27,53397,5,0,0:0:0:0:
255,352,53619,1,0,0:0:0:0:
256,192,53842,1,0,0:0:0:0:
256,192,54287,5,0,0:0:0:0:
256,192,54732,6,0,L|256:93,1,70
256,192,55177,5,0,0:0:0:0:
255,353,55400,1,0,0:0:0:0:
256,32,55622,1,0,0:0:0:0:
129,226,56067,2,0,P|266:259|405:225,1,280
205,57,57625,5,0,0:0:0:0:
248,84,57736,1,0,0:0:0:0:
255,135,57847,1,0,0:0:0:0:
262,295,58070,1,0,0:0:0:0:
183,172,58292,1,0,0:0:0:0:
328,223,58515,1,0,0:0:0:0:
176,226,58737,1,0,0:0:0:0:
321,159,58960,1,0,0:0:0:0:
155,300,59183,6,0,P|121:245|116:153,1,140
250,127,59850,1,0,0:0:0:0:
412,213,60073,2,0,P|349:276|288:299,1,140
245,141,60740,1,0,0:0:0:0:
276,277,60963,1,0,0:0:0:0:
113,220,61185,1,0,0:0:0:0:
299,116,61408,1,0,0:0:0:0:
261,318,61630,2,0,L|196:288,1,70
275,247,62075,2,0,L|341:208,1,70
248,192,62520,1,0,0:0:0:0:
71,141,62743,1,0,0:0:0:0:
248,192,63188,5,0,0:0:0:0:
299,88,63410,2,0,P|347:153|293:272,1,210
368,122,65191,5,0,0:0:0:0:
265,228,65413,1,0,0:0:0:0:
261,87,65636,1,0,0:0:0:0:
376,224,65858,2,0,P|330:258|241:256,1,140
97,86,66748,6,0,L|166:94,1,70
146,246,67193,2,0,L|72:178,1,70
189,115,67638,1,0,0:0:0:0:
257,261,67861,2,0,P|195:274|136:222,1,140
292,177,68528,5,0,0:0:0:0:
328,256,68751,1,0,0:0:0:0:
260,310,68974,2,0,P|208:313|185:290,2,70
286,204,69641,1,0,0:0:0:0:
240,83,69864,2,0,P|186:68|115:129,1,140
240,83,70531,2,0,L|308:44,1,70
298,75,73424,6,0,L|378:108,2,70
171,195,74092,1,0,0:0:0:0:
351,111,74314,2,0,L|384:158,2,35
205,239,74759,5,0,0:0:0:0:
333,49,74982,1,0,0:0:0:0:
348,267,75204,1,0,0:0:0:0:
255,119,75427,2,0,L|223:93,2,35
131,74,75872,1,0,0:0:0:0:
65,172,76094,1,0,0:0:0:0:
144,271,76317,1,0,0:0:0:0:
241,195,76539,1,0,0:0:0:0:
161,86,76762,6,0,P|122:118|105:161,1,70
306,148,77207,2,0,P|281:105|249:86,1,70
149,229,77652,2,0,P|194:244|239:230,1,70
147,97,78097,1,0,0:0:0:0:
88,276,78319,1,0,0:0:0:0:
268,207,78542,1,0,0:0:0:0:
103,106,78764,5,0,0:0:0:0:
160,273,78987,2,0,L|202:295,2,35
298,144,79432,2,0,L|211:104,1,70
319,264,79877,2,0,L|366:196,1,70
191,275,80322,5,0,0:0:0:0:
345,330,80545,1,0,0:0:0:0:
326,167,80767,1,0,0:0:0:0:
170,210,80990,1,0,0:0:0:0:
152,71,81212,1,0,0:0:0:0:
329,109,81435,1,0,0:0:0:0:
170,210,81657,5,0,0:0:0:0:
152,71,81880,1,0,0:0:0:0:
329,109,82102,1,0,0:0:0:0:
331,265,82325,5,0,0:0:0:0:
188,187,82547,2,0,L|149:163,2,35
341,116,82992,2,0,L|384:95,2,35
391,205,83437,1,0,0:0:0:0:
289,294,83660,1,0,0:0:0:0:
148,258,83883,1,0,0:0:0:0:
265,93,84105,6,0,P|339:146|346:181,1,105
308,196,84550,2,0,P|371:144|409:147,1,105
447,148,84995,2,0,L|448:202,2,35
445,40,85440,1,0,0:0:0:0:
306,81,85663,1,0,0:0:0:0:
274,218,85885,1,0,0:0:0:0:
376,312,86108,5,0,0:0:0:0:
411,272,86219,1,0,0:0:0:0:
409,223,86330,1,0,0:0:0:0:
195,142,86553,1,0,0:0:0:0:
256,192,86775,12,0,91671,0:0:0:0:
