osu file format v14

[General]
AudioFilename: audio.mp3
AudioLeadIn: 0
PreviewTime: 22661
Countdown: 0
SampleSet: Normal
StackLeniency: 0.7
Mode: 3
LetterboxInBreaks: 0
SpecialStyle: 0
WidescreenStoryboard: 0

[Editor]
DistanceSpacing: 1.3
BeatDivisor: 4
GridSize: 8
TimelineZoom: 1.2

[Metadata]
Title:SiGNALiZE
TitleUnicode:SiGNALiZE
Artist:LYRi
ArtistUnicode:LYRi
Creator:eon
Version:Hard
Source:
Tags:Cyanblue WHiTE LYRiCAL RENAiSSANCE extreme violence bofxv bms electronic instrumental
BeatmapID:2704362
BeatmapSetID:1303542

[Difficulty]
HPDrainRate:7.5
CircleSize:4
OverallDifficulty:7.5
ApproachRate:5
SliderMultiplier:1.4
SliderTickRate:1

[Events]
//Background and Video events
0,0,"bg.jpg",0,0
//Break Periods
//Storyboard Layer 0 (Background)
//Storyboard Layer 1 (Fail)
//Storyboard Layer 2 (Pass)
//Storyboard Layer 3 (Foreground)
//Storyboard Layer 4 (Overlay)
//Storyboard Sound Samples

[TimingPoints]
20,283.018867924528,4,1,1,50,1,0
45303,-100,4,1,1,50,0,1
62284,-100,4,1,1,50,0,0
104170,-100,4,1,1,50,0,1
123416,-100,4,1,1,50,0,0

[HitObjects]
64,192,1435,5,0,0:0:0:0:
192,192,1718,1,0,0:0:0:0:
320,192,2001,1,0,0:0:0:0:
448,192,2284,1,0,0:0:0:0:
64,192,2284,1,0,0:0:0:0:
192,192,3133,1,0,0:0:0:0:
64,192,3274,1,0,0:0:0:0:
320,192,3699,1,0,0:0:0:0:
448,192,3982,1,0,0:0:0:0:
192,192,4265,1,0,0:0:0:0:
64,192,4548,1,0,0:0:0:0:
448,192,4548,1,0,0:0:0:0:
320,192,5397,1,0,0:0:0:0:
448,192,5538,1,0,0:0:0:0:
320,192,5963,1,0,0:0:0:0:
192,192,6246,1,0,0:0:0:0:
64,192,6529,1,0,0:0:0:0:
320,192,6812,1,0,0:0:0:0:
448,192,6812,1,0,0:0:0:0:
192,192,7661,1,0,0:0:0:0:
320,192,7803,1,0,0:0:0:0:
448,192,7944,1,0,0:0:0:0:
320,192,8227,1,0,0:0:0:0:
64,192,8510,1,0,0:0:0:0:
192,192,8793,1,0,0:0:0:0:
320,192,9076,1,0,0:0:0:0:
448,192,9076,1,0,0:0:0:0:
192,192,9501,1,0,0:0:0:0:
320,192,9925,1,0,0:0:0:0:
448,192,10491,1,0,0:0:0:0:
320,192,10774,1,0,0:0:0:0:
192,192,11057,1,0,0:0:0:0:
448,192,11340,1,0,0:0:0:70:bass.wav
64,192,11340,1,0,0:0:0:70:finish.wav
448,192,11482,1,0,0:0:0:70:bass.wav
448,192,11765,1,0,0:0:0:70:bass.wav
192,192,11765,1,0,0:0:0:70:finish.wav
448,192,11906,1,0,0:0:0:70:bass.wav
320,192,12189,1,0,0:0:0:70:bass.wav
64,192,12189,1,0,0:0:0:70:finish.wav
64,192,12331,1,0,0:0:0:70:bass.wav
320,192,12614,1,0,0:0:0:70:bass.wav
192,192,12755,1,0,0:0:0:0:
64,192,12897,1,0,0:0:0:70:bass.wav
320,192,13038,1,0,0:0:0:70:snare.wav
448,192,13038,1,0,0:0:0:0:
192,192,13180,1,0,0:0:0:70:bass.wav
64,192,13321,1,0,0:0:0:0:
320,192,13463,1,0,0:0:0:70:snare.wav
192,192,13534,1,0,0:0:0:70:snare.wav
64,192,13604,1,0,0:0:0:70:bass.wav
448,192,13604,1,0,0:0:0:70:finish.wav
448,192,13746,1,0,0:0:0:70:bass.wav
448,192,14029,1,0,0:0:0:70:bass.wav
192,192,14029,1,0,0:0:0:70:finish.wav
448,192,14170,1,0,0:0:0:70:bass.wav
64,192,14453,1,0,0:0:0:70:bass.wav
320,192,14453,1,0,0:0:0:70:finish.wav
64,192,14595,1,0,0:0:0:70:bass.wav
192,192,14878,1,0,0:0:0:70:bass.wav
192,192,15161,1,0,0:0:0:70:bass.wav
320,192,15303,1,0,0:0:0:70:snare.wav
448,192,15303,1,0,0:0:0:0:
64,192,15444,1,0,0:0:0:70:bass.wav
192,192,15586,1,0,0:0:0:70:snare.wav
448,192,15586,1,0,0:0:0:0:
320,192,15727,1,0,0:0:0:70:snare.wav
448,192,15798,1,0,0:0:0:70:snare.wav
192,192,15869,1,0,0:0:0:70:bass.wav
64,192,15869,1,0,0:0:0:70:finish.wav
192,192,16010,1,0,0:0:0:70:bass.wav
320,192,16152,1,0,0:0:0:70:snare.wav
448,192,16152,1,0,0:0:0:0:
192,192,16576,1,0,0:0:0:70:bass.wav
448,192,16718,1,0,0:0:0:70:snare.wav
64,192,16718,1,0,0:0:0:0:
320,192,17001,1,0,0:0:0:70:finish.wav
192,192,17001,1,0,0:0:0:70:bass.wav
320,192,17142,1,0,0:0:0:70:bass.wav
448,192,17284,1,0,0:0:0:70:snare.wav
64,192,17284,1,0,0:0:0:0:
320,192,17708,1,0,0:0:0:70:bass.wav
64,192,17850,1,0,0:0:0:70:snare.wav
448,192,17850,1,0,0:0:0:0:
192,192,18133,1,0,0:0:0:70:finish.wav
64,192,18133,1,0,0:0:0:70:bass.wav
192,192,18274,1,0,0:0:0:70:bass.wav
448,192,18416,1,0,0:0:0:70:snare.wav
320,192,18486,1,0,0:0:0:70:snare.wav
192,192,18557,1,0,0:0:0:70:snare.wav
64,192,18628,1,0,0:0:0:70:snare.wav
448,192,18699,1,0,0:0:0:70:bass.wav
320,192,18699,1,0,0:0:0:70:finish.wav
448,192,18840,1,0,0:0:0:70:bass.wav
64,192,18982,1,0,0:0:0:70:snare.wav
192,192,19053,1,0,0:0:0:70:snare.wav
320,192,19123,1,0,0:0:0:70:snare.wav
448,192,19194,1,0,0:0:0:70:snare.wav
192,192,19265,1,0,0:0:0:70:bass.wav
64,192,19265,1,0,0:0:0:70:finish.wav
448,192,19477,1,0,0:0:0:70:finish.wav
320,192,19477,1,0,0:0:0:70:bass.wav
192,192,19689,1,0,0:0:0:70:bass.wav
64,192,19689,1,0,0:0:0:70:finish.wav
320,192,19902,1,0,0:0:0:70:bass.wav
448,192,19902,1,0,0:0:0:70:finish.wav
64,192,20114,1,0,0:0:0:70:finish.wav
192,192,20114,1,0,0:0:0:70:bass.wav
320,192,20255,1,0,0:0:0:70:bass.wav
448,192,20255,1,0,0:0:0:70:finish.wav
192,192,20397,1,0,0:0:0:70:bass.wav
64,192,20397,1,0,0:0:0:70:finish.wav
64,192,21529,1,0,0:0:0:70:bass.wav
448,192,21529,1,0,0:0:0:70:finish.wav
320,192,21812,1,0,0:0:0:70:bass.wav
448,192,21812,1,0,0:0:0:70:snare.wav
64,192,22095,1,0,0:0:0:70:bass.wav
192,192,22166,1,0,0:0:0:70:bass.wav
448,192,22236,1,0,0:0:0:70:bass.wav
320,192,22307,1,0,0:0:0:70:bass.wav
192,192,22378,1,0,0:0:0:70:bass.wav
64,192,22449,1,0,0:0:0:70:bass.wav
320,192,22519,1,0,0:0:0:70:bass.wav
448,192,22590,1,0,0:0:0:70:bass.wav
192,192,22661,1,0,0:0:0:70:finish.wav
64,192,22661,1,0,0:0:0:70:bass.wav
320,192,22944,1,0,0:0:0:70:bass.wav
192,192,22944,1,0,0:0:0:70:snare.wav
64,192,23227,1,0,0:0:0:70:bass.wav
448,192,23227,1,0,0:0:0:70:finish.wav
320,192,23369,1,0,0:0:0:70:bass.wav
448,192,23369,1,0,0:0:0:70:snare.wav
192,192,23652,1,0,0:0:0:70:finish.wav
64,192,23652,1,0,0:0:0:70:bass.wav
320,192,23935,1,0,0:0:0:70:bass.wav
192,192,24005,1,0,0:0:0:70:bass.wav
64,192,24076,1,0,0:0:0:70:snare.wav
448,192,24076,1,0,0:0:0:0:
320,192,24218,1,0,0:0:0:70:bass.wav
192,192,24359,1,0,0:0:0:70:snare.wav
64,192,24359,1,0,0:0:0:0:
448,192,24453,1,0,0:0:0:70:snare.wav
320,192,24548,1,0,0:0:0:70:bass.wav
64,192,24642,1,0,0:0:0:70:snare.wav
192,192,24713,1,0,0:0:0:70:bass.wav
320,192,24784,1,0,0:0:0:70:bass.wav
448,192,24854,1,0,0:0:0:70:bass.wav
64,192,24925,1,0,0:0:0:70:bass.wav
192,192,24925,1,0,0:0:0:70:finish.wav
192,192,25208,1,0,0:0:0:70:bass.wav
320,192,25208,1,0,0:0:0:70:snare.wav
448,192,25491,1,0,0:0:0:70:bass.wav
320,192,25491,1,0,0:0:0:70:finish.wav
192,192,25633,1,0,0:0:0:70:bass.wav
64,192,25633,1,0,0:0:0:70:snare.wav
448,192,25916,1,0,0:0:0:70:bass.wav
64,192,25916,1,0,0:0:0:70:finish.wav
192,192,26199,1,0,0:0:0:70:bass.wav
320,192,26340,1,0,0:0:0:70:snare.wav
448,192,26340,1,0,0:0:0:0:
192,192,26482,1,0,0:0:0:70:bass.wav
64,192,26623,1,0,0:0:0:70:snare.wav
448,192,26623,1,0,0:0:0:0:
320,192,26765,1,0,0:0:0:70:bass.wav
192,192,26906,1,0,0:0:0:70:snare.wav
64,192,26906,1,0,0:0:0:0:
448,192,26977,1,0,0:0:0:70:bass.wav
320,192,27048,1,0,0:0:0:70:bass.wav
192,192,27119,1,0,0:0:0:70:bass.wav
64,192,27189,1,0,0:0:0:70:finish.wav
448,192,27189,1,0,0:0:0:70:bass.wav
320,192,27472,1,0,0:0:0:70:snare.wav
64,192,27472,1,0,0:0:0:0:
192,192,27614,1,0,0:0:0:70:bass.wav
448,192,27755,1,0,0:0:0:70:bass.wav
320,192,27755,1,0,0:0:0:70:snare.wav
64,192,27897,1,0,0:0:0:70:snare.wav
192,192,27968,1,0,0:0:0:70:snare.wav
320,192,28038,1,0,0:0:0:70:bass.wav
64,192,28180,1,0,0:0:0:70:bass.wav
192,192,28180,1,0,0:0:0:70:finish.wav
320,192,28463,1,0,0:0:0:70:bass.wav
64,192,28604,1,0,0:0:0:70:snare.wav
448,192,28604,1,0,0:0:0:0:
192,192,28675,1,0,0:0:0:70:snare.wav
320,192,28746,1,0,0:0:0:70:bass.wav
64,192,28887,1,0,0:0:0:70:snare.wav
192,192,28958,1,0,0:0:0:70:snare.wav
320,192,29029,1,0,0:0:0:70:bass.wav
448,192,29100,1,0,0:0:0:70:bass.wav
64,192,29170,1,0,0:0:0:70:snare.wav
320,192,29241,1,0,0:0:0:70:snare.wav
192,192,29312,1,0,0:0:0:70:snare.wav
64,192,29383,1,0,0:0:0:70:snare.wav
448,192,29453,1,0,0:0:0:70:finish.wav
320,192,29453,1,0,0:0:0:70:bass.wav
192,192,29736,1,0,0:0:0:70:bass.wav
448,192,29736,1,0,0:0:0:70:snare.wav
320,192,30019,1,0,0:0:0:70:bass.wav
64,192,30019,1,0,0:0:0:0:
192,192,30232,1,0,0:0:0:70:snare.wav
448,192,30303,1,0,0:0:0:70:snare.wav
320,192,30444,1,0,0:0:0:70:snare.wav
192,192,30586,1,0,0:0:0:70:bass.wav
64,192,30586,1,0,0:0:0:70:finish.wav
320,192,30869,1,0,0:0:0:70:snare.wav
448,192,30869,1,0,0:0:0:0:
64,192,31010,1,0,0:0:0:70:bass.wav
192,192,31152,1,0,0:0:0:70:bass.wav
448,192,31152,1,0,0:0:0:70:finish.wav
64,192,31293,1,0,0:0:0:70:snare.wav
320,192,31293,1,0,0:0:0:0:
192,192,31435,1,0,0:0:0:70:bass.wav
320,192,31576,1,0,0:0:0:70:snare.wav
448,192,31576,1,0,0:0:0:0:
64,192,31718,1,0,0:0:0:70:bass.wav
192,192,31718,1,0,0:0:0:70:finish.wav
320,192,31859,1,0,0:0:0:70:bass.wav
64,192,32001,1,0,0:0:0:70:snare.wav
448,192,32001,1,0,0:0:0:70:bass.wav
192,192,32142,1,0,0:0:0:70:bass.wav
320,192,32213,1,0,0:0:0:70:bass.wav
64,192,32284,1,0,0:0:0:70:bass.wav
448,192,32284,1,0,0:0:0:70:snare.wav
320,192,32425,1,0,0:0:0:70:snare.wav
192,192,32496,1,0,0:0:0:70:snare.wav
64,192,32567,1,0,0:0:0:70:bass.wav
320,192,32708,1,0,0:0:0:70:bass.wav
448,192,32708,1,0,0:0:0:70:finish.wav
192,192,32991,1,0,0:0:0:70:bass.wav
448,192,33133,1,0,0:0:0:70:snare.wav
64,192,33133,1,0,0:0:0:0:
320,192,33274,1,0,0:0:0:70:bass.wav
192,192,33416,1,0,0:0:0:70:bass.wav
64,192,33510,1,0,0:0:0:70:snare.wav
448,192,33604,1,0,0:0:0:70:bass.wav
320,192,33699,1,0,0:0:0:70:snare.wav
64,192,33769,1,0,0:0:0:70:snare.wav
192,192,33840,1,0,0:0:0:70:bass.wav
320,192,33911,1,0,0:0:0:70:bass.wav
448,192,33982,1,0,0:0:0:70:bass.wav
64,192,33982,1,0,0:0:0:70:finish.wav
192,192,34123,1,0,0:0:0:70:bass.wav
64,192,34194,1,0,0:0:0:70:bass.wav
448,192,34265,1,0,0:0:0:70:snare.wav
320,192,34265,1,0,0:0:0:0:
192,192,34406,1,0,0:0:0:70:bass.wav
320,192,34477,1,0,0:0:0:70:bass.wav
448,192,34548,1,0,0:0:0:70:bass.wav
192,192,34689,1,0,0:0:0:70:bass.wav
64,192,34689,1,0,0:0:0:70:snare.wav
320,192,34972,1,0,0:0:0:70:finish.wav
64,192,34972,1,0,0:0:0:70:bass.wav
192,192,35255,1,0,0:0:0:70:bass.wav
320,192,35397,1,0,0:0:0:70:snare.wav
448,192,35397,1,0,0:0:0:0:
64,192,35538,1,0,0:0:0:70:bass.wav
192,192,35609,1,0,0:0:0:70:snare.wav
320,192,35680,1,0,0:0:0:70:bass.wav
64,192,35751,1,0,0:0:0:70:snare.wav
192,192,35821,1,0,0:0:0:70:bass.wav
320,192,35963,1,0,0:0:0:70:snare.wav
448,192,35963,1,0,0:0:0:0:
64,192,36104,1,0,0:0:0:70:snare.wav
192,192,36104,1,0,0:0:0:0:
320,192,36246,1,0,0:0:0:70:bass.wav
448,192,36246,1,0,0:0:0:70:finish.wav
320,192,36387,1,0,0:0:0:70:bass.wav
64,192,36529,1,0,0:0:0:70:snare.wav
192,192,36529,1,0,0:0:0:0:
448,192,36812,1,0,0:0:0:70:bass.wav
64,192,36812,1,0,0:0:0:70:finish.wav
64,192,36953,1,0,0:0:0:70:bass.wav
192,192,37095,1,0,0:0:0:70:snare.wav
320,192,37095,1,0,0:0:0:0:
192,192,37378,1,0,0:0:0:70:bass.wav
448,192,37378,1,0,0:0:0:70:finish.wav
448,192,37519,1,0,0:0:0:70:bass.wav
320,192,37661,1,0,0:0:0:70:snare.wav
64,192,37661,1,0,0:0:0:0:
192,192,37944,1,0,0:0:0:70:bass.wav
64,192,37944,1,0,0:0:0:70:finish.wav
320,192,38086,1,0,0:0:0:70:snare.wav
448,192,38086,1,0,0:0:0:0:
320,192,38227,1,0,0:0:0:70:snare.wav
448,192,38227,1,0,0:0:0:0:
192,192,38369,1,0,0:0:0:70:snare.wav
320,192,38439,1,0,0:0:0:70:snare.wav
64,192,38510,1,0,0:0:0:70:bass.wav
448,192,38510,1,0,0:0:0:70:finish.wav
192,192,39642,1,0,0:0:0:0:
448,192,40774,1,0,0:0:0:70:bass.wav
64,192,40774,1,0,0:0:0:70:finish.wav
320,192,41906,1,0,0:0:0:0:
448,192,43038,1,0,0:0:0:0:
64,192,45303,1,0,0:0:0:70:bass.wav
192,192,45303,1,0,0:0:0:70:finish.wav
320,192,45586,1,0,0:0:0:70:snare.wav
448,192,45586,1,0,0:0:0:0:
192,192,46010,1,0,0:0:0:70:bass.wav
448,192,46152,1,0,0:0:0:70:snare.wav
64,192,46152,1,0,0:0:0:0:
192,192,46435,1,0,0:0:0:70:bass.wav
448,192,46435,1,0,0:0:0:0:
320,192,46576,1,0,0:0:0:70:bass.wav
64,192,46718,1,0,0:0:0:70:snare.wav
192,192,46718,1,0,0:0:0:0:
320,192,46930,1,0,0:0:0:70:snare.wav
448,192,46930,1,0,0:0:0:0:
192,192,47142,1,0,0:0:0:70:bass.wav
320,192,47284,1,0,0:0:0:70:snare.wav
64,192,47284,1,0,0:0:0:0:
192,192,47567,1,0,0:0:0:70:bass.wav
448,192,47567,1,0,0:0:0:0:
320,192,47850,1,0,0:0:0:70:snare.wav
448,192,47850,1,0,0:0:0:0:
192,192,48274,1,0,0:0:0:70:bass.wav
320,192,48416,1,0,0:0:0:70:snare.wav
64,192,48416,1,0,0:0:0:0:
192,192,48699,1,0,0:0:0:70:bass.wav
448,192,48699,1,0,0:0:0:0:
320,192,48840,1,0,0:0:0:70:bass.wav
448,192,48982,1,0,0:0:0:70:snare.wav
64,192,48982,1,0,0:0:0:0:
192,192,49123,1,0,0:0:0:70:bass.wav
320,192,49194,1,0,0:0:0:70:snare.wav
64,192,49406,1,0,0:0:0:70:bass.wav
448,192,49406,1,0,0:0:0:70:finish.wav
320,192,49548,1,0,0:0:0:70:finish.wav
192,192,49548,1,0,0:0:0:70:bass.wav
448,192,49689,1,0,0:0:0:70:bass.wav
64,192,49689,1,0,0:0:0:70:finish.wav
448,192,49831,1,0,0:0:0:70:bass.wav
320,192,49831,1,0,0:0:0:70:finish.wav
192,192,49972,1,0,0:0:0:70:bass.wav
64,192,50114,1,0,0:0:0:70:snare.wav
448,192,50114,1,0,0:0:0:0:
320,192,50255,1,0,0:0:0:70:bass.wav
192,192,50326,1,0,0:0:0:70:snare.wav
64,192,50538,1,0,0:0:0:70:bass.wav
192,192,50538,1,0,0:0:0:70:finish.wav
448,192,50680,1,0,0:0:0:70:bass.wav
320,192,50680,1,0,0:0:0:70:finish.wav
64,192,50821,1,0,0:0:0:70:bass.wav
192,192,50821,1,0,0:0:0:70:finish.wav
448,192,50963,1,0,0:0:0:70:bass.wav
64,192,50963,1,0,0:0:0:70:finish.wav
320,192,51175,1,0,0:0:0:70:bass.wav
192,192,51246,1,0,0:0:0:70:snare.wav
448,192,51387,1,0,0:0:0:70:bass.wav
64,192,51387,1,0,0:0:0:70:finish.wav
448,192,51529,1,0,0:0:0:70:bass.wav
192,192,51670,1,0,0:0:0:70:snare.wav
320,192,51741,1,0,0:0:0:70:snare.wav
448,192,51812,1,0,0:0:0:70:bass.wav
192,192,51953,1,0,0:0:0:70:snare.wav
64,192,51953,1,0,0:0:0:0:
320,192,52095,1,0,0:0:0:70:bass.wav
448,192,52095,1,0,0:0:0:70:finish.wav
192,192,52378,1,0,0:0:0:70:snare.wav
320,192,52378,1,0,0:0:0:0:
64,192,52519,1,0,0:0:0:70:bass.wav
448,192,52803,1,0,0:0:0:70:bass.wav
320,192,52944,1,0,0:0:0:70:snare.wav
64,192,52944,1,0,0:0:0:0:
192,192,53227,1,0,0:0:0:70:bass.wav
448,192,53227,1,0,0:0:0:70:finish.wav
320,192,53369,1,0,0:0:0:70:bass.wav
448,192,53510,1,0,0:0:0:70:snare.wav
64,192,53510,1,0,0:0:0:0:
192,192,53652,1,0,0:0:0:70:bass.wav
320,192,53793,1,0,0:0:0:70:snare.wav
192,192,53864,1,0,0:0:0:70:snare.wav
64,192,53935,1,0,0:0:0:70:bass.wav
320,192,54076,1,0,0:0:0:70:snare.wav
448,192,54076,1,0,0:0:0:0:
192,192,54218,1,0,0:0:0:70:snare.wav
320,192,54288,1,0,0:0:0:70:snare.wav
448,192,54359,1,0,0:0:0:70:finish.wav
64,192,54359,1,0,0:0:0:70:bass.wav
192,192,54642,1,0,0:0:0:70:snare.wav
64,192,54642,1,0,0:0:0:0:
320,192,54925,1,0,0:0:0:70:bass.wav
64,192,55208,1,0,0:0:0:70:snare.wav
448,192,55208,1,0,0:0:0:0:
192,192,55491,1,0,0:0:0:70:bass.wav
64,192,55491,1,0,0:0:0:0:
320,192,55774,1,0,0:0:0:70:snare.wav
448,192,55774,1,0,0:0:0:0:
64,192,56057,1,0,0:0:0:70:bass.wav
192,192,56340,1,0,0:0:0:70:snare.wav
448,192,56340,1,0,0:0:0:0:
320,192,56482,1,0,0:0:0:70:bass.wav
192,192,56623,1,0,0:0:0:70:bass.wav
64,192,56623,1,0,0:0:0:70:finish.wav
320,192,56906,1,0,0:0:0:70:snare.wav
448,192,56906,1,0,0:0:0:0:
64,192,57189,1,0,0:0:0:70:bass.wav
192,192,57472,1,0,0:0:0:70:snare.wav
448,192,57472,1,0,0:0:0:0:
320,192,57755,1,0,0:0:0:70:bass.wav
448,192,57755,1,0,0:0:0:70:finish.wav
192,192,58038,1,0,0:0:0:70:snare.wav
64,192,58038,1,0,0:0:0:0:
320,192,58180,1,0,0:0:0:70:bass.wav
64,192,58321,1,0,0:0:0:70:bass.wav
192,192,58392,1,0,0:0:0:70:bass.wav
320,192,58534,1,0,0:0:0:70:bass.wav
448,192,58604,1,0,0:0:0:70:snare.wav
192,192,58746,1,0,0:0:0:70:bass.wav
64,192,58887,1,0,0:0:0:70:bass.wav
320,192,58887,1,0,0:0:0:70:finish.wav
64,192,59170,1,0,0:0:0:70:snare.wav
192,192,59170,1,0,0:0:0:0:
320,192,59453,1,0,0:0:0:70:snare.wav
448,192,59453,1,0,0:0:0:0:
192,192,59595,1,0,0:0:0:70:bass.wav
448,192,59736,1,0,0:0:0:70:bass.wav
64,192,59736,1,0,0:0:0:70:snare.wav
320,192,59878,1,0,0:0:0:70:bass.wav
192,192,60019,1,0,0:0:0:70:bass.wav
64,192,60019,1,0,0:0:0:70:snare.wav
320,192,60232,1,0,0:0:0:70:bass.wav
448,192,60303,1,0,0:0:0:70:snare.wav
192,192,60444,1,0,0:0:0:70:bass.wav
320,192,60586,1,0,0:0:0:70:snare.wav
448,192,60586,1,0,0:0:0:70:bass.wav
192,192,60869,1,0,0:0:0:70:snare.wav
64,192,60869,1,0,0:0:0:0:
320,192,61010,1,0,0:0:0:70:bass.wav
448,192,61152,1,0,0:0:0:70:snare.wav
64,192,61152,1,0,0:0:0:70:finish.wav
192,192,61293,1,0,0:0:0:70:snare.wav
320,192,61293,1,0,0:0:0:0:
64,192,61435,1,0,0:0:0:70:snare.wav
448,192,61435,1,0,0:0:0:0:
320,192,61576,1,0,0:0:0:70:snare.wav
192,192,61576,1,0,0:0:0:0:
64,192,61718,1,0,0:0:0:70:snare.wav
192,192,61718,1,0,0:0:0:70:finish.wav
448,192,61859,1,0,0:0:0:70:snare.wav
320,192,61859,1,0,0:0:0:0:
192,192,62001,1,0,0:0:0:70:snare.wav
64,192,62001,1,0,0:0:0:0:
320,192,62142,1,0,0:0:0:70:snare.wav
448,192,62142,1,0,0:0:0:0:
64,192,62284,1,0,0:0:0:70:snare.wav
448,192,62284,128,0,62850:0:0:0:70:bass.wav
64,192,62850,128,0,63416:0:0:0:0:
448,192,63416,128,0,65397:0:0:0:70:finish.wav
320,192,63416,1,0,0:0:0:70:bass.wav
320,192,65680,1,0,0:0:0:0:
192,192,65680,1,0,0:0:0:0:
320,192,66529,1,0,0:0:0:0:
64,192,66670,1,0,0:0:0:0:
192,192,67095,1,0,0:0:0:0:
448,192,67378,1,0,0:0:0:0:
192,192,67661,1,0,0:0:0:0:
64,192,67944,1,0,0:0:0:0:
448,192,67944,1,0,0:0:0:0:
320,192,68793,1,0,0:0:0:0:
448,192,68935,1,0,0:0:0:0:
192,192,69359,1,0,0:0:0:0:
320,192,69642,1,0,0:0:0:0:
64,192,69925,1,0,0:0:0:0:
64,192,70208,1,0,0:0:0:0:
192,192,70208,1,0,0:0:0:0:
192,192,71057,1,0,0:0:0:0:
320,192,71199,1,0,0:0:0:0:
448,192,71340,1,0,0:0:0:0:
192,192,71623,1,0,0:0:0:0:
320,192,71906,1,0,0:0:0:0:
192,192,72189,1,0,0:0:0:0:
64,192,72472,1,0,0:0:0:0:
192,192,72897,1,0,0:0:0:0:
320,192,73321,1,0,0:0:0:0:
448,192,73887,1,0,0:0:0:0:
192,192,74170,1,0,0:0:0:0:
64,192,74453,1,0,0:0:0:0:
448,192,74736,1,0,0:0:0:0:
320,192,74736,1,0,0:0:0:0:
192,192,74925,1,0,0:0:0:0:
320,192,75114,1,0,0:0:0:0:
448,192,75303,1,0,0:0:0:0:
192,192,75491,1,0,0:0:0:0:
64,192,75680,1,0,0:0:0:0:
320,192,75869,1,0,0:0:0:0:
448,192,75869,1,0,0:0:0:0:
192,192,76057,1,0,0:0:0:0:
64,192,76246,1,0,0:0:0:0:
448,192,76435,1,0,0:0:0:0:
320,192,76623,1,0,0:0:0:0:
192,192,76812,1,0,0:0:0:0:
64,192,77001,1,0,0:0:0:0:
448,192,77001,1,0,0:0:0:0:
320,192,77189,1,0,0:0:0:0:
192,192,77378,1,0,0:0:0:0:
448,192,77567,1,0,0:0:0:0:
64,192,77755,1,0,0:0:0:0:
192,192,77944,1,0,0:0:0:0:
64,192,78133,1,0,0:0:0:0:
448,192,78133,1,0,0:0:0:0:
320,192,78321,1,0,0:0:0:0:
64,192,78510,1,0,0:0:0:0:
192,192,78699,1,0,0:0:0:0:
320,192,78887,1,0,0:0:0:0:
192,192,79076,1,0,0:0:0:0:
64,192,79265,1,0,0:0:0:0:
448,192,79265,1,0,0:0:0:0:
320,192,79406,1,0,0:0:0:0:
192,192,79548,1,0,0:0:0:0:
64,192,79689,1,0,0:0:0:0:
320,192,79831,1,0,0:0:0:0:
448,192,79831,1,0,0:0:0:0:
192,192,79972,1,0,0:0:0:0:
320,192,80114,1,0,0:0:0:0:
192,192,80255,1,0,0:0:0:0:
64,192,80397,1,0,0:0:0:0:
448,192,80397,1,0,0:0:0:0:
320,192,80680,1,0,0:0:0:0:
448,192,80821,1,0,0:0:0:0:
192,192,81104,1,0,0:0:0:0:
320,192,81246,1,0,0:0:0:0:
192,192,81387,1,0,0:0:0:0:
64,192,81529,1,0,0:0:0:0:
448,192,81529,1,0,0:0:0:0:
448,192,82095,1,0,0:0:0:0:
320,192,82307,1,0,0:0:0:0:
192,192,82519,1,0,0:0:0:0:
64,192,82661,1,0,0:0:0:0:
448,192,82661,1,0,0:0:0:0:
320,192,83086,1,0,0:0:0:0:
64,192,83793,1,0,0:0:0:70:bass.wav
448,192,83793,1,0,0:0:0:70:finish.wav
320,192,84359,1,0,0:0:0:70:snare.wav
448,192,84359,1,0,0:0:0:0:
192,192,84642,1,0,0:0:0:70:bass.wav
64,192,84642,1,0,0:0:0:0:
192,192,84784,1,0,0:0:0:70:bass.wav
448,192,85491,1,0,0:0:0:70:snare.wav
64,192,85491,1,0,0:0:0:0:
320,192,86057,1,0,0:0:0:70:bass.wav
192,192,86057,1,0,0:0:0:0:
64,192,86623,1,0,0:0:0:70:snare.wav
192,192,86623,1,0,0:0:0:0:
448,192,86906,1,0,0:0:0:70:bass.wav
320,192,86906,1,0,0:0:0:0:
320,192,87048,1,0,0:0:0:70:bass.wav
448,192,87755,1,0,0:0:0:70:snare.wav
64,192,87755,1,0,0:0:0:0:
192,192,88321,1,0,0:0:0:70:bass.wav
448,192,88321,1,0,0:0:0:70:finish.wav
448,192,88887,1,0,0:0:0:70:snare.wav
320,192,88887,1,0,0:0:0:0:
64,192,89170,1,0,0:0:0:70:bass.wav
192,192,89170,1,0,0:0:0:0:
64,192,89312,1,0,0:0:0:70:bass.wav
192,192,90019,1,0,0:0:0:70:snare.wav
448,192,90019,1,0,0:0:0:0:
320,192,90586,1,0,0:0:0:70:bass.wav
448,192,90586,1,0,0:0:0:0:
448,192,91010,1,0,0:0:0:70:bass.wav
320,192,91010,1,0,0:0:0:0:
448,192,91152,1,0,0:0:0:70:snare.wav
64,192,91152,1,0,0:0:0:0:
64,192,91435,1,0,0:0:0:70:bass.wav
192,192,91435,1,0,0:0:0:0:
64,192,92001,1,0,0:0:0:70:bass.wav
320,192,92001,1,0,0:0:0:0:
192,192,92284,1,0,0:0:0:70:bass.wav
448,192,92284,1,0,0:0:0:70:snare.wav
320,192,92567,1,0,0:0:0:70:bass.wav
448,192,92567,1,0,0:0:0:0:
192,192,92850,1,0,0:0:0:70:finish.wav
64,192,92850,1,0,0:0:0:70:bass.wav
192,192,92991,1,0,0:0:0:70:bass.wav
320,192,93274,1,0,0:0:0:70:bass.wav
448,192,93416,1,0,0:0:0:70:snare.wav
64,192,93416,1,0,0:0:0:0:
192,192,93557,1,0,0:0:0:70:bass.wav
448,192,93699,1,0,0:0:0:70:bass.wav
320,192,93769,1,0,0:0:0:70:bass.wav
192,192,93840,1,0,0:0:0:70:bass.wav
64,192,93911,1,0,0:0:0:70:bass.wav
448,192,93982,1,0,0:0:0:70:finish.wav
320,192,93982,1,0,0:0:0:70:bass.wav
320,192,94123,1,0,0:0:0:70:bass.wav
192,192,94406,1,0,0:0:0:70:bass.wav
448,192,94548,1,0,0:0:0:70:snare.wav
64,192,94548,1,0,0:0:0:0:
320,192,94689,1,0,0:0:0:70:bass.wav
64,192,94831,1,0,0:0:0:70:bass.wav
192,192,94902,1,0,0:0:0:70:bass.wav
320,192,94972,1,0,0:0:0:70:bass.wav
448,192,95043,1,0,0:0:0:70:bass.wav
192,192,95114,1,0,0:0:0:70:bass.wav
64,192,95114,1,0,0:0:0:70:finish.wav
192,192,95255,1,0,0:0:0:70:bass.wav
320,192,95538,1,0,0:0:0:70:bass.wav
64,192,95680,1,0,0:0:0:70:snare.wav
448,192,95680,1,0,0:0:0:0:
192,192,95821,1,0,0:0:0:70:bass.wav
448,192,95963,1,0,0:0:0:70:bass.wav
320,192,96034,1,0,0:0:0:70:bass.wav
192,192,96104,1,0,0:0:0:70:bass.wav
64,192,96175,1,0,0:0:0:70:bass.wav
320,192,96246,1,0,0:0:0:70:finish.wav
448,192,96246,1,0,0:0:0:70:bass.wav
320,192,96387,1,0,0:0:0:70:bass.wav
192,192,96670,1,0,0:0:0:70:bass.wav
64,192,96812,1,0,0:0:0:70:snare.wav
448,192,96812,1,0,0:0:0:0:
320,192,96953,1,0,0:0:0:70:bass.wav
64,192,97095,1,0,0:0:0:70:bass.wav
192,192,97166,1,0,0:0:0:70:bass.wav
320,192,97236,1,0,0:0:0:70:bass.wav
448,192,97307,1,0,0:0:0:70:bass.wav
192,192,97378,1,0,0:0:0:70:bass.wav
64,192,97378,1,0,0:0:0:70:finish.wav
320,192,97803,1,0,0:0:0:70:snare.wav
448,192,97803,1,0,0:0:0:0:
192,192,97944,1,0,0:0:0:70:bass.wav
64,192,98227,1,0,0:0:0:70:snare.wav
448,192,98227,1,0,0:0:0:0:
192,192,98510,1,0,0:0:0:70:bass.wav
64,192,98510,1,0,0:0:0:70:finish.wav
320,192,98652,1,0,0:0:0:70:snare.wav
448,192,98652,1,0,0:0:0:0:
192,192,98935,1,0,0:0:0:70:snare.wav
64,192,98935,1,0,0:0:0:0:
320,192,99076,1,0,0:0:0:70:bass.wav
448,192,99218,1,0,0:0:0:70:snare.wav
64,192,99218,1,0,0:0:0:0:
192,192,99359,1,0,0:0:0:70:snare.wav
64,192,99501,1,0,0:0:0:70:snare.wav
192,192,99571,1,0,0:0:0:70:snare.wav
320,192,99642,1,0,0:0:0:70:bass.wav
448,192,99642,1,0,0:0:0:70:finish.wav
320,192,99784,1,0,0:0:0:70:bass.wav
64,192,99925,1,0,0:0:0:70:snare.wav
192,192,99996,1,0,0:0:0:70:snare.wav
320,192,100067,1,0,0:0:0:70:snare.wav
448,192,100137,1,0,0:0:0:70:snare.wav
192,192,100208,1,0,0:0:0:70:bass.wav
64,192,100208,1,0,0:0:0:70:finish.wav
64,192,100350,1,0,0:0:0:70:bass.wav
448,192,100491,1,0,0:0:0:70:snare.wav
320,192,100562,1,0,0:0:0:70:snare.wav
192,192,100633,1,0,0:0:0:70:snare.wav
64,192,100703,1,0,0:0:0:70:snare.wav
320,192,100774,1,0,0:0:0:70:bass.wav
448,192,100774,1,0,0:0:0:70:finish.wav
192,192,100986,1,0,0:0:0:70:finish.wav
64,192,100986,1,0,0:0:0:70:bass.wav
320,192,101199,1,0,0:0:0:70:finish.wav
448,192,101199,1,0,0:0:0:70:bass.wav
64,192,101482,1,0,0:0:0:70:snare.wav
192,192,101553,1,0,0:0:0:70:snare.wav
448,192,101623,1,0,0:0:0:70:snare.wav
320,192,101694,1,0,0:0:0:70:snare.wav
192,192,101765,1,0,0:0:0:70:snare.wav
64,192,101836,1,0,0:0:0:70:snare.wav
320,192,101906,1,0,0:0:0:70:bass.wav
448,192,101906,1,0,0:0:0:70:finish.wav
64,192,103038,1,0,0:0:0:70:bass.wav
448,192,103038,1,0,0:0:0:70:finish.wav
320,192,103227,1,0,0:0:0:70:bass.wav
192,192,103416,1,0,0:0:0:70:bass.wav
64,192,103510,1,0,0:0:0:70:bass.wav
448,192,103675,1,0,0:0:0:70:bass.wav
320,192,103746,1,0,0:0:0:70:bass.wav
192,192,103887,1,0,0:0:0:70:bass.wav
64,192,104029,1,0,0:0:0:70:bass.wav
448,192,104170,1,0,0:0:0:70:bass.wav
320,192,104170,1,0,0:0:0:70:finish.wav
448,192,104312,1,0,0:0:0:70:bass.wav
192,192,104736,1,0,0:0:0:70:bass.wav
64,192,104736,1,0,0:0:0:70:finish.wav
64,192,104878,1,0,0:0:0:70:bass.wav
192,192,105303,1,0,0:0:0:70:bass.wav
320,192,105303,1,0,0:0:0:70:finish.wav
320,192,105444,1,0,0:0:0:70:bass.wav
64,192,105869,1,0,0:0:0:70:bass.wav
192,192,105869,1,0,0:0:0:70:finish.wav
192,192,106010,1,0,0:0:0:70:bass.wav
448,192,106435,1,0,0:0:0:70:finish.wav
320,192,106435,1,0,0:0:0:70:bass.wav
64,192,106718,1,0,0:0:0:70:snare.wav
448,192,106718,1,0,0:0:0:70:bass.wav
192,192,107001,1,0,0:0:0:70:bass.wav
64,192,107001,1,0,0:0:0:70:finish.wav
320,192,107284,1,0,0:0:0:70:bass.wav
448,192,107284,1,0,0:0:0:70:snare.wav
192,192,107567,1,0,0:0:0:70:bass.wav
64,192,107567,1,0,0:0:0:70:finish.wav
320,192,107850,1,0,0:0:0:70:bass.wav
192,192,107850,1,0,0:0:0:70:snare.wav
448,192,108133,1,0,0:0:0:70:bass.wav
320,192,108416,1,0,0:0:0:70:bass.wav
64,192,108416,1,0,0:0:0:70:snare.wav
192,192,108557,1,0,0:0:0:70:bass.wav
320,192,108699,1,0,0:0:0:70:bass.wav
448,192,108699,1,0,0:0:0:70:finish.wav
192,192,108982,1,0,0:0:0:70:snare.wav
64,192,108982,1,0,0:0:0:70:bass.wav
320,192,109265,1,0,0:0:0:70:bass.wav
64,192,109548,1,0,0:0:0:70:bass.wav
448,192,109548,1,0,0:0:0:70:snare.wav
192,192,109831,1,0,0:0:0:70:bass.wav
320,192,110114,1,0,0:0:0:70:bass.wav
448,192,110114,1,0,0:0:0:70:snare.wav
192,192,110397,1,0,0:0:0:70:bass.wav
64,192,110680,1,0,0:0:0:70:bass.wav
448,192,110680,1,0,0:0:0:70:snare.wav
192,192,110963,1,0,0:0:0:70:bass.wav
64,192,110963,1,0,0:0:0:70:finish.wav
320,192,111529,1,0,0:0:0:70:bass.wav
192,192,111529,1,0,0:0:0:70:finish.wav
320,192,112095,1,0,0:0:0:70:finish.wav
448,192,112095,1,0,0:0:0:70:bass.wav
192,192,112661,1,0,0:0:0:70:bass.wav
64,192,113227,1,0,0:0:0:70:bass.wav
448,192,113227,1,0,0:0:0:70:finish.wav
64,192,113510,1,0,0:0:0:70:bass.wav
192,192,113510,1,0,0:0:0:70:finish.wav
448,192,113793,1,0,0:0:0:70:bass.wav
320,192,113793,1,0,0:0:0:70:finish.wav
64,192,113935,1,0,0:0:0:70:finish.wav
192,192,113935,1,0,0:0:0:70:bass.wav
448,192,114076,1,0,0:0:0:70:bass.wav
320,192,114076,1,0,0:0:0:70:finish.wav
64,192,114218,1,0,0:0:0:70:finish.wav
192,192,114218,1,0,0:0:0:70:bass.wav
320,192,114359,1,0,0:0:0:70:finish.wav
448,192,114359,1,0,0:0:0:70:bass.wav
320,192,114501,1,0,0:0:0:70:bass.wav
192,192,114642,1,0,0:0:0:70:snare.wav
320,192,114784,1,0,0:0:0:70:snare.wav
448,192,114854,1,0,0:0:0:70:snare.wav
192,192,114925,1,0,0:0:0:70:bass.wav
64,192,114925,1,0,0:0:0:70:finish.wav
192,192,115067,1,0,0:0:0:70:bass.wav
320,192,115208,1,0,0:0:0:70:snare.wav
320,192,115420,1,0,0:0:0:70:snare.wav
64,192,115491,1,0,0:0:0:70:bass.wav
448,192,115491,1,0,0:0:0:70:finish.wav
448,192,115633,1,0,0:0:0:70:bass.wav
192,192,115774,1,0,0:0:0:70:snare.wav
320,192,115845,1,0,0:0:0:70:snare.wav
448,192,115986,1,0,0:0:0:70:snare.wav
192,192,116057,1,0,0:0:0:70:bass.wav
64,192,116057,1,0,0:0:0:70:finish.wav
64,192,116199,1,0,0:0:0:70:bass.wav
448,192,116340,1,0,0:0:0:70:snare.wav
320,192,116411,1,0,0:0:0:70:snare.wav
192,192,116482,1,0,0:0:0:70:snare.wav
64,192,116553,1,0,0:0:0:70:snare.wav
448,192,116623,1,0,0:0:0:70:bass.wav
320,192,116623,1,0,0:0:0:70:finish.wav
192,192,116906,1,0,0:0:0:70:snare.wav
64,192,116906,1,0,0:0:0:0:
320,192,117189,1,0,0:0:0:70:bass.wav
192,192,117260,1,0,0:0:0:70:snare.wav
64,192,117331,1,0,0:0:0:70:bass.wav
448,192,117472,1,0,0:0:0:70:snare.wav
320,192,117543,1,0,0:0:0:70:bass.wav
192,192,117614,1,0,0:0:0:70:snare.wav
64,192,117614,1,0,0:0:0:0:
448,192,117755,1,0,0:0:0:70:bass.wav
320,192,117897,1,0,0:0:0:70:snare.wav
64,192,117897,1,0,0:0:0:0:
192,192,118038,1,0,0:0:0:70:bass.wav
320,192,118180,1,0,0:0:0:70:snare.wav
448,192,118180,1,0,0:0:0:0:
64,192,118321,1,0,0:0:0:70:bass.wav
192,192,118463,1,0,0:0:0:70:snare.wav
320,192,118534,1,0,0:0:0:70:snare.wav
448,192,118604,1,0,0:0:0:70:bass.wav
192,192,118746,1,0,0:0:0:70:snare.wav
64,192,118746,1,0,0:0:0:0:
320,192,118887,1,0,0:0:0:70:bass.wav
448,192,118887,1,0,0:0:0:70:finish.wav
192,192,119312,1,0,0:0:0:70:snare.wav
448,192,119312,1,0,0:0:0:0:
320,192,119453,1,0,0:0:0:70:bass.wav
64,192,119453,1,0,0:0:0:70:finish.wav
192,192,119736,1,0,0:0:0:70:snare.wav
64,192,119736,1,0,0:0:0:0:
320,192,120019,1,0,0:0:0:70:finish.wav
448,192,120019,1,0,0:0:0:70:bass.wav
192,192,120161,1,0,0:0:0:70:snare.wav
64,192,120161,1,0,0:0:0:0:
320,192,120444,1,0,0:0:0:70:snare.wav
64,192,120444,1,0,0:0:0:0:
192,192,120586,1,0,0:0:0:70:bass.wav
448,192,120586,1,0,0:0:0:70:finish.wav
320,192,120798,1,0,0:0:0:70:bass.wav
64,192,120869,1,0,0:0:0:70:snare.wav
192,192,121010,1,0,0:0:0:70:bass.wav
320,192,121152,1,0,0:0:0:70:bass.wav
448,192,121152,1,0,0:0:0:70:finish.wav
320,192,121293,1,0,0:0:0:70:bass.wav
192,192,121435,1,0,0:0:0:70:bass.wav
320,192,121576,1,0,0:0:0:70:bass.wav
192,192,121718,1,0,0:0:0:70:bass.wav
192,192,121859,1,0,0:0:0:70:bass.wav
320,192,122001,1,0,0:0:0:70:bass.wav
192,192,122142,1,0,0:0:0:70:bass.wav
64,192,122284,1,0,0:0:0:70:finish.wav
448,192,122284,1,0,0:0:0:70:bass.wav
320,192,122354,1,0,0:0:0:70:bass.wav
192,192,122425,1,0,0:0:0:70:bass.wav
64,192,122496,1,0,0:0:0:70:bass.wav
448,192,122567,1,0,0:0:0:70:bass.wav
320,192,122637,1,0,0:0:0:70:bass.wav
64,192,122708,1,0,0:0:0:70:bass.wav
192,192,122779,1,0,0:0:0:70:bass.wav
320,192,122850,128,0,123416:0:0:0:70:bass.wav
192,192,123416,128,0,124548:0:0:0:70:bass.wav
64,192,123416,1,0,0:0:0:70:finish.wav
320,192,124548,128,0,125680:0:0:0:0:
64,192,125680,1,0,0:0:0:70:finish.wav
448,192,125680,1,0,0:0:0:70:bass.wav
320,192,126246,1,0,0:0:0:0:
192,192,126812,1,0,0:0:0:0:
64,192,127378,1,0,0:0:0:0:
320,192,127944,1,0,0:0:0:70:bass.wav
448,192,127944,1,0,0:0:0:70:finish.wav
320,192,128086,1,0,0:0:0:70:bass.wav
448,192,128086,1,0,0:0:0:70:finish.wav
