osu file format v14

[General]
AudioFilename: audio.mp3
AudioLeadIn: 0
PreviewTime: 5865
Countdown: 0
SampleSet: Soft
StackLeniency: 0.7
Mode: 2
LetterboxInBreaks: 0
WidescreenStoryboard: 1

[Editor]
DistanceSpacing: 0.9
BeatDivisor: 4
GridSize: 32
TimelineZoom: 1

[Metadata]
Title:Some Kind Of Magic (feat. MYZICA)
TitleUnicode:Some Kind Of Magic (feat. MYZICA)
Artist:LVTHER
ArtistUnicode:LVTHER
Creator:Ascendance
Version:wonjae's Platter
Source:
Tags:dnb jbhyperion wonjae paranoid grapes gary00737 kibbleru monstercat
BeatmapID:2205713
BeatmapSetID:989624

[Difficulty]
HPDrainRate:5
CircleSize:3.6
OverallDifficulty:8
ApproachRate:8
SliderMultiplier:1.7
SliderTickRate:2

[Events]
//Background and Video events
0,0,"cropped-1920-1080-699287.jpg",0,0
//Break Periods
//Storyboard Layer 0 (Background)
//Storyboard Layer 1 (Fail)
//Storyboard Layer 2 (Pass)
//Storyboard Layer 3 (Foreground)
//Storyboard Layer 4 (Overlay)
//Storyboard Sound Samples

[TimingPoints]
211,357.142857142857,4,2,1,80,1,0
7085,-100,4,2,1,5,0,0
7175,-100,4,2,1,80,0,0
7800,-100,4,2,1,5,0,0
7889,-100,4,2,1,80,0,0
7978,-100,4,2,1,5,0,0
8068,-100,4,2,1,80,0,0
8514,-100,4,2,1,5,0,0
8603,-100,4,2,1,80,0,0
9943,-100,4,2,1,5,0,0
10032,-100,4,2,1,80,0,0
10478,-100,4,2,1,5,0,0
10568,-100,4,2,1,80,0,0
10835,-100,4,2,1,5,0,0
10925,-100,4,2,1,80,0,0
11014,-100,4,2,1,5,0,0
11103,-100,4,2,1,80,0,0
11193,-100,4,2,1,5,0,0
11282,-100,4,2,1,80,0,0
11371,-100,4,2,1,5,0,0
11460,-100,4,2,1,80,0,0
11550,-100,4,2,1,5,0,0
11639,-100,4,2,1,80,0,0
12800,-100,4,2,1,5,0,0
12889,-100,4,2,1,80,0,0
15657,-100,4,2,1,5,0,0
15746,-100,4,2,1,80,0,0
16907,-100,4,2,1,5,0,0
16996,-100,4,2,1,80,0,0
17085,-100,4,2,1,5,0,0
17175,-100,4,2,1,80,0,0
17264,-100,4,2,1,5,0,0
17353,-100,4,2,1,80,0,0
18514,-100,4,2,1,5,0,0
18603,-100,4,2,1,80,0,0
19764,-100,4,2,1,5,0,0
19853,-100,4,2,1,80,0,0
19943,-100,4,2,1,5,0,0
20032,-100,4,2,1,80,0,0
20121,-100,4,2,1,5,0,0
20210,-100,4,2,1,80,0,0
21907,-100,4,2,1,5,0,0
21996,-100,4,2,1,80,0,0
22264,-100,4,2,1,5,0,0
22353,-100,4,2,1,80,0,0
22443,-100,4,2,1,5,0,0
22532,-100,4,2,1,80,0,0
22621,-100,4,2,1,5,0,0
22710,-100,4,2,1,80,0,0
22800,-100,4,2,1,5,0,0
22889,-100,4,2,1,80,0,0
22978,-100,4,2,1,5,0,0
23068,-100,4,2,1,80,0,0
28782,-100,4,2,1,70,0,0
34050,-100,4,2,1,5,0,0
34139,-100,4,2,1,70,0,0
34228,-100,4,2,1,5,0,0
34318,-100,4,2,1,70,0,0
34407,-100,4,2,1,5,0,0
34496,-100,4,2,1,70,0,0
35478,-100,4,2,1,5,0,0
35568,-100,4,2,1,70,0,0
35835,-100,4,2,1,5,0,0
35925,-100,4,2,1,70,0,0
36193,-100,4,2,1,5,0,0
36282,-100,4,2,1,70,0,0
38335,-100,4,2,1,5,0,0
38425,-100,4,2,1,70,0,0
38693,-100,4,2,1,5,0,0
38782,-100,4,2,1,70,0,0
39764,-100,4,2,1,5,0,0
39853,-100,4,2,1,70,0,0
39943,-100,4,2,1,5,0,0
40032,-100,4,2,1,70,0,0
40121,-100,4,2,1,5,0,0
40210,-100,4,2,1,70,0,0
41193,-100,4,2,1,5,0,0
41282,-100,4,2,1,70,0,0
45478,-100,4,2,1,5,0,0
45568,-100,4,2,1,70,0,0
45657,-100,4,2,1,5,0,0
45746,-100,4,2,1,70,0,0
45835,-100,4,2,1,5,0,0
45925,-100,4,2,1,70,0,0
46907,-100,4,2,1,5,0,0
46996,-100,4,2,1,70,0,0
47264,-100,4,2,1,5,0,0
47353,-100,4,2,1,70,0,0
47621,-100,4,2,1,5,0,0
47710,-100,4,2,1,70,0,0
48157,-100,4,2,1,5,0,0
48246,-100,4,2,1,70,0,0
51193,-100,4,2,1,5,0,0
51282,-100,4,2,1,70,0,0
51371,-100,4,2,1,5,0,0
51460,-100,4,2,1,70,0,0
51550,-100,4,2,1,5,0,0
51639,-100,4,2,1,90,0,1
51907,-100,4,2,1,5,0,1
51996,-100,4,2,1,90,0,1
53335,-100,4,2,1,5,0,1
53425,-100,4,2,1,90,0,1
54050,-100,4,2,1,5,0,1
54139,-100,4,2,1,90,0,1
54228,-100,4,2,1,5,0,1
54318,-100,4,2,1,90,0,1
54407,-100,4,2,1,5,0,1
54496,-100,4,2,1,90,0,1
56907,-100,4,2,1,5,0,1
56996,-100,4,2,1,90,0,1
57085,-100,4,2,1,5,0,1
57175,-100,4,2,1,90,0,1
57264,-100,4,2,1,5,0,1
57353,-100,4,2,1,90,0,0
57398,-100,4,2,1,5,0,0
57443,-100,4,2,1,90,0,0
58693,-100,4,2,1,5,0,0
58782,-100,4,2,1,90,0,0
59050,-100,4,2,1,5,0,0
59139,-100,4,2,1,90,0,0
59407,-100,4,2,1,5,0,0
59496,-100,4,2,1,90,0,0
60478,-100,4,2,1,5,0,0
60568,-100,4,2,1,90,0,0
60835,-100,4,2,1,5,0,0
60925,-100,4,2,1,90,0,0
62443,-100,4,2,1,5,0,0
62532,-100,4,2,1,90,0,0
62621,-100,4,2,1,5,0,0
62710,-100,4,2,1,90,0,0
62800,-100,4,2,1,5,0,0
62889,-100,4,2,1,90,0,0
62978,-100,4,2,1,5,0,0
63068,-100,4,2,1,90,0,1
63335,-100,4,2,1,5,0,1
63425,-100,4,2,1,90,0,1
64764,-100,4,2,1,5,0,1
64853,-100,4,2,1,90,0,1
65478,-100,4,2,1,5,0,1
65568,-100,4,2,1,90,0,1
65657,-100,4,2,1,5,0,1
65746,-100,4,2,1,90,0,1
65835,-100,4,2,1,5,0,1
65925,-100,4,2,1,90,0,1
68782,-100,4,2,1,90,0,0
68827,-100,4,2,1,5,0,0
68871,-100,4,2,1,90,0,0
70121,-100,4,2,1,5,0,0
70210,-100,4,2,1,90,0,0
70478,-100,4,2,1,5,0,0
70568,-100,4,2,1,90,0,0
70835,-100,4,2,1,5,0,0
70925,-100,4,2,1,90,0,0
71907,-100,4,2,1,5,0,0
71996,-100,4,2,1,90,0,0
72978,-100,4,2,1,5,0,0
73068,-100,4,2,1,90,0,0
73335,-100,4,2,1,5,0,0
73425,-100,4,2,1,90,0,0
73693,-100,4,2,1,5,0,0
73782,-100,4,2,1,90,0,0
74496,-100,4,2,1,60,0,0
74853,-100,4,2,1,50,0,0
75210,-100,4,2,1,40,0,0
75568,-100,4,2,1,30,0,0
75925,-100,4,2,1,20,0,0
76282,-100,4,2,1,10,0,0
76639,-100,4,2,1,5,0,0

[Colours]
Combo1 : 225,0,113
Combo2 : 0,0,255
Combo3 : 91,91,255
Combo4 : 78,0,155

[HitObjects]
160,290,211,5,0,0:0:0:0:
374,283,1639,1,0,0:0:0:0:
157,289,3068,1,0,0:0:0:0:
256,192,3425,12,0,5032,0:0:0:0:
381,216,5389,6,0,L|502:220,2,85,0|0|0,0:0|0:0|0:0,0:0:0:0:
120,192,5925,5,6,0:0:0:0:
289,186,6282,2,0,L|116:192,1,170,8|2,0:0|0:0,0:0:0:0:
38,261,6818,2,0,L|54:368,1,85,0|8,0:0|0:0,0:0:0:0:
230,349,7175,2,0,P|209:272|107:242,1,170,0|0,0:0|0:0,0:0:0:0:
55,236,7710,1,8,1:2:0:0:
241,157,7889,2,0,L|347:150,1,85,8|0,1:2|0:0,0:0:0:0:
156,262,8246,2,0,L|51:274,2,85,2|8|2,1:2|1:2|1:2,0:0:0:0:
413,330,8782,5,6,1:2:0:0:
244,330,9139,2,0,L|420:331,1,170,8|2,0:0|0:0,0:0:0:0:
495,262,9675,2,0,L|480:170,1,85,0|8,0:0|0:0,0:0:0:0:
310,168,10032,2,0,P|233:142|225:48,1,170,0|0,0:0|0:0,0:0:0:0:
397,59,10568,1,8,0:0:0:0:
218,62,10746,2,0,L|199:161,1,85,0|2,0:0|1:2,0:0:0:0:
466,176,11103,2,0,L|486:278,1,85,8|8,1:2|1:2,0:0:0:0:
383,296,11460,1,8,1:2:0:0:
111,330,11639,5,6,0:0:0:0:
287,327,11996,2,0,L|115:328,1,170,8|2,0:0|0:0,0:0:0:0:
207,267,12532,2,0,L|215:167,1,85,0|8,0:0|0:0,0:0:0:0:
31,127,12889,1,2,0:0:0:0:
125,222,13246,2,0,L|238:219,2,85,2|8|2,0:0|0:0|0:0,0:0:0:0:
296,180,13782,2,0,L|298:84,1,85,2|0,1:2|1:2,0:0:0:0:
118,57,14139,2,0,L|6:57,1,85,8|0,1:2|1:2,0:0:0:0:
297,127,14496,1,6,0:0:0:0:
127,130,14853,6,0,L|301:126,1,170,8|2,0:0|0:0,0:0:0:0:
407,198,15389,2,0,L|421:305,1,85,0|8,0:0|0:0,0:0:0:0:
235,327,15746,2,0,L|403:305,2,170,2|2|0,0:0|0:0|0:0,0:0:0:0:
411,310,16639,1,2,1:2:0:0:
231,327,16818,2,0,L|117:314,1,85,8|8,1:2|1:2,0:0:0:0:
231,327,17175,1,8,1:2:0:0:
487,211,17353,6,0,L|478:106,1,85,6|0,0:0|0:0,0:0:0:0:
306,143,17710,2,0,L|196:145,1,85,8|0,0:0|0:0,0:0:0:0:
408,294,18068,2,0,L|526:308,2,85,2|2|8,0:0|0:0|0:0,0:0:0:0:
216,243,18603,2,0,P|207:165|310:128,1,170,0|0,0:0|0:0,0:0:0:0:
184,101,19139,2,0,L|75:106,1,85,8|8,0:0|0:0,0:0:0:0:
414,215,19675,1,8,1:2:0:0:
323,270,19853,2,0,L|316:368,1,85,8|8,1:2|1:2,0:0:0:0:
44,355,20210,6,0,L|37:247,1,85,6|0,0:0|0:0,0:0:0:0:
224,213,20568,2,0,L|398:211,1,170,8|2,0:0|0:0,0:0:0:0:
296,138,21103,2,0,L|280:16,1,85,0|8,0:0|0:0,0:0:0:0:
96,149,21460,2,0,P|61:92|139:23,1,170,0|0,0:0|0:0,0:0:0:0:
223,74,21996,2,0,L|219:173,1,85,8|0,0:0|0:0,0:0:0:0:
38,231,22353,1,2,1:2:0:0:
217,156,22532,1,8,1:2:0:0:
126,203,22710,2,0,L|117:314,1,85,8|8,1:2|1:2,0:0:0:0:
395,331,23068,5,6,0:0:0:0:
208,334,23425,2,0,L|378:340,1,170,8|2,0:0|0:0,0:0:0:0:
287,254,23960,2,0,L|260:139,1,85,0|8,0:0|0:0,0:0:0:0:
455,106,24318,2,0,L|273:89,2,170,2|2|2,0:0|0:0|0:0,0:0:0:0:
277,218,25210,1,2,1:2:0:0:
460,106,25389,1,8,1:2:0:0:
427,192,25568,2,0,L|333:202,1,85,8|8,1:2|1:2,0:0:0:0:
140,304,25925,5,6,0:0:0:0:
310,292,26282,2,0,L|138:304,1,170,8|2,0:0|0:0,0:0:0:0:
223,294,26818,1,0,0:0:0:0:
44,242,26996,2,0,L|157:243,1,85,8|2,0:0|0:0,0:0:0:0:
431,139,27532,2,0,L|226:143,1,170,2|2,0:0|0:0,0:0:0:0:
454,256,28068,2,0,L|490:345,1,85,2|8,1:2|1:2,0:0:0:0:
297,279,28425,2,0,L|286:377,1,85,8|8,1:2|1:2,0:0:0:0:
18,361,28782,5,6,0:0:0:0:
187,346,29139,2,0,L|15:361,1,170,8|2,0:0|0:0,0:0:0:0:
99,287,29675,2,0,P|131:227|39:146,1,170,2|2,0:0|0:0,0:0:0:0:
392,93,30389,1,2,0:0:0:0:
299,153,30568,2,0,L|315:259,1,85,8|8,0:0|0:0,0:0:0:0:
407,285,30925,1,2,0:0:0:0:
212,336,31103,2,0,L|92:354,2,85,0|8|0,0:0|0:0|0:0,0:0:0:0:
412,259,31639,5,6,0:0:0:0:
242,268,31996,2,0,L|416:258,1,170,8|2,0:0|0:0,0:0:0:0:
316,204,32532,2,0,P|308:151|407:73,1,170,2|2,0:0|0:0,0:0:0:0:
56,88,33246,2,0,L|46:194,1,85,0|8,0:0|0:0,0:0:0:0:
146,238,33603,2,0,L|351:239,1,170,0|8,0:0|0:0,0:0:0:0:
448,251,34139,1,8,0:0:0:0:
337,250,34318,1,8,0:0:0:0:
147,278,34496,6,0,L|329:271,1,170,6|8,0:0|0:0,0:0:0:0:
184,210,35210,2,0,L|86:218,1,85,2|0,0:0|0:0,0:0:0:0:
180,197,35568,1,8,0:0:0:0:
387,143,35746,2,0,P|500:111|532:72,2,170,2|2|2,0:0|0:0|0:0,0:0:0:0:
67,214,36818,2,0,L|64:333,1,85,2|10,0:0|0:0,0:0:0:0:
152,346,37175,1,0,0:0:0:0:
348,342,37353,5,6,0:0:0:0:
183,339,37710,2,0,L|357:346,1,170,8|2,0:0|0:0,0:0:0:0:
462,281,38246,2,0,L|463:165,1,85,0|10,0:0|0:0,0:0:0:0:
260,133,38603,2,0,L|60:192,2,170,2|2|2,0:0|0:0|0:0,0:0:0:0:
452,120,39496,2,0,L|464:21,1,85,2|8,0:0|0:0,0:0:0:0:
270,28,39853,2,0,L|169:29,1,85,8|8,0:0|0:0,0:0:0:0:
453,172,40210,5,6,0:0:0:0:
283,158,40568,2,0,L|477:173,1,170,8|2,0:0|0:0,0:0:0:0:
343,227,41103,2,0,L|346:338,1,85,2|8,0:0|0:0,0:0:0:0:
447,341,41460,1,2,0:0:0:0:
118,353,41818,1,2,0:0:0:0:
207,319,41996,2,0,L|212:228,1,85,8|10,0:0|0:0,0:0:0:0:
117,171,42353,2,0,L|17:177,1,85,0|2,0:0|0:0,0:0:0:0:
224,89,42710,2,0,L|233:198,1,85,8|0,0:0|0:0,0:0:0:0:
34,249,43068,5,6,0:0:0:0:
203,238,43425,2,0,L|19:249,1,170,8|2,0:0|0:0,0:0:0:0:
106,191,43960,1,2,0:0:0:0:
319,132,44139,2,0,L|349:31,1,85,8|2,0:0|0:0,0:0:0:0:
17,76,44675,2,0,L|115:79,1,85,0|8,0:0|0:0,0:0:0:0:
302,182,45032,2,0,P|360:228|297:290,1,170,0|8,0:0|0:0,0:0:0:0:
126,314,45568,2,0,L|16:313,1,85,8|8,0:0|0:0,0:0:0:0:
323,212,45925,5,4,0:0:0:0:
153,203,46282,2,0,L|352:213,1,170,8|2,0:0|0:0,0:0:0:0:
236,279,46818,1,0,0:0:0:0:
335,273,46996,2,0,L|346:370,1,85,8|2,0:0|0:0,0:0:0:0:
33,356,47532,2,0,L|157:343,1,85,2|8,0:0|0:0,0:0:0:0:
300,288,47889,2,0,P|341:222|266:146,1,170,0|8,0:0|0:0,0:0:0:0:
120,60,48425,1,8,0:0:0:0:
232,25,48603,6,0,L|323:19,1,85,2|0,0:0|0:0,0:0:0:0:
456,55,49139,2,0,L|254:35,1,170,8|2,0:0|0:0,0:0:0:0:
186,77,49675,1,0,0:0:0:0:
383,171,49853,2,0,L|384:266,1,85,8|2,0:0|0:0,0:0:0:0:
185,320,50210,2,0,L|66:326,1,85,0|2,0:0|0:0,0:0:0:0:
184,352,50568,2,0,L|266:312,1,85,8|2,0:0|0:0,0:0:0:0:
67,240,50925,1,2,0:0:0:0:
41,240,51103,1,8,0:0:0:0:
96,239,51282,1,8,0:0:0:0:
188,240,51460,1,8,0:0:0:0:
463,234,51639,6,0,L|482:150,1,85,6|0,0:0|0:0,0:0:0:0:
293,122,51996,2,0,L|274:16,1,85,8|0,0:0|0:0,0:0:0:0:
464,45,52353,2,0,L|388:117,2,85,2|2|8,0:0|0:0|0:0,0:0:0:0:
275,141,52889,2,0,P|258:222|383:329,1,255,0|8,0:0|0:0,0:0:0:0:
177,327,53603,2,0,P|115:296|10:329,1,170,10|8,0:0|1:2,0:0:0:0:
215,240,54139,2,0,L|328:292,1,85,8|8,1:2|1:2,0:0:0:0:
29,172,54496,5,6,0:0:0:0:
200,171,54853,2,0,L|21:172,1,170,8|2,0:0|0:0,0:0:0:0:
128,251,55389,1,2,0:0:0:0:
32,168,55568,2,0,L|51:69,1,85,8|2,0:0|0:0,0:0:0:0:
232,77,55925,2,0,L|351:68,1,85,0|0,0:0|0:0,0:0:0:0:
37,235,56282,2,0,P|38:168|148:122,1,170,8|2,0:0|1:2,0:0:0:0:
294,111,56818,1,8,1:2:0:0:
121,117,56996,2,0,L|100:235,1,85,8|8,1:2|1:2,0:0:0:0:
402,286,57353,5,6,0:0:0:0:
232,279,57710,2,0,L|414:286,1,170,10|2,0:0|0:0,0:0:0:0:
310,226,58246,2,0,L|285:107,1,85,2|8,0:0|0:0,0:0:0:0:
490,78,58603,2,0,L|305:69,2,170,2|2|2,0:0|0:0|0:0,0:0:0:0:
298,166,59496,2,0,L|279:273,1,85,0|0,0:0|0:0,0:0:0:0:
348,326,59853,2,0,L|470:354,1,85,8|8,1:2|1:2,0:0:0:0:
160,336,60210,5,6,0:0:0:0:
0,334,60568,2,0,L|177:334,1,170,8|2,0:0|0:0,0:0:0:0:
384,250,61103,2,0,L|412:139,1,85,2|8,0:0|0:0,0:0:0:0:
203,128,61460,2,0,L|392:118,2,170,2|2|0,0:0|0:0|0:0,0:0:0:0:
386,229,62353,2,0,L|416:333,1,85,2|8,1:2|1:2,0:0:0:0:
219,348,62710,2,0,L|100:349,1,85,8|8,1:2|1:2,0:0:0:0:
404,270,63068,5,4,0:0:0:0:
239,275,63425,2,0,L|409:275,1,170,8|2,0:0|0:0,0:0:0:0:
216,184,63960,2,0,L|105:184,1,85,2|8,0:0|0:0,0:0:0:0:
326,85,64318,2,0,P|415:61|504:102,1,170,2|2,0:0|0:0,0:0:0:0:
410,157,64853,1,8,0:0:0:0:
217,225,65032,2,0,P|217:289|323:343,1,170,8|8,0:0|1:2,0:0:0:0:
102,338,65568,2,0,L|-17:362,1,85,10|8,1:2|1:2,0:0:0:0:
307,368,65925,5,4,0:0:0:0:
137,362,66282,2,0,L|314:368,1,170,8|2,0:0|0:0,0:0:0:0:
115,277,66818,2,0,L|100:159,1,85,0|8,0:0|0:0,0:0:0:0:
315,116,67175,2,0,L|509:114,1,170,2|2,0:0|0:0,0:0:0:0:
203,253,67710,2,0,P|86:294|56:352,2,170,8|2|8,0:0|1:2|1:2,0:0:0:0:
295,253,68603,1,2,1:2:0:0:
105,203,68782,2,0,L|89:96,1,85,6|0,0:0|0:0,0:0:0:0:
375,73,69139,6,0,P|438:103|449:219,1,170,8|2,0:0|0:0,0:0:0:0:
342,216,69675,2,0,L|335:310,1,85,2|8,0:0|0:0,0:0:0:0:
135,328,70032,1,2,0:0:0:0:
304,341,70389,2,0,L|106:325,1,170,2|2,0:0|0:0,0:0:0:0:
332,221,70925,2,0,L|448:207,1,85,0|8,0:0|1:2,0:0:0:0:
223,130,71282,2,0,L|119:121,1,85,8|8,1:2|1:2,0:0:0:0:
402,65,71639,5,4,0:0:0:0:
228,65,71996,2,0,L|408:64,1,170,8|2,0:0|0:0,0:0:0:0:
200,159,72532,2,0,L|186:281,1,85,2|8,0:0|0:0,0:0:0:0:
376,304,72889,2,0,L|168:315,2,170,2|2|2,0:0|0:0|0:0,0:0:0:0:
178,219,73782,2,0,L|176:122,1,85,0|8,0:0|1:2,0:0:0:0:
349,73,74139,2,0,L|458:67,1,85,8|8,1:2|1:2,0:0:0:0:
170,47,74496,5,6,0:0:0:0:
256,192,74853,12,0,77353,0:0:0:0:
