osu file format v14

[General]
AudioFilename: audio.mp3
AudioLeadIn: 0
PreviewTime: 100229
Countdown: 0
SampleSet: Normal
StackLeniency: 0.7
Mode: 1
LetterboxInBreaks: 0
WidescreenStoryboard: 1

[Editor]
DistanceSpacing: 1.9
BeatDivisor: 4
GridSize: 32
TimelineZoom: 1.900001

[Metadata]
Title:Vortex of Sorrow
TitleUnicode:Vortex of Sorrow
Artist:LV.4 feat. Mawata Spica
ArtistUnicode:LV.4 feat. 真綿スピカ
Creator:uone
Version:Oni
Source:osu!taiko World Cup 2023
Tags:osu! osu!original custom song map featured artist fa electronic japanese twc 2023 grand finals gf fm3
BeatmapID:4173390
BeatmapSetID:1980701

[Difficulty]
HPDrainRate:6
CircleSize:3
OverallDifficulty:6
ApproachRate:9
SliderMultiplier:1.4
SliderTickRate:1

[Events]
//Background and Video events
0,0,"bg.jpg",0,-135
//Break Periods
2,63309,72109
2,178509,187309
//Storyboard Layer 0 (Background)
//Storyboard Layer 1 (Fail)
//Storyboard Layer 2 (Pass)
//Storyboard Layer 3 (Foreground)
//Storyboard Layer 4 (Overlay)
//Storyboard Sound Samples

[TimingPoints]
709,300,4,1,0,90,1,0
709,-111.111111111111,4,1,0,90,0,0
10515,-110.781404549951,4,1,0,90,0,0
10590,-110.671936758893,4,1,0,90,0,0
10740,-110.453648915187,4,1,0,90,0,0
10890,-110.236220472441,4,1,0,90,0,0
11040,-110.019646365422,4,1,0,90,0,0
11190,-109.803921568627,4,1,0,90,0,0
11265,-109.696376101861,4,1,0,90,0,0
11340,-109.58904109589,4,1,0,90,0,0
11490,-109.375,4,1,0,90,0,0
11715,-109.055501460565,4,1,0,90,0,0
11790,-108.949416342412,4,1,0,90,0,0
11940,-108.73786407767,4,1,0,90,0,0
12090,-108.527131782946,4,1,0,90,0,0
12240,-108.317214700193,4,1,0,90,0,0
12390,-108.108108108108,4,1,0,90,0,0
12540,-107.899807321773,4,1,0,90,0,0
12690,-107.692307692308,4,1,0,90,0,0
12915,-107.38255033557,4,1,0,90,0,0
12990,-107.27969348659,4,1,0,90,0,0
13140,-107.074569789675,4,1,0,90,0,0
13290,-106.870229007634,4,1,0,90,0,0
13440,-106.666666666667,4,1,0,90,0,0
13590,-106.463878326996,4,1,0,90,0,0
13665,-106.36277302944,4,1,0,90,0,0
13740,-106.261859582543,4,1,0,90,0,0
13890,-106.060606060606,4,1,0,90,0,0
14115,-105.76015108593,4,1,0,90,0,0
14190,-105.660377358491,4,1,0,90,0,0
14340,-105.461393596987,4,1,0,90,0,0
14490,-105.263157894737,4,1,0,90,0,0
14565,-105.164319248826,4,1,0,90,0,0
14640,-105.065666041276,4,1,0,90,0,0
14790,-104.868913857678,4,1,0,90,0,0
15090,-104.477611940299,4,1,0,90,0,0
15315,-104.186046511628,4,1,0,90,0,0
15390,-104.089219330855,4,1,0,90,0,0
15540,-103.896103896104,4,1,0,90,0,0
15690,-103.703703703704,4,1,0,90,0,0
15840,-103.512014787431,4,1,0,90,0,0
15990,-103.321033210332,4,1,0,90,0,0
16065,-103.225806451613,4,1,0,90,0,0
16140,-103.130755064457,4,1,0,90,0,0
16290,-102.941176470588,4,1,0,90,0,0
16515,-102.658111824015,4,1,0,90,0,0
16590,-102.564102564103,4,1,0,90,0,0
16740,-102.376599634369,4,1,0,90,0,0
16890,-102.189781021898,4,1,0,90,0,0
17040,-102.00364298725,4,1,0,90,0,0
17115,-101.910828025478,4,1,0,90,0,0
17190,-101.818181818182,4,1,0,90,0,0
17340,-101.633393829401,4,1,0,90,0,0
17490,-101.449275362319,4,1,0,90,0,0
17715,-101.174345076784,4,1,0,90,0,0
17790,-101.083032490975,4,1,0,90,0,0
17940,-100.900900900901,4,1,0,90,0,0
18015,-100.810081008101,4,1,0,90,0,0
18090,-100.719424460432,4,1,0,90,0,0
18240,-100.538599640934,4,1,0,90,0,0
18390,-100.358422939068,4,1,0,90,0,0
18465,-100.268576544315,4,1,0,90,0,0
18540,-100.178890876565,4,1,0,90,0,0
18690,-100,4,1,0,90,0,0
18746,-105.263157894737,4,1,0,70,0,0
19871,-100,4,1,0,90,0,0
39109,-100,4,1,0,90,0,1
58271,-100,4,1,0,50,0,1
58309,-100,4,1,0,50,0,0
59490,-100,4,1,0,50,0,0
60690,-100,4,1,0,70,0,0
60990,-100,4,1,0,73,0,0
61290,-100,4,1,0,75,0,0
61365,-100,4,1,0,76,0,0
61440,-100,4,1,0,76,0,0
61515,-100,4,1,0,77,0,0
61590,-100,4,1,0,78,0,0
61665,-100,4,1,0,78,0,0
61740,-100,4,1,0,79,0,0
61815,-100,4,1,0,79,0,0
61890,-100,4,1,0,80,0,0
61946,-100,4,1,0,80,0,0
62002,-100,4,1,0,81,0,0
62040,-100,4,1,0,81,0,0
62115,-100,4,1,0,82,0,0
62190,-100,4,1,0,83,0,0
62246,-100,4,1,0,83,0,0
62302,-100,4,1,0,83,0,0
62340,-100,4,1,0,84,0,0
62415,-100,4,1,0,84,0,0
62490,-100,4,1,0,85,0,0
62546,-100,4,1,0,85,0,0
62602,-100,4,1,0,86,0,0
62640,-100,4,1,0,86,0,0
62696,-100,4,1,0,87,0,0
62752,-100,4,1,0,87,0,0
62790,-100,4,1,0,88,0,0
62846,-100,4,1,0,88,0,0
62902,-100,4,1,0,88,0,0
62940,-100,4,1,0,89,0,0
63015,-100,4,1,0,89,0,0
63090,-100,4,1,0,90,0,0
63146,-125,4,1,0,50,0,0
72671,-125,4,1,0,70,0,0
80190,-123.076923076923,4,1,0,70,0,0
80490,-121.212121212121,4,1,0,70,0,0
80790,-119.402985074627,4,1,0,70,0,0
80940,-118.518518518519,4,1,0,70,0,0
81090,-117.647058823529,4,1,0,70,0,0
81390,-115.942028985507,4,1,0,70,0,0
81690,-114.285714285714,4,1,0,70,0,0
81990,-112.676056338028,4,1,0,70,0,0
82271,-111.111111111111,4,1,0,90,0,0
82309,-111.111111111111,4,1,0,90,0,1
91909,-111.111111111111,4,1,0,90,0,0
91946,-125,4,1,0,70,0,0
93090,-117.647058823529,4,1,0,70,0,0
94290,-111.111111111111,4,1,0,70,0,0
94890,-109.58904109589,4,1,0,70,0,0
95490,-108.108108108108,4,1,0,70,0,0
95640,-107.744107744108,4,1,0,70,0,0
95790,-107.38255033557,4,1,0,70,0,0
95940,-107.023411371237,4,1,0,70,0,0
96090,-106.666666666667,4,1,0,70,0,0
96390,-105.960264900662,4,1,0,70,0,0
96671,-105.263157894737,4,1,0,90,0,0
96840,-104.803493449782,4,1,0,90,0,0
96915,-104.575163398693,4,1,0,90,0,0
96990,-104.347826086957,4,1,0,90,0,0
97140,-103.896103896104,4,1,0,90,0,0
97290,-103.448275862069,4,1,0,90,0,0
97440,-103.004291845494,4,1,0,90,0,0
97515,-102.783725910064,4,1,0,90,0,0
97590,-102.564102564103,4,1,0,90,0,0
97740,-102.127659574468,4,1,0,90,0,0
97890,-101.694915254237,4,1,0,90,0,0
98040,-101.26582278481,4,1,0,90,0,0
98115,-101.052631578947,4,1,0,90,0,0
98190,-100.840336134454,4,1,0,90,0,0
98340,-100.418410041841,4,1,0,90,0,0
98490,-100,4,1,0,90,0,0
98640,-99.585062240664,4,1,0,90,0,0
98790,-99.173553719008,4,1,0,90,0,0
98865,-98.969072164948,4,1,0,90,0,0
98940,-98.765432098765,4,1,0,90,0,0
99015,-98.562628336756,4,1,0,90,0,0
99090,-98.360655737705,4,1,0,90,0,0
99240,-97.959183673469,4,1,0,90,0,0
99390,-97.560975609756,4,1,0,90,0,0
99540,-97.165991902834,4,1,0,90,0,0
99615,-96.969696969697,4,1,0,90,0,0
99690,-96.774193548387,4,1,0,90,0,0
99840,-96.385542168675,4,1,0,90,0,0
99990,-96,4,1,0,90,0,0
100065,-95.808383233533,4,1,0,90,0,0
100140,-95.617529880478,4,1,0,90,0,0
100215,-95.427435387674,4,1,0,90,0,0
100290,-95.238095238095,4,1,0,70,0,0
101471,-100,4,1,0,90,0,0
101509,-100,4,1,0,90,0,1
120109,-100,4,1,0,90,0,0
120709,-100,4,1,0,90,0,1
139909,-100,4,1,0,90,0,0
140190,-100.313479623824,4,1,0,90,0,0
140490,-100.62893081761,4,1,0,90,0,0
140790,-100.946372239748,4,1,0,90,0,0
141090,-101.26582278481,4,1,0,90,0,0
141390,-101.587301587302,4,1,0,90,0,0
141690,-101.910828025478,4,1,0,90,0,0
141990,-102.23642172524,4,1,0,90,0,0
142290,-102.564102564103,4,1,0,90,0,0
142590,-102.893890675241,4,1,0,90,0,0
142890,-103.225806451613,4,1,0,90,0,0
143190,-103.559870550162,4,1,0,90,0,0
143490,-103.896103896104,4,1,0,90,0,0
143790,-104.234527687296,4,1,0,90,0,0
144090,-104.575163398693,4,1,0,90,0,0
144390,-104.918032786885,4,1,0,90,0,0
144540,-105.090311986864,4,1,0,90,0,0
144690,-105.263157894737,4,1,0,90,0,0
144990,-105.610561056106,4,1,0,90,0,0
145290,-105.960264900662,4,1,0,90,0,0
145590,-106.312292358804,4,1,0,90,0,0
145890,-106.666666666667,4,1,0,90,0,0
146190,-107.023411371237,4,1,0,90,0,0
146490,-107.38255033557,4,1,0,90,0,0
146790,-107.744107744108,4,1,0,90,0,0
147090,-108.108108108108,4,1,0,90,0,0
147390,-108.474576271186,4,1,0,90,0,0
147690,-108.843537414966,4,1,0,90,0,0
147990,-109.215017064846,4,1,0,90,0,0
148290,-109.58904109589,4,1,0,90,0,0
148440,-109.777015437393,4,1,0,90,0,0
148515,-109.871244635193,4,1,0,90,0,0
148590,-109.965635738832,4,1,0,90,0,0
148740,-110.154905335628,4,1,0,90,0,0
148890,-110.344827586207,4,1,0,90,0,0
148965,-110.440034512511,4,1,0,90,0,0
149040,-110.535405872193,4,1,0,90,0,0
149115,-110.630942091616,4,1,0,90,0,0
149190,-110.726643598616,4,1,0,90,0,0
149340,-110.918544194107,4,1,0,90,0,0
149490,-111.111111111111,4,1,0,90,0,0
149715,-110.535405872193,4,1,0,90,0,0
149790,-110.344827586207,4,1,0,90,0,0
149940,-109.965635738832,4,1,0,90,0,0
150090,-109.58904109589,4,1,0,90,0,0
150240,-109.215017064846,4,1,0,90,0,0
150390,-108.843537414966,4,1,0,90,0,0
150690,-108.108108108108,4,1,0,90,0,0
150915,-107.563025210084,4,1,0,90,0,0
150990,-107.38255033557,4,1,0,90,0,0
151140,-107.023411371237,4,1,0,90,0,0
151290,-106.666666666667,4,1,0,90,0,0
151440,-106.312292358804,4,1,0,90,0,0
151590,-105.960264900662,4,1,0,90,0,0
151890,-105.263157894737,4,1,0,90,0,0
152115,-104.746317512275,4,1,0,90,0,0
152190,-104.575163398693,4,1,0,90,0,0
152340,-104.234527687296,4,1,0,90,0,0
152490,-103.896103896104,4,1,0,90,0,0
152640,-103.559870550162,4,1,0,90,0,0
152790,-103.225806451613,4,1,0,90,0,0
153090,-102.564102564103,4,1,0,90,0,0
153315,-102.07336523126,4,1,0,90,0,0
153390,-101.910828025478,4,1,0,90,0,0
153540,-101.587301587302,4,1,0,90,0,0
153690,-101.26582278481,4,1,0,90,0,0
153840,-100.946372239748,4,1,0,90,0,0
153990,-100.62893081761,4,1,0,90,0,0
154140,-100.313479623824,4,1,0,90,0,0
154215,-100.156494522692,4,1,0,90,0,0
154290,-100,4,1,0,90,0,0
159109,-100,4,1,0,90,0,1
178309,-100,4,1,0,90,0,0
178346,-111.111111111111,4,1,0,50,0,0
187871,-111.111111111111,4,1,0,70,0,0
196590,-114.285714285714,4,1,0,70,0,0
196890,-117.647058823529,4,1,0,70,0,0
197040,-119.402985074627,4,1,0,70,0,0
197190,-121.212121212121,4,1,0,70,0,0
197340,-123.076923076923,4,1,0,70,0,0
197490,-125,4,1,0,70,0,0
207071,-111.111111111111,4,1,0,90,0,0
207240,-110.70110701107,4,1,0,90,0,0
207315,-110.497237569061,4,1,0,90,0,0
207390,-110.294117647059,4,1,0,90,0,0
207540,-109.89010989011,4,1,0,90,0,0
207690,-109.489051094891,4,1,0,90,0,0
207840,-109.090909090909,4,1,0,90,0,0
207915,-108.892921960073,4,1,0,90,0,0
207990,-108.695652173913,4,1,0,90,0,0
208140,-108.303249097473,4,1,0,90,0,0
208290,-107.913669064748,4,1,0,90,0,0
208440,-107.52688172043,4,1,0,90,0,0
208515,-107.334525939177,4,1,0,90,0,0
208590,-107.142857142857,4,1,0,90,0,0
208740,-106.761565836299,4,1,0,90,0,0
208890,-106.382978723404,4,1,0,90,0,0
209040,-106.007067137809,4,1,0,90,0,0
209115,-105.820105820106,4,1,0,90,0,0
209190,-105.633802816901,4,1,0,90,0,0
209490,-104.895104895105,4,1,0,90,0,0
209640,-104.529616724739,4,1,0,90,0,0
209715,-104.347826086957,4,1,0,90,0,0
209790,-104.166666666667,4,1,0,90,0,0
209940,-103.806228373702,4,1,0,90,0,0
210090,-103.448275862069,4,1,0,90,0,0
210240,-103.092783505155,4,1,0,90,0,0
210315,-102.915951972556,4,1,0,90,0,0
210390,-102.739726027397,4,1,0,90,0,0
210540,-102.389078498294,4,1,0,90,0,0
210690,-102.040816326531,4,1,0,90,0,0
210840,-101.694915254237,4,1,0,90,0,0
210915,-101.522842639594,4,1,0,90,0,0
210990,-101.351351351351,4,1,0,90,0,0
211140,-101.010101010101,4,1,0,90,0,0
211290,-100.671140939597,4,1,0,90,0,0
211365,-100.502512562814,4,1,0,90,0,0
211440,-100.334448160535,4,1,0,90,0,0
211515,-100.16694490818,4,1,0,90,0,0
211590,-100,4,1,0,90,0,0
212040,-99.7920997921,4,1,0,90,0,0
212115,-99.688473520249,4,1,0,90,0,0
212190,-99.585062240664,4,1,0,90,0,0
212340,-99.378881987578,4,1,0,90,0,0
212490,-99.173553719008,4,1,0,90,0,0
212640,-98.969072164948,4,1,0,90,0,0
212715,-98.867147270855,4,1,0,90,0,0
212790,-98.765432098765,4,1,0,90,0,0
212940,-98.562628336756,4,1,0,90,0,0
213090,-98.360655737705,4,1,0,90,0,0
213240,-98.159509202454,4,1,0,90,0,0
213315,-98.05924412666,4,1,0,90,0,0
213390,-97.959183673469,4,1,0,90,0,0
213540,-97.75967413442,4,1,0,90,0,0
213690,-97.560975609756,4,1,0,90,0,0
213840,-97.3630831643,4,1,0,90,0,0
213990,-97.165991902834,4,1,0,90,0,0
214065,-97.067745197169,4,1,0,90,0,0
214140,-96.969696969697,4,1,0,90,0,0
214215,-96.871846619576,4,1,0,90,0,0
214290,-96.774193548387,4,1,0,90,0,0
214440,-96.579476861167,4,1,0,90,0,0
214590,-96.385542168675,4,1,0,90,0,0
214740,-96.192384769539,4,1,0,90,0,0
214815,-96.096096096096,4,1,0,90,0,0
214890,-96,4,1,0,90,0,0
215040,-95.808383233533,4,1,0,90,0,0
215190,-95.617529880478,4,1,0,90,0,0
215265,-95.522388059701,4,1,0,90,0,0
215340,-95.427435387674,4,1,0,90,0,0
215415,-95.332671300894,4,1,0,90,0,0
215490,-95.238095238095,4,1,0,90,0,0
215546,-105.263157894737,4,1,0,70,0,0
216671,-100,4,1,0,90,0,0
216709,-100,4,1,0,90,0,1
255109,-100,4,1,0,90,0,0
274346,-100,4,1,0,50,0,0

[HitObjects]
256,192,709,5,0,0:0:0:0:
256,192,1009,1,8,0:0:0:0:
256,192,1159,1,0,0:0:0:0:
256,192,1459,1,0,0:0:0:0:
256,192,1609,1,8,0:0:0:0:
256,192,1684,1,8,0:0:0:0:
256,192,1759,1,8,0:0:0:0:
256,192,1909,1,0,0:0:0:0:
256,192,2209,1,8,0:0:0:0:
256,192,2359,1,0,0:0:0:0:
256,192,2659,1,0,0:0:0:0:
256,192,2809,1,8,0:0:0:0:
256,192,3109,1,0,0:0:0:0:
256,192,3409,1,8,0:0:0:0:
256,192,3559,1,0,0:0:0:0:
256,192,3859,1,0,0:0:0:0:
256,192,4009,1,8,0:0:0:0:
256,192,4084,1,8,0:0:0:0:
256,192,4159,1,8,0:0:0:0:
256,192,4309,1,0,0:0:0:0:
256,192,4609,1,0,0:0:0:0:
256,192,4759,1,8,0:0:0:0:
256,192,4909,1,0,0:0:0:0:
256,192,4984,1,0,0:0:0:0:
256,192,5059,1,0,0:0:0:0:
256,192,5209,1,8,0:0:0:0:
256,192,5509,1,0,0:0:0:0:
256,192,5809,1,8,0:0:0:0:
256,192,5959,1,0,0:0:0:0:
256,192,6109,1,8,0:0:0:0:
256,192,6259,1,0,0:0:0:0:
256,192,6409,1,8,0:0:0:0:
256,192,6484,1,8,0:0:0:0:
256,192,6559,1,8,0:0:0:0:
256,192,6709,1,0,0:0:0:0:
256,192,7009,1,8,0:0:0:0:
256,192,7159,1,0,0:0:0:0:
256,192,7459,1,0,0:0:0:0:
256,192,7609,1,8,0:0:0:0:
256,192,7759,1,8,0:0:0:0:
256,192,7909,1,0,0:0:0:0:
256,192,8209,1,8,0:0:0:0:
256,192,8359,1,0,0:0:0:0:
256,192,8509,1,8,0:0:0:0:
256,192,8659,1,0,0:0:0:0:
256,192,8809,1,8,0:0:0:0:
256,192,8884,1,8,0:0:0:0:
256,192,8959,1,8,0:0:0:0:
256,192,9109,1,0,0:0:0:0:
256,192,9409,1,0,0:0:0:0:
256,192,9559,1,0,0:0:0:0:
256,192,9709,1,8,0:0:0:0:
256,192,10009,1,8,0:0:0:0:
256,192,10309,1,0,0:0:0:0:
256,192,10534,1,8,0:0:0:0:
256,192,10609,1,8,0:0:0:0:
256,192,10759,1,0,0:0:0:0:
256,192,10909,1,8,0:0:0:0:
256,192,11059,1,0,0:0:0:0:
256,192,11209,1,8,0:0:0:0:
256,192,11284,1,8,0:0:0:0:
256,192,11359,1,8,0:0:0:0:
256,192,11509,1,0,0:0:0:0:
256,192,11734,1,0,0:0:0:0:
256,192,11809,1,8,0:0:0:0:
256,192,11959,1,0,0:0:0:0:
256,192,12109,1,8,0:0:0:0:
256,192,12259,1,0,0:0:0:0:
256,192,12409,1,8,0:0:0:0:
256,192,12559,1,8,0:0:0:0:
256,192,12709,1,0,0:0:0:0:
256,192,12934,1,8,0:0:0:0:
256,192,13009,1,8,0:0:0:0:
256,192,13159,1,0,0:0:0:0:
256,192,13309,1,8,0:0:0:0:
256,192,13459,1,0,0:0:0:0:
256,192,13609,1,8,0:0:0:0:
256,192,13684,1,8,0:0:0:0:
256,192,13759,1,8,0:0:0:0:
256,192,13909,1,0,0:0:0:0:
256,192,14134,1,8,0:0:0:0:
256,192,14209,1,0,0:0:0:0:
256,192,14359,1,8,0:0:0:0:
256,192,14509,1,0,0:0:0:0:
256,192,14584,1,0,0:0:0:0:
256,192,14659,1,0,0:0:0:0:
256,192,14809,1,8,0:0:0:0:
256,192,15109,1,0,0:0:0:0:
256,192,15334,1,8,0:0:0:0:
256,192,15409,1,8,0:0:0:0:
256,192,15559,1,0,0:0:0:0:
256,192,15709,1,8,0:0:0:0:
256,192,15859,1,0,0:0:0:0:
256,192,16009,1,8,0:0:0:0:
256,192,16084,1,8,0:0:0:0:
256,192,16159,1,8,0:0:0:0:
256,192,16309,1,0,0:0:0:0:
256,192,16534,1,0,0:0:0:0:
256,192,16609,1,8,0:0:0:0:
256,192,16759,1,0,0:0:0:0:
256,192,16909,1,8,0:0:0:0:
256,192,17059,1,0,0:0:0:0:
256,192,17134,1,0,0:0:0:0:
256,192,17209,1,8,0:0:0:0:
256,192,17359,1,8,0:0:0:0:
256,192,17509,1,0,0:0:0:0:
256,192,17734,1,8,0:0:0:0:
256,192,17809,1,0,0:0:0:0:
256,192,17959,1,8,0:0:0:0:
256,192,18034,1,8,0:0:0:0:
256,192,18109,1,0,0:0:0:0:
256,192,18259,1,0,0:0:0:0:
256,192,18409,1,0,0:0:0:0:
256,192,18484,1,0,0:0:0:0:
256,192,18559,1,0,0:0:0:0:
256,192,18709,1,8,0:0:0:0:
256,192,18934,1,0,0:0:0:0:
256,192,19009,1,8,0:0:0:0:
256,192,19159,1,0,0:0:0:0:
256,192,19459,1,0,0:0:0:0:
256,192,19609,1,8,0:0:0:0:
256,192,19909,1,4,0:0:0:0:
256,192,20134,1,8,0:0:0:0:
256,192,20209,1,0,0:0:0:0:
256,192,20359,1,8,0:0:0:0:
256,192,20509,1,0,0:0:0:0:
256,192,20584,1,0,0:0:0:0:
256,192,20659,1,8,0:0:0:0:
256,192,20809,1,8,0:0:0:0:
256,192,21109,1,0,0:0:0:0:
256,192,21334,1,8,0:0:0:0:
256,192,21409,1,0,0:0:0:0:
256,192,21559,1,8,0:0:0:0:
256,192,21634,1,8,0:0:0:0:
256,192,21709,1,0,0:0:0:0:
256,192,21859,1,8,0:0:0:0:
256,192,22009,1,8,0:0:0:0:
256,192,22309,1,0,0:0:0:0:
256,192,22534,1,8,0:0:0:0:
256,192,22609,1,0,0:0:0:0:
256,192,22759,1,8,0:0:0:0:
256,192,22909,1,0,0:0:0:0:
256,192,22984,1,0,0:0:0:0:
256,192,23059,1,8,0:0:0:0:
256,192,23209,1,8,0:0:0:0:
256,192,23509,1,0,0:0:0:0:
256,192,23659,1,8,0:0:0:0:
256,192,23734,1,8,0:0:0:0:
256,192,23809,1,0,0:0:0:0:
256,192,23959,1,0,0:0:0:0:
256,192,24109,1,8,0:0:0:0:
256,192,24259,1,0,0:0:0:0:
256,192,24334,1,0,0:0:0:0:
256,192,24409,1,8,0:0:0:0:
256,192,24559,1,8,0:0:0:0:
256,192,24709,1,4,0:0:0:0:
256,192,24934,1,8,0:0:0:0:
256,192,25009,1,0,0:0:0:0:
256,192,25159,1,8,0:0:0:0:
256,192,25309,1,0,0:0:0:0:
256,192,25384,1,0,0:0:0:0:
256,192,25459,1,8,0:0:0:0:
256,192,25609,1,8,0:0:0:0:
256,192,25909,1,0,0:0:0:0:
256,192,26134,1,8,0:0:0:0:
256,192,26209,1,0,0:0:0:0:
256,192,26359,1,8,0:0:0:0:
256,192,26434,1,8,0:0:0:0:
256,192,26509,1,0,0:0:0:0:
256,192,26659,1,8,0:0:0:0:
256,192,26809,1,8,0:0:0:0:
256,192,27109,1,0,0:0:0:0:
256,192,27334,1,8,0:0:0:0:
256,192,27409,1,0,0:0:0:0:
256,192,27559,1,8,0:0:0:0:
256,192,27709,1,0,0:0:0:0:
256,192,27784,1,0,0:0:0:0:
256,192,27859,1,8,0:0:0:0:
256,192,28009,1,8,0:0:0:0:
256,192,28159,1,0,0:0:0:0:
256,192,28309,1,8,0:0:0:0:
256,192,28459,1,8,0:0:0:0:
256,192,28534,1,8,0:0:0:0:
256,192,28609,1,8,0:0:0:0:
256,192,28759,1,8,0:0:0:0:
256,192,28909,1,8,0:0:0:0:
256,192,28984,1,8,0:0:0:0:
256,192,29059,1,0,0:0:0:0:
256,192,29134,1,0,0:0:0:0:
256,192,29209,1,8,0:0:0:0:
256,192,29359,1,8,0:0:0:0:
256,192,29509,1,4,0:0:0:0:
256,192,29734,1,0,0:0:0:0:
256,192,29809,1,8,0:0:0:0:
256,192,29959,1,8,0:0:0:0:
256,192,30034,1,8,0:0:0:0:
256,192,30109,1,0,0:0:0:0:
256,192,30259,1,8,0:0:0:0:
256,192,30409,1,8,0:0:0:0:
256,192,30709,1,0,0:0:0:0:
256,192,30934,1,0,0:0:0:0:
256,192,31009,1,8,0:0:0:0:
256,192,31159,1,0,0:0:0:0:
256,192,31234,1,0,0:0:0:0:
256,192,31309,1,0,0:0:0:0:
256,192,31459,1,8,0:0:0:0:
256,192,31609,1,8,0:0:0:0:
256,192,31909,1,0,0:0:0:0:
256,192,32134,1,0,0:0:0:0:
256,192,32209,1,8,0:0:0:0:
256,192,32359,1,8,0:0:0:0:
256,192,32434,1,8,0:0:0:0:
256,192,32509,1,0,0:0:0:0:
256,192,32659,1,8,0:0:0:0:
256,192,32809,1,8,0:0:0:0:
256,192,33109,1,0,0:0:0:0:
256,192,33259,1,0,0:0:0:0:
256,192,33334,1,0,0:0:0:0:
256,192,33409,1,8,0:0:0:0:
256,192,33559,1,0,0:0:0:0:
256,192,33709,1,8,0:0:0:0:
256,192,33859,1,0,0:0:0:0:
256,192,34009,1,8,0:0:0:0:
256,192,34084,1,8,0:0:0:0:
256,192,34159,1,8,0:0:0:0:
256,192,34234,1,8,0:0:0:0:
256,192,34309,1,0,0:0:0:0:
256,192,34459,1,0,0:0:0:0:
256,192,34609,1,8,0:0:0:0:
256,192,34759,1,8,0:0:0:0:
256,192,34834,1,8,0:0:0:0:
256,192,34909,1,0,0:0:0:0:
256,192,35059,1,8,0:0:0:0:
256,192,35209,1,8,0:0:0:0:
256,192,35509,1,0,0:0:0:0:
256,192,35659,1,0,0:0:0:0:
256,192,35809,1,8,0:0:0:0:
256,192,35959,1,0,0:0:0:0:
256,192,36034,1,0,0:0:0:0:
256,192,36109,1,0,0:0:0:0:
256,192,36259,1,8,0:0:0:0:
256,192,36409,1,8,0:0:0:0:
256,192,36559,1,8,0:0:0:0:
256,192,36634,1,8,0:0:0:0:
256,192,36709,1,0,0:0:0:0:
256,192,36859,1,0,0:0:0:0:
256,192,37009,1,8,0:0:0:0:
256,192,37159,1,8,0:0:0:0:
256,192,37234,1,8,0:0:0:0:
256,192,37309,1,0,0:0:0:0:
256,192,37459,1,0,0:0:0:0:
256,192,37609,1,8,0:0:0:0:
256,192,37759,1,8,0:0:0:0:
256,192,37909,1,0,0:0:0:0:
256,192,37984,1,0,0:0:0:0:
256,192,38059,1,0,0:0:0:0:
256,192,38134,1,0,0:0:0:0:
256,192,38209,1,8,0:0:0:0:
256,192,38359,1,0,0:0:0:0:
256,192,38509,1,8,0:0:0:0:
256,192,38809,1,8,0:0:0:0:
256,192,39109,1,0,0:0:0:0:
256,192,39259,1,0,0:0:0:0:
256,192,39409,1,8,0:0:0:0:
256,192,39559,1,0,0:0:0:0:
256,192,39709,1,8,0:0:0:0:
256,192,39859,1,0,0:0:0:0:
256,192,39934,1,0,0:0:0:0:
256,192,40009,1,8,0:0:0:0:
256,192,40159,1,0,0:0:0:0:
256,192,40309,1,8,0:0:0:0:
256,192,40459,1,8,0:0:0:0:
256,192,40534,1,8,0:0:0:0:
256,192,40609,1,0,0:0:0:0:
256,192,40759,1,8,0:0:0:0:
256,192,40909,1,0,0:0:0:0:
256,192,41059,1,0,0:0:0:0:
256,192,41209,1,8,0:0:0:0:
256,192,41509,1,0,0:0:0:0:
256,192,41659,1,8,0:0:0:0:
256,192,41809,1,8,0:0:0:0:
256,192,41959,1,0,0:0:0:0:
256,192,42109,1,8,0:0:0:0:
256,192,42259,1,0,0:0:0:0:
256,192,42334,1,0,0:0:0:0:
256,192,42409,1,8,0:0:0:0:
256,192,42559,1,0,0:0:0:0:
256,192,42709,1,8,0:0:0:0:
256,192,42859,1,8,0:0:0:0:
256,192,42934,1,8,0:0:0:0:
256,192,43009,1,0,0:0:0:0:
256,192,43159,1,8,0:0:0:0:
256,192,43309,1,0,0:0:0:0:
256,192,43384,1,0,0:0:0:0:
256,192,43459,1,8,0:0:0:0:
256,192,43534,1,8,0:0:0:0:
256,192,43609,1,0,0:0:0:0:
256,192,43759,1,8,0:0:0:0:
256,192,43909,1,0,0:0:0:0:
256,192,44209,1,0,0:0:0:0:
256,192,44359,1,8,0:0:0:0:
256,192,44509,1,0,0:0:0:0:
256,192,44659,1,0,0:0:0:0:
256,192,44734,1,0,0:0:0:0:
256,192,44809,1,8,0:0:0:0:
256,192,44959,1,0,0:0:0:0:
256,192,45109,1,8,0:0:0:0:
256,192,45259,1,0,0:0:0:0:
256,192,45334,1,0,0:0:0:0:
256,192,45409,1,0,0:0:0:0:
256,192,45559,1,8,0:0:0:0:
256,192,45709,1,0,0:0:0:0:
256,192,45859,1,0,0:0:0:0:
256,192,46009,1,8,0:0:0:0:
256,192,46309,1,0,0:0:0:0:
256,192,46459,1,0,0:0:0:0:
256,192,46609,1,0,0:0:0:0:
256,192,46759,1,8,0:0:0:0:
256,192,46909,1,0,0:0:0:0:
256,192,47059,1,0,0:0:0:0:
256,192,47134,1,0,0:0:0:0:
256,192,47209,1,8,0:0:0:0:
256,192,47359,1,0,0:0:0:0:
256,192,47509,1,8,0:0:0:0:
256,192,47659,1,8,0:0:0:0:
256,192,47734,1,8,0:0:0:0:
256,192,47809,1,8,0:0:0:0:
256,192,47959,1,8,0:0:0:0:
256,192,48109,1,8,0:0:0:0:
256,192,48184,1,8,0:0:0:0:
256,192,48259,1,0,0:0:0:0:
256,192,48334,1,0,0:0:0:0:
256,192,48409,1,8,0:0:0:0:
256,192,48709,1,0,0:0:0:0:
256,192,48859,1,0,0:0:0:0:
256,192,49009,1,8,0:0:0:0:
256,192,49159,1,0,0:0:0:0:
256,192,49309,1,8,0:0:0:0:
256,192,49459,1,0,0:0:0:0:
256,192,49534,1,0,0:0:0:0:
256,192,49609,1,8,0:0:0:0:
256,192,49759,1,0,0:0:0:0:
256,192,49909,1,8,0:0:0:0:
256,192,50059,1,8,0:0:0:0:
256,192,50134,1,8,0:0:0:0:
256,192,50209,1,0,0:0:0:0:
256,192,50359,1,8,0:0:0:0:
256,192,50509,1,0,0:0:0:0:
256,192,50659,1,0,0:0:0:0:
256,192,50809,1,8,0:0:0:0:
256,192,51109,1,0,0:0:0:0:
256,192,51259,1,8,0:0:0:0:
256,192,51334,1,8,0:0:0:0:
256,192,51409,1,0,0:0:0:0:
256,192,51559,1,8,0:0:0:0:
256,192,51709,1,8,0:0:0:0:
256,192,51859,1,0,0:0:0:0:
256,192,51934,1,0,0:0:0:0:
256,192,52009,1,8,0:0:0:0:
256,192,52159,1,0,0:0:0:0:
256,192,52309,1,8,0:0:0:0:
256,192,52459,1,0,0:0:0:0:
256,192,52534,1,0,0:0:0:0:
256,192,52609,1,0,0:0:0:0:
256,192,52759,1,0,0:0:0:0:
256,192,52909,1,8,0:0:0:0:
256,192,53059,1,8,0:0:0:0:
256,192,53209,1,0,0:0:0:0:
256,192,53284,1,0,0:0:0:0:
256,192,53359,1,8,0:0:0:0:
256,192,53434,1,8,0:0:0:0:
256,192,53509,1,0,0:0:0:0:
256,192,53809,1,8,0:0:0:0:
256,192,53959,1,0,0:0:0:0:
256,192,54109,1,8,0:0:0:0:
256,192,54259,1,0,0:0:0:0:
256,192,54334,1,0,0:0:0:0:
256,192,54409,1,8,0:0:0:0:
256,192,54559,1,0,0:0:0:0:
256,192,54709,1,8,0:0:0:0:
256,192,54859,1,0,0:0:0:0:
256,192,54934,1,0,0:0:0:0:
256,192,55009,1,8,0:0:0:0:
256,192,55159,1,0,0:0:0:0:
256,192,55309,1,8,0:0:0:0:
256,192,55459,1,0,0:0:0:0:
256,192,55609,1,8,0:0:0:0:
256,192,55759,1,8,0:0:0:0:
256,192,55834,1,8,0:0:0:0:
256,192,55909,1,0,0:0:0:0:
256,192,56059,1,0,0:0:0:0:
256,192,56209,1,8,0:0:0:0:
256,192,56359,1,8,0:0:0:0:
256,192,56434,1,8,0:0:0:0:
256,192,56509,1,0,0:0:0:0:
256,192,56659,1,0,0:0:0:0:
256,192,56809,1,8,0:0:0:0:
256,192,56959,1,8,0:0:0:0:
256,192,57109,1,0,0:0:0:0:
256,192,57184,1,0,0:0:0:0:
256,192,57259,1,0,0:0:0:0:
256,192,57334,1,0,0:0:0:0:
256,192,57409,1,8,0:0:0:0:
256,192,57559,1,0,0:0:0:0:
256,192,57709,1,8,0:0:0:0:
256,192,57859,1,0,0:0:0:0:
256,192,58009,1,8,0:0:0:0:
256,192,58084,1,8,0:0:0:0:
256,192,58159,1,8,0:0:0:0:
256,192,58309,12,0,58909,0:0:0:0:
256,192,61309,12,0,63109,0:0:0:0:
256,192,72709,5,0,0:0:0:0:
256,192,73009,1,0,0:0:0:0:
256,192,73309,1,8,0:0:0:0:
256,192,73909,1,8,0:0:0:0:
256,192,74509,1,8,0:0:0:0:
256,192,74659,1,8,0:0:0:0:
256,192,74809,1,8,0:0:0:0:
256,192,74959,1,8,0:0:0:0:
256,192,75109,1,0,0:0:0:0:
256,192,75409,1,0,0:0:0:0:
256,192,75709,1,8,0:0:0:0:
256,192,76309,1,8,0:0:0:0:
256,192,76909,1,8,0:0:0:0:
256,192,77059,1,8,0:0:0:0:
256,192,77209,1,8,0:0:0:0:
256,192,77359,1,8,0:0:0:0:
256,192,77509,1,0,0:0:0:0:
256,192,77809,1,0,0:0:0:0:
256,192,78109,1,8,0:0:0:0:
256,192,78709,1,8,0:0:0:0:
256,192,79309,1,8,0:0:0:0:
256,192,79459,1,8,0:0:0:0:
256,192,79609,1,8,0:0:0:0:
256,192,79759,1,8,0:0:0:0:
256,192,79909,1,0,0:0:0:0:
256,192,80209,1,0,0:0:0:0:
256,192,80509,1,8,0:0:0:0:
256,192,80809,1,8,0:0:0:0:
256,192,80959,1,8,0:0:0:0:
256,192,81109,1,8,0:0:0:0:
256,192,81409,1,8,0:0:0:0:
256,192,81709,1,8,0:0:0:0:
256,192,82009,1,8,0:0:0:0:
256,192,82309,1,0,0:0:0:0:
256,192,82609,1,8,0:0:0:0:
256,192,82759,1,0,0:0:0:0:
256,192,83059,1,8,0:0:0:0:
256,192,83209,1,0,0:0:0:0:
256,192,83284,1,0,0:0:0:0:
256,192,83359,1,8,0:0:0:0:
256,192,83509,1,0,0:0:0:0:
256,192,83659,1,8,0:0:0:0:
256,192,83734,1,8,0:0:0:0:
256,192,83809,1,8,0:0:0:0:
256,192,83959,1,0,0:0:0:0:
256,192,84259,1,8,0:0:0:0:
256,192,84409,1,0,0:0:0:0:
256,192,84559,1,8,0:0:0:0:
256,192,84709,1,0,0:0:0:0:
256,192,84859,1,0,0:0:0:0:
256,192,84934,1,0,0:0:0:0:
256,192,85009,1,8,0:0:0:0:
256,192,85159,1,0,0:0:0:0:
256,192,85459,1,8,0:0:0:0:
256,192,85609,1,0,0:0:0:0:
256,192,85684,1,0,0:0:0:0:
256,192,85759,1,8,0:0:0:0:
256,192,85909,1,0,0:0:0:0:
256,192,86059,1,8,0:0:0:0:
256,192,86134,1,0,0:0:0:0:
256,192,86209,1,8,0:0:0:0:
256,192,86359,1,0,0:0:0:0:
256,192,86509,1,0,0:0:0:0:
256,192,86659,1,8,0:0:0:0:
256,192,86809,1,8,0:0:0:0:
256,192,86884,1,8,0:0:0:0:
256,192,86959,1,8,0:0:0:0:
256,192,87109,1,0,0:0:0:0:
256,192,87409,1,8,0:0:0:0:
256,192,87559,1,0,0:0:0:0:
256,192,87859,1,8,0:0:0:0:
256,192,88009,1,0,0:0:0:0:
256,192,88084,1,0,0:0:0:0:
256,192,88159,1,8,0:0:0:0:
256,192,88309,1,0,0:0:0:0:
256,192,88459,1,8,0:0:0:0:
256,192,88534,1,8,0:0:0:0:
256,192,88609,1,8,0:0:0:0:
256,192,88759,1,0,0:0:0:0:
256,192,88909,1,8,0:0:0:0:
256,192,89059,1,8,0:0:0:0:
256,192,89209,1,0,0:0:0:0:
256,192,89359,1,8,0:0:0:0:
256,192,89509,1,0,0:0:0:0:
256,192,89659,1,0,0:0:0:0:
256,192,89734,1,0,0:0:0:0:
256,192,89809,1,8,0:0:0:0:
256,192,89959,1,0,0:0:0:0:
256,192,90259,1,8,0:0:0:0:
256,192,90409,1,0,0:0:0:0:
256,192,90484,1,0,0:0:0:0:
256,192,90559,1,8,0:0:0:0:
256,192,90709,1,0,0:0:0:0:
256,192,90859,1,8,0:0:0:0:
256,192,90934,1,0,0:0:0:0:
256,192,91009,1,8,0:0:0:0:
256,192,91159,1,0,0:0:0:0:
256,192,91309,1,8,0:0:0:0:
256,192,91459,1,8,0:0:0:0:
256,192,91609,1,8,0:0:0:0:
256,192,91684,1,8,0:0:0:0:
256,192,91759,1,8,0:0:0:0:
256,192,91909,1,0,0:0:0:0:
256,192,93109,1,8,0:0:0:0:
256,192,94309,1,0,0:0:0:0:
256,192,94909,1,8,0:0:0:0:
256,192,95509,1,0,0:0:0:0:
256,192,95659,1,0,0:0:0:0:
256,192,95809,1,8,0:0:0:0:
256,192,95959,1,8,0:0:0:0:
256,192,96109,1,0,0:0:0:0:
256,192,96409,1,8,0:0:0:0:
256,192,96709,1,0,0:0:0:0:
256,192,96859,1,0,0:0:0:0:
256,192,96934,1,0,0:0:0:0:
256,192,97009,1,8,0:0:0:0:
256,192,97159,1,0,0:0:0:0:
256,192,97309,1,8,0:0:0:0:
256,192,97459,1,0,0:0:0:0:
256,192,97534,1,0,0:0:0:0:
256,192,97609,1,8,0:0:0:0:
256,192,97759,1,0,0:0:0:0:
256,192,97909,1,8,0:0:0:0:
256,192,98059,1,8,0:0:0:0:
256,192,98134,1,8,0:0:0:0:
256,192,98209,1,0,0:0:0:0:
256,192,98359,1,8,0:0:0:0:
256,192,98509,1,0,0:0:0:0:
256,192,98659,1,8,0:0:0:0:
256,192,98809,1,0,0:0:0:0:
256,192,98884,1,0,0:0:0:0:
256,192,98959,1,8,0:0:0:0:
256,192,99034,1,8,0:0:0:0:
256,192,99109,1,0,0:0:0:0:
256,192,99259,1,8,0:0:0:0:
256,192,99409,1,8,0:0:0:0:
256,192,99559,1,8,0:0:0:0:
256,192,99634,1,8,0:0:0:0:
256,192,99709,1,0,0:0:0:0:
256,192,99859,1,8,0:0:0:0:
256,192,100009,1,0,0:0:0:0:
256,192,100084,1,0,0:0:0:0:
256,192,100159,1,0,0:0:0:0:
256,192,100234,1,8,0:0:0:0:
256,192,101509,1,0,0:0:0:0:
256,192,101809,1,8,0:0:0:0:
256,192,101959,1,0,0:0:0:0:
256,192,102034,1,0,0:0:0:0:
256,192,102109,1,8,0:0:0:0:
256,192,102259,1,0,0:0:0:0:
256,192,102409,1,8,0:0:0:0:
256,192,102559,1,8,0:0:0:0:
256,192,102634,1,8,0:0:0:0:
256,192,102709,1,0,0:0:0:0:
256,192,102859,1,0,0:0:0:0:
256,192,102934,1,0,0:0:0:0:
256,192,103009,1,8,0:0:0:0:
256,192,103159,1,8,0:0:0:0:
256,192,103309,1,0,0:0:0:0:
256,192,103459,1,0,0:0:0:0:
256,192,103609,1,8,0:0:0:0:
256,192,103759,1,8,0:0:0:0:
256,192,103909,1,0,0:0:0:0:
256,192,104209,1,8,0:0:0:0:
256,192,104359,1,0,0:0:0:0:
256,192,104509,1,8,0:0:0:0:
256,192,104659,1,0,0:0:0:0:
256,192,104734,1,0,0:0:0:0:
256,192,104809,1,8,0:0:0:0:
256,192,104959,1,0,0:0:0:0:
256,192,105109,1,8,0:0:0:0:
256,192,105259,1,0,0:0:0:0:
256,192,105334,1,0,0:0:0:0:
256,192,105409,1,0,0:0:0:0:
256,192,105559,1,8,0:0:0:0:
256,192,105709,1,0,0:0:0:0:
256,192,105859,1,0,0:0:0:0:
256,192,106009,1,8,0:0:0:0:
256,192,106159,1,8,0:0:0:0:
256,192,106309,1,0,0:0:0:0:
256,192,106609,1,8,0:0:0:0:
256,192,106759,1,0,0:0:0:0:
256,192,106909,1,8,0:0:0:0:
256,192,107059,1,0,0:0:0:0:
256,192,107134,1,0,0:0:0:0:
256,192,107209,1,8,0:0:0:0:
256,192,107359,1,8,0:0:0:0:
256,192,107434,1,8,0:0:0:0:
256,192,107509,1,0,0:0:0:0:
256,192,107659,1,0,0:0:0:0:
256,192,107809,1,8,0:0:0:0:
256,192,107959,1,0,0:0:0:0:
256,192,108109,1,8,0:0:0:0:
256,192,108259,1,0,0:0:0:0:
256,192,108334,1,0,0:0:0:0:
256,192,108409,1,8,0:0:0:0:
256,192,108559,1,8,0:0:0:0:
256,192,108709,1,0,0:0:0:0:
256,192,109009,1,8,0:0:0:0:
256,192,109159,1,0,0:0:0:0:
256,192,109309,1,8,0:0:0:0:
256,192,109459,1,0,0:0:0:0:
256,192,109534,1,0,0:0:0:0:
256,192,109609,1,0,0:0:0:0:
256,192,109759,1,0,0:0:0:0:
256,192,109909,1,8,0:0:0:0:
256,192,110059,1,8,0:0:0:0:
256,192,110134,1,8,0:0:0:0:
256,192,110209,1,8,0:0:0:0:
256,192,110359,1,8,0:0:0:0:
256,192,110509,1,8,0:0:0:0:
256,192,110584,1,8,0:0:0:0:
256,192,110659,1,0,0:0:0:0:
256,192,110734,1,0,0:0:0:0:
256,192,110809,1,8,0:0:0:0:
256,192,110959,1,8,0:0:0:0:
256,192,111109,1,0,0:0:0:0:
256,192,111409,1,8,0:0:0:0:
256,192,111559,1,0,0:0:0:0:
256,192,111634,1,0,0:0:0:0:
256,192,111709,1,8,0:0:0:0:
256,192,111859,1,0,0:0:0:0:
256,192,112009,1,8,0:0:0:0:
256,192,112159,1,8,0:0:0:0:
256,192,112234,1,8,0:0:0:0:
256,192,112309,1,0,0:0:0:0:
256,192,112459,1,8,0:0:0:0:
256,192,112609,1,8,0:0:0:0:
256,192,112759,1,0,0:0:0:0:
256,192,112909,1,0,0:0:0:0:
256,192,113059,1,0,0:0:0:0:
256,192,113134,1,0,0:0:0:0:
256,192,113209,1,8,0:0:0:0:
256,192,113359,1,8,0:0:0:0:
256,192,113509,1,0,0:0:0:0:
256,192,113809,1,8,0:0:0:0:
256,192,113959,1,0,0:0:0:0:
256,192,114109,1,8,0:0:0:0:
256,192,114259,1,0,0:0:0:0:
256,192,114334,1,0,0:0:0:0:
256,192,114409,1,8,0:0:0:0:
256,192,114559,1,0,0:0:0:0:
256,192,114709,1,8,0:0:0:0:
256,192,114859,1,8,0:0:0:0:
256,192,114934,1,8,0:0:0:0:
256,192,115009,1,0,0:0:0:0:
256,192,115159,1,8,0:0:0:0:
256,192,115309,1,8,0:0:0:0:
256,192,115459,1,0,0:0:0:0:
256,192,115609,1,8,0:0:0:0:
256,192,115684,1,8,0:0:0:0:
256,192,115759,1,8,0:0:0:0:
256,192,115834,1,8,0:0:0:0:
256,192,115909,1,0,0:0:0:0:
256,192,116209,1,8,0:0:0:0:
256,192,116359,1,8,0:0:0:0:
256,192,116434,1,8,0:0:0:0:
256,192,116509,1,0,0:0:0:0:
256,192,116659,1,0,0:0:0:0:
256,192,116809,1,8,0:0:0:0:
256,192,116959,1,0,0:0:0:0:
256,192,117034,1,0,0:0:0:0:
256,192,117109,1,0,0:0:0:0:
256,192,117259,1,0,0:0:0:0:
256,192,117409,1,8,0:0:0:0:
256,192,117559,1,0,0:0:0:0:
256,192,117709,1,8,0:0:0:0:
256,192,117859,1,0,0:0:0:0:
256,192,117934,1,0,0:0:0:0:
256,192,118009,1,8,0:0:0:0:
256,192,118159,1,8,0:0:0:0:
256,192,118234,1,8,0:0:0:0:
256,192,118309,1,0,0:0:0:0:
256,192,118459,1,0,0:0:0:0:
256,192,118609,1,8,0:0:0:0:
256,192,118759,1,8,0:0:0:0:
256,192,118834,1,8,0:0:0:0:
256,192,118909,1,0,0:0:0:0:
256,192,119059,1,0,0:0:0:0:
256,192,119209,1,8,0:0:0:0:
256,192,119359,1,8,0:0:0:0:
256,192,119509,1,0,0:0:0:0:
256,192,119584,1,0,0:0:0:0:
256,192,119659,1,0,0:0:0:0:
256,192,119734,1,0,0:0:0:0:
256,192,119809,1,8,0:0:0:0:
256,192,119959,1,0,0:0:0:0:
256,192,120109,1,8,0:0:0:0:
256,192,120409,1,8,0:0:0:0:
256,192,120709,1,0,0:0:0:0:
256,192,121009,1,8,0:0:0:0:
256,192,121159,1,0,0:0:0:0:
256,192,121234,1,0,0:0:0:0:
256,192,121309,1,8,0:0:0:0:
256,192,121459,1,0,0:0:0:0:
256,192,121609,1,8,0:0:0:0:
256,192,121759,1,8,0:0:0:0:
256,192,121834,1,8,0:0:0:0:
256,192,121909,1,0,0:0:0:0:
256,192,122059,1,8,0:0:0:0:
256,192,122134,1,8,0:0:0:0:
256,192,122209,1,8,0:0:0:0:
256,192,122359,1,0,0:0:0:0:
256,192,122509,1,8,0:0:0:0:
256,192,122659,1,0,0:0:0:0:
256,192,122809,1,8,0:0:0:0:
256,192,122959,1,8,0:0:0:0:
256,192,123109,1,0,0:0:0:0:
256,192,123409,1,8,0:0:0:0:
256,192,123559,1,0,0:0:0:0:
256,192,123709,1,8,0:0:0:0:
256,192,123859,1,0,0:0:0:0:
256,192,123934,1,0,0:0:0:0:
256,192,124009,1,8,0:0:0:0:
256,192,124159,1,8,0:0:0:0:
256,192,124309,1,0,0:0:0:0:
256,192,124459,1,8,0:0:0:0:
256,192,124534,1,8,0:0:0:0:
256,192,124609,1,8,0:0:0:0:
256,192,124759,1,0,0:0:0:0:
256,192,124909,1,8,0:0:0:0:
256,192,125059,1,0,0:0:0:0:
256,192,125134,1,0,0:0:0:0:
256,192,125209,1,8,0:0:0:0:
256,192,125359,1,8,0:0:0:0:
256,192,125509,1,0,0:0:0:0:
256,192,125809,1,8,0:0:0:0:
256,192,125959,1,0,0:0:0:0:
256,192,126109,1,8,0:0:0:0:
256,192,126259,1,0,0:0:0:0:
256,192,126334,1,0,0:0:0:0:
256,192,126409,1,8,0:0:0:0:
256,192,126559,1,8,0:0:0:0:
256,192,126709,1,0,0:0:0:0:
256,192,126859,1,8,0:0:0:0:
256,192,126934,1,8,0:0:0:0:
256,192,127009,1,8,0:0:0:0:
256,192,127159,1,0,0:0:0:0:
256,192,127309,1,8,0:0:0:0:
256,192,127459,1,0,0:0:0:0:
256,192,127534,1,0,0:0:0:0:
256,192,127609,1,8,0:0:0:0:
256,192,127759,1,8,0:0:0:0:
256,192,127909,1,0,0:0:0:0:
256,192,128209,1,8,0:0:0:0:
256,192,128359,1,0,0:0:0:0:
256,192,128509,1,8,0:0:0:0:
256,192,128659,1,8,0:0:0:0:
256,192,128734,1,8,0:0:0:0:
256,192,128809,1,0,0:0:0:0:
256,192,128959,1,0,0:0:0:0:
256,192,129109,1,8,0:0:0:0:
256,192,129259,1,8,0:0:0:0:
256,192,129334,1,8,0:0:0:0:
256,192,129409,1,8,0:0:0:0:
256,192,129559,1,8,0:0:0:0:
256,192,129709,1,8,0:0:0:0:
256,192,129784,1,8,0:0:0:0:
256,192,129859,1,0,0:0:0:0:
256,192,129934,1,0,0:0:0:0:
256,192,130009,1,8,0:0:0:0:
256,192,130159,1,8,0:0:0:0:
256,192,130309,1,0,0:0:0:0:
256,192,130609,1,8,0:0:0:0:
256,192,130759,1,0,0:0:0:0:
256,192,130834,1,0,0:0:0:0:
256,192,130909,1,8,0:0:0:0:
256,192,131059,1,0,0:0:0:0:
256,192,131209,1,0,0:0:0:0:
256,192,131359,1,8,0:0:0:0:
256,192,131434,1,8,0:0:0:0:
256,192,131509,1,0,0:0:0:0:
256,192,131659,1,8,0:0:0:0:
256,192,131734,1,8,0:0:0:0:
256,192,131809,1,8,0:0:0:0:
256,192,131959,1,0,0:0:0:0:
256,192,132109,1,8,0:0:0:0:
256,192,132259,1,0,0:0:0:0:
256,192,132409,1,8,0:0:0:0:
256,192,132559,1,8,0:0:0:0:
256,192,132709,1,0,0:0:0:0:
256,192,133009,1,8,0:0:0:0:
256,192,133159,1,0,0:0:0:0:
256,192,133309,1,8,0:0:0:0:
256,192,133459,1,0,0:0:0:0:
256,192,133534,1,0,0:0:0:0:
256,192,133609,1,8,0:0:0:0:
256,192,133759,1,8,0:0:0:0:
256,192,133834,1,8,0:0:0:0:
256,192,133909,1,0,0:0:0:0:
256,192,134059,1,8,0:0:0:0:
256,192,134209,1,8,0:0:0:0:
256,192,134359,1,0,0:0:0:0:
256,192,134509,1,8,0:0:0:0:
256,192,134659,1,0,0:0:0:0:
256,192,134809,1,8,0:0:0:0:
256,192,134884,1,8,0:0:0:0:
256,192,134959,1,8,0:0:0:0:
256,192,135034,1,8,0:0:0:0:
256,192,135109,1,0,0:0:0:0:
256,192,135409,1,8,0:0:0:0:
256,192,135559,1,8,0:0:0:0:
256,192,135634,1,8,0:0:0:0:
256,192,135709,1,0,0:0:0:0:
256,192,135859,1,0,0:0:0:0:
256,192,136009,1,8,0:0:0:0:
256,192,136159,1,0,0:0:0:0:
256,192,136234,1,0,0:0:0:0:
256,192,136309,1,0,0:0:0:0:
256,192,136459,1,8,0:0:0:0:
256,192,136609,1,8,0:0:0:0:
256,192,136759,1,0,0:0:0:0:
256,192,136909,1,8,0:0:0:0:
256,192,137059,1,0,0:0:0:0:
256,192,137134,1,0,0:0:0:0:
256,192,137209,1,8,0:0:0:0:
256,192,137359,1,8,0:0:0:0:
256,192,137434,1,8,0:0:0:0:
256,192,137509,1,0,0:0:0:0:
256,192,137659,1,0,0:0:0:0:
256,192,137809,1,8,0:0:0:0:
256,192,137959,1,8,0:0:0:0:
256,192,138034,1,8,0:0:0:0:
256,192,138109,1,0,0:0:0:0:
256,192,138259,1,0,0:0:0:0:
256,192,138409,1,8,0:0:0:0:
256,192,138559,1,8,0:0:0:0:
256,192,138709,1,0,0:0:0:0:
256,192,138784,1,0,0:0:0:0:
256,192,138859,1,0,0:0:0:0:
256,192,138934,1,0,0:0:0:0:
256,192,139009,1,8,0:0:0:0:
256,192,139159,1,0,0:0:0:0:
256,192,139309,1,8,0:0:0:0:
256,192,139459,1,0,0:0:0:0:
256,192,139609,1,8,0:0:0:0:
256,192,139684,1,8,0:0:0:0:
256,192,139759,1,8,0:0:0:0:
256,192,139909,1,0,0:0:0:0:
256,192,140209,1,0,0:0:0:0:
256,192,140509,1,0,0:0:0:0:
256,192,140809,1,0,0:0:0:0:
256,192,141109,1,0,0:0:0:0:
256,192,141409,1,0,0:0:0:0:
256,192,141709,1,0,0:0:0:0:
256,192,142009,1,0,0:0:0:0:
256,192,142309,1,0,0:0:0:0:
256,192,142609,1,0,0:0:0:0:
256,192,142909,1,0,0:0:0:0:
256,192,143209,1,0,0:0:0:0:
256,192,143509,1,0,0:0:0:0:
256,192,143809,1,0,0:0:0:0:
256,192,144109,1,0,0:0:0:0:
256,192,144409,1,0,0:0:0:0:
256,192,144559,1,0,0:0:0:0:
256,192,144709,1,0,0:0:0:0:
256,192,145009,1,0,0:0:0:0:
256,192,145309,1,0,0:0:0:0:
256,192,145609,1,0,0:0:0:0:
256,192,145909,1,0,0:0:0:0:
256,192,146209,1,0,0:0:0:0:
256,192,146509,1,0,0:0:0:0:
256,192,146809,1,0,0:0:0:0:
256,192,147109,1,0,0:0:0:0:
256,192,147409,1,0,0:0:0:0:
256,192,147709,1,0,0:0:0:0:
256,192,148009,1,0,0:0:0:0:
256,192,148309,1,0,0:0:0:0:
256,192,148459,1,0,0:0:0:0:
256,192,148534,1,0,0:0:0:0:
256,192,148609,1,0,0:0:0:0:
256,192,148759,1,0,0:0:0:0:
256,192,148909,1,0,0:0:0:0:
256,192,148984,1,0,0:0:0:0:
256,192,149059,1,0,0:0:0:0:
256,192,149134,1,0,0:0:0:0:
256,192,149209,1,0,0:0:0:0:
256,192,149359,1,0,0:0:0:0:
256,192,149509,1,0,0:0:0:0:
256,192,149734,1,8,0:0:0:0:
256,192,149809,1,0,0:0:0:0:
256,192,149959,1,8,0:0:0:0:
256,192,150109,1,0,0:0:0:0:
256,192,150259,1,8,0:0:0:0:
256,192,150409,1,0,0:0:0:0:
256,192,150709,1,0,0:0:0:0:
256,192,150934,1,8,0:0:0:0:
256,192,151009,1,0,0:0:0:0:
256,192,151159,1,8,0:0:0:0:
256,192,151309,1,0,0:0:0:0:
256,192,151459,1,8,0:0:0:0:
256,192,151609,1,0,0:0:0:0:
256,192,151909,1,0,0:0:0:0:
256,192,152134,1,8,0:0:0:0:
256,192,152209,1,0,0:0:0:0:
256,192,152359,1,8,0:0:0:0:
256,192,152509,1,0,0:0:0:0:
256,192,152659,1,8,0:0:0:0:
256,192,152809,1,0,0:0:0:0:
256,192,153109,1,0,0:0:0:0:
256,192,153334,1,8,0:0:0:0:
256,192,153409,1,0,0:0:0:0:
256,192,153559,1,8,0:0:0:0:
256,192,153709,1,0,0:0:0:0:
256,192,153859,1,8,0:0:0:0:
256,192,154009,1,0,0:0:0:0:
256,192,154159,1,8,0:0:0:0:
256,192,154234,1,8,0:0:0:0:
256,192,154309,1,0,0:0:0:0:
256,192,154609,1,8,0:0:0:0:
256,192,154759,1,8,0:0:0:0:
256,192,154909,1,0,0:0:0:0:
256,192,155059,1,0,0:0:0:0:
256,192,155209,1,8,0:0:0:0:
256,192,155359,1,8,0:0:0:0:
256,192,155434,1,8,0:0:0:0:
256,192,155509,1,0,0:0:0:0:
256,192,155809,1,8,0:0:0:0:
256,192,155959,1,8,0:0:0:0:
256,192,156109,1,0,0:0:0:0:
256,192,156259,1,8,0:0:0:0:
256,192,156409,1,8,0:0:0:0:
256,192,156559,1,8,0:0:0:0:
256,192,156634,1,8,0:0:0:0:
256,192,156709,1,0,0:0:0:0:
256,192,156859,1,0,0:0:0:0:
256,192,157009,1,8,0:0:0:0:
256,192,157159,1,8,0:0:0:0:
256,192,157234,1,8,0:0:0:0:
256,192,157309,1,0,0:0:0:0:
256,192,157459,1,0,0:0:0:0:
256,192,157609,1,8,0:0:0:0:
256,192,157759,1,8,0:0:0:0:
256,192,157909,1,0,0:0:0:0:
256,192,157984,1,0,0:0:0:0:
256,192,158059,1,0,0:0:0:0:
256,192,158134,1,0,0:0:0:0:
256,192,158209,1,8,0:0:0:0:
256,192,158359,1,0,0:0:0:0:
256,192,158509,1,8,0:0:0:0:
256,192,158659,1,0,0:0:0:0:
256,192,158809,1,8,0:0:0:0:
256,192,159109,1,0,0:0:0:0:
256,192,159259,1,0,0:0:0:0:
256,192,159409,1,8,0:0:0:0:
256,192,159559,1,0,0:0:0:0:
256,192,159709,1,8,0:0:0:0:
256,192,159859,1,0,0:0:0:0:
256,192,159934,1,0,0:0:0:0:
256,192,160009,1,8,0:0:0:0:
256,192,160159,1,0,0:0:0:0:
256,192,160309,1,8,0:0:0:0:
256,192,160459,1,8,0:0:0:0:
256,192,160534,1,8,0:0:0:0:
256,192,160609,1,0,0:0:0:0:
256,192,160759,1,8,0:0:0:0:
256,192,160909,1,0,0:0:0:0:
256,192,161059,1,0,0:0:0:0:
256,192,161209,1,8,0:0:0:0:
256,192,161509,1,0,0:0:0:0:
256,192,161659,1,0,0:0:0:0:
256,192,161809,1,8,0:0:0:0:
256,192,161959,1,0,0:0:0:0:
256,192,162109,1,8,0:0:0:0:
256,192,162259,1,0,0:0:0:0:
256,192,162334,1,0,0:0:0:0:
256,192,162409,1,8,0:0:0:0:
256,192,162559,1,0,0:0:0:0:
256,192,162709,1,8,0:0:0:0:
256,192,162859,1,8,0:0:0:0:
256,192,162934,1,8,0:0:0:0:
256,192,163009,1,0,0:0:0:0:
256,192,163159,1,8,0:0:0:0:
256,192,163309,1,0,0:0:0:0:
256,192,163384,1,0,0:0:0:0:
256,192,163459,1,0,0:0:0:0:
256,192,163534,1,0,0:0:0:0:
256,192,163609,1,8,0:0:0:0:
256,192,163759,1,8,0:0:0:0:
256,192,163909,1,0,0:0:0:0:
256,192,164209,1,0,0:0:0:0:
256,192,164359,1,8,0:0:0:0:
256,192,164509,1,0,0:0:0:0:
256,192,164659,1,0,0:0:0:0:
256,192,164734,1,0,0:0:0:0:
256,192,164809,1,8,0:0:0:0:
256,192,164959,1,0,0:0:0:0:
256,192,165109,1,8,0:0:0:0:
256,192,165259,1,0,0:0:0:0:
256,192,165334,1,0,0:0:0:0:
256,192,165409,1,0,0:0:0:0:
256,192,165559,1,8,0:0:0:0:
256,192,165709,1,8,0:0:0:0:
256,192,165859,1,0,0:0:0:0:
256,192,166009,1,8,0:0:0:0:
256,192,166309,1,0,0:0:0:0:
256,192,166459,1,0,0:0:0:0:
256,192,166609,1,0,0:0:0:0:
256,192,166759,1,8,0:0:0:0:
256,192,166909,1,0,0:0:0:0:
256,192,167059,1,0,0:0:0:0:
256,192,167134,1,0,0:0:0:0:
256,192,167209,1,8,0:0:0:0:
256,192,167359,1,0,0:0:0:0:
256,192,167509,1,8,0:0:0:0:
256,192,167659,1,8,0:0:0:0:
256,192,167734,1,8,0:0:0:0:
256,192,167809,1,8,0:0:0:0:
256,192,167959,1,8,0:0:0:0:
256,192,168109,1,8,0:0:0:0:
256,192,168184,1,8,0:0:0:0:
256,192,168259,1,0,0:0:0:0:
256,192,168334,1,0,0:0:0:0:
256,192,168409,1,8,0:0:0:0:
256,192,168709,1,0,0:0:0:0:
256,192,168859,1,0,0:0:0:0:
256,192,169009,1,8,0:0:0:0:
256,192,169159,1,0,0:0:0:0:
256,192,169309,1,8,0:0:0:0:
256,192,169459,1,0,0:0:0:0:
256,192,169534,1,0,0:0:0:0:
256,192,169609,1,8,0:0:0:0:
256,192,169759,1,0,0:0:0:0:
256,192,169909,1,8,0:0:0:0:
256,192,170059,1,8,0:0:0:0:
256,192,170134,1,8,0:0:0:0:
256,192,170209,1,0,0:0:0:0:
256,192,170359,1,8,0:0:0:0:
256,192,170509,1,8,0:0:0:0:
256,192,170659,1,0,0:0:0:0:
256,192,170809,1,8,0:0:0:0:
256,192,171109,1,0,0:0:0:0:
256,192,171259,1,0,0:0:0:0:
256,192,171409,1,0,0:0:0:0:
256,192,171559,1,8,0:0:0:0:
256,192,171709,1,0,0:0:0:0:
256,192,171859,1,0,0:0:0:0:
256,192,171934,1,0,0:0:0:0:
256,192,172009,1,8,0:0:0:0:
256,192,172159,1,0,0:0:0:0:
256,192,172309,1,8,0:0:0:0:
256,192,172459,1,0,0:0:0:0:
256,192,172534,1,0,0:0:0:0:
256,192,172609,1,0,0:0:0:0:
256,192,172759,1,0,0:0:0:0:
256,192,172909,1,8,0:0:0:0:
256,192,173059,1,8,0:0:0:0:
256,192,173209,1,0,0:0:0:0:
256,192,173284,1,0,0:0:0:0:
256,192,173359,1,8,0:0:0:0:
256,192,173434,1,8,0:0:0:0:
256,192,173509,1,0,0:0:0:0:
256,192,173809,1,8,0:0:0:0:
256,192,173959,1,8,0:0:0:0:
256,192,174109,1,0,0:0:0:0:
256,192,174259,1,0,0:0:0:0:
256,192,174334,1,0,0:0:0:0:
256,192,174409,1,8,0:0:0:0:
256,192,174559,1,8,0:0:0:0:
256,192,174709,1,0,0:0:0:0:
256,192,174859,1,0,0:0:0:0:
256,192,174934,1,0,0:0:0:0:
256,192,175009,1,0,0:0:0:0:
256,192,175159,1,8,0:0:0:0:
256,192,175309,1,8,0:0:0:0:
256,192,175459,1,0,0:0:0:0:
256,192,175609,1,8,0:0:0:0:
256,192,175759,1,8,0:0:0:0:
256,192,175834,1,8,0:0:0:0:
256,192,175909,1,0,0:0:0:0:
256,192,176059,1,0,0:0:0:0:
256,192,176209,1,8,0:0:0:0:
256,192,176359,1,8,0:0:0:0:
256,192,176434,1,8,0:0:0:0:
256,192,176509,1,0,0:0:0:0:
256,192,176659,1,0,0:0:0:0:
256,192,176809,1,8,0:0:0:0:
256,192,176959,1,8,0:0:0:0:
256,192,177109,1,0,0:0:0:0:
256,192,177184,1,0,0:0:0:0:
256,192,177259,1,0,0:0:0:0:
256,192,177334,1,0,0:0:0:0:
256,192,177409,1,8,0:0:0:0:
256,192,177559,1,0,0:0:0:0:
256,192,177709,1,8,0:0:0:0:
256,192,177859,1,0,0:0:0:0:
256,192,178009,1,8,0:0:0:0:
256,192,178084,1,8,0:0:0:0:
256,192,178159,1,8,0:0:0:0:
256,192,178309,1,0,0:0:0:0:
256,192,187909,5,8,0:0:0:0:
256,192,188209,1,8,0:0:0:0:
256,192,188509,1,8,0:0:0:0:
256,192,188809,1,8,0:0:0:0:
256,192,189109,1,8,0:0:0:0:
256,192,189409,1,8,0:0:0:0:
256,192,189709,1,8,0:0:0:0:
256,192,190009,1,8,0:0:0:0:
256,192,190159,1,8,0:0:0:0:
256,192,190309,1,8,0:0:0:0:
256,192,190609,1,8,0:0:0:0:
256,192,190909,1,8,0:0:0:0:
256,192,191209,1,8,0:0:0:0:
256,192,191509,1,8,0:0:0:0:
256,192,191809,1,8,0:0:0:0:
256,192,192109,1,8,0:0:0:0:
256,192,192259,1,8,0:0:0:0:
256,192,192409,1,8,0:0:0:0:
256,192,192559,1,8,0:0:0:0:
256,192,192709,1,8,0:0:0:0:
256,192,193009,1,8,0:0:0:0:
256,192,193309,1,8,0:0:0:0:
256,192,193609,1,8,0:0:0:0:
256,192,193909,1,8,0:0:0:0:
256,192,194209,1,8,0:0:0:0:
256,192,194509,1,8,0:0:0:0:
256,192,194809,1,8,0:0:0:0:
256,192,194959,1,8,0:0:0:0:
256,192,195109,1,8,0:0:0:0:
256,192,195409,1,8,0:0:0:0:
256,192,195709,1,8,0:0:0:0:
256,192,196009,1,8,0:0:0:0:
256,192,196309,1,0,0:0:0:0:
256,192,196609,1,8,0:0:0:0:
256,192,196909,1,8,0:0:0:0:
256,192,197059,1,8,0:0:0:0:
256,192,197209,1,8,0:0:0:0:
256,192,197359,1,8,0:0:0:0:
256,192,197509,1,8,0:0:0:0:
256,192,197809,1,8,0:0:0:0:
256,192,198109,1,8,0:0:0:0:
256,192,198409,1,8,0:0:0:0:
256,192,198559,1,0,0:0:0:0:
256,192,198709,1,8,0:0:0:0:
256,192,199009,1,8,0:0:0:0:
256,192,199309,1,8,0:0:0:0:
256,192,199609,1,8,0:0:0:0:
256,192,199759,1,8,0:0:0:0:
256,192,199909,1,8,0:0:0:0:
256,192,200209,1,8,0:0:0:0:
256,192,200509,1,8,0:0:0:0:
256,192,200659,1,0,0:0:0:0:
256,192,200809,1,8,0:0:0:0:
256,192,200959,1,0,0:0:0:0:
256,192,201109,1,8,0:0:0:0:
256,192,201409,1,8,0:0:0:0:
256,192,201709,1,8,0:0:0:0:
256,192,201859,1,8,0:0:0:0:
256,192,202009,1,8,0:0:0:0:
256,192,202159,1,8,0:0:0:0:
256,192,202309,1,8,0:0:0:0:
256,192,202609,1,8,0:0:0:0:
256,192,202909,1,8,0:0:0:0:
256,192,203209,1,8,0:0:0:0:
256,192,203359,1,0,0:0:0:0:
256,192,203509,1,8,0:0:0:0:
256,192,203809,1,8,0:0:0:0:
256,192,204109,1,8,0:0:0:0:
256,192,204259,1,0,0:0:0:0:
256,192,204409,1,8,0:0:0:0:
256,192,204559,1,8,0:0:0:0:
256,192,204709,1,8,0:0:0:0:
256,192,205009,1,8,0:0:0:0:
256,192,205159,1,0,0:0:0:0:
256,192,205309,1,8,0:0:0:0:
256,192,205609,1,8,0:0:0:0:
256,192,205759,1,0,0:0:0:0:
256,192,205909,1,8,0:0:0:0:
256,192,206209,1,8,0:0:0:0:
256,192,206509,1,8,0:0:0:0:
256,192,206659,1,8,0:0:0:0:
256,192,206809,1,8,0:0:0:0:
256,192,206959,1,8,0:0:0:0:
256,192,207109,1,0,0:0:0:0:
256,192,207259,1,0,0:0:0:0:
256,192,207334,1,0,0:0:0:0:
256,192,207409,1,8,0:0:0:0:
256,192,207559,1,0,0:0:0:0:
256,192,207709,1,8,0:0:0:0:
256,192,207859,1,0,0:0:0:0:
256,192,207934,1,0,0:0:0:0:
256,192,208009,1,8,0:0:0:0:
256,192,208159,1,8,0:0:0:0:
256,192,208309,1,0,0:0:0:0:
256,192,208459,1,8,0:0:0:0:
256,192,208534,1,8,0:0:0:0:
256,192,208609,1,8,0:0:0:0:
256,192,208759,1,0,0:0:0:0:
256,192,208909,1,8,0:0:0:0:
256,192,209059,1,0,0:0:0:0:
256,192,209134,1,0,0:0:0:0:
256,192,209209,1,8,0:0:0:0:
256,192,209509,1,0,0:0:0:0:
256,192,209659,1,0,0:0:0:0:
256,192,209734,1,0,0:0:0:0:
256,192,209809,1,8,0:0:0:0:
256,192,209959,1,0,0:0:0:0:
256,192,210109,1,8,0:0:0:0:
256,192,210259,1,0,0:0:0:0:
256,192,210334,1,0,0:0:0:0:
256,192,210409,1,8,0:0:0:0:
256,192,210559,1,8,0:0:0:0:
256,192,210709,1,0,0:0:0:0:
256,192,210859,1,8,0:0:0:0:
256,192,210934,1,8,0:0:0:0:
256,192,211009,1,8,0:0:0:0:
256,192,211159,1,0,0:0:0:0:
256,192,211309,1,8,0:0:0:0:
256,192,211384,1,8,0:0:0:0:
256,192,211459,1,0,0:0:0:0:
256,192,211534,1,0,0:0:0:0:
256,192,211609,1,8,0:0:0:0:
256,192,211909,1,0,0:0:0:0:
256,192,212059,1,8,0:0:0:0:
256,192,212134,1,8,0:0:0:0:
256,192,212209,1,8,0:0:0:0:
256,192,212359,1,0,0:0:0:0:
256,192,212509,1,0,0:0:0:0:
256,192,212659,1,0,0:0:0:0:
256,192,212734,1,0,0:0:0:0:
256,192,212809,1,8,0:0:0:0:
256,192,212959,1,8,0:0:0:0:
256,192,213109,1,0,0:0:0:0:
256,192,213259,1,8,0:0:0:0:
256,192,213334,1,8,0:0:0:0:
256,192,213409,1,8,0:0:0:0:
256,192,213559,1,0,0:0:0:0:
256,192,213709,1,8,0:0:0:0:
256,192,213859,1,0,0:0:0:0:
256,192,214009,1,8,0:0:0:0:
256,192,214084,1,8,0:0:0:0:
256,192,214159,1,8,0:0:0:0:
256,192,214234,1,8,0:0:0:0:
256,192,214309,1,0,0:0:0:0:
256,192,214459,1,0,0:0:0:0:
256,192,214609,1,8,0:0:0:0:
256,192,214759,1,8,0:0:0:0:
256,192,214834,1,8,0:0:0:0:
256,192,214909,1,0,0:0:0:0:
256,192,215059,1,8,0:0:0:0:
256,192,215209,1,0,0:0:0:0:
256,192,215284,1,0,0:0:0:0:
256,192,215359,1,0,0:0:0:0:
256,192,215434,1,0,0:0:0:0:
256,192,215509,1,8,0:0:0:0:
256,192,215809,1,8,0:0:0:0:
256,192,215959,1,8,0:0:0:0:
256,192,216034,1,8,0:0:0:0:
256,192,216109,1,8,0:0:0:0:
256,192,216259,1,8,0:0:0:0:
256,192,216409,1,8,0:0:0:0:
256,192,216709,1,0,0:0:0:0:
256,192,217009,1,8,0:0:0:0:
256,192,217159,1,0,0:0:0:0:
256,192,217234,1,0,0:0:0:0:
256,192,217309,1,8,0:0:0:0:
256,192,217459,1,0,0:0:0:0:
256,192,217609,1,8,0:0:0:0:
256,192,217759,1,8,0:0:0:0:
256,192,217834,1,8,0:0:0:0:
256,192,217909,1,0,0:0:0:0:
256,192,218059,1,8,0:0:0:0:
256,192,218134,1,8,0:0:0:0:
256,192,218209,1,8,0:0:0:0:
256,192,218359,1,0,0:0:0:0:
256,192,218509,1,8,0:0:0:0:
256,192,218659,1,0,0:0:0:0:
256,192,218809,1,8,0:0:0:0:
256,192,218959,1,8,0:0:0:0:
256,192,219109,1,0,0:0:0:0:
256,192,219409,1,8,0:0:0:0:
256,192,219559,1,0,0:0:0:0:
256,192,219709,1,8,0:0:0:0:
256,192,219859,1,0,0:0:0:0:
256,192,219934,1,0,0:0:0:0:
256,192,220009,1,8,0:0:0:0:
256,192,220159,1,8,0:0:0:0:
256,192,220309,1,0,0:0:0:0:
256,192,220459,1,8,0:0:0:0:
256,192,220534,1,8,0:0:0:0:
256,192,220609,1,8,0:0:0:0:
256,192,220759,1,8,0:0:0:0:
256,192,220909,1,0,0:0:0:0:
256,192,220984,1,0,0:0:0:0:
256,192,221059,1,0,0:0:0:0:
256,192,221134,1,0,0:0:0:0:
256,192,221209,1,8,0:0:0:0:
256,192,221359,1,8,0:0:0:0:
256,192,221509,1,0,0:0:0:0:
256,192,221809,1,8,0:0:0:0:
256,192,221959,1,0,0:0:0:0:
256,192,222109,1,8,0:0:0:0:
256,192,222259,1,0,0:0:0:0:
256,192,222334,1,0,0:0:0:0:
256,192,222409,1,8,0:0:0:0:
256,192,222559,1,8,0:0:0:0:
256,192,222709,1,0,0:0:0:0:
256,192,222859,1,8,0:0:0:0:
256,192,222934,1,8,0:0:0:0:
256,192,223009,1,8,0:0:0:0:
256,192,223159,1,0,0:0:0:0:
256,192,223309,1,8,0:0:0:0:
256,192,223459,1,0,0:0:0:0:
256,192,223534,1,0,0:0:0:0:
256,192,223609,1,8,0:0:0:0:
256,192,223759,1,8,0:0:0:0:
256,192,223909,1,0,0:0:0:0:
256,192,224209,1,8,0:0:0:0:
256,192,224359,1,0,0:0:0:0:
256,192,224509,1,8,0:0:0:0:
256,192,224659,1,8,0:0:0:0:
256,192,224734,1,8,0:0:0:0:
256,192,224809,1,0,0:0:0:0:
256,192,224959,1,0,0:0:0:0:
256,192,225109,1,8,0:0:0:0:
256,192,225259,1,8,0:0:0:0:
256,192,225334,1,8,0:0:0:0:
256,192,225409,1,8,0:0:0:0:
256,192,225559,1,8,0:0:0:0:
256,192,225709,1,8,0:0:0:0:
256,192,225784,1,8,0:0:0:0:
256,192,225859,1,0,0:0:0:0:
256,192,225934,1,0,0:0:0:0:
256,192,226009,1,8,0:0:0:0:
256,192,226159,1,8,0:0:0:0:
256,192,226309,1,0,0:0:0:0:
256,192,226609,1,8,0:0:0:0:
256,192,226759,1,0,0:0:0:0:
256,192,226834,1,0,0:0:0:0:
256,192,226909,1,8,0:0:0:0:
256,192,227059,1,8,0:0:0:0:
256,192,227209,1,0,0:0:0:0:
256,192,227359,1,8,0:0:0:0:
256,192,227434,1,8,0:0:0:0:
256,192,227509,1,0,0:0:0:0:
256,192,227659,1,8,0:0:0:0:
256,192,227734,1,8,0:0:0:0:
256,192,227809,1,8,0:0:0:0:
256,192,227959,1,0,0:0:0:0:
256,192,228109,1,8,0:0:0:0:
256,192,228259,1,0,0:0:0:0:
256,192,228409,1,8,0:0:0:0:
256,192,228559,1,8,0:0:0:0:
256,192,228709,1,0,0:0:0:0:
256,192,229009,1,8,0:0:0:0:
256,192,229159,1,0,0:0:0:0:
256,192,229309,1,8,0:0:0:0:
256,192,229459,1,0,0:0:0:0:
256,192,229534,1,0,0:0:0:0:
256,192,229609,1,8,0:0:0:0:
256,192,229759,1,8,0:0:0:0:
256,192,229909,1,0,0:0:0:0:
256,192,230059,1,8,0:0:0:0:
256,192,230134,1,8,0:0:0:0:
256,192,230209,1,8,0:0:0:0:
256,192,230359,1,0,0:0:0:0:
256,192,230509,1,8,0:0:0:0:
256,192,230659,1,0,0:0:0:0:
256,192,230809,1,8,0:0:0:0:
256,192,230884,1,8,0:0:0:0:
256,192,230959,1,8,0:0:0:0:
256,192,231034,1,8,0:0:0:0:
256,192,231109,1,0,0:0:0:0:
256,192,231409,1,8,0:0:0:0:
256,192,231559,1,0,0:0:0:0:
256,192,231634,1,0,0:0:0:0:
256,192,231709,1,0,0:0:0:0:
256,192,231859,1,0,0:0:0:0:
256,192,232009,1,8,0:0:0:0:
256,192,232159,1,8,0:0:0:0:
256,192,232234,1,8,0:0:0:0:
256,192,232309,1,0,0:0:0:0:
256,192,232459,1,8,0:0:0:0:
256,192,232609,1,8,0:0:0:0:
256,192,232759,1,0,0:0:0:0:
256,192,232909,1,8,0:0:0:0:
256,192,233059,1,0,0:0:0:0:
256,192,233134,1,0,0:0:0:0:
256,192,233209,1,8,0:0:0:0:
256,192,233359,1,8,0:0:0:0:
256,192,233434,1,8,0:0:0:0:
256,192,233509,1,0,0:0:0:0:
256,192,233659,1,0,0:0:0:0:
256,192,233809,1,8,0:0:0:0:
256,192,233959,1,8,0:0:0:0:
256,192,234034,1,8,0:0:0:0:
256,192,234109,1,0,0:0:0:0:
256,192,234259,1,0,0:0:0:0:
256,192,234409,1,8,0:0:0:0:
256,192,234559,1,8,0:0:0:0:
256,192,234709,1,0,0:0:0:0:
256,192,234784,1,0,0:0:0:0:
256,192,234859,1,0,0:0:0:0:
256,192,234934,1,0,0:0:0:0:
256,192,235009,1,8,0:0:0:0:
256,192,235159,1,0,0:0:0:0:
256,192,235309,1,8,0:0:0:0:
256,192,235459,1,0,0:0:0:0:
256,192,235609,1,8,0:0:0:0:
256,192,235684,1,8,0:0:0:0:
256,192,235759,1,8,0:0:0:0:
256,192,235909,1,0,0:0:0:0:
256,192,236209,1,8,0:0:0:0:
256,192,236359,1,0,0:0:0:0:
256,192,236509,1,8,0:0:0:0:
256,192,236659,1,0,0:0:0:0:
256,192,236734,1,0,0:0:0:0:
256,192,236809,1,8,0:0:0:0:
256,192,236959,1,8,0:0:0:0:
256,192,237034,1,8,0:0:0:0:
256,192,237109,1,0,0:0:0:0:
256,192,237259,1,0,0:0:0:0:
256,192,237409,1,8,0:0:0:0:
256,192,237559,1,0,0:0:0:0:
256,192,237709,1,8,0:0:0:0:
256,192,237859,1,0,0:0:0:0:
256,192,237934,1,0,0:0:0:0:
256,192,238009,1,8,0:0:0:0:
256,192,238159,1,8,0:0:0:0:
256,192,238309,1,0,0:0:0:0:
256,192,238609,1,0,0:0:0:0:
256,192,238759,1,8,0:0:0:0:
256,192,238909,1,0,0:0:0:0:
256,192,239059,1,8,0:0:0:0:
256,192,239134,1,8,0:0:0:0:
256,192,239209,1,8,0:0:0:0:
256,192,239359,1,8,0:0:0:0:
256,192,239434,1,8,0:0:0:0:
256,192,239509,1,0,0:0:0:0:
256,192,239659,1,0,0:0:0:0:
256,192,239809,1,8,0:0:0:0:
256,192,239959,1,8,0:0:0:0:
256,192,240109,1,0,0:0:0:0:
256,192,240184,1,0,0:0:0:0:
256,192,240259,1,0,0:0:0:0:
256,192,240334,1,0,0:0:0:0:
256,192,240409,1,8,0:0:0:0:
256,192,240559,1,8,0:0:0:0:
256,192,240709,1,0,0:0:0:0:
256,192,241009,1,8,0:0:0:0:
256,192,241159,1,0,0:0:0:0:
256,192,241309,1,8,0:0:0:0:
256,192,241459,1,0,0:0:0:0:
256,192,241534,1,0,0:0:0:0:
256,192,241609,1,8,0:0:0:0:
256,192,241759,1,8,0:0:0:0:
256,192,241834,1,8,0:0:0:0:
256,192,241909,1,0,0:0:0:0:
256,192,242059,1,0,0:0:0:0:
256,192,242209,1,8,0:0:0:0:
256,192,242359,1,0,0:0:0:0:
256,192,242509,1,8,0:0:0:0:
256,192,242659,1,0,0:0:0:0:
256,192,242734,1,0,0:0:0:0:
256,192,242809,1,8,0:0:0:0:
256,192,242959,1,8,0:0:0:0:
256,192,243109,1,0,0:0:0:0:
256,192,243409,1,0,0:0:0:0:
256,192,243559,1,0,0:0:0:0:
256,192,243634,1,0,0:0:0:0:
256,192,243709,1,8,0:0:0:0:
256,192,243859,1,0,0:0:0:0:
256,192,244009,1,8,0:0:0:0:
256,192,244159,1,0,0:0:0:0:
256,192,244234,1,0,0:0:0:0:
256,192,244309,1,8,0:0:0:0:
256,192,244459,1,8,0:0:0:0:
256,192,244534,1,8,0:0:0:0:
256,192,244609,1,8,0:0:0:0:
256,192,244759,1,8,0:0:0:0:
256,192,244909,1,8,0:0:0:0:
256,192,244984,1,8,0:0:0:0:
256,192,245059,1,0,0:0:0:0:
256,192,245134,1,0,0:0:0:0:
256,192,245209,1,8,0:0:0:0:
256,192,245359,1,8,0:0:0:0:
256,192,245509,1,0,0:0:0:0:
256,192,245809,1,8,0:0:0:0:
256,192,245959,1,0,0:0:0:0:
256,192,246109,1,8,0:0:0:0:
256,192,246259,1,0,0:0:0:0:
256,192,246334,1,0,0:0:0:0:
256,192,246409,1,8,0:0:0:0:
256,192,246559,1,8,0:0:0:0:
256,192,246634,1,8,0:0:0:0:
256,192,246709,1,0,0:0:0:0:
256,192,246859,1,0,0:0:0:0:
256,192,247009,1,8,0:0:0:0:
256,192,247159,1,0,0:0:0:0:
256,192,247309,1,8,0:0:0:0:
256,192,247459,1,0,0:0:0:0:
256,192,247534,1,0,0:0:0:0:
256,192,247609,1,8,0:0:0:0:
256,192,247759,1,8,0:0:0:0:
256,192,247909,1,0,0:0:0:0:
256,192,248209,1,0,0:0:0:0:
256,192,248359,1,8,0:0:0:0:
256,192,248509,1,0,0:0:0:0:
256,192,248659,1,8,0:0:0:0:
256,192,248734,1,8,0:0:0:0:
256,192,248809,1,8,0:0:0:0:
256,192,248959,1,8,0:0:0:0:
256,192,249034,1,8,0:0:0:0:
256,192,249109,1,0,0:0:0:0:
256,192,249259,1,0,0:0:0:0:
256,192,249409,1,8,0:0:0:0:
256,192,249559,1,0,0:0:0:0:
256,192,249709,1,8,0:0:0:0:
256,192,249859,1,0,0:0:0:0:
256,192,250009,1,8,0:0:0:0:
256,192,250084,1,8,0:0:0:0:
256,192,250159,1,8,0:0:0:0:
256,192,250234,1,8,0:0:0:0:
256,192,250309,1,0,0:0:0:0:
256,192,250609,1,8,0:0:0:0:
256,192,250759,1,0,0:0:0:0:
256,192,250834,1,0,0:0:0:0:
256,192,250909,1,0,0:0:0:0:
256,192,251059,1,0,0:0:0:0:
256,192,251209,1,8,0:0:0:0:
256,192,251359,1,8,0:0:0:0:
256,192,251509,1,0,0:0:0:0:
256,192,251659,1,8,0:0:0:0:
256,192,251734,1,8,0:0:0:0:
256,192,251809,1,0,0:0:0:0:
256,192,251959,1,8,0:0:0:0:
256,192,252109,1,0,0:0:0:0:
256,192,252259,1,0,0:0:0:0:
256,192,252409,1,8,0:0:0:0:
256,192,252484,1,8,0:0:0:0:
256,192,252559,1,8,0:0:0:0:
256,192,252634,1,8,0:0:0:0:
256,192,252709,1,0,0:0:0:0:
256,192,252859,1,0,0:0:0:0:
256,192,253009,1,8,0:0:0:0:
256,192,253159,1,8,0:0:0:0:
256,192,253234,1,8,0:0:0:0:
256,192,253309,1,0,0:0:0:0:
256,192,253459,1,0,0:0:0:0:
256,192,253609,1,8,0:0:0:0:
256,192,253759,1,8,0:0:0:0:
256,192,253909,1,0,0:0:0:0:
256,192,253984,1,0,0:0:0:0:
256,192,254059,1,0,0:0:0:0:
256,192,254134,1,0,0:0:0:0:
256,192,254209,1,8,0:0:0:0:
256,192,254359,1,0,0:0:0:0:
256,192,254509,1,8,0:0:0:0:
256,192,254659,1,8,0:0:0:0:
256,192,254809,1,8,0:0:0:0:
256,192,254884,1,8,0:0:0:0:
256,192,254959,1,8,0:0:0:0:
256,192,255109,1,4,0:0:0:0:
256,192,255334,1,8,0:0:0:0:
256,192,255409,1,0,0:0:0:0:
256,192,255559,1,8,0:0:0:0:
256,192,255709,1,0,0:0:0:0:
256,192,255784,1,0,0:0:0:0:
256,192,255859,1,8,0:0:0:0:
256,192,256009,1,8,0:0:0:0:
256,192,256309,1,0,0:0:0:0:
256,192,256534,1,8,0:0:0:0:
256,192,256609,1,0,0:0:0:0:
256,192,256759,1,8,0:0:0:0:
256,192,256834,1,8,0:0:0:0:
256,192,256909,1,0,0:0:0:0:
256,192,257059,1,8,0:0:0:0:
256,192,257209,1,8,0:0:0:0:
256,192,257509,1,0,0:0:0:0:
256,192,257734,1,8,0:0:0:0:
256,192,257809,1,0,0:0:0:0:
256,192,257959,1,8,0:0:0:0:
256,192,258109,1,0,0:0:0:0:
256,192,258184,1,0,0:0:0:0:
256,192,258259,1,8,0:0:0:0:
256,192,258409,1,8,0:0:0:0:
256,192,258709,1,0,0:0:0:0:
256,192,258859,1,8,0:0:0:0:
256,192,258934,1,8,0:0:0:0:
256,192,259009,1,0,0:0:0:0:
256,192,259159,1,0,0:0:0:0:
256,192,259309,1,8,0:0:0:0:
256,192,259459,1,0,0:0:0:0:
256,192,259534,1,0,0:0:0:0:
256,192,259609,1,8,0:0:0:0:
256,192,259759,1,8,0:0:0:0:
256,192,259909,1,4,0:0:0:0:
256,192,260134,1,8,0:0:0:0:
256,192,260209,1,0,0:0:0:0:
256,192,260359,1,8,0:0:0:0:
256,192,260509,1,0,0:0:0:0:
256,192,260584,1,0,0:0:0:0:
256,192,260659,1,8,0:0:0:0:
256,192,260809,1,8,0:0:0:0:
256,192,261109,1,0,0:0:0:0:
256,192,261334,1,8,0:0:0:0:
256,192,261409,1,0,0:0:0:0:
256,192,261559,1,8,0:0:0:0:
256,192,261634,1,8,0:0:0:0:
256,192,261709,1,0,0:0:0:0:
256,192,261859,1,8,0:0:0:0:
256,192,262009,1,8,0:0:0:0:
256,192,262309,1,0,0:0:0:0:
256,192,262534,1,8,0:0:0:0:
256,192,262609,1,0,0:0:0:0:
256,192,262759,1,8,0:0:0:0:
256,192,262909,1,0,0:0:0:0:
256,192,262984,1,0,0:0:0:0:
256,192,263059,1,8,0:0:0:0:
256,192,263209,1,8,0:0:0:0:
256,192,263359,1,0,0:0:0:0:
256,192,263509,1,8,0:0:0:0:
256,192,263659,1,8,0:0:0:0:
256,192,263734,1,8,0:0:0:0:
256,192,263809,1,8,0:0:0:0:
256,192,263959,1,8,0:0:0:0:
256,192,264109,1,8,0:0:0:0:
256,192,264184,1,8,0:0:0:0:
256,192,264259,1,0,0:0:0:0:
256,192,264334,1,0,0:0:0:0:
256,192,264409,1,8,0:0:0:0:
256,192,264559,1,8,0:0:0:0:
256,192,264709,1,4,0:0:0:0:
256,192,264934,1,0,0:0:0:0:
256,192,265009,1,8,0:0:0:0:
256,192,265159,1,8,0:0:0:0:
256,192,265234,1,8,0:0:0:0:
256,192,265309,1,0,0:0:0:0:
256,192,265459,1,8,0:0:0:0:
256,192,265609,1,8,0:0:0:0:
256,192,265909,1,0,0:0:0:0:
256,192,266134,1,0,0:0:0:0:
256,192,266209,1,8,0:0:0:0:
256,192,266359,1,0,0:0:0:0:
256,192,266434,1,8,0:0:0:0:
256,192,266509,1,0,0:0:0:0:
256,192,266659,1,8,0:0:0:0:
256,192,266809,1,8,0:0:0:0:
256,192,267109,1,0,0:0:0:0:
256,192,267334,1,0,0:0:0:0:
256,192,267409,1,8,0:0:0:0:
256,192,267559,1,8,0:0:0:0:
256,192,267634,1,8,0:0:0:0:
256,192,267709,1,0,0:0:0:0:
256,192,267859,1,8,0:0:0:0:
256,192,268009,1,8,0:0:0:0:
256,192,268309,1,0,0:0:0:0:
256,192,268459,1,0,0:0:0:0:
256,192,268534,1,0,0:0:0:0:
256,192,268609,1,8,0:0:0:0:
256,192,268759,1,0,0:0:0:0:
256,192,268909,1,8,0:0:0:0:
256,192,269059,1,0,0:0:0:0:
256,192,269209,1,8,0:0:0:0:
256,192,269284,1,8,0:0:0:0:
256,192,269359,1,8,0:0:0:0:
256,192,269434,1,8,0:0:0:0:
256,192,269509,1,0,0:0:0:0:
256,192,269659,1,0,0:0:0:0:
256,192,269809,1,8,0:0:0:0:
256,192,269959,1,8,0:0:0:0:
256,192,270034,1,8,0:0:0:0:
256,192,270109,1,0,0:0:0:0:
256,192,270259,1,8,0:0:0:0:
256,192,270409,1,8,0:0:0:0:
256,192,270709,1,0,0:0:0:0:
256,192,270859,1,0,0:0:0:0:
256,192,271009,1,8,0:0:0:0:
256,192,271159,1,0,0:0:0:0:
256,192,271234,1,8,0:0:0:0:
256,192,271309,1,0,0:0:0:0:
256,192,271459,1,8,0:0:0:0:
256,192,271609,1,8,0:0:0:0:
256,192,271759,1,8,0:0:0:0:
256,192,271834,1,8,0:0:0:0:
256,192,271909,1,0,0:0:0:0:
256,192,272059,1,0,0:0:0:0:
256,192,272209,1,8,0:0:0:0:
256,192,272359,1,8,0:0:0:0:
256,192,272434,1,8,0:0:0:0:
256,192,272509,1,0,0:0:0:0:
256,192,272659,1,0,0:0:0:0:
256,192,272809,1,8,0:0:0:0:
256,192,272959,1,8,0:0:0:0:
256,192,273109,1,0,0:0:0:0:
256,192,273184,1,0,0:0:0:0:
256,192,273259,1,0,0:0:0:0:
256,192,273334,1,0,0:0:0:0:
256,192,273409,1,8,0:0:0:0:
256,192,273559,1,0,0:0:0:0:
256,192,273709,1,8,0:0:0:0:
256,192,273859,1,0,0:0:0:0:
256,192,274009,1,8,0:0:0:0:
256,192,274084,1,8,0:0:0:0:
256,192,274159,1,8,0:0:0:0:
256,192,274234,1,8,0:0:0:0:
256,192,274309,1,0,0:0:0:0:
