osu file format v14

[General]
AudioFilename: audio.mp3
AudioLeadIn: 0
PreviewTime: 100229
Countdown: 0
SampleSet: Normal
StackLeniency: 0.7
Mode: 1
LetterboxInBreaks: 0
WidescreenStoryboard: 1

[Editor]
DistanceSpacing: 1.9
BeatDivisor: 12
GridSize: 32
TimelineZoom: 1.800001

[Metadata]
Title:Vortex of Sorrow
TitleUnicode:Vortex of Sorrow
Artist:LV.4 feat. Mawata Spica
ArtistUnicode:LV.4 feat. 真綿スピカ
Creator:uone
Version:Hell Oni
Source:osu!taiko World Cup 2023
Tags:osu! osu!original custom song map featured artist fa electronic japanese twc 2023 grand finals gf fm3
BeatmapID:4173387
BeatmapSetID:1980701

[Difficulty]
HPDrainRate:8
CircleSize:3
OverallDifficulty:7
ApproachRate:9
SliderMultiplier:1.4
SliderTickRate:1

[Events]
//Background and Video events
0,0,"bg.jpg",0,-135
//Break Periods
2,63309,72109
2,178509,187309
//Storyboard Layer 0 (Background)
//Storyboard Layer 1 (Fail)
//Storyboard Layer 2 (Pass)
//Storyboard Layer 3 (Foreground)
//Storyboard Layer 4 (Overlay)
//Storyboard Sound Samples

[TimingPoints]
709,300,4,1,0,90,1,0
709,-125,4,1,0,90,0,0
10440,-124.513618677043,4,1,0,90,0,0
10515,-124.271844660194,4,1,0,90,0,0
10590,-124.031007751938,4,1,0,90,0,0
10740,-123.552123552124,4,1,0,90,0,0
10890,-123.076923076923,4,1,0,90,0,0
11040,-122.605363984674,4,1,0,90,0,0
11190,-122.137404580153,4,1,0,90,0,0
11265,-121.904761904762,4,1,0,90,0,0
11340,-121.673003802281,4,1,0,90,0,0
11415,-121.442125237192,4,1,0,90,0,0
11490,-121.212121212121,4,1,0,90,0,0
11715,-120.527306967985,4,1,0,90,0,0
11790,-120.300751879699,4,1,0,90,0,0
11940,-119.850187265918,4,1,0,90,0,0
12015,-119.626168224299,4,1,0,90,0,0
12090,-119.402985074627,4,1,0,90,0,0
12240,-118.959107806691,4,1,0,90,0,0
12390,-118.518518518519,4,1,0,90,0,0
12540,-118.081180811808,4,1,0,90,0,0
12690,-117.647058823529,4,1,0,90,0,0
12840,-117.216117216117,4,1,0,90,0,0
12915,-117.001828153565,4,1,0,90,0,0
12990,-116.788321167883,4,1,0,90,0,0
13140,-116.363636363636,4,1,0,90,0,0
13290,-115.942028985507,4,1,0,90,0,0
13440,-115.523465703971,4,1,0,90,0,0
13590,-115.107913669065,4,1,0,90,0,0
13665,-114.901256732496,4,1,0,90,0,0
13740,-114.695340501792,4,1,0,90,0,0
13815,-114.490161001789,4,1,0,90,0,0
13890,-114.285714285714,4,1,0,90,0,0
13965,-114.081996434938,4,1,0,90,0,0
14115,-113.676731793961,4,1,0,90,0,0
14190,-113.475177304965,4,1,0,90,0,0
14340,-113.074204946996,4,1,0,90,0,0
14415,-112.874779541446,4,1,0,90,0,0
14490,-112.676056338028,4,1,0,90,0,0
14565,-112.478031634446,4,1,0,90,0,0
14640,-112.280701754386,4,1,0,90,0,0
14715,-112.084063047285,4,1,0,90,0,0
14790,-111.888111888112,4,1,0,90,0,0
15090,-111.111111111111,4,1,0,90,0,0
15240,-109.58904109589,4,1,0,90,0,0
15315,-108.843537414966,4,1,0,90,0,0
15390,-108.108108108108,4,1,0,90,0,0
15540,-106.666666666667,4,1,0,90,0,0
15615,-105.960264900662,4,1,0,90,0,0
15690,-105.263157894737,4,1,0,90,0,0
15840,-103.896103896104,4,1,0,90,0,0
15990,-102.564102564103,4,1,0,90,0,0
16065,-101.910828025478,4,1,0,90,0,0
16140,-101.26582278481,4,1,0,90,0,0
16215,-100.62893081761,4,1,0,90,0,0
16290,-100,4,1,0,90,0,0
16440,-98.765432098765,4,1,0,90,0,0
16515,-98.159509202454,4,1,0,90,0,0
16590,-97.560975609756,4,1,0,90,0,0
16740,-96.385542168675,4,1,0,90,0,0
16815,-95.808383233533,4,1,0,90,0,0
16890,-95.238095238095,4,1,0,90,0,0
16965,-94.674556213018,4,1,0,90,0,0
17040,-94.117647058824,4,1,0,90,0,0
17115,-93.567251461988,4,1,0,90,0,0
17190,-93.023255813953,4,1,0,90,0,0
17340,-91.954022988506,4,1,0,90,0,0
17415,-91.428571428571,4,1,0,90,0,0
17490,-90.909090909091,4,1,0,90,0,0
17640,-89.887640449438,4,1,0,90,0,0
17715,-89.385474860335,4,1,0,90,0,0
17790,-88.888888888889,4,1,0,90,0,0
17940,-87.912087912088,4,1,0,90,0,0
18015,-87.431693989071,4,1,0,90,0,0
18090,-86.95652173913,4,1,0,90,0,0
18165,-86.486486486486,4,1,0,90,0,0
18240,-86.021505376344,4,1,0,90,0,0
18315,-85.561497326203,4,1,0,90,0,0
18390,-85.106382978723,4,1,0,90,0,0
18465,-84.656084656085,4,1,0,90,0,0
18540,-84.210526315789,4,1,0,90,0,0
18615,-83.769633507853,4,1,0,90,0,0
18690,-83.333333333333,4,1,0,90,0,0
18746,-95.238095238095,4,1,0,70,0,0
18990,-96.774193548387,4,1,0,70,0,0
19140,-100,4,1,0,70,0,0
19215,-101.694915254237,4,1,0,70,0,0
19290,-103.448275862069,4,1,0,70,0,0
19365,-105.263157894737,4,1,0,70,0,0
19440,-107.142857142857,4,1,0,70,0,0
19590,-111.111111111111,4,1,0,70,0,0
19871,-100,4,1,0,90,0,0
29640,-99.688473520249,4,1,0,90,0,0
29715,-99.533437013997,4,1,0,90,0,0
29790,-99.378881987578,4,1,0,90,0,0
29940,-99.071207430341,4,1,0,90,0,0
30015,-98.918083462133,4,1,0,90,0,0
30090,-98.765432098765,4,1,0,90,0,0
30165,-98.613251155624,4,1,0,90,0,0
30240,-98.461538461538,4,1,0,90,0,0
30390,-98.159509202454,4,1,0,90,0,0
30540,-97.859327217125,4,1,0,90,0,0
30615,-97.709923664122,4,1,0,90,0,0
30690,-97.560975609756,4,1,0,90,0,0
30840,-97.26443768997,4,1,0,90,0,0
30915,-97.11684370258,4,1,0,90,0,0
30990,-96.969696969697,4,1,0,90,0,0
31065,-96.822995461422,4,1,0,90,0,0
31140,-96.676737160121,4,1,0,90,0,0
31215,-96.530920060332,4,1,0,90,0,0
31290,-96.385542168675,4,1,0,90,0,0
31365,-96.240601503759,4,1,0,90,0,0
31440,-96.096096096096,4,1,0,90,0,0
31590,-95.808383233533,4,1,0,90,0,0
31665,-95.665171898356,4,1,0,90,0,0
31740,-95.522388059701,4,1,0,90,0,0
31815,-95.380029806259,4,1,0,90,0,0
31890,-95.238095238095,4,1,0,90,0,0
32040,-94.955489614243,4,1,0,90,0,0
32115,-94.814814814815,4,1,0,90,0,0
32190,-94.674556213018,4,1,0,90,0,0
32340,-94.395280235988,4,1,0,90,0,0
32415,-94.256259204713,4,1,0,90,0,0
32490,-94.117647058824,4,1,0,90,0,0
32565,-93.979441997063,4,1,0,90,0,0
32640,-93.841642228739,4,1,0,90,0,0
32790,-93.567251461988,4,1,0,90,0,0
32865,-93.430656934307,4,1,0,90,0,0
32940,-93.294460641399,4,1,0,90,0,0
33015,-93.15866084425,4,1,0,90,0,0
33090,-93.023255813953,4,1,0,90,0,0
33240,-92.753623188406,4,1,0,90,0,0
33315,-92.619392185239,4,1,0,90,0,0
33390,-92.485549132948,4,1,0,90,0,0
33465,-92.352092352092,4,1,0,90,0,0
33540,-92.219020172911,4,1,0,90,0,0
33615,-92.086330935252,4,1,0,90,0,0
33690,-91.954022988506,4,1,0,90,0,0
33840,-91.690544412607,4,1,0,90,0,0
33990,-91.428571428571,4,1,0,90,0,0
34065,-91.298145506419,4,1,0,90,0,0
34140,-91.168091168091,4,1,0,90,0,0
34215,-91.038406827881,4,1,0,90,0,0
34290,-90.909090909091,4,1,0,90,0,0
34440,-90.651558073654,4,1,0,90,0,0
34515,-90.523338048091,4,1,0,90,0,0
34590,-90.395480225989,4,1,0,90,0,0
34740,-90.140845070423,4,1,0,90,0,0
34815,-90.014064697609,4,1,0,90,0,0
34890,-89.887640449438,4,1,0,90,0,0
34965,-89.761570827489,4,1,0,90,0,0
35040,-89.635854341737,4,1,0,90,0,0
35190,-89.385474860335,4,1,0,90,0,0
35340,-89.136490250696,4,1,0,90,0,0
35415,-89.012517385257,4,1,0,90,0,0
35490,-88.888888888889,4,1,0,90,0,0
35640,-88.642659279778,4,1,0,90,0,0
35715,-88.520055325035,4,1,0,90,0,0
35790,-88.397790055249,4,1,0,90,0,0
35865,-88.275862068966,4,1,0,90,0,0
35940,-88.154269972452,4,1,0,90,0,0
36015,-88.033012379642,4,1,0,90,0,0
36090,-87.912087912088,4,1,0,90,0,0
36165,-87.791495198903,4,1,0,90,0,0
36240,-87.671232876712,4,1,0,90,0,0
36390,-87.431693989071,4,1,0,90,0,0
36540,-87.193460490463,4,1,0,90,0,0
36615,-87.074829931973,4,1,0,90,0,0
36690,-86.95652173913,4,1,0,90,0,0
36840,-86.720867208672,4,1,0,90,0,0
36915,-86.60351826793,4,1,0,90,0,0
36990,-86.486486486486,4,1,0,90,0,0
37140,-86.253369272237,4,1,0,90,0,0
37215,-86.137281292059,4,1,0,90,0,0
37290,-86.021505376344,4,1,0,90,0,0
37365,-85.906040268456,4,1,0,90,0,0
37440,-85.790884718499,4,1,0,90,0,0
37515,-85.676037483266,4,1,0,90,0,0
37590,-85.561497326203,4,1,0,90,0,0
37740,-85.333333333333,4,1,0,90,0,0
37815,-85.219707057257,4,1,0,90,0,0
37890,-85.106382978723,4,1,0,90,0,0
37946,-85.03100088574,4,1,0,90,0,0
38002,-84.955752212389,4,1,0,90,0,0
38040,-84.880636604775,4,1,0,90,0,0
38115,-84.76821192053,4,1,0,90,0,0
38190,-84.656084656085,4,1,0,90,0,0
38265,-84.544253632761,4,1,0,90,0,0
38340,-84.4327176781,4,1,0,90,0,0
38415,-84.321475625823,4,1,0,90,0,0
38490,-84.210526315789,4,1,0,90,0,0
38640,-83.989501312336,4,1,0,90,0,0
38715,-83.879423328965,4,1,0,90,0,0
38790,-83.769633507853,4,1,0,90,0,0
39109,-90.9090909090909,4,1,0,90,0,1
58290,-90.9090909090909,4,1,0,50,0,1
58309,-90.9090909090909,4,1,0,50,0,0
58310,-33.3333333333333,4,1,0,50,0,0
59490,-100,4,1,0,50,0,0
60690,-100,4,1,0,70,0,0
60990,-100,4,1,0,73,0,0
61290,-100,4,1,0,75,0,0
61365,-100,4,1,0,76,0,0
61440,-100,4,1,0,76,0,0
61515,-100,4,1,0,77,0,0
61590,-100,4,1,0,78,0,0
61665,-100,4,1,0,78,0,0
61740,-100,4,1,0,79,0,0
61815,-100,4,1,0,79,0,0
61890,-100,4,1,0,80,0,0
61946,-100,4,1,0,80,0,0
62002,-100,4,1,0,81,0,0
62040,-100,4,1,0,81,0,0
62115,-100,4,1,0,82,0,0
62190,-100,4,1,0,83,0,0
62246,-100,4,1,0,83,0,0
62302,-100,4,1,0,83,0,0
62340,-100,4,1,0,84,0,0
62415,-100,4,1,0,84,0,0
62490,-100,4,1,0,85,0,0
62546,-100,4,1,0,85,0,0
62602,-100,4,1,0,86,0,0
62640,-100,4,1,0,86,0,0
62696,-100,4,1,0,87,0,0
62752,-100,4,1,0,87,0,0
62790,-100,4,1,0,88,0,0
62846,-100,4,1,0,88,0,0
62902,-100,4,1,0,88,0,0
62940,-100,4,1,0,89,0,0
63015,-100,4,1,0,89,0,0
63090,-100,4,1,0,90,0,0
63146,-166.666666666667,4,1,0,50,0,0
72671,-166.666666666667,4,1,0,70,0,0
80190,-161.616161616162,4,1,0,70,0,0
80490,-156.862745098039,4,1,0,70,0,0
80790,-152.380952380952,4,1,0,70,0,0
80940,-150.234741784038,4,1,0,70,0,0
81090,-148.148148148148,4,1,0,70,0,0
81390,-144.144144144144,4,1,0,70,0,0
81690,-140.350877192982,4,1,0,70,0,0
81990,-136.752136752137,4,1,0,70,0,0
82271,-117.647058823529,4,1,0,90,0,0
82309,-117.647058823529,4,1,0,90,0,1
91909,-117.647058823529,4,1,0,90,0,0
91946,-166.666666666667,4,1,0,70,0,0
93090,-153.846153846154,4,1,0,70,0,0
94290,-142.857142857143,4,1,0,70,0,0
94890,-137.931034482759,4,1,0,70,0,0
95190,-135.593220338983,4,1,0,70,0,0
95490,-133.333333333333,4,1,0,70,0,0
95640,-132.231404958678,4,1,0,70,0,0
95790,-131.147540983607,4,1,0,70,0,0
95940,-130.081300813008,4,1,0,70,0,0
96090,-129.032258064516,4,1,0,70,0,0
96240,-128,4,1,0,70,0,0
96315,-127.490039840637,4,1,0,70,0,0
96390,-126.984126984127,4,1,0,70,0,0
96540,-125.984251968504,4,1,0,70,0,0
96671,-125,4,1,0,90,0,0
96765,-123.711340206186,4,1,0,90,0,0
96840,-122.448979591837,4,1,0,90,0,0
96915,-121.212121212121,4,1,0,90,0,0
96990,-120,4,1,0,90,0,0
97065,-118.811881188119,4,1,0,90,0,0
97140,-117.647058823529,4,1,0,90,0,0
97215,-116.504854368932,4,1,0,90,0,0
97290,-115.384615384615,4,1,0,90,0,0
97365,-114.285714285714,4,1,0,90,0,0
97440,-113.207547169811,4,1,0,90,0,0
97515,-112.14953271028,4,1,0,90,0,0
97590,-111.111111111111,4,1,0,90,0,0
97665,-110.091743119266,4,1,0,90,0,0
97740,-109.090909090909,4,1,0,90,0,0
97815,-108.108108108108,4,1,0,90,0,0
97890,-107.142857142857,4,1,0,90,0,0
97965,-106.194690265487,4,1,0,90,0,0
98040,-105.263157894737,4,1,0,90,0,0
98115,-104.347826086957,4,1,0,90,0,0
98190,-103.448275862069,4,1,0,90,0,0
98265,-102.564102564103,4,1,0,90,0,0
98340,-101.694915254237,4,1,0,90,0,0
98415,-100.840336134454,4,1,0,90,0,0
98490,-100,4,1,0,90,0,0
98565,-99.173553719008,4,1,0,90,0,0
98640,-98.360655737705,4,1,0,90,0,0
98715,-97.560975609756,4,1,0,90,0,0
98790,-96.774193548387,4,1,0,90,0,0
98846,-96.256684491979,4,1,0,90,0,0
98902,-95.744680851064,4,1,0,90,0,0
98940,-95.238095238095,4,1,0,90,0,0
99015,-94.488188976378,4,1,0,90,0,0
99090,-93.75,4,1,0,90,0,0
99240,-92.307692307692,4,1,0,90,0,0
99296,-91.836734693878,4,1,0,90,0,0
99352,-91.370558375635,4,1,0,90,0,0
99390,-90.909090909091,4,1,0,90,0,0
99465,-90.225563909774,4,1,0,90,0,0
99540,-89.55223880597,4,1,0,90,0,0
99615,-88.888888888889,4,1,0,90,0,0
99690,-88.235294117647,4,1,0,90,0,0
99765,-87.591240875912,4,1,0,90,0,0
99840,-86.95652173913,4,1,0,90,0,0
99896,-86.538461538462,4,1,0,90,0,0
99952,-86.124401913876,4,1,0,90,0,0
99990,-85.714285714286,4,1,0,90,0,0
100065,-85.106382978723,4,1,0,90,0,0
100140,-84.507042253521,4,1,0,90,0,0
100215,-83.916083916084,4,1,0,90,0,0
100290,-83.3333333333333,4,1,0,70,0,0
101471,-90.9090909090909,4,1,0,90,0,0
101509,-90.9090909090909,4,1,0,90,0,1
120109,-90.9090909090909,4,1,0,90,0,0
120709,-90.9090909090909,4,1,0,90,0,1
139909,-90.9090909090909,4,1,0,90,0,0
140190,-91.690544412607,4,1,0,90,0,0
140490,-92.485549132948,4,1,0,90,0,0
140790,-93.294460641399,4,1,0,90,0,0
141090,-94.117647058824,4,1,0,90,0,0
141390,-94.955489614243,4,1,0,90,0,0
141690,-95.808383233533,4,1,0,90,0,0
141990,-96.676737160121,4,1,0,90,0,0
142290,-97.560975609756,4,1,0,90,0,0
142590,-98.461538461538,4,1,0,90,0,0
142890,-99.378881987578,4,1,0,90,0,0
143190,-100.313479623824,4,1,0,90,0,0
143490,-101.26582278481,4,1,0,90,0,0
143790,-102.23642172524,4,1,0,90,0,0
144090,-103.225806451613,4,1,0,90,0,0
144390,-104.234527687296,4,1,0,90,0,0
144540,-104.746317512275,4,1,0,90,0,0
144690,-105.263157894737,4,1,0,90,0,0
144990,-106.312292358804,4,1,0,90,0,0
145290,-107.38255033557,4,1,0,90,0,0
145590,-108.474576271186,4,1,0,90,0,0
145890,-109.58904109589,4,1,0,90,0,0
146190,-110.726643598616,4,1,0,90,0,0
146490,-111.888111888112,4,1,0,90,0,0
146790,-113.074204946996,4,1,0,90,0,0
147090,-114.285714285714,4,1,0,90,0,0
147390,-115.523465703971,4,1,0,90,0,0
147690,-116.788321167883,4,1,0,90,0,0
147990,-118.081180811808,4,1,0,90,0,0
148290,-119.402985074627,4,1,0,90,0,0
148440,-120.075046904315,4,1,0,90,0,0
148515,-120.413922859831,4,1,0,90,0,0
148590,-120.754716981132,4,1,0,90,0,0
148740,-121.442125237192,4,1,0,90,0,0
148890,-122.137404580153,4,1,0,90,0,0
148946,-122.370936902486,4,1,0,90,0,0
149002,-122.605363984674,4,1,0,90,0,0
149040,-122.840690978887,4,1,0,90,0,0
149115,-123.195380173243,4,1,0,90,0,0
149190,-123.552123552124,4,1,0,90,0,0
149340,-124.271844660194,4,1,0,90,0,0
149415,-124.634858812074,4,1,0,90,0,0
149490,-125,4,1,0,90,0,0
149715,-123.876123876124,4,1,0,90,0,0
149790,-123.505976095618,4,1,0,90,0,0
149940,-122.772277227723,4,1,0,90,0,0
150090,-122.047244094488,4,1,0,90,0,0
150240,-121.33072407045,4,1,0,90,0,0
150390,-120.622568093385,4,1,0,90,0,0
150690,-119.230769230769,4,1,0,90,0,0
150765,-118.88782358581,4,1,0,90,0,0
150915,-118.207816968541,4,1,0,90,0,0
150990,-117.87072243346,4,1,0,90,0,0
151140,-117.202268431002,4,1,0,90,0,0
151290,-116.541353383459,4,1,0,90,0,0
151440,-115.88785046729,4,1,0,90,0,0
151590,-115.241635687732,4,1,0,90,0,0
151890,-113.970588235294,4,1,0,90,0,0
152115,-113.035551504102,4,1,0,90,0,0
152190,-112.727272727273,4,1,0,90,0,0
152340,-112.115732368897,4,1,0,90,0,0
152490,-111.510791366906,4,1,0,90,0,0
152640,-110.912343470483,4,1,0,90,0,0
152790,-110.320284697509,4,1,0,90,0,0
152940,-109.734513274336,4,1,0,90,0,0
153090,-109.154929577465,4,1,0,90,0,0
153165,-108.867427568042,4,1,0,90,0,0
153315,-108.296943231441,4,1,0,90,0,0
153390,-108.01393728223,4,1,0,90,0,0
153540,-107.452339688042,4,1,0,90,0,0
153615,-107.173725151253,4,1,0,90,0,0
153690,-106.896551724138,4,1,0,90,0,0
153840,-106.346483704974,4,1,0,90,0,0
153990,-105.80204778157,4,1,0,90,0,0
154065,-105.531914893617,4,1,0,90,0,0
154140,-105.263157894737,4,1,0,90,0,0
154215,-104.995766299746,4,1,0,90,0,0
154290,-104.72972972973,4,1,0,90,0,0
154440,-104.201680672269,4,1,0,90,0,0
154590,-103.678929765886,4,1,0,90,0,0
154740,-103.161397670549,4,1,0,90,0,0
154890,-102.649006622517,4,1,0,90,0,0
155040,-102.141680395387,4,1,0,90,0,0
155190,-101.639344262295,4,1,0,90,0,0
155340,-101.141924959217,4,1,0,90,0,0
155415,-100.895036615134,4,1,0,90,0,0
155490,-100.649350649351,4,1,0,90,0,0
155640,-100.16155088853,4,1,0,90,0,0
155790,-99.67845659164,4,1,0,90,0,0
155940,-99.2,4,1,0,90,0,0
156090,-98.726114649682,4,1,0,90,0,0
156240,-98.256735340729,4,1,0,90,0,0
156390,-97.791798107256,4,1,0,90,0,0
156540,-97.331240188383,4,1,0,90,0,0
156615,-97.102584181676,4,1,0,90,0,0
156690,-96.875,4,1,0,90,0,0
156840,-96.423017107309,4,1,0,90,0,0
156990,-95.975232198142,4,1,0,90,0,0
157140,-95.531587057011,4,1,0,90,0,0
157215,-95.311299000769,4,1,0,90,0,0
157290,-95.092024539877,4,1,0,90,0,0
157440,-94.656488549618,4,1,0,90,0,0
157590,-94.224924012158,4,1,0,90,0,0
157740,-93.797276853253,4,1,0,90,0,0
157815,-93.584905660377,4,1,0,90,0,0
157890,-93.373493975904,4,1,0,90,0,0
157946,-93.233082706767,4,1,0,90,0,0
158002,-93.093093093093,4,1,0,90,0,0
158040,-92.953523238381,4,1,0,90,0,0
158115,-92.744951383695,4,1,0,90,0,0
158190,-92.537313432836,4,1,0,90,0,0
158265,-92.330603127327,4,1,0,90,0,0
158340,-92.124814264487,4,1,0,90,0,0
158415,-91.919940696812,4,1,0,90,0,0
158490,-91.715976331361,4,1,0,90,0,0
158640,-91.310751104566,4,1,0,90,0,0
158790,-90.909090909091,4,1,0,90,0,0
159109,-90.9090909090909,4,1,0,90,0,1
178309,-90.9090909090909,4,1,0,90,0,0
178346,-125,4,1,0,50,0,0
187871,-125,4,1,0,70,0,0
196590,-129.032258064516,4,1,0,70,0,0
196740,-131.147540983607,4,1,0,70,0,0
196890,-133.333333333333,4,1,0,70,0,0
197040,-135.593220338983,4,1,0,70,0,0
197115,-136.752136752137,4,1,0,70,0,0
197190,-137.931034482759,4,1,0,70,0,0
197340,-140.350877192982,4,1,0,70,0,0
197490,-142.857142857143,4,1,0,70,0,0
207071,-117.647058823529,4,1,0,90,0,0
207165,-117.302052785924,4,1,0,90,0,0
207240,-116.959064327485,4,1,0,90,0,0
207315,-116.618075801749,4,1,0,90,0,0
207390,-116.279069767442,4,1,0,90,0,0
207465,-115.942028985507,4,1,0,90,0,0
207540,-115.606936416185,4,1,0,90,0,0
207615,-115.273775216138,4,1,0,90,0,0
207690,-114.942528735632,4,1,0,90,0,0
207765,-114.613180515759,4,1,0,90,0,0
207840,-114.285714285714,4,1,0,90,0,0
207915,-113.960113960114,4,1,0,90,0,0
207990,-113.636363636364,4,1,0,90,0,0
208140,-112.994350282486,4,1,0,90,0,0
208215,-112.676056338028,4,1,0,90,0,0
208290,-112.359550561798,4,1,0,90,0,0
208365,-112.044817927171,4,1,0,90,0,0
208440,-111.731843575419,4,1,0,90,0,0
208515,-111.42061281337,4,1,0,90,0,0
208590,-111.111111111111,4,1,0,90,0,0
208665,-110.803324099723,4,1,0,90,0,0
208740,-110.497237569061,4,1,0,90,0,0
208815,-110.192837465565,4,1,0,90,0,0
208890,-109.89010989011,4,1,0,90,0,0
208965,-109.58904109589,4,1,0,90,0,0
209040,-109.289617486339,4,1,0,90,0,0
209115,-108.991825613079,4,1,0,90,0,0
209190,-108.695652173913,4,1,0,90,0,0
209340,-108.108108108108,4,1,0,90,0,0
209396,-107.913669064748,4,1,0,90,0,0
209452,-107.719928186715,4,1,0,90,0,0
209490,-107.52688172043,4,1,0,90,0,0
209565,-107.238605898123,4,1,0,90,0,0
209640,-106.951871657754,4,1,0,90,0,0
209715,-106.666666666667,4,1,0,90,0,0
209790,-106.382978723404,4,1,0,90,0,0
209865,-106.100795755968,4,1,0,90,0,0
209940,-105.820105820106,4,1,0,90,0,0
210015,-105.540897097625,4,1,0,90,0,0
210090,-105.263157894737,4,1,0,90,0,0
210165,-104.98687664042,4,1,0,90,0,0
210240,-104.712041884817,4,1,0,90,0,0
210315,-104.43864229765,4,1,0,90,0,0
210390,-104.166666666667,4,1,0,90,0,0
210540,-103.626943005181,4,1,0,90,0,0
210615,-103.359173126615,4,1,0,90,0,0
210690,-103.092783505155,4,1,0,90,0,0
210765,-102.827763496144,4,1,0,90,0,0
210840,-102.564102564103,4,1,0,90,0,0
210915,-102.30179028133,4,1,0,90,0,0
210990,-102.040816326531,4,1,0,90,0,0
211065,-101.781170483461,4,1,0,90,0,0
211140,-101.522842639594,4,1,0,90,0,0
211215,-101.26582278481,4,1,0,90,0,0
211290,-101.010101010101,4,1,0,90,0,0
211365,-100.755667506297,4,1,0,90,0,0
211440,-100.502512562814,4,1,0,90,0,0
211515,-100.250626566416,4,1,0,90,0,0
211590,-100,4,1,0,90,0,0
211890,-90.909090909091,4,1,0,90,0,0
211965,-90.737240075614,4,1,0,90,0,0
212040,-90.566037735849,4,1,0,90,0,0
212115,-90.395480225989,4,1,0,90,0,0
212190,-90.225563909774,4,1,0,90,0,0
212265,-90.056285178236,4,1,0,90,0,0
212340,-89.887640449438,4,1,0,90,0,0
212415,-89.719626168224,4,1,0,90,0,0
212490,-89.55223880597,4,1,0,90,0,0
212565,-89.385474860335,4,1,0,90,0,0
212640,-89.219330855019,4,1,0,90,0,0
212715,-89.053803339518,4,1,0,90,0,0
212790,-88.888888888889,4,1,0,90,0,0
212865,-88.724584103512,4,1,0,90,0,0
212940,-88.560885608856,4,1,0,90,0,0
213015,-88.397790055249,4,1,0,90,0,0
213090,-88.235294117647,4,1,0,90,0,0
213165,-88.073394495413,4,1,0,90,0,0
213240,-87.912087912088,4,1,0,90,0,0
213315,-87.751371115174,4,1,0,90,0,0
213390,-87.591240875912,4,1,0,90,0,0
213465,-87.431693989071,4,1,0,90,0,0
213540,-87.272727272727,4,1,0,90,0,0
213615,-87.114337568058,4,1,0,90,0,0
213690,-86.95652173913,4,1,0,90,0,0
213765,-86.799276672694,4,1,0,90,0,0
213840,-86.642599277978,4,1,0,90,0,0
213915,-86.486486486486,4,1,0,90,0,0
213990,-86.330935251799,4,1,0,90,0,0
214046,-86.22754491018,4,1,0,90,0,0
214102,-86.124401913876,4,1,0,90,0,0
214140,-86.021505376344,4,1,0,90,0,0
214215,-85.867620751342,4,1,0,90,0,0
214290,-85.714285714286,4,1,0,90,0,0
214440,-85.409252669039,4,1,0,90,0,0
214496,-85.308056872038,4,1,0,90,0,0
214552,-85.207100591716,4,1,0,90,0,0
214590,-85.106382978723,4,1,0,90,0,0
214665,-84.955752212389,4,1,0,90,0,0
214740,-84.805653710247,4,1,0,90,0,0
214815,-84.656084656085,4,1,0,90,0,0
214890,-84.507042253521,4,1,0,90,0,0
214965,-84.358523725835,4,1,0,90,0,0
215040,-84.210526315789,4,1,0,90,0,0
215096,-84.11214953271,4,1,0,90,0,0
215152,-84.014002333722,4,1,0,90,0,0
215190,-83.916083916084,4,1,0,90,0,0
215265,-83.769633507853,4,1,0,90,0,0
215340,-83.623693379791,4,1,0,90,0,0
215415,-83.478260869565,4,1,0,90,0,0
215490,-83.333333333333,4,1,0,90,0,0
215546,-90.909090909091,4,1,0,90,0,0
215940,-95.238095238095,4,1,0,90,0,0
216015,-97.560975609756,4,1,0,90,0,0
216090,-100,4,1,0,90,0,0
216240,-105.263157894737,4,1,0,90,0,0
216371,-111.111111111111,4,1,0,90,0,0
216709,-90.9090909090909,4,1,0,90,0,1
250440,-90.614886731392,4,1,0,90,0,1
250515,-90.468497576737,4,1,0,90,0,1
250590,-90.322580645161,4,1,0,90,0,1
250740,-90.032154340836,4,1,0,90,0,1
250815,-89.887640449438,4,1,0,90,0,1
250890,-89.74358974359,4,1,0,90,0,1
250965,-89.6,4,1,0,90,0,1
251040,-89.456869009585,4,1,0,90,0,1
251115,-89.314194577352,4,1,0,90,0,1
251190,-89.171974522293,4,1,0,90,0,1
251265,-89.030206677265,4,1,0,90,0,1
251340,-88.888888888889,4,1,0,90,0,1
251415,-88.748019017433,4,1,0,90,0,1
251490,-88.607594936709,4,1,0,90,0,1
251640,-88.328075709779,4,1,0,90,0,1
251715,-88.188976377953,4,1,0,90,0,1
251790,-88.050314465409,4,1,0,90,0,1
251940,-87.774294670846,4,1,0,90,0,1
252015,-87.636932707355,4,1,0,90,0,1
252090,-87.5,4,1,0,90,0,1
252165,-87.363494539782,4,1,0,90,0,1
252240,-87.227414330218,4,1,0,90,0,1
252315,-87.091757387247,4,1,0,90,0,1
252390,-86.95652173913,4,1,0,90,0,1
252465,-86.821705426357,4,1,0,90,0,1
252540,-86.687306501548,4,1,0,90,0,1
252615,-86.553323029366,4,1,0,90,0,1
252690,-86.41975308642,4,1,0,90,0,1
252765,-86.286594761171,4,1,0,90,0,1
252840,-86.153846153846,4,1,0,90,0,1
252915,-86.021505376344,4,1,0,90,0,1
252990,-85.889570552147,4,1,0,90,0,1
253065,-85.758039816233,4,1,0,90,0,1
253140,-85.626911314985,4,1,0,90,0,1
253215,-85.496183206107,4,1,0,90,0,1
253290,-85.365853658537,4,1,0,90,0,1
253365,-85.235920852359,4,1,0,90,0,1
253440,-85.106382978723,4,1,0,90,0,1
253515,-84.977238239757,4,1,0,90,0,1
253590,-84.848484848485,4,1,0,90,0,1
253665,-84.720121028744,4,1,0,90,0,1
253740,-84.592145015106,4,1,0,90,0,1
253815,-84.46455505279,4,1,0,90,0,1
253890,-84.33734939759,4,1,0,90,0,1
253946,-84.252758274824,4,1,0,90,0,1
254002,-84.168336673347,4,1,0,90,0,1
254040,-84.084084084084,4,1,0,90,0,1
254115,-83.958020989505,4,1,0,90,0,1
254190,-83.832335329341,4,1,0,90,0,1
254265,-83.707025411061,4,1,0,90,0,1
254340,-83.582089552239,4,1,0,90,0,1
254415,-83.457526080477,4,1,0,90,0,1
254490,-83.333333333333,4,1,0,90,0,1
255109,-83.3333333333333,4,1,0,90,0,0
255240,-100,4,1,0,90,0,0
264840,-99.688473520249,4,1,0,90,0,0
264915,-99.533437013997,4,1,0,90,0,0
264990,-99.378881987578,4,1,0,90,0,0
265140,-99.071207430341,4,1,0,90,0,0
265215,-98.918083462133,4,1,0,90,0,0
265290,-98.765432098765,4,1,0,90,0,0
265365,-98.613251155624,4,1,0,90,0,0
265440,-98.461538461538,4,1,0,90,0,0
265590,-98.159509202454,4,1,0,90,0,0
265740,-97.859327217125,4,1,0,90,0,0
265815,-97.709923664122,4,1,0,90,0,0
265890,-97.560975609756,4,1,0,90,0,0
266040,-97.26443768997,4,1,0,90,0,0
266115,-97.11684370258,4,1,0,90,0,0
266190,-96.969696969697,4,1,0,90,0,0
266265,-96.822995461422,4,1,0,90,0,0
266340,-96.676737160121,4,1,0,90,0,0
266415,-96.530920060332,4,1,0,90,0,0
266490,-96.385542168675,4,1,0,90,0,0
266565,-96.240601503759,4,1,0,90,0,0
266640,-96.096096096096,4,1,0,90,0,0
266790,-95.808383233533,4,1,0,90,0,0
266865,-95.665171898356,4,1,0,90,0,0
266940,-95.522388059701,4,1,0,90,0,0
267015,-95.380029806259,4,1,0,90,0,0
267090,-95.238095238095,4,1,0,90,0,0
267240,-94.955489614243,4,1,0,90,0,0
267315,-94.814814814815,4,1,0,90,0,0
267390,-94.674556213018,4,1,0,90,0,0
267540,-94.395280235988,4,1,0,90,0,0
267615,-94.256259204713,4,1,0,90,0,0
267690,-94.117647058824,4,1,0,90,0,0
267765,-93.979441997063,4,1,0,90,0,0
267840,-93.841642228739,4,1,0,90,0,0
267990,-93.567251461988,4,1,0,90,0,0
268065,-93.430656934307,4,1,0,90,0,0
268140,-93.294460641399,4,1,0,90,0,0
268215,-93.15866084425,4,1,0,90,0,0
268290,-93.023255813953,4,1,0,90,0,0
268440,-92.753623188406,4,1,0,90,0,0
268515,-92.619392185239,4,1,0,90,0,0
268590,-92.485549132948,4,1,0,90,0,0
268665,-92.352092352092,4,1,0,90,0,0
268740,-92.219020172911,4,1,0,90,0,0
268815,-92.086330935252,4,1,0,90,0,0
268890,-91.954022988506,4,1,0,90,0,0
269040,-91.690544412607,4,1,0,90,0,0
269190,-91.428571428571,4,1,0,90,0,0
269265,-91.298145506419,4,1,0,90,0,0
269340,-91.168091168091,4,1,0,90,0,0
269415,-91.038406827881,4,1,0,90,0,0
269490,-90.909090909091,4,1,0,90,0,0
269640,-90.651558073654,4,1,0,90,0,0
269715,-90.523338048091,4,1,0,90,0,0
269790,-90.395480225989,4,1,0,90,0,0
269940,-90.140845070423,4,1,0,90,0,0
270015,-90.014064697609,4,1,0,90,0,0
270090,-89.887640449438,4,1,0,90,0,0
270165,-89.761570827489,4,1,0,90,0,0
270240,-89.635854341737,4,1,0,90,0,0
270390,-89.385474860335,4,1,0,90,0,0
270540,-89.136490250696,4,1,0,90,0,0
270615,-89.012517385257,4,1,0,90,0,0
270690,-88.888888888889,4,1,0,90,0,0
270840,-88.642659279778,4,1,0,90,0,0
270915,-88.520055325035,4,1,0,90,0,0
270990,-88.397790055249,4,1,0,90,0,0
271065,-88.275862068966,4,1,0,90,0,0
271140,-88.154269972452,4,1,0,90,0,0
271215,-88.033012379642,4,1,0,90,0,0
271290,-87.912087912088,4,1,0,90,0,0
271365,-87.791495198903,4,1,0,90,0,0
271440,-87.671232876712,4,1,0,90,0,0
271590,-87.431693989071,4,1,0,90,0,0
271740,-87.193460490463,4,1,0,90,0,0
271815,-87.074829931973,4,1,0,90,0,0
271890,-86.95652173913,4,1,0,90,0,0
272040,-86.720867208672,4,1,0,90,0,0
272115,-86.60351826793,4,1,0,90,0,0
272190,-86.486486486486,4,1,0,90,0,0
272340,-86.253369272237,4,1,0,90,0,0
272415,-86.137281292059,4,1,0,90,0,0
272490,-86.021505376344,4,1,0,90,0,0
272565,-85.906040268456,4,1,0,90,0,0
272640,-85.790884718499,4,1,0,90,0,0
272715,-85.676037483266,4,1,0,90,0,0
272790,-85.561497326203,4,1,0,90,0,0
272940,-85.333333333333,4,1,0,90,0,0
273015,-85.219707057257,4,1,0,90,0,0
273090,-85.106382978723,4,1,0,90,0,0
273146,-85.03100088574,4,1,0,90,0,0
273202,-84.955752212389,4,1,0,90,0,0
273240,-84.880636604775,4,1,0,90,0,0
273315,-84.76821192053,4,1,0,90,0,0
273390,-84.656084656085,4,1,0,90,0,0
273465,-84.544253632761,4,1,0,90,0,0
273540,-84.4327176781,4,1,0,90,0,0
273615,-84.321475625823,4,1,0,90,0,0
273690,-84.210526315789,4,1,0,90,0,0
273840,-83.989501312336,4,1,0,90,0,0
273990,-83.769633507853,4,1,0,90,0,0
274046,-83.696599825632,4,1,0,90,0,0
274102,-83.623693379791,4,1,0,90,0,0
274140,-83.55091383812,4,1,0,90,0,0
274215,-83.441981747066,4,1,0,90,0,0
274290,-83.333333333333,4,1,0,90,0,0
274346,-83.333333333333,4,1,0,50,0,0

[HitObjects]
256,192,709,5,0,0:0:0:0:
256,192,934,1,8,0:0:0:0:
256,192,1009,1,8,0:0:0:0:
256,192,1159,1,0,0:0:0:0:
256,192,1459,1,0,0:0:0:0:
256,192,1609,1,8,0:0:0:0:
256,192,1684,1,8,0:0:0:0:
256,192,1759,1,8,0:0:0:0:
256,192,1834,1,8,0:0:0:0:
256,192,1909,1,0,0:0:0:0:
256,192,2134,1,8,0:0:0:0:
256,192,2209,1,0,0:0:0:0:
256,192,2359,1,8,0:0:0:0:
256,192,2659,1,0,0:0:0:0:
256,192,2809,1,8,0:0:0:0:
256,192,2959,1,8,0:0:0:0:
256,192,3109,1,0,0:0:0:0:
256,192,3334,1,8,0:0:0:0:
256,192,3409,1,8,0:0:0:0:
256,192,3559,1,0,0:0:0:0:
256,192,3859,1,0,0:0:0:0:
256,192,4009,1,8,0:0:0:0:
256,192,4084,1,8,0:0:0:0:
256,192,4159,1,8,0:0:0:0:
256,192,4234,1,8,0:0:0:0:
256,192,4309,1,0,0:0:0:0:
256,192,4534,1,8,0:0:0:0:
256,192,4609,1,0,0:0:0:0:
256,192,4759,1,8,0:0:0:0:
256,192,4909,1,0,0:0:0:0:
256,192,4984,1,0,0:0:0:0:
256,192,5059,1,0,0:0:0:0:
256,192,5134,1,0,0:0:0:0:
256,192,5209,1,8,0:0:0:0:
256,192,5509,1,0,0:0:0:0:
256,192,5734,1,8,0:0:0:0:
256,192,5809,1,8,0:0:0:0:
256,192,5959,1,0,0:0:0:0:
256,192,6109,1,8,0:0:0:0:
256,192,6259,1,0,0:0:0:0:
256,192,6409,1,8,0:0:0:0:
256,192,6484,1,8,0:0:0:0:
256,192,6559,1,8,0:0:0:0:
256,192,6634,1,8,0:0:0:0:
256,192,6709,1,0,0:0:0:0:
256,192,6934,1,8,0:0:0:0:
256,192,7009,1,0,0:0:0:0:
256,192,7159,1,8,0:0:0:0:
256,192,7309,1,0,0:0:0:0:
256,192,7459,1,0,0:0:0:0:
256,192,7609,1,8,0:0:0:0:
256,192,7759,1,8,0:0:0:0:
256,192,7909,1,0,0:0:0:0:
256,192,8134,1,8,0:0:0:0:
256,192,8209,1,8,0:0:0:0:
256,192,8359,1,0,0:0:0:0:
256,192,8509,1,8,0:0:0:0:
256,192,8659,1,0,0:0:0:0:
256,192,8809,1,8,0:0:0:0:
256,192,8884,1,8,0:0:0:0:
256,192,8959,1,8,0:0:0:0:
256,192,9034,1,8,0:0:0:0:
256,192,9109,1,0,0:0:0:0:
256,192,9334,1,8,0:0:0:0:
256,192,9409,1,0,0:0:0:0:
256,192,9559,1,0,0:0:0:0:
256,192,9634,1,0,0:0:0:0:
256,192,9709,1,8,0:0:0:0:
256,192,9859,1,0,0:0:0:0:
256,192,10009,1,8,0:0:0:0:
256,192,10309,1,0,0:0:0:0:
256,192,10459,1,8,0:0:0:0:
256,192,10534,1,8,0:0:0:0:
256,192,10609,1,8,0:0:0:0:
256,192,10759,1,0,0:0:0:0:
256,192,10909,1,8,0:0:0:0:
256,192,11059,1,0,0:0:0:0:
256,192,11209,1,8,0:0:0:0:
256,192,11284,1,8,0:0:0:0:
256,192,11359,1,8,0:0:0:0:
256,192,11434,1,8,0:0:0:0:
256,192,11509,1,0,0:0:0:0:
256,192,11734,1,8,0:0:0:0:
256,192,11809,1,0,0:0:0:0:
256,192,11959,1,8,0:0:0:0:
256,192,12034,1,8,0:0:0:0:
256,192,12109,1,0,0:0:0:0:
256,192,12259,1,0,0:0:0:0:
256,192,12409,1,8,0:0:0:0:
256,192,12559,1,8,0:0:0:0:
256,192,12709,1,0,0:0:0:0:
256,192,12859,1,8,0:0:0:0:
256,192,12934,1,8,0:0:0:0:
256,192,13009,1,8,0:0:0:0:
256,192,13159,1,0,0:0:0:0:
256,192,13309,1,8,0:0:0:0:
256,192,13459,1,0,0:0:0:0:
256,192,13609,1,8,0:0:0:0:
256,192,13684,1,8,0:0:0:0:
256,192,13759,1,8,0:0:0:0:
256,192,13834,1,8,0:0:0:0:
256,192,13909,1,0,0:0:0:0:
256,192,13984,1,8,0:0:0:0:
256,192,14134,1,8,0:0:0:0:
256,192,14209,1,0,0:0:0:0:
256,192,14359,1,8,0:0:0:0:
256,192,14434,1,8,0:0:0:0:
256,192,14509,1,0,0:0:0:0:
256,192,14584,1,0,0:0:0:0:
256,192,14659,1,0,0:0:0:0:
256,192,14734,1,0,0:0:0:0:
256,192,14809,1,8,0:0:0:0:
256,192,15109,1,0,0:0:0:0:
256,192,15259,1,8,0:0:0:0:
256,192,15334,1,8,0:0:0:0:
256,192,15409,1,8,0:0:0:0:
256,192,15559,1,0,0:0:0:0:
256,192,15634,1,0,0:0:0:0:
256,192,15709,1,8,0:0:0:0:
256,192,15859,1,0,0:0:0:0:
256,192,16009,1,8,0:0:0:0:
256,192,16084,1,8,0:0:0:0:
256,192,16159,1,0,0:0:0:0:
256,192,16234,1,8,0:0:0:0:
256,192,16309,1,0,0:0:0:0:
256,192,16459,1,0,0:0:0:0:
256,192,16534,1,0,0:0:0:0:
256,192,16609,1,8,0:0:0:0:
256,192,16759,1,0,0:0:0:0:
256,192,16834,1,0,0:0:0:0:
256,192,16909,1,8,0:0:0:0:
256,192,16984,1,8,0:0:0:0:
256,192,17059,1,0,0:0:0:0:
256,192,17134,1,0,0:0:0:0:
256,192,17209,1,8,0:0:0:0:
256,192,17359,1,8,0:0:0:0:
256,192,17434,1,8,0:0:0:0:
256,192,17509,1,0,0:0:0:0:
256,192,17659,1,8,0:0:0:0:
256,192,17734,1,8,0:0:0:0:
256,192,17809,1,0,0:0:0:0:
256,192,17959,1,8,0:0:0:0:
256,192,18034,1,8,0:0:0:0:
256,192,18109,1,0,0:0:0:0:
256,192,18184,1,8,0:0:0:0:
256,192,18259,1,0,0:0:0:0:
256,192,18334,1,8,0:0:0:0:
256,192,18409,1,0,0:0:0:0:
256,192,18484,1,0,0:0:0:0:
256,192,18559,1,0,0:0:0:0:
256,192,18634,1,0,0:0:0:0:
256,192,18709,1,8,0:0:0:0:
256,192,18934,1,0,0:0:0:0:
256,192,19009,1,8,0:0:0:0:
256,192,19159,1,0,0:0:0:0:
256,192,19234,1,8,0:0:0:0:
256,192,19309,1,0,0:0:0:0:
256,192,19384,1,0,0:0:0:0:
256,192,19459,1,0,0:0:0:0:
256,192,19609,1,8,0:0:0:0:
256,192,19909,1,4,0:0:0:0:
256,192,20059,1,8,0:0:0:0:
256,192,20134,1,8,0:0:0:0:
256,192,20209,1,0,0:0:0:0:
256,192,20284,1,0,0:0:0:0:
256,192,20359,1,8,0:0:0:0:
256,192,20509,1,0,0:0:0:0:
256,192,20584,1,0,0:0:0:0:
256,192,20659,1,8,0:0:0:0:
256,192,20809,1,8,0:0:0:0:
256,192,20884,1,8,0:0:0:0:
256,192,20959,1,8,0:0:0:0:
256,192,21034,1,8,0:0:0:0:
256,192,21109,1,0,0:0:0:0:
256,192,21259,1,8,0:0:0:0:
256,192,21334,1,8,0:0:0:0:
256,192,21409,1,0,0:0:0:0:
256,192,21484,1,0,0:0:0:0:
256,192,21559,1,8,0:0:0:0:
256,192,21634,1,0,0:0:0:0:
256,192,21709,1,0,0:0:0:0:
256,192,21784,1,0,0:0:0:0:
256,192,21859,1,8,0:0:0:0:
256,192,22009,1,8,0:0:0:0:
256,192,22084,1,8,0:0:0:0:
256,192,22159,1,0,0:0:0:0:
256,192,22234,1,8,0:0:0:0:
256,192,22309,1,0,0:0:0:0:
256,192,22459,1,8,0:0:0:0:
256,192,22534,1,8,0:0:0:0:
256,192,22609,1,0,0:0:0:0:
256,192,22684,1,8,0:0:0:0:
256,192,22759,1,8,0:0:0:0:
256,192,22909,1,0,0:0:0:0:
256,192,22984,1,0,0:0:0:0:
256,192,23059,1,8,0:0:0:0:
256,192,23209,1,8,0:0:0:0:
256,192,23284,1,8,0:0:0:0:
256,192,23359,1,0,0:0:0:0:
256,192,23434,1,8,0:0:0:0:
256,192,23509,1,0,0:0:0:0:
256,192,23659,1,8,0:0:0:0:
256,192,23734,1,8,0:0:0:0:
256,192,23809,1,0,0:0:0:0:
256,192,23884,1,8,0:0:0:0:
256,192,23959,1,0,0:0:0:0:
256,192,24034,1,0,0:0:0:0:
256,192,24109,1,8,0:0:0:0:
256,192,24259,1,0,0:0:0:0:
256,192,24334,1,0,0:0:0:0:
256,192,24409,1,8,0:0:0:0:
256,192,24559,1,8,0:0:0:0:
256,192,24709,1,4,0:0:0:0:
256,192,24859,1,8,0:0:0:0:
256,192,24934,1,8,0:0:0:0:
256,192,25009,1,0,0:0:0:0:
256,192,25084,1,0,0:0:0:0:
256,192,25159,1,8,0:0:0:0:
256,192,25234,1,0,0:0:0:0:
256,192,25309,1,0,0:0:0:0:
256,192,25459,1,8,0:0:0:0:
256,192,25609,1,8,0:0:0:0:
256,192,25684,1,8,0:0:0:0:
256,192,25759,1,0,0:0:0:0:
256,192,25834,1,8,0:0:0:0:
256,192,25909,1,0,0:0:0:0:
256,192,26059,1,8,0:0:0:0:
256,192,26134,1,8,0:0:0:0:
256,192,26209,1,0,0:0:0:0:
256,192,26284,1,0,0:0:0:0:
256,192,26359,1,8,0:0:0:0:
256,192,26434,1,0,0:0:0:0:
256,192,26509,1,0,0:0:0:0:
256,192,26584,1,0,0:0:0:0:
256,192,26659,1,8,0:0:0:0:
256,192,26809,1,8,0:0:0:0:
256,192,26884,1,8,0:0:0:0:
256,192,26959,1,8,0:0:0:0:
256,192,27034,1,8,0:0:0:0:
256,192,27109,1,0,0:0:0:0:
256,192,27259,1,8,0:0:0:0:
256,192,27334,1,8,0:0:0:0:
256,192,27409,1,0,0:0:0:0:
256,192,27484,1,8,0:0:0:0:
256,192,27559,1,8,0:0:0:0:
256,192,27634,1,0,0:0:0:0:
256,192,27709,1,0,0:0:0:0:
256,192,27859,1,8,0:0:0:0:
256,192,28009,1,8,0:0:0:0:
256,192,28084,1,8,0:0:0:0:
256,192,28159,1,0,0:0:0:0:
256,192,28234,1,0,0:0:0:0:
256,192,28309,1,8,0:0:0:0:
256,192,28459,1,8,0:0:0:0:
256,192,28534,1,8,0:0:0:0:
256,192,28609,1,8,0:0:0:0:
256,192,28759,1,8,0:0:0:0:
256,192,28834,1,0,0:0:0:0:
256,192,28909,1,8,0:0:0:0:
256,192,28959,1,8,0:0:0:0:
256,192,29009,1,8,0:0:0:0:
256,192,29059,1,0,0:0:0:0:
256,192,29134,1,0,0:0:0:0:
256,192,29209,1,8,0:0:0:0:
256,192,29359,1,8,0:0:0:0:
256,192,29509,1,4,0:0:0:0:
256,192,29659,1,0,0:0:0:0:
256,192,29734,1,0,0:0:0:0:
256,192,29809,1,8,0:0:0:0:
256,192,29959,1,8,0:0:0:0:
256,192,30034,1,8,0:0:0:0:
256,192,30109,1,0,0:0:0:0:
256,192,30184,1,0,0:0:0:0:
256,192,30259,1,8,0:0:0:0:
256,192,30409,1,8,0:0:0:0:
256,192,30559,1,8,0:0:0:0:
256,192,30634,1,8,0:0:0:0:
256,192,30709,1,0,0:0:0:0:
256,192,30859,1,0,0:0:0:0:
256,192,30934,1,0,0:0:0:0:
256,192,31009,1,8,0:0:0:0:
256,192,31084,1,8,0:0:0:0:
256,192,31159,1,0,0:0:0:0:
256,192,31234,1,8,0:0:0:0:
256,192,31309,1,0,0:0:0:0:
256,192,31384,1,0,0:0:0:0:
256,192,31459,1,8,0:0:0:0:
256,192,31609,1,8,0:0:0:0:
256,192,31684,1,8,0:0:0:0:
256,192,31759,1,0,0:0:0:0:
256,192,31834,1,0,0:0:0:0:
256,192,31909,1,0,0:0:0:0:
256,192,32059,1,0,0:0:0:0:
256,192,32134,1,0,0:0:0:0:
256,192,32209,1,8,0:0:0:0:
256,192,32359,1,8,0:0:0:0:
256,192,32434,1,8,0:0:0:0:
256,192,32509,1,0,0:0:0:0:
256,192,32584,1,0,0:0:0:0:
256,192,32659,1,8,0:0:0:0:
256,192,32809,1,8,0:0:0:0:
256,192,32884,1,8,0:0:0:0:
256,192,32959,1,8,0:0:0:0:
256,192,33034,1,8,0:0:0:0:
256,192,33109,1,0,0:0:0:0:
256,192,33259,1,0,0:0:0:0:
256,192,33334,1,0,0:0:0:0:
256,192,33409,1,8,0:0:0:0:
256,192,33484,1,8,0:0:0:0:
256,192,33559,1,0,0:0:0:0:
256,192,33634,1,0,0:0:0:0:
256,192,33709,1,8,0:0:0:0:
256,192,33859,1,0,0:0:0:0:
256,192,34009,1,8,0:0:0:0:
256,192,34084,1,8,0:0:0:0:
256,192,34159,1,0,0:0:0:0:
256,192,34234,1,8,0:0:0:0:
256,192,34309,1,0,0:0:0:0:
256,192,34459,1,0,0:0:0:0:
256,192,34534,1,0,0:0:0:0:
256,192,34609,1,8,0:0:0:0:
256,192,34759,1,8,0:0:0:0:
256,192,34834,1,8,0:0:0:0:
256,192,34909,1,0,0:0:0:0:
256,192,34984,1,0,0:0:0:0:
256,192,35059,1,8,0:0:0:0:
256,192,35209,1,8,0:0:0:0:
256,192,35359,1,8,0:0:0:0:
256,192,35434,1,8,0:0:0:0:
256,192,35509,1,0,0:0:0:0:
256,192,35659,1,0,0:0:0:0:
256,192,35734,1,0,0:0:0:0:
256,192,35809,1,8,0:0:0:0:
256,192,35884,1,8,0:0:0:0:
256,192,35959,1,0,0:0:0:0:
256,192,36034,1,8,0:0:0:0:
256,192,36109,1,0,0:0:0:0:
256,192,36184,1,0,0:0:0:0:
256,192,36259,1,8,0:0:0:0:
256,192,36409,1,8,0:0:0:0:
256,192,36559,1,8,0:0:0:0:
256,192,36634,1,8,0:0:0:0:
256,192,36709,1,0,0:0:0:0:
256,192,36859,1,0,0:0:0:0:
256,192,36934,1,0,0:0:0:0:
256,192,37009,1,8,0:0:0:0:
256,192,37159,1,8,0:0:0:0:
256,192,37234,1,8,0:0:0:0:
256,192,37309,1,0,0:0:0:0:
256,192,37384,1,0,0:0:0:0:
256,192,37459,1,8,0:0:0:0:
256,192,37534,1,0,0:0:0:0:
256,192,37609,1,8,0:0:0:0:
256,192,37759,1,8,0:0:0:0:
256,192,37834,1,8,0:0:0:0:
256,192,37909,1,0,0:0:0:0:
256,192,37959,1,0,0:0:0:0:
256,192,38009,1,0,0:0:0:0:
256,192,38059,1,0,0:0:0:0:
256,192,38134,1,0,0:0:0:0:
256,192,38209,1,8,0:0:0:0:
256,192,38284,1,8,0:0:0:0:
256,192,38359,1,0,0:0:0:0:
256,192,38434,1,0,0:0:0:0:
256,192,38509,1,8,0:0:0:0:
256,192,38659,1,0,0:0:0:0:
256,192,38734,1,0,0:0:0:0:
256,192,38809,1,8,0:0:0:0:
256,192,39109,1,0,0:0:0:0:
256,192,39184,1,0,0:0:0:0:
256,192,39259,1,0,0:0:0:0:
256,192,39334,1,0,0:0:0:0:
256,192,39409,1,8,0:0:0:0:
256,192,39484,1,0,0:0:0:0:
256,192,39559,1,0,0:0:0:0:
256,192,39634,1,0,0:0:0:0:
256,192,39709,1,8,0:0:0:0:
256,192,39784,1,8,0:0:0:0:
256,192,39859,1,0,0:0:0:0:
256,192,39934,1,0,0:0:0:0:
256,192,40009,1,8,0:0:0:0:
256,192,40159,1,0,0:0:0:0:
256,192,40309,1,8,0:0:0:0:
256,192,40384,1,8,0:0:0:0:
256,192,40459,1,8,0:0:0:0:
256,192,40534,1,8,0:0:0:0:
256,192,40609,1,0,0:0:0:0:
256,192,40684,1,8,0:0:0:0:
256,192,40759,1,8,0:0:0:0:
256,192,40834,1,8,0:0:0:0:
256,192,40909,1,0,0:0:0:0:
256,192,40984,1,0,0:0:0:0:
256,192,41059,1,0,0:0:0:0:
256,192,41134,1,0,0:0:0:0:
256,192,41209,1,8,0:0:0:0:
256,192,41359,1,8,0:0:0:0:
256,192,41509,1,0,0:0:0:0:
256,192,41584,1,0,0:0:0:0:
256,192,41659,1,8,0:0:0:0:
256,192,41734,1,0,0:0:0:0:
256,192,41809,1,8,0:0:0:0:
256,192,41884,1,8,0:0:0:0:
256,192,41959,1,0,0:0:0:0:
256,192,42034,1,0,0:0:0:0:
256,192,42109,1,8,0:0:0:0:
256,192,42184,1,8,0:0:0:0:
256,192,42259,1,0,0:0:0:0:
256,192,42334,1,0,0:0:0:0:
256,192,42409,1,8,0:0:0:0:
256,192,42559,1,0,0:0:0:0:
256,192,42709,1,8,0:0:0:0:
256,192,42784,1,8,0:0:0:0:
256,192,42859,1,8,0:0:0:0:
256,192,42934,1,8,0:0:0:0:
256,192,43009,1,0,0:0:0:0:
256,192,43084,1,0,0:0:0:0:
256,192,43159,1,8,0:0:0:0:
256,192,43234,1,8,0:0:0:0:
256,192,43309,1,0,0:0:0:0:
256,192,43384,1,0,0:0:0:0:
256,192,43459,1,8,0:0:0:0:
256,192,43534,1,8,0:0:0:0:
256,192,43609,1,0,0:0:0:0:
256,192,43759,1,8,0:0:0:0:
256,192,43909,1,0,0:0:0:0:
256,192,43984,1,0,0:0:0:0:
256,192,44059,1,0,0:0:0:0:
256,192,44134,1,8,0:0:0:0:
256,192,44209,1,0,0:0:0:0:
256,192,44284,1,0,0:0:0:0:
256,192,44359,1,8,0:0:0:0:
256,192,44434,1,8,0:0:0:0:
256,192,44509,1,0,0:0:0:0:
256,192,44584,1,0,0:0:0:0:
256,192,44659,1,0,0:0:0:0:
256,192,44734,1,0,0:0:0:0:
256,192,44809,1,8,0:0:0:0:
256,192,44959,1,0,0:0:0:0:
256,192,45109,1,8,0:0:0:0:
256,192,45184,1,8,0:0:0:0:
256,192,45259,1,0,0:0:0:0:
256,192,45334,1,8,0:0:0:0:
256,192,45409,1,0,0:0:0:0:
256,192,45484,1,0,0:0:0:0:
256,192,45559,1,8,0:0:0:0:
256,192,45634,1,8,0:0:0:0:
256,192,45709,1,0,0:0:0:0:
256,192,45784,1,0,0:0:0:0:
256,192,45859,1,0,0:0:0:0:
256,192,45934,1,0,0:0:0:0:
256,192,46009,1,8,0:0:0:0:
256,192,46159,1,8,0:0:0:0:
256,192,46309,1,0,0:0:0:0:
256,192,46384,1,0,0:0:0:0:
256,192,46459,1,0,0:0:0:0:
256,192,46534,1,8,0:0:0:0:
256,192,46609,1,0,0:0:0:0:
256,192,46684,1,0,0:0:0:0:
256,192,46759,1,8,0:0:0:0:
256,192,46834,1,8,0:0:0:0:
256,192,46909,1,0,0:0:0:0:
256,192,46984,1,8,0:0:0:0:
256,192,47059,1,0,0:0:0:0:
256,192,47134,1,0,0:0:0:0:
256,192,47209,1,8,0:0:0:0:
256,192,47359,1,0,0:0:0:0:
256,192,47509,1,8,0:0:0:0:
256,192,47659,1,8,0:0:0:0:
256,192,47734,1,8,0:0:0:0:
256,192,47809,1,8,0:0:0:0:
256,192,47959,1,8,0:0:0:0:
256,192,48034,1,0,0:0:0:0:
256,192,48109,1,8,0:0:0:0:
256,192,48159,1,8,0:0:0:0:
256,192,48209,1,8,0:0:0:0:
256,192,48259,1,0,0:0:0:0:
256,192,48334,1,0,0:0:0:0:
256,192,48409,1,8,0:0:0:0:
256,192,48559,1,8,0:0:0:0:
256,192,48634,1,8,0:0:0:0:
256,192,48709,1,0,0:0:0:0:
256,192,48784,1,0,0:0:0:0:
256,192,48859,1,0,0:0:0:0:
256,192,48934,1,0,0:0:0:0:
256,192,49009,1,8,0:0:0:0:
256,192,49084,1,8,0:0:0:0:
256,192,49159,1,0,0:0:0:0:
256,192,49234,1,0,0:0:0:0:
256,192,49309,1,8,0:0:0:0:
256,192,49384,1,0,0:0:0:0:
256,192,49459,1,0,0:0:0:0:
256,192,49534,1,0,0:0:0:0:
256,192,49609,1,8,0:0:0:0:
256,192,49759,1,0,0:0:0:0:
256,192,49909,1,8,0:0:0:0:
256,192,49984,1,0,0:0:0:0:
256,192,50059,1,8,0:0:0:0:
256,192,50134,1,8,0:0:0:0:
256,192,50209,1,0,0:0:0:0:
256,192,50284,1,8,0:0:0:0:
256,192,50359,1,8,0:0:0:0:
256,192,50434,1,8,0:0:0:0:
256,192,50509,1,0,0:0:0:0:
256,192,50584,1,0,0:0:0:0:
256,192,50659,1,0,0:0:0:0:
256,192,50734,1,0,0:0:0:0:
256,192,50809,1,8,0:0:0:0:
256,192,50959,1,8,0:0:0:0:
256,192,51109,1,0,0:0:0:0:
256,192,51184,1,0,0:0:0:0:
256,192,51259,1,8,0:0:0:0:
256,192,51334,1,8,0:0:0:0:
256,192,51409,1,0,0:0:0:0:
256,192,51484,1,0,0:0:0:0:
256,192,51559,1,8,0:0:0:0:
256,192,51634,1,0,0:0:0:0:
256,192,51709,1,8,0:0:0:0:
256,192,51784,1,8,0:0:0:0:
256,192,51859,1,0,0:0:0:0:
256,192,51934,1,0,0:0:0:0:
256,192,52009,1,8,0:0:0:0:
256,192,52159,1,0,0:0:0:0:
256,192,52309,1,8,0:0:0:0:
256,192,52384,1,8,0:0:0:0:
256,192,52459,1,0,0:0:0:0:
256,192,52534,1,8,0:0:0:0:
256,192,52609,1,0,0:0:0:0:
256,192,52684,1,0,0:0:0:0:
256,192,52759,1,0,0:0:0:0:
256,192,52834,1,0,0:0:0:0:
256,192,52909,1,8,0:0:0:0:
256,192,53059,1,8,0:0:0:0:
256,192,53134,1,8,0:0:0:0:
256,192,53209,1,0,0:0:0:0:
256,192,53284,1,0,0:0:0:0:
256,192,53359,1,8,0:0:0:0:
256,192,53434,1,8,0:0:0:0:
256,192,53509,1,0,0:0:0:0:
256,192,53659,1,0,0:0:0:0:
256,192,53734,1,0,0:0:0:0:
256,192,53809,1,8,0:0:0:0:
256,192,53884,1,8,0:0:0:0:
256,192,53959,1,0,0:0:0:0:
256,192,54034,1,0,0:0:0:0:
256,192,54109,1,8,0:0:0:0:
256,192,54184,1,0,0:0:0:0:
256,192,54259,1,0,0:0:0:0:
256,192,54334,1,0,0:0:0:0:
256,192,54409,1,8,0:0:0:0:
256,192,54559,1,0,0:0:0:0:
256,192,54709,1,8,0:0:0:0:
256,192,54784,1,8,0:0:0:0:
256,192,54859,1,0,0:0:0:0:
256,192,54934,1,0,0:0:0:0:
256,192,55009,1,8,0:0:0:0:
256,192,55084,1,0,0:0:0:0:
256,192,55159,1,0,0:0:0:0:
256,192,55234,1,0,0:0:0:0:
256,192,55309,1,8,0:0:0:0:
256,192,55384,1,8,0:0:0:0:
256,192,55459,1,0,0:0:0:0:
256,192,55534,1,0,0:0:0:0:
256,192,55609,1,8,0:0:0:0:
256,192,55759,1,8,0:0:0:0:
256,192,55834,1,8,0:0:0:0:
256,192,55909,1,0,0:0:0:0:
256,192,56059,1,0,0:0:0:0:
256,192,56134,1,0,0:0:0:0:
256,192,56209,1,8,0:0:0:0:
256,192,56284,1,0,0:0:0:0:
256,192,56359,1,8,0:0:0:0:
256,192,56434,1,8,0:0:0:0:
256,192,56509,1,0,0:0:0:0:
256,192,56659,1,0,0:0:0:0:
256,192,56809,1,8,0:0:0:0:
256,192,56884,1,0,0:0:0:0:
256,192,56959,1,8,0:0:0:0:
256,192,57034,1,8,0:0:0:0:
256,192,57109,1,0,0:0:0:0:
256,192,57159,1,0,0:0:0:0:
256,192,57209,1,0,0:0:0:0:
256,192,57259,1,0,0:0:0:0:
256,192,57334,1,0,0:0:0:0:
256,192,57409,1,8,0:0:0:0:
256,192,57484,1,8,0:0:0:0:
256,192,57559,1,0,0:0:0:0:
256,192,57634,1,0,0:0:0:0:
256,192,57709,1,8,0:0:0:0:
256,192,57859,1,0,0:0:0:0:
256,192,58009,1,8,0:0:0:0:
256,192,58059,1,8,0:0:0:0:
256,192,58109,1,8,0:0:0:0:
256,192,58159,1,8,0:0:0:0:
256,192,58234,1,8,0:0:0:0:
256,192,58309,12,0,58909,0:0:0:0:
256,192,61309,12,0,63109,0:0:0:0:
256,192,72709,5,0,0:0:0:0:
256,192,73009,1,0,0:0:0:0:
256,192,73309,1,8,0:0:0:0:
256,192,73459,1,8,0:0:0:0:
256,192,73609,1,8,0:0:0:0:
256,192,73909,1,8,0:0:0:0:
256,192,74509,1,8,0:0:0:0:
256,192,74659,1,8,0:0:0:0:
256,192,74809,1,8,0:0:0:0:
256,192,74959,1,8,0:0:0:0:
256,192,75109,1,0,0:0:0:0:
256,192,75409,1,0,0:0:0:0:
256,192,75709,1,8,0:0:0:0:
256,192,76009,1,8,0:0:0:0:
256,192,76159,1,0,0:0:0:0:
256,192,76309,1,8,0:0:0:0:
256,192,76909,1,8,0:0:0:0:
256,192,77059,1,8,0:0:0:0:
256,192,77209,1,8,0:0:0:0:
256,192,77359,1,8,0:0:0:0:
256,192,77509,1,0,0:0:0:0:
256,192,77809,1,0,0:0:0:0:
256,192,78109,1,8,0:0:0:0:
256,192,78259,1,8,0:0:0:0:
256,192,78409,1,8,0:0:0:0:
256,192,78709,1,8,0:0:0:0:
256,192,79309,1,8,0:0:0:0:
256,192,79459,1,8,0:0:0:0:
256,192,79609,1,8,0:0:0:0:
256,192,79759,1,8,0:0:0:0:
256,192,79909,1,0,0:0:0:0:
256,192,80209,1,0,0:0:0:0:
256,192,80509,1,8,0:0:0:0:
256,192,80809,1,8,0:0:0:0:
256,192,80959,1,8,0:0:0:0:
256,192,81109,1,8,0:0:0:0:
256,192,81409,1,8,0:0:0:0:
256,192,81709,1,8,0:0:0:0:
256,192,82009,1,8,0:0:0:0:
256,192,82309,1,0,0:0:0:0:
256,192,82459,1,0,0:0:0:0:
256,192,82534,1,0,0:0:0:0:
256,192,82609,1,8,0:0:0:0:
256,192,82759,1,0,0:0:0:0:
256,192,82909,1,8,0:0:0:0:
256,192,82984,1,0,0:0:0:0:
256,192,83059,1,8,0:0:0:0:
256,192,83209,1,0,0:0:0:0:
256,192,83284,1,0,0:0:0:0:
256,192,83359,1,8,0:0:0:0:
256,192,83434,1,8,0:0:0:0:
256,192,83509,1,0,0:0:0:0:
256,192,83659,1,8,0:0:0:0:
256,192,83734,1,0,0:0:0:0:
256,192,83809,1,8,0:0:0:0:
256,192,83959,1,0,0:0:0:0:
256,192,84034,1,8,0:0:0:0:
256,192,84109,1,0,0:0:0:0:
256,192,84184,1,0,0:0:0:0:
256,192,84259,1,8,0:0:0:0:
256,192,84409,1,0,0:0:0:0:
256,192,84484,1,0,0:0:0:0:
256,192,84559,1,8,0:0:0:0:
256,192,84709,1,0,0:0:0:0:
256,192,84859,1,0,0:0:0:0:
256,192,84934,1,0,0:0:0:0:
256,192,85009,1,8,0:0:0:0:
256,192,85159,1,0,0:0:0:0:
256,192,85234,1,0,0:0:0:0:
256,192,85309,1,8,0:0:0:0:
256,192,85384,1,0,0:0:0:0:
256,192,85459,1,8,0:0:0:0:
256,192,85609,1,0,0:0:0:0:
256,192,85684,1,8,0:0:0:0:
256,192,85759,1,8,0:0:0:0:
256,192,85834,1,8,0:0:0:0:
256,192,85909,1,0,0:0:0:0:
256,192,86059,1,8,0:0:0:0:
256,192,86134,1,0,0:0:0:0:
256,192,86209,1,8,0:0:0:0:
256,192,86359,1,0,0:0:0:0:
256,192,86434,1,0,0:0:0:0:
256,192,86509,1,0,0:0:0:0:
256,192,86584,1,0,0:0:0:0:
256,192,86659,1,8,0:0:0:0:
256,192,86809,1,8,0:0:0:0:
256,192,86884,1,8,0:0:0:0:
256,192,86959,1,8,0:0:0:0:
256,192,87034,1,8,0:0:0:0:
256,192,87109,1,0,0:0:0:0:
256,192,87259,1,8,0:0:0:0:
256,192,87334,1,0,0:0:0:0:
256,192,87409,1,8,0:0:0:0:
256,192,87559,1,0,0:0:0:0:
256,192,87709,1,0,0:0:0:0:
256,192,87784,1,0,0:0:0:0:
256,192,87859,1,8,0:0:0:0:
256,192,88009,1,0,0:0:0:0:
256,192,88084,1,8,0:0:0:0:
256,192,88159,1,8,0:0:0:0:
256,192,88234,1,8,0:0:0:0:
256,192,88309,1,0,0:0:0:0:
256,192,88459,1,0,0:0:0:0:
256,192,88534,1,0,0:0:0:0:
256,192,88609,1,8,0:0:0:0:
256,192,88759,1,0,0:0:0:0:
256,192,88834,1,0,0:0:0:0:
256,192,88909,1,8,0:0:0:0:
256,192,88984,1,0,0:0:0:0:
256,192,89059,1,8,0:0:0:0:
256,192,89209,1,0,0:0:0:0:
256,192,89284,1,0,0:0:0:0:
256,192,89359,1,8,0:0:0:0:
256,192,89509,1,0,0:0:0:0:
256,192,89659,1,8,0:0:0:0:
256,192,89734,1,0,0:0:0:0:
256,192,89809,1,8,0:0:0:0:
256,192,89959,1,0,0:0:0:0:
256,192,90109,1,0,0:0:0:0:
256,192,90184,1,0,0:0:0:0:
256,192,90259,1,8,0:0:0:0:
256,192,90409,1,0,0:0:0:0:
256,192,90484,1,0,0:0:0:0:
256,192,90559,1,8,0:0:0:0:
256,192,90634,1,8,0:0:0:0:
256,192,90709,1,0,0:0:0:0:
256,192,90784,1,8,0:0:0:0:
256,192,90859,1,0,0:0:0:0:
256,192,90934,1,0,0:0:0:0:
256,192,91009,1,8,0:0:0:0:
256,192,91159,1,0,0:0:0:0:
256,192,91234,1,0,0:0:0:0:
256,192,91309,1,8,0:0:0:0:
256,192,91384,1,0,0:0:0:0:
256,192,91459,1,8,0:0:0:0:
256,192,91609,1,8,0:0:0:0:
256,192,91684,1,8,0:0:0:0:
256,192,91759,1,8,0:0:0:0:
256,192,91834,1,8,0:0:0:0:
256,192,91909,1,0,0:0:0:0:
256,192,93109,1,8,0:0:0:0:
256,192,94309,1,0,0:0:0:0:
256,192,94909,1,8,0:0:0:0:
256,192,95209,1,8,0:0:0:0:
256,192,95509,1,0,0:0:0:0:
256,192,95659,1,0,0:0:0:0:
256,192,95809,1,8,0:0:0:0:
256,192,95959,1,8,0:0:0:0:
256,192,96109,1,0,0:0:0:0:
256,192,96259,1,8,0:0:0:0:
256,192,96334,1,8,0:0:0:0:
256,192,96409,1,0,0:0:0:0:
256,192,96559,1,8,0:0:0:0:
256,192,96709,1,0,0:0:0:0:
256,192,96784,1,0,0:0:0:0:
256,192,96859,1,0,0:0:0:0:
256,192,96934,1,0,0:0:0:0:
256,192,97009,1,0,0:0:0:0:
256,192,97084,1,0,0:0:0:0:
256,192,97159,1,0,0:0:0:0:
256,192,97234,1,0,0:0:0:0:
256,192,97309,1,8,0:0:0:0:
256,192,97384,1,8,0:0:0:0:
256,192,97459,1,0,0:0:0:0:
256,192,97534,1,0,0:0:0:0:
256,192,97609,1,8,0:0:0:0:
256,192,97684,1,0,0:0:0:0:
256,192,97759,1,0,0:0:0:0:
256,192,97834,1,0,0:0:0:0:
256,192,97909,1,8,0:0:0:0:
256,192,97984,1,8,0:0:0:0:
256,192,98059,1,8,0:0:0:0:
256,192,98134,1,8,0:0:0:0:
256,192,98209,1,8,0:0:0:0:
256,192,98284,1,8,0:0:0:0:
256,192,98359,1,8,0:0:0:0:
256,192,98434,1,8,0:0:0:0:
256,192,98509,1,0,0:0:0:0:
256,192,98584,1,0,0:0:0:0:
256,192,98659,1,8,0:0:0:0:
256,192,98734,1,8,0:0:0:0:
256,192,98809,1,0,0:0:0:0:
256,192,98859,1,0,0:0:0:0:
256,192,98909,1,0,0:0:0:0:
256,192,98959,1,8,0:0:0:0:
256,192,99034,1,8,0:0:0:0:
256,192,99109,1,0,0:0:0:0:
256,192,99259,1,8,0:0:0:0:
256,192,99309,1,0,0:0:0:0:
256,192,99359,1,0,0:0:0:0:
256,192,99409,1,8,0:0:0:0:
256,192,99484,1,0,0:0:0:0:
256,192,99559,1,8,0:0:0:0:
256,192,99634,1,8,0:0:0:0:
256,192,99709,1,0,0:0:0:0:
256,192,99784,1,0,0:0:0:0:
256,192,99859,1,8,0:0:0:0:
256,192,99909,1,8,0:0:0:0:
256,192,99959,1,8,0:0:0:0:
256,192,100009,1,0,0:0:0:0:
256,192,100084,1,0,0:0:0:0:
256,192,100159,1,0,0:0:0:0:
256,192,100234,1,8,0:0:0:0:
256,192,101509,1,0,0:0:0:0:
256,192,101584,1,0,0:0:0:0:
256,192,101659,1,0,0:0:0:0:
256,192,101734,1,0,0:0:0:0:
256,192,101809,1,8,0:0:0:0:
256,192,101884,1,8,0:0:0:0:
256,192,101959,1,0,0:0:0:0:
256,192,102034,1,0,0:0:0:0:
256,192,102109,1,8,0:0:0:0:
256,192,102184,1,0,0:0:0:0:
256,192,102259,1,0,0:0:0:0:
256,192,102334,1,0,0:0:0:0:
256,192,102409,1,8,0:0:0:0:
256,192,102484,1,0,0:0:0:0:
256,192,102559,1,8,0:0:0:0:
256,192,102634,1,8,0:0:0:0:
256,192,102709,1,0,0:0:0:0:
256,192,102784,1,0,0:0:0:0:
256,192,102859,1,0,0:0:0:0:
256,192,102934,1,0,0:0:0:0:
256,192,103009,1,8,0:0:0:0:
256,192,103084,1,8,0:0:0:0:
256,192,103159,1,0,0:0:0:0:
256,192,103234,1,8,0:0:0:0:
256,192,103309,1,0,0:0:0:0:
256,192,103384,1,0,0:0:0:0:
256,192,103459,1,8,0:0:0:0:
256,192,103534,1,0,0:0:0:0:
256,192,103609,1,8,0:0:0:0:
256,192,103684,1,8,0:0:0:0:
256,192,103759,1,0,0:0:0:0:
256,192,103834,1,8,0:0:0:0:
256,192,103909,1,0,0:0:0:0:
256,192,103984,1,0,0:0:0:0:
256,192,104059,1,0,0:0:0:0:
256,192,104134,1,0,0:0:0:0:
256,192,104209,1,8,0:0:0:0:
256,192,104284,1,0,0:0:0:0:
256,192,104359,1,0,0:0:0:0:
256,192,104434,1,0,0:0:0:0:
256,192,104509,1,8,0:0:0:0:
256,192,104584,1,8,0:0:0:0:
256,192,104659,1,0,0:0:0:0:
256,192,104734,1,0,0:0:0:0:
256,192,104809,1,8,0:0:0:0:
256,192,104884,1,0,0:0:0:0:
256,192,104959,1,0,0:0:0:0:
256,192,105034,1,0,0:0:0:0:
256,192,105109,1,8,0:0:0:0:
256,192,105184,1,8,0:0:0:0:
256,192,105259,1,0,0:0:0:0:
256,192,105334,1,8,0:0:0:0:
256,192,105409,1,0,0:0:0:0:
256,192,105484,1,0,0:0:0:0:
256,192,105559,1,8,0:0:0:0:
256,192,105634,1,0,0:0:0:0:
256,192,105709,1,8,0:0:0:0:
256,192,105784,1,0,0:0:0:0:
256,192,105859,1,0,0:0:0:0:
256,192,105934,1,0,0:0:0:0:
256,192,106009,1,8,0:0:0:0:
256,192,106084,1,0,0:0:0:0:
256,192,106159,1,8,0:0:0:0:
256,192,106234,1,8,0:0:0:0:
256,192,106309,1,0,0:0:0:0:
256,192,106384,1,0,0:0:0:0:
256,192,106459,1,0,0:0:0:0:
256,192,106534,1,0,0:0:0:0:
256,192,106609,1,8,0:0:0:0:
256,192,106684,1,8,0:0:0:0:
256,192,106759,1,0,0:0:0:0:
256,192,106834,1,0,0:0:0:0:
256,192,106909,1,8,0:0:0:0:
256,192,106984,1,0,0:0:0:0:
256,192,107059,1,0,0:0:0:0:
256,192,107134,1,0,0:0:0:0:
256,192,107209,1,8,0:0:0:0:
256,192,107284,1,0,0:0:0:0:
256,192,107359,1,8,0:0:0:0:
256,192,107434,1,8,0:0:0:0:
256,192,107509,1,0,0:0:0:0:
256,192,107584,1,0,0:0:0:0:
256,192,107659,1,0,0:0:0:0:
256,192,107734,1,0,0:0:0:0:
256,192,107809,1,8,0:0:0:0:
256,192,107884,1,8,0:0:0:0:
256,192,107959,1,0,0:0:0:0:
256,192,108034,1,0,0:0:0:0:
256,192,108109,1,8,0:0:0:0:
256,192,108184,1,8,0:0:0:0:
256,192,108259,1,8,0:0:0:0:
256,192,108334,1,0,0:0:0:0:
256,192,108409,1,8,0:0:0:0:
256,192,108484,1,8,0:0:0:0:
256,192,108559,1,0,0:0:0:0:
256,192,108634,1,8,0:0:0:0:
256,192,108709,1,0,0:0:0:0:
256,192,108784,1,0,0:0:0:0:
256,192,108859,1,0,0:0:0:0:
256,192,108934,1,0,0:0:0:0:
256,192,109009,1,8,0:0:0:0:
256,192,109084,1,0,0:0:0:0:
256,192,109159,1,0,0:0:0:0:
256,192,109234,1,0,0:0:0:0:
256,192,109309,1,8,0:0:0:0:
256,192,109384,1,8,0:0:0:0:
256,192,109459,1,0,0:0:0:0:
256,192,109534,1,8,0:0:0:0:
256,192,109609,1,0,0:0:0:0:
256,192,109684,1,0,0:0:0:0:
256,192,109759,1,0,0:0:0:0:
256,192,109834,1,0,0:0:0:0:
256,192,109909,1,8,0:0:0:0:
256,192,110059,1,8,0:0:0:0:
256,192,110134,1,8,0:0:0:0:
256,192,110209,1,8,0:0:0:0:
256,192,110359,1,8,0:0:0:0:
256,192,110434,1,0,0:0:0:0:
256,192,110509,1,8,0:0:0:0:
256,192,110559,1,8,0:0:0:0:
256,192,110609,1,8,0:0:0:0:
256,192,110659,1,0,0:0:0:0:
256,192,110734,1,0,0:0:0:0:
256,192,110809,1,8,0:0:0:0:
256,192,110959,1,8,0:0:0:0:
256,192,111034,1,8,0:0:0:0:
256,192,111109,1,0,0:0:0:0:
256,192,111184,1,0,0:0:0:0:
256,192,111259,1,0,0:0:0:0:
256,192,111334,1,0,0:0:0:0:
256,192,111409,1,8,0:0:0:0:
256,192,111484,1,0,0:0:0:0:
256,192,111559,1,0,0:0:0:0:
256,192,111634,1,0,0:0:0:0:
256,192,111709,1,8,0:0:0:0:
256,192,111784,1,8,0:0:0:0:
256,192,111859,1,0,0:0:0:0:
256,192,111934,1,0,0:0:0:0:
256,192,112009,1,8,0:0:0:0:
256,192,112084,1,0,0:0:0:0:
256,192,112159,1,8,0:0:0:0:
256,192,112234,1,8,0:0:0:0:
256,192,112309,1,0,0:0:0:0:
256,192,112384,1,0,0:0:0:0:
256,192,112459,1,8,0:0:0:0:
256,192,112534,1,0,0:0:0:0:
256,192,112609,1,8,0:0:0:0:
256,192,112684,1,8,0:0:0:0:
256,192,112759,1,0,0:0:0:0:
256,192,112834,1,8,0:0:0:0:
256,192,112909,1,0,0:0:0:0:
256,192,112984,1,0,0:0:0:0:
256,192,113059,1,0,0:0:0:0:
256,192,113134,1,0,0:0:0:0:
256,192,113209,1,8,0:0:0:0:
256,192,113284,1,8,0:0:0:0:
256,192,113359,1,0,0:0:0:0:
256,192,113434,1,8,0:0:0:0:
256,192,113509,1,0,0:0:0:0:
256,192,113584,1,0,0:0:0:0:
256,192,113659,1,0,0:0:0:0:
256,192,113734,1,0,0:0:0:0:
256,192,113809,1,8,0:0:0:0:
256,192,113884,1,8,0:0:0:0:
256,192,113959,1,0,0:0:0:0:
256,192,114034,1,0,0:0:0:0:
256,192,114109,1,8,0:0:0:0:
256,192,114184,1,0,0:0:0:0:
256,192,114259,1,0,0:0:0:0:
256,192,114334,1,0,0:0:0:0:
256,192,114409,1,8,0:0:0:0:
256,192,114484,1,8,0:0:0:0:
256,192,114559,1,0,0:0:0:0:
256,192,114634,1,0,0:0:0:0:
256,192,114709,1,8,0:0:0:0:
256,192,114784,1,0,0:0:0:0:
256,192,114859,1,8,0:0:0:0:
256,192,114934,1,8,0:0:0:0:
256,192,115009,1,0,0:0:0:0:
256,192,115084,1,0,0:0:0:0:
256,192,115159,1,8,0:0:0:0:
256,192,115234,1,0,0:0:0:0:
256,192,115309,1,8,0:0:0:0:
256,192,115384,1,0,0:0:0:0:
256,192,115459,1,0,0:0:0:0:
256,192,115534,1,0,0:0:0:0:
256,192,115609,1,8,0:0:0:0:
256,192,115684,1,8,0:0:0:0:
256,192,115759,1,8,0:0:0:0:
256,192,115834,1,8,0:0:0:0:
256,192,115909,1,0,0:0:0:0:
256,192,115984,1,0,0:0:0:0:
256,192,116059,1,8,0:0:0:0:
256,192,116134,1,0,0:0:0:0:
256,192,116209,1,8,0:0:0:0:
256,192,116284,1,8,0:0:0:0:
256,192,116359,1,0,0:0:0:0:
256,192,116434,1,8,0:0:0:0:
256,192,116509,1,0,0:0:0:0:
256,192,116584,1,0,0:0:0:0:
256,192,116659,1,0,0:0:0:0:
256,192,116734,1,0,0:0:0:0:
256,192,116809,1,8,0:0:0:0:
256,192,116884,1,8,0:0:0:0:
256,192,116959,1,0,0:0:0:0:
256,192,117034,1,8,0:0:0:0:
256,192,117109,1,0,0:0:0:0:
256,192,117184,1,0,0:0:0:0:
256,192,117259,1,0,0:0:0:0:
256,192,117334,1,0,0:0:0:0:
256,192,117409,1,8,0:0:0:0:
256,192,117484,1,8,0:0:0:0:
256,192,117559,1,0,0:0:0:0:
256,192,117634,1,0,0:0:0:0:
256,192,117709,1,8,0:0:0:0:
256,192,117784,1,0,0:0:0:0:
256,192,117859,1,0,0:0:0:0:
256,192,117934,1,0,0:0:0:0:
256,192,118009,1,8,0:0:0:0:
256,192,118084,1,0,0:0:0:0:
256,192,118159,1,8,0:0:0:0:
256,192,118234,1,8,0:0:0:0:
256,192,118309,1,0,0:0:0:0:
256,192,118384,1,0,0:0:0:0:
256,192,118459,1,8,0:0:0:0:
256,192,118534,1,0,0:0:0:0:
256,192,118609,1,8,0:0:0:0:
256,192,118684,1,0,0:0:0:0:
256,192,118759,1,8,0:0:0:0:
256,192,118834,1,8,0:0:0:0:
256,192,118909,1,0,0:0:0:0:
256,192,118984,1,0,0:0:0:0:
256,192,119059,1,8,0:0:0:0:
256,192,119134,1,8,0:0:0:0:
256,192,119209,1,8,0:0:0:0:
256,192,119284,1,0,0:0:0:0:
256,192,119359,1,8,0:0:0:0:
256,192,119434,1,8,0:0:0:0:
256,192,119509,1,0,0:0:0:0:
256,192,119559,1,0,0:0:0:0:
256,192,119609,1,0,0:0:0:0:
256,192,119659,1,0,0:0:0:0:
256,192,119734,1,0,0:0:0:0:
256,192,119809,1,8,0:0:0:0:
256,192,119884,1,8,0:0:0:0:
256,192,119959,1,0,0:0:0:0:
256,192,120034,1,0,0:0:0:0:
256,192,120109,1,8,0:0:0:0:
256,192,120259,1,0,0:0:0:0:
256,192,120409,1,12,0:0:0:0:
256,192,120709,1,8,0:0:0:0:
256,192,120784,1,8,0:0:0:0:
256,192,120859,1,0,0:0:0:0:
256,192,120934,1,0,0:0:0:0:
256,192,121009,1,8,0:0:0:0:
256,192,121084,1,0,0:0:0:0:
256,192,121159,1,0,0:0:0:0:
256,192,121234,1,0,0:0:0:0:
256,192,121309,1,8,0:0:0:0:
256,192,121384,1,8,0:0:0:0:
256,192,121459,1,0,0:0:0:0:
256,192,121534,1,0,0:0:0:0:
256,192,121609,1,8,0:0:0:0:
256,192,121684,1,0,0:0:0:0:
256,192,121759,1,8,0:0:0:0:
256,192,121834,1,8,0:0:0:0:
256,192,121909,1,0,0:0:0:0:
256,192,121984,1,0,0:0:0:0:
256,192,122059,1,8,0:0:0:0:
256,192,122134,1,0,0:0:0:0:
256,192,122209,1,8,0:0:0:0:
256,192,122284,1,8,0:0:0:0:
256,192,122359,1,0,0:0:0:0:
256,192,122434,1,0,0:0:0:0:
256,192,122509,1,8,0:0:0:0:
256,192,122584,1,0,0:0:0:0:
256,192,122659,1,0,0:0:0:0:
256,192,122734,1,0,0:0:0:0:
256,192,122809,1,8,0:0:0:0:
256,192,122884,1,8,0:0:0:0:
256,192,122959,1,0,0:0:0:0:
256,192,123034,1,8,0:0:0:0:
256,192,123109,1,0,0:0:0:0:
256,192,123184,1,0,0:0:0:0:
256,192,123259,1,0,0:0:0:0:
256,192,123334,1,0,0:0:0:0:
256,192,123409,1,8,0:0:0:0:
256,192,123484,1,8,0:0:0:0:
256,192,123559,1,0,0:0:0:0:
256,192,123634,1,0,0:0:0:0:
256,192,123709,1,8,0:0:0:0:
256,192,123784,1,0,0:0:0:0:
256,192,123859,1,0,0:0:0:0:
256,192,123934,1,0,0:0:0:0:
256,192,124009,1,8,0:0:0:0:
256,192,124084,1,8,0:0:0:0:
256,192,124159,1,0,0:0:0:0:
256,192,124234,1,8,0:0:0:0:
256,192,124309,1,0,0:0:0:0:
256,192,124384,1,0,0:0:0:0:
256,192,124459,1,8,0:0:0:0:
256,192,124534,1,0,0:0:0:0:
256,192,124609,1,8,0:0:0:0:
256,192,124684,1,0,0:0:0:0:
256,192,124759,1,0,0:0:0:0:
256,192,124834,1,0,0:0:0:0:
256,192,124909,1,8,0:0:0:0:
256,192,124984,1,8,0:0:0:0:
256,192,125059,1,0,0:0:0:0:
256,192,125134,1,0,0:0:0:0:
256,192,125209,1,8,0:0:0:0:
256,192,125284,1,0,0:0:0:0:
256,192,125359,1,8,0:0:0:0:
256,192,125434,1,8,0:0:0:0:
256,192,125509,1,0,0:0:0:0:
256,192,125584,1,0,0:0:0:0:
256,192,125659,1,8,0:0:0:0:
256,192,125734,1,0,0:0:0:0:
256,192,125809,1,8,0:0:0:0:
256,192,125884,1,8,0:0:0:0:
256,192,125959,1,0,0:0:0:0:
256,192,126034,1,0,0:0:0:0:
256,192,126109,1,8,0:0:0:0:
256,192,126184,1,0,0:0:0:0:
256,192,126259,1,0,0:0:0:0:
256,192,126334,1,0,0:0:0:0:
256,192,126409,1,8,0:0:0:0:
256,192,126484,1,8,0:0:0:0:
256,192,126559,1,0,0:0:0:0:
256,192,126634,1,8,0:0:0:0:
256,192,126709,1,0,0:0:0:0:
256,192,126784,1,0,0:0:0:0:
256,192,126859,1,8,0:0:0:0:
256,192,126934,1,0,0:0:0:0:
256,192,127009,1,8,0:0:0:0:
256,192,127084,1,8,0:0:0:0:
256,192,127159,1,0,0:0:0:0:
256,192,127234,1,0,0:0:0:0:
256,192,127309,1,8,0:0:0:0:
256,192,127384,1,0,0:0:0:0:
256,192,127459,1,0,0:0:0:0:
256,192,127534,1,0,0:0:0:0:
256,192,127609,1,8,0:0:0:0:
256,192,127684,1,8,0:0:0:0:
256,192,127759,1,0,0:0:0:0:
256,192,127834,1,8,0:0:0:0:
256,192,127909,1,0,0:0:0:0:
256,192,127984,1,0,0:0:0:0:
256,192,128059,1,0,0:0:0:0:
256,192,128134,1,0,0:0:0:0:
256,192,128209,1,8,0:0:0:0:
256,192,128284,1,0,0:0:0:0:
256,192,128359,1,0,0:0:0:0:
256,192,128434,1,0,0:0:0:0:
256,192,128509,1,8,0:0:0:0:
256,192,128584,1,8,0:0:0:0:
256,192,128659,1,0,0:0:0:0:
256,192,128734,1,8,0:0:0:0:
256,192,128809,1,0,0:0:0:0:
256,192,128884,1,0,0:0:0:0:
256,192,128959,1,0,0:0:0:0:
256,192,129034,1,0,0:0:0:0:
256,192,129109,1,8,0:0:0:0:
256,192,129259,1,8,0:0:0:0:
256,192,129334,1,8,0:0:0:0:
256,192,129409,1,8,0:0:0:0:
256,192,129559,1,8,0:0:0:0:
256,192,129634,1,0,0:0:0:0:
256,192,129709,1,8,0:0:0:0:
256,192,129759,1,8,0:0:0:0:
256,192,129809,1,8,0:0:0:0:
256,192,129859,1,0,0:0:0:0:
256,192,129934,1,0,0:0:0:0:
256,192,130009,1,8,0:0:0:0:
256,192,130159,1,0,0:0:0:0:
256,192,130234,1,0,0:0:0:0:
256,192,130309,1,8,0:0:0:0:
256,192,130384,1,8,0:0:0:0:
256,192,130459,1,0,0:0:0:0:
256,192,130534,1,0,0:0:0:0:
256,192,130609,1,8,0:0:0:0:
256,192,130684,1,0,0:0:0:0:
256,192,130759,1,0,0:0:0:0:
256,192,130834,1,0,0:0:0:0:
256,192,130909,1,8,0:0:0:0:
256,192,130984,1,8,0:0:0:0:
256,192,131059,1,0,0:0:0:0:
256,192,131134,1,8,0:0:0:0:
256,192,131209,1,0,0:0:0:0:
256,192,131284,1,0,0:0:0:0:
256,192,131359,1,8,0:0:0:0:
256,192,131434,1,8,0:0:0:0:
256,192,131509,1,0,0:0:0:0:
256,192,131584,1,0,0:0:0:0:
256,192,131659,1,8,0:0:0:0:
256,192,131734,1,0,0:0:0:0:
256,192,131809,1,8,0:0:0:0:
256,192,131884,1,0,0:0:0:0:
256,192,131959,1,0,0:0:0:0:
256,192,132034,1,0,0:0:0:0:
256,192,132109,1,8,0:0:0:0:
256,192,132184,1,8,0:0:0:0:
256,192,132259,1,0,0:0:0:0:
256,192,132334,1,0,0:0:0:0:
256,192,132409,1,8,0:0:0:0:
256,192,132484,1,8,0:0:0:0:
256,192,132559,1,0,0:0:0:0:
256,192,132634,1,8,0:0:0:0:
256,192,132709,1,0,0:0:0:0:
256,192,132784,1,0,0:0:0:0:
256,192,132859,1,0,0:0:0:0:
256,192,132934,1,0,0:0:0:0:
256,192,133009,1,8,0:0:0:0:
256,192,133084,1,0,0:0:0:0:
256,192,133159,1,0,0:0:0:0:
256,192,133234,1,0,0:0:0:0:
256,192,133309,1,8,0:0:0:0:
256,192,133384,1,8,0:0:0:0:
256,192,133459,1,0,0:0:0:0:
256,192,133534,1,0,0:0:0:0:
256,192,133609,1,8,0:0:0:0:
256,192,133684,1,0,0:0:0:0:
256,192,133759,1,8,0:0:0:0:
256,192,133834,1,8,0:0:0:0:
256,192,133909,1,0,0:0:0:0:
256,192,133984,1,0,0:0:0:0:
256,192,134059,1,8,0:0:0:0:
256,192,134134,1,0,0:0:0:0:
256,192,134209,1,8,0:0:0:0:
256,192,134284,1,8,0:0:0:0:
256,192,134359,1,0,0:0:0:0:
256,192,134434,1,0,0:0:0:0:
256,192,134509,1,8,0:0:0:0:
256,192,134584,1,0,0:0:0:0:
256,192,134659,1,0,0:0:0:0:
256,192,134734,1,0,0:0:0:0:
256,192,134809,1,8,0:0:0:0:
256,192,134884,1,8,0:0:0:0:
256,192,134959,1,8,0:0:0:0:
256,192,135034,1,8,0:0:0:0:
256,192,135109,1,0,0:0:0:0:
256,192,135184,1,0,0:0:0:0:
256,192,135259,1,8,0:0:0:0:
256,192,135334,1,0,0:0:0:0:
256,192,135409,1,8,0:0:0:0:
256,192,135484,1,8,0:0:0:0:
256,192,135559,1,0,0:0:0:0:
256,192,135634,1,8,0:0:0:0:
256,192,135709,1,0,0:0:0:0:
256,192,135784,1,0,0:0:0:0:
256,192,135859,1,0,0:0:0:0:
256,192,135934,1,0,0:0:0:0:
256,192,136009,1,8,0:0:0:0:
256,192,136084,1,8,0:0:0:0:
256,192,136159,1,0,0:0:0:0:
256,192,136234,1,8,0:0:0:0:
256,192,136309,1,0,0:0:0:0:
256,192,136384,1,0,0:0:0:0:
256,192,136459,1,8,0:0:0:0:
256,192,136534,1,0,0:0:0:0:
256,192,136609,1,8,0:0:0:0:
256,192,136684,1,0,0:0:0:0:
256,192,136759,1,0,0:0:0:0:
256,192,136834,1,0,0:0:0:0:
256,192,136909,1,8,0:0:0:0:
256,192,136984,1,8,0:0:0:0:
256,192,137059,1,0,0:0:0:0:
256,192,137134,1,0,0:0:0:0:
256,192,137209,1,8,0:0:0:0:
256,192,137284,1,0,0:0:0:0:
256,192,137359,1,8,0:0:0:0:
256,192,137434,1,8,0:0:0:0:
256,192,137509,1,0,0:0:0:0:
256,192,137584,1,0,0:0:0:0:
256,192,137659,1,8,0:0:0:0:
256,192,137734,1,8,0:0:0:0:
256,192,137809,1,8,0:0:0:0:
256,192,137884,1,0,0:0:0:0:
256,192,137959,1,8,0:0:0:0:
256,192,138034,1,8,0:0:0:0:
256,192,138109,1,0,0:0:0:0:
256,192,138184,1,0,0:0:0:0:
256,192,138259,1,8,0:0:0:0:
256,192,138334,1,0,0:0:0:0:
256,192,138409,1,8,0:0:0:0:
256,192,138484,1,0,0:0:0:0:
256,192,138559,1,8,0:0:0:0:
256,192,138634,1,8,0:0:0:0:
256,192,138709,1,0,0:0:0:0:
256,192,138759,1,0,0:0:0:0:
256,192,138809,1,0,0:0:0:0:
256,192,138859,1,0,0:0:0:0:
256,192,138934,1,0,0:0:0:0:
256,192,139009,1,8,0:0:0:0:
256,192,139084,1,8,0:0:0:0:
256,192,139159,1,0,0:0:0:0:
256,192,139234,1,0,0:0:0:0:
256,192,139309,1,8,0:0:0:0:
256,192,139459,1,0,0:0:0:0:
256,192,139609,1,8,0:0:0:0:
256,192,139659,1,8,0:0:0:0:
256,192,139709,1,8,0:0:0:0:
256,192,139759,1,8,0:0:0:0:
256,192,139834,1,8,0:0:0:0:
256,192,139909,1,0,0:0:0:0:
256,192,140209,1,0,0:0:0:0:
256,192,140509,1,0,0:0:0:0:
256,192,140809,1,0,0:0:0:0:
256,192,141109,1,0,0:0:0:0:
256,192,141409,1,0,0:0:0:0:
256,192,141709,1,0,0:0:0:0:
256,192,142009,1,0,0:0:0:0:
256,192,142309,1,0,0:0:0:0:
256,192,142609,1,0,0:0:0:0:
256,192,142909,1,0,0:0:0:0:
256,192,143209,1,0,0:0:0:0:
256,192,143509,1,0,0:0:0:0:
256,192,143809,1,0,0:0:0:0:
256,192,144109,1,0,0:0:0:0:
256,192,144409,1,0,0:0:0:0:
256,192,144559,1,0,0:0:0:0:
256,192,144709,1,0,0:0:0:0:
256,192,145009,1,0,0:0:0:0:
256,192,145309,1,0,0:0:0:0:
256,192,145609,1,0,0:0:0:0:
256,192,145909,1,0,0:0:0:0:
256,192,146209,1,0,0:0:0:0:
256,192,146509,1,0,0:0:0:0:
256,192,146809,1,0,0:0:0:0:
256,192,147109,1,0,0:0:0:0:
256,192,147409,1,0,0:0:0:0:
256,192,147709,1,0,0:0:0:0:
256,192,148009,1,0,0:0:0:0:
256,192,148309,1,0,0:0:0:0:
256,192,148459,1,0,0:0:0:0:
256,192,148534,1,0,0:0:0:0:
256,192,148609,1,0,0:0:0:0:
256,192,148759,1,0,0:0:0:0:
256,192,148909,1,0,0:0:0:0:
256,192,148959,1,0,0:0:0:0:
256,192,149009,1,0,0:0:0:0:
256,192,149059,1,0,0:0:0:0:
256,192,149134,1,0,0:0:0:0:
256,192,149209,1,0,0:0:0:0:
256,192,149359,1,0,0:0:0:0:
256,192,149434,1,0,0:0:0:0:
256,192,149509,1,0,0:0:0:0:
256,192,149734,1,8,0:0:0:0:
256,192,149809,1,0,0:0:0:0:
256,192,149959,1,8,0:0:0:0:
256,192,150109,1,0,0:0:0:0:
256,192,150259,1,8,0:0:0:0:
256,192,150409,1,0,0:0:0:0:
256,192,150709,1,0,0:0:0:0:
256,192,150784,1,8,0:0:0:0:
256,192,150934,1,8,0:0:0:0:
256,192,151009,1,0,0:0:0:0:
256,192,151159,1,8,0:0:0:0:
256,192,151309,1,0,0:0:0:0:
256,192,151459,1,8,0:0:0:0:
256,192,151609,1,0,0:0:0:0:
256,192,151909,1,0,0:0:0:0:
256,192,152134,1,8,0:0:0:0:
256,192,152209,1,0,0:0:0:0:
256,192,152359,1,8,0:0:0:0:
256,192,152509,1,0,0:0:0:0:
256,192,152659,1,8,0:0:0:0:
256,192,152809,1,0,0:0:0:0:
256,192,152959,1,8,0:0:0:0:
256,192,153109,1,0,0:0:0:0:
256,192,153184,1,8,0:0:0:0:
256,192,153334,1,8,0:0:0:0:
256,192,153409,1,0,0:0:0:0:
256,192,153559,1,8,0:0:0:0:
256,192,153634,1,8,0:0:0:0:
256,192,153709,1,0,0:0:0:0:
256,192,153859,1,8,0:0:0:0:
256,192,154009,1,0,0:0:0:0:
256,192,154084,1,8,0:0:0:0:
256,192,154159,1,8,0:0:0:0:
256,192,154234,1,8,0:0:0:0:
256,192,154309,1,0,0:0:0:0:
256,192,154459,1,0,0:0:0:0:
256,192,154609,1,8,0:0:0:0:
256,192,154759,1,8,0:0:0:0:
256,192,154909,1,0,0:0:0:0:
256,192,155059,1,0,0:0:0:0:
256,192,155209,1,8,0:0:0:0:
256,192,155359,1,8,0:0:0:0:
256,192,155434,1,8,0:0:0:0:
256,192,155509,1,0,0:0:0:0:
256,192,155659,1,8,0:0:0:0:
256,192,155809,1,8,0:0:0:0:
256,192,155959,1,8,0:0:0:0:
256,192,156109,1,0,0:0:0:0:
256,192,156259,1,8,0:0:0:0:
256,192,156409,1,8,0:0:0:0:
256,192,156559,1,8,0:0:0:0:
256,192,156634,1,8,0:0:0:0:
256,192,156709,1,0,0:0:0:0:
256,192,156859,1,0,0:0:0:0:
256,192,157009,1,8,0:0:0:0:
256,192,157159,1,8,0:0:0:0:
256,192,157234,1,8,0:0:0:0:
256,192,157309,1,0,0:0:0:0:
256,192,157459,1,8,0:0:0:0:
256,192,157609,1,8,0:0:0:0:
256,192,157759,1,8,0:0:0:0:
256,192,157834,1,8,0:0:0:0:
256,192,157909,1,0,0:0:0:0:
256,192,157959,1,0,0:0:0:0:
256,192,158009,1,0,0:0:0:0:
256,192,158059,1,0,0:0:0:0:
256,192,158134,1,0,0:0:0:0:
256,192,158209,1,8,0:0:0:0:
256,192,158284,1,8,0:0:0:0:
256,192,158359,1,0,0:0:0:0:
256,192,158434,1,0,0:0:0:0:
256,192,158509,1,8,0:0:0:0:
256,192,158659,1,0,0:0:0:0:
256,192,158809,1,12,0:0:0:0:
256,192,159109,1,0,0:0:0:0:
256,192,159184,1,0,0:0:0:0:
256,192,159259,1,0,0:0:0:0:
256,192,159334,1,0,0:0:0:0:
256,192,159409,1,8,0:0:0:0:
256,192,159484,1,8,0:0:0:0:
256,192,159559,1,0,0:0:0:0:
256,192,159634,1,0,0:0:0:0:
256,192,159709,1,8,0:0:0:0:
256,192,159784,1,0,0:0:0:0:
256,192,159859,1,0,0:0:0:0:
256,192,159934,1,0,0:0:0:0:
256,192,160009,1,8,0:0:0:0:
256,192,160159,1,0,0:0:0:0:
256,192,160309,1,8,0:0:0:0:
256,192,160384,1,8,0:0:0:0:
256,192,160459,1,8,0:0:0:0:
256,192,160534,1,8,0:0:0:0:
256,192,160609,1,0,0:0:0:0:
256,192,160684,1,0,0:0:0:0:
256,192,160759,1,8,0:0:0:0:
256,192,160834,1,8,0:0:0:0:
256,192,160909,1,0,0:0:0:0:
256,192,160984,1,8,0:0:0:0:
256,192,161059,1,0,0:0:0:0:
256,192,161134,1,0,0:0:0:0:
256,192,161209,1,8,0:0:0:0:
256,192,161359,1,8,0:0:0:0:
256,192,161509,1,0,0:0:0:0:
256,192,161584,1,0,0:0:0:0:
256,192,161659,1,0,0:0:0:0:
256,192,161734,1,0,0:0:0:0:
256,192,161809,1,8,0:0:0:0:
256,192,161884,1,8,0:0:0:0:
256,192,161959,1,8,0:0:0:0:
256,192,162034,1,0,0:0:0:0:
256,192,162109,1,8,0:0:0:0:
256,192,162184,1,8,0:0:0:0:
256,192,162259,1,0,0:0:0:0:
256,192,162334,1,0,0:0:0:0:
256,192,162409,1,8,0:0:0:0:
256,192,162559,1,0,0:0:0:0:
256,192,162709,1,8,0:0:0:0:
256,192,162784,1,8,0:0:0:0:
256,192,162859,1,8,0:0:0:0:
256,192,162934,1,8,0:0:0:0:
256,192,163009,1,0,0:0:0:0:
256,192,163084,1,8,0:0:0:0:
256,192,163159,1,8,0:0:0:0:
256,192,163234,1,8,0:0:0:0:
256,192,163309,1,0,0:0:0:0:
256,192,163384,1,0,0:0:0:0:
256,192,163459,1,8,0:0:0:0:
256,192,163534,1,8,0:0:0:0:
256,192,163609,1,0,0:0:0:0:
256,192,163759,1,0,0:0:0:0:
256,192,163909,1,0,0:0:0:0:
256,192,163984,1,0,0:0:0:0:
256,192,164059,1,0,0:0:0:0:
256,192,164134,1,8,0:0:0:0:
256,192,164209,1,0,0:0:0:0:
256,192,164284,1,0,0:0:0:0:
256,192,164359,1,8,0:0:0:0:
256,192,164434,1,8,0:0:0:0:
256,192,164509,1,0,0:0:0:0:
256,192,164584,1,0,0:0:0:0:
256,192,164659,1,0,0:0:0:0:
256,192,164734,1,0,0:0:0:0:
256,192,164809,1,8,0:0:0:0:
256,192,164959,1,0,0:0:0:0:
256,192,165109,1,8,0:0:0:0:
256,192,165184,1,8,0:0:0:0:
256,192,165259,1,0,0:0:0:0:
256,192,165334,1,8,0:0:0:0:
256,192,165409,1,0,0:0:0:0:
256,192,165484,1,0,0:0:0:0:
256,192,165559,1,8,0:0:0:0:
256,192,165634,1,0,0:0:0:0:
256,192,165709,1,8,0:0:0:0:
256,192,165784,1,8,0:0:0:0:
256,192,165859,1,0,0:0:0:0:
256,192,165934,1,0,0:0:0:0:
256,192,166009,1,8,0:0:0:0:
256,192,166159,1,8,0:0:0:0:
256,192,166309,1,0,0:0:0:0:
256,192,166384,1,0,0:0:0:0:
256,192,166459,1,0,0:0:0:0:
256,192,166534,1,8,0:0:0:0:
256,192,166609,1,0,0:0:0:0:
256,192,166684,1,0,0:0:0:0:
256,192,166759,1,8,0:0:0:0:
256,192,166834,1,8,0:0:0:0:
256,192,166909,1,0,0:0:0:0:
256,192,166984,1,8,0:0:0:0:
256,192,167059,1,0,0:0:0:0:
256,192,167134,1,0,0:0:0:0:
256,192,167209,1,8,0:0:0:0:
256,192,167359,1,0,0:0:0:0:
256,192,167509,1,8,0:0:0:0:
256,192,167659,1,8,0:0:0:0:
256,192,167734,1,8,0:0:0:0:
256,192,167809,1,8,0:0:0:0:
256,192,167959,1,8,0:0:0:0:
256,192,168034,1,0,0:0:0:0:
256,192,168109,1,8,0:0:0:0:
256,192,168159,1,8,0:0:0:0:
256,192,168209,1,8,0:0:0:0:
256,192,168259,1,0,0:0:0:0:
256,192,168334,1,0,0:0:0:0:
256,192,168409,1,8,0:0:0:0:
256,192,168559,1,8,0:0:0:0:
256,192,168634,1,8,0:0:0:0:
256,192,168709,1,0,0:0:0:0:
256,192,168784,1,0,0:0:0:0:
256,192,168859,1,0,0:0:0:0:
256,192,168934,1,0,0:0:0:0:
256,192,169009,1,8,0:0:0:0:
256,192,169084,1,0,0:0:0:0:
256,192,169159,1,0,0:0:0:0:
256,192,169234,1,0,0:0:0:0:
256,192,169309,1,8,0:0:0:0:
256,192,169384,1,8,0:0:0:0:
256,192,169459,1,0,0:0:0:0:
256,192,169534,1,0,0:0:0:0:
256,192,169609,1,8,0:0:0:0:
256,192,169759,1,0,0:0:0:0:
256,192,169909,1,8,0:0:0:0:
256,192,169984,1,8,0:0:0:0:
256,192,170059,1,8,0:0:0:0:
256,192,170134,1,8,0:0:0:0:
256,192,170209,1,0,0:0:0:0:
256,192,170284,1,0,0:0:0:0:
256,192,170359,1,8,0:0:0:0:
256,192,170434,1,0,0:0:0:0:
256,192,170509,1,8,0:0:0:0:
256,192,170584,1,8,0:0:0:0:
256,192,170659,1,0,0:0:0:0:
256,192,170734,1,0,0:0:0:0:
256,192,170809,1,8,0:0:0:0:
256,192,170959,1,8,0:0:0:0:
256,192,171109,1,0,0:0:0:0:
256,192,171184,1,0,0:0:0:0:
256,192,171259,1,0,0:0:0:0:
256,192,171334,1,8,0:0:0:0:
256,192,171409,1,0,0:0:0:0:
256,192,171484,1,0,0:0:0:0:
256,192,171559,1,8,0:0:0:0:
256,192,171634,1,8,0:0:0:0:
256,192,171709,1,0,0:0:0:0:
256,192,171784,1,0,0:0:0:0:
256,192,171859,1,0,0:0:0:0:
256,192,171934,1,0,0:0:0:0:
256,192,172009,1,8,0:0:0:0:
256,192,172159,1,0,0:0:0:0:
256,192,172309,1,8,0:0:0:0:
256,192,172384,1,8,0:0:0:0:
256,192,172459,1,0,0:0:0:0:
256,192,172534,1,8,0:0:0:0:
256,192,172609,1,0,0:0:0:0:
256,192,172684,1,0,0:0:0:0:
256,192,172759,1,0,0:0:0:0:
256,192,172834,1,0,0:0:0:0:
256,192,172909,1,8,0:0:0:0:
256,192,173059,1,8,0:0:0:0:
256,192,173134,1,8,0:0:0:0:
256,192,173209,1,0,0:0:0:0:
256,192,173284,1,0,0:0:0:0:
256,192,173359,1,8,0:0:0:0:
256,192,173434,1,8,0:0:0:0:
256,192,173509,1,0,0:0:0:0:
256,192,173659,1,0,0:0:0:0:
256,192,173734,1,0,0:0:0:0:
256,192,173809,1,8,0:0:0:0:
256,192,173884,1,0,0:0:0:0:
256,192,173959,1,8,0:0:0:0:
256,192,174034,1,8,0:0:0:0:
256,192,174109,1,0,0:0:0:0:
256,192,174184,1,0,0:0:0:0:
256,192,174259,1,0,0:0:0:0:
256,192,174334,1,0,0:0:0:0:
256,192,174409,1,8,0:0:0:0:
256,192,174559,1,8,0:0:0:0:
256,192,174709,1,0,0:0:0:0:
256,192,174784,1,0,0:0:0:0:
256,192,174859,1,0,0:0:0:0:
256,192,174934,1,8,0:0:0:0:
256,192,175009,1,0,0:0:0:0:
256,192,175084,1,0,0:0:0:0:
256,192,175159,1,8,0:0:0:0:
256,192,175234,1,0,0:0:0:0:
256,192,175309,1,8,0:0:0:0:
256,192,175384,1,8,0:0:0:0:
256,192,175459,1,0,0:0:0:0:
256,192,175534,1,0,0:0:0:0:
256,192,175609,1,8,0:0:0:0:
256,192,175759,1,8,0:0:0:0:
256,192,175834,1,8,0:0:0:0:
256,192,175909,1,0,0:0:0:0:
256,192,176059,1,0,0:0:0:0:
256,192,176134,1,0,0:0:0:0:
256,192,176209,1,8,0:0:0:0:
256,192,176284,1,0,0:0:0:0:
256,192,176359,1,8,0:0:0:0:
256,192,176434,1,8,0:0:0:0:
256,192,176509,1,0,0:0:0:0:
256,192,176659,1,0,0:0:0:0:
256,192,176809,1,8,0:0:0:0:
256,192,176884,1,0,0:0:0:0:
256,192,176959,1,8,0:0:0:0:
256,192,177034,1,8,0:0:0:0:
256,192,177109,1,0,0:0:0:0:
256,192,177159,1,0,0:0:0:0:
256,192,177209,1,0,0:0:0:0:
256,192,177259,1,0,0:0:0:0:
256,192,177334,1,0,0:0:0:0:
256,192,177409,1,8,0:0:0:0:
256,192,177484,1,8,0:0:0:0:
256,192,177559,1,0,0:0:0:0:
256,192,177634,1,0,0:0:0:0:
256,192,177709,1,8,0:0:0:0:
256,192,177859,1,0,0:0:0:0:
256,192,178009,1,8,0:0:0:0:
256,192,178059,1,8,0:0:0:0:
256,192,178109,1,8,0:0:0:0:
256,192,178159,1,8,0:0:0:0:
256,192,178234,1,8,0:0:0:0:
256,192,178309,1,0,0:0:0:0:
256,192,187909,5,8,0:0:0:0:
256,192,188209,1,8,0:0:0:0:
256,192,188509,1,8,0:0:0:0:
256,192,188659,1,8,0:0:0:0:
256,192,188809,1,8,0:0:0:0:
256,192,188959,1,8,0:0:0:0:
256,192,189109,1,8,0:0:0:0:
256,192,189409,1,8,0:0:0:0:
256,192,189709,1,8,0:0:0:0:
256,192,190009,1,8,0:0:0:0:
256,192,190159,1,8,0:0:0:0:
256,192,190309,1,8,0:0:0:0:
256,192,190609,1,8,0:0:0:0:
256,192,190909,1,8,0:0:0:0:
256,192,191059,1,8,0:0:0:0:
256,192,191209,1,8,0:0:0:0:
256,192,191359,1,8,0:0:0:0:
256,192,191509,1,8,0:0:0:0:
256,192,191809,1,8,0:0:0:0:
256,192,192109,1,8,0:0:0:0:
256,192,192259,1,8,0:0:0:0:
256,192,192334,1,8,0:0:0:0:
256,192,192409,1,8,0:0:0:0:
256,192,192559,1,8,0:0:0:0:
256,192,192709,1,8,0:0:0:0:
256,192,193009,1,8,0:0:0:0:
256,192,193309,1,8,0:0:0:0:
256,192,193459,1,8,0:0:0:0:
256,192,193609,1,8,0:0:0:0:
256,192,193759,1,8,0:0:0:0:
256,192,193909,1,8,0:0:0:0:
256,192,194209,1,8,0:0:0:0:
256,192,194509,1,8,0:0:0:0:
256,192,194809,1,8,0:0:0:0:
256,192,194959,1,8,0:0:0:0:
256,192,195109,1,8,0:0:0:0:
256,192,195409,1,8,0:0:0:0:
256,192,195709,1,8,0:0:0:0:
256,192,195859,1,8,0:0:0:0:
256,192,196009,1,8,0:0:0:0:
256,192,196159,1,8,0:0:0:0:
256,192,196309,1,0,0:0:0:0:
256,192,196609,1,8,0:0:0:0:
256,192,196759,1,0,0:0:0:0:
256,192,196909,1,8,0:0:0:0:
256,192,197059,1,8,0:0:0:0:
256,192,197134,1,8,0:0:0:0:
256,192,197209,1,8,0:0:0:0:
256,192,197359,1,0,0:0:0:0:
256,192,197509,1,8,0:0:0:0:
256,192,197809,1,8,0:0:0:0:
256,192,198109,1,8,0:0:0:0:
256,192,198409,1,8,0:0:0:0:
256,192,198559,1,0,0:0:0:0:
256,192,198709,1,8,0:0:0:0:
256,192,199009,1,8,0:0:0:0:
256,192,199309,1,8,0:0:0:0:
256,192,199609,1,8,0:0:0:0:
256,192,199759,1,8,0:0:0:0:
256,192,199909,1,8,0:0:0:0:
256,192,200209,1,8,0:0:0:0:
256,192,200509,1,8,0:0:0:0:
256,192,200659,1,0,0:0:0:0:
256,192,200809,1,8,0:0:0:0:
256,192,200959,1,0,0:0:0:0:
256,192,201109,1,8,0:0:0:0:
256,192,201409,1,8,0:0:0:0:
256,192,201559,1,0,0:0:0:0:
256,192,201709,1,8,0:0:0:0:
256,192,201859,1,8,0:0:0:0:
256,192,201934,1,8,0:0:0:0:
256,192,202009,1,8,0:0:0:0:
256,192,202159,1,8,0:0:0:0:
256,192,202309,1,8,0:0:0:0:
256,192,202609,1,8,0:0:0:0:
256,192,202909,1,8,0:0:0:0:
256,192,203209,1,8,0:0:0:0:
256,192,203359,1,0,0:0:0:0:
256,192,203509,1,8,0:0:0:0:
256,192,203809,1,8,0:0:0:0:
256,192,204109,1,8,0:0:0:0:
256,192,204259,1,0,0:0:0:0:
256,192,204409,1,8,0:0:0:0:
256,192,204559,1,8,0:0:0:0:
256,192,204709,1,8,0:0:0:0:
256,192,205009,1,8,0:0:0:0:
256,192,205159,1,0,0:0:0:0:
256,192,205309,1,8,0:0:0:0:
256,192,205609,1,8,0:0:0:0:
256,192,205759,1,0,0:0:0:0:
256,192,205909,1,8,0:0:0:0:
256,192,206209,1,8,0:0:0:0:
256,192,206359,1,0,0:0:0:0:
256,192,206509,1,8,0:0:0:0:
256,192,206659,1,8,0:0:0:0:
256,192,206734,1,8,0:0:0:0:
256,192,206809,1,8,0:0:0:0:
256,192,206959,1,8,0:0:0:0:
256,192,207109,1,0,0:0:0:0:
256,192,207184,1,0,0:0:0:0:
256,192,207259,1,0,0:0:0:0:
256,192,207334,1,0,0:0:0:0:
256,192,207409,1,8,0:0:0:0:
256,192,207484,1,8,0:0:0:0:
256,192,207559,1,0,0:0:0:0:
256,192,207634,1,0,0:0:0:0:
256,192,207709,1,8,0:0:0:0:
256,192,207784,1,0,0:0:0:0:
256,192,207859,1,0,0:0:0:0:
256,192,207934,1,0,0:0:0:0:
256,192,208009,1,8,0:0:0:0:
256,192,208159,1,8,0:0:0:0:
256,192,208234,1,8,0:0:0:0:
256,192,208309,1,0,0:0:0:0:
256,192,208384,1,0,0:0:0:0:
256,192,208459,1,8,0:0:0:0:
256,192,208534,1,8,0:0:0:0:
256,192,208609,1,8,0:0:0:0:
256,192,208684,1,8,0:0:0:0:
256,192,208759,1,0,0:0:0:0:
256,192,208834,1,0,0:0:0:0:
256,192,208909,1,8,0:0:0:0:
256,192,208984,1,0,0:0:0:0:
256,192,209059,1,0,0:0:0:0:
256,192,209134,1,0,0:0:0:0:
256,192,209209,1,8,0:0:0:0:
256,192,209359,1,8,0:0:0:0:
256,192,209409,1,8,0:0:0:0:
256,192,209459,1,8,0:0:0:0:
256,192,209509,1,0,0:0:0:0:
256,192,209584,1,0,0:0:0:0:
256,192,209659,1,0,0:0:0:0:
256,192,209734,1,0,0:0:0:0:
256,192,209809,1,8,0:0:0:0:
256,192,209884,1,0,0:0:0:0:
256,192,209959,1,0,0:0:0:0:
256,192,210034,1,0,0:0:0:0:
256,192,210109,1,8,0:0:0:0:
256,192,210184,1,8,0:0:0:0:
256,192,210259,1,0,0:0:0:0:
256,192,210334,1,0,0:0:0:0:
256,192,210409,1,8,0:0:0:0:
256,192,210559,1,8,0:0:0:0:
256,192,210634,1,8,0:0:0:0:
256,192,210709,1,0,0:0:0:0:
256,192,210784,1,0,0:0:0:0:
256,192,210859,1,8,0:0:0:0:
256,192,210934,1,0,0:0:0:0:
256,192,211009,1,8,0:0:0:0:
256,192,211084,1,8,0:0:0:0:
256,192,211159,1,8,0:0:0:0:
256,192,211234,1,0,0:0:0:0:
256,192,211309,1,8,0:0:0:0:
256,192,211384,1,8,0:0:0:0:
256,192,211459,1,0,0:0:0:0:
256,192,211534,1,0,0:0:0:0:
256,192,211609,1,8,0:0:0:0:
256,192,211909,1,0,0:0:0:0:
256,192,211984,1,0,0:0:0:0:
256,192,212059,1,8,0:0:0:0:
256,192,212134,1,0,0:0:0:0:
256,192,212209,1,8,0:0:0:0:
256,192,212284,1,8,0:0:0:0:
256,192,212359,1,0,0:0:0:0:
256,192,212434,1,8,0:0:0:0:
256,192,212509,1,0,0:0:0:0:
256,192,212584,1,0,0:0:0:0:
256,192,212659,1,0,0:0:0:0:
256,192,212734,1,0,0:0:0:0:
256,192,212809,1,8,0:0:0:0:
256,192,212884,1,0,0:0:0:0:
256,192,212959,1,8,0:0:0:0:
256,192,213034,1,8,0:0:0:0:
256,192,213109,1,0,0:0:0:0:
256,192,213184,1,0,0:0:0:0:
256,192,213259,1,8,0:0:0:0:
256,192,213334,1,0,0:0:0:0:
256,192,213409,1,8,0:0:0:0:
256,192,213484,1,8,0:0:0:0:
256,192,213559,1,0,0:0:0:0:
256,192,213634,1,0,0:0:0:0:
256,192,213709,1,8,0:0:0:0:
256,192,213784,1,0,0:0:0:0:
256,192,213859,1,0,0:0:0:0:
256,192,213934,1,0,0:0:0:0:
256,192,214009,1,8,0:0:0:0:
256,192,214059,1,0,0:0:0:0:
256,192,214109,1,0,0:0:0:0:
256,192,214159,1,8,0:0:0:0:
256,192,214234,1,8,0:0:0:0:
256,192,214309,1,0,0:0:0:0:
256,192,214459,1,0,0:0:0:0:
256,192,214509,1,0,0:0:0:0:
256,192,214559,1,0,0:0:0:0:
256,192,214609,1,8,0:0:0:0:
256,192,214684,1,0,0:0:0:0:
256,192,214759,1,8,0:0:0:0:
256,192,214834,1,8,0:0:0:0:
256,192,214909,1,0,0:0:0:0:
256,192,214984,1,0,0:0:0:0:
256,192,215059,1,8,0:0:0:0:
256,192,215109,1,8,0:0:0:0:
256,192,215159,1,8,0:0:0:0:
256,192,215209,1,0,0:0:0:0:
256,192,215284,1,0,0:0:0:0:
256,192,215359,1,0,0:0:0:0:
256,192,215434,1,0,0:0:0:0:
256,192,215509,1,8,0:0:0:0:
256,192,215809,1,8,0:0:0:0:
256,192,215959,1,8,0:0:0:0:
256,192,216034,1,8,0:0:0:0:
256,192,216109,1,8,0:0:0:0:
256,192,216259,1,8,0:0:0:0:
256,192,216409,1,12,0:0:0:0:
256,192,216709,1,0,0:0:0:0:
256,192,216784,1,0,0:0:0:0:
256,192,216859,1,0,0:0:0:0:
256,192,216934,1,0,0:0:0:0:
256,192,217009,1,8,0:0:0:0:
256,192,217084,1,8,0:0:0:0:
256,192,217159,1,0,0:0:0:0:
256,192,217234,1,0,0:0:0:0:
256,192,217309,1,8,0:0:0:0:
256,192,217384,1,0,0:0:0:0:
256,192,217459,1,0,0:0:0:0:
256,192,217534,1,0,0:0:0:0:
256,192,217609,1,8,0:0:0:0:
256,192,217684,1,0,0:0:0:0:
256,192,217759,1,8,0:0:0:0:
256,192,217834,1,8,0:0:0:0:
256,192,217909,1,0,0:0:0:0:
256,192,217984,1,0,0:0:0:0:
256,192,218059,1,8,0:0:0:0:
256,192,218134,1,0,0:0:0:0:
256,192,218209,1,8,0:0:0:0:
256,192,218284,1,0,0:0:0:0:
256,192,218359,1,0,0:0:0:0:
256,192,218434,1,0,0:0:0:0:
256,192,218509,1,8,0:0:0:0:
256,192,218584,1,8,0:0:0:0:
256,192,218659,1,0,0:0:0:0:
256,192,218734,1,0,0:0:0:0:
256,192,218809,1,8,0:0:0:0:
256,192,218884,1,8,0:0:0:0:
256,192,218959,1,0,0:0:0:0:
256,192,219034,1,8,0:0:0:0:
256,192,219109,1,0,0:0:0:0:
256,192,219184,1,0,0:0:0:0:
256,192,219259,1,0,0:0:0:0:
256,192,219334,1,0,0:0:0:0:
256,192,219409,1,8,0:0:0:0:
256,192,219484,1,0,0:0:0:0:
256,192,219559,1,0,0:0:0:0:
256,192,219634,1,0,0:0:0:0:
256,192,219709,1,8,0:0:0:0:
256,192,219784,1,8,0:0:0:0:
256,192,219859,1,0,0:0:0:0:
256,192,219934,1,0,0:0:0:0:
256,192,220009,1,8,0:0:0:0:
256,192,220084,1,0,0:0:0:0:
256,192,220159,1,8,0:0:0:0:
256,192,220234,1,8,0:0:0:0:
256,192,220309,1,0,0:0:0:0:
256,192,220384,1,0,0:0:0:0:
256,192,220459,1,8,0:0:0:0:
256,192,220534,1,0,0:0:0:0:
256,192,220609,1,8,0:0:0:0:
256,192,220684,1,8,0:0:0:0:
256,192,220759,1,0,0:0:0:0:
256,192,220834,1,0,0:0:0:0:
256,192,220909,1,8,0:0:0:0:
256,192,220984,1,0,0:0:0:0:
256,192,221059,1,0,0:0:0:0:
256,192,221134,1,0,0:0:0:0:
256,192,221209,1,8,0:0:0:0:
256,192,221284,1,0,0:0:0:0:
256,192,221359,1,8,0:0:0:0:
256,192,221434,1,8,0:0:0:0:
256,192,221509,1,0,0:0:0:0:
256,192,221584,1,0,0:0:0:0:
256,192,221659,1,8,0:0:0:0:
256,192,221734,1,0,0:0:0:0:
256,192,221809,1,8,0:0:0:0:
256,192,221884,1,8,0:0:0:0:
256,192,221959,1,0,0:0:0:0:
256,192,222034,1,0,0:0:0:0:
256,192,222109,1,8,0:0:0:0:
256,192,222184,1,0,0:0:0:0:
256,192,222259,1,0,0:0:0:0:
256,192,222334,1,0,0:0:0:0:
256,192,222409,1,8,0:0:0:0:
256,192,222484,1,8,0:0:0:0:
256,192,222559,1,0,0:0:0:0:
256,192,222634,1,8,0:0:0:0:
256,192,222709,1,0,0:0:0:0:
256,192,222784,1,0,0:0:0:0:
256,192,222859,1,8,0:0:0:0:
256,192,222934,1,0,0:0:0:0:
256,192,223009,1,8,0:0:0:0:
256,192,223084,1,8,0:0:0:0:
256,192,223159,1,0,0:0:0:0:
256,192,223234,1,0,0:0:0:0:
256,192,223309,1,8,0:0:0:0:
256,192,223384,1,0,0:0:0:0:
256,192,223459,1,0,0:0:0:0:
256,192,223534,1,0,0:0:0:0:
256,192,223609,1,8,0:0:0:0:
256,192,223684,1,8,0:0:0:0:
256,192,223759,1,0,0:0:0:0:
256,192,223834,1,8,0:0:0:0:
256,192,223909,1,0,0:0:0:0:
256,192,223984,1,0,0:0:0:0:
256,192,224059,1,0,0:0:0:0:
256,192,224134,1,0,0:0:0:0:
256,192,224209,1,8,0:0:0:0:
256,192,224284,1,0,0:0:0:0:
256,192,224359,1,0,0:0:0:0:
256,192,224434,1,0,0:0:0:0:
256,192,224509,1,8,0:0:0:0:
256,192,224584,1,8,0:0:0:0:
256,192,224659,1,0,0:0:0:0:
256,192,224734,1,8,0:0:0:0:
256,192,224809,1,0,0:0:0:0:
256,192,224884,1,0,0:0:0:0:
256,192,224959,1,0,0:0:0:0:
256,192,225034,1,0,0:0:0:0:
256,192,225109,1,8,0:0:0:0:
256,192,225259,1,8,0:0:0:0:
256,192,225334,1,8,0:0:0:0:
256,192,225409,1,8,0:0:0:0:
256,192,225559,1,8,0:0:0:0:
256,192,225634,1,0,0:0:0:0:
256,192,225709,1,8,0:0:0:0:
256,192,225759,1,8,0:0:0:0:
256,192,225809,1,8,0:0:0:0:
256,192,225859,1,0,0:0:0:0:
256,192,225934,1,0,0:0:0:0:
256,192,226009,1,8,0:0:0:0:
256,192,226159,1,8,0:0:0:0:
256,192,226234,1,8,0:0:0:0:
256,192,226309,1,0,0:0:0:0:
256,192,226384,1,0,0:0:0:0:
256,192,226459,1,0,0:0:0:0:
256,192,226534,1,0,0:0:0:0:
256,192,226609,1,8,0:0:0:0:
256,192,226684,1,0,0:0:0:0:
256,192,226759,1,0,0:0:0:0:
256,192,226834,1,0,0:0:0:0:
256,192,226909,1,8,0:0:0:0:
256,192,226984,1,8,0:0:0:0:
256,192,227059,1,0,0:0:0:0:
256,192,227134,1,8,0:0:0:0:
256,192,227209,1,0,0:0:0:0:
256,192,227284,1,0,0:0:0:0:
256,192,227359,1,8,0:0:0:0:
256,192,227434,1,8,0:0:0:0:
256,192,227509,1,0,0:0:0:0:
256,192,227584,1,0,0:0:0:0:
256,192,227659,1,8,0:0:0:0:
256,192,227734,1,0,0:0:0:0:
256,192,227809,1,8,0:0:0:0:
256,192,227884,1,8,0:0:0:0:
256,192,227959,1,0,0:0:0:0:
256,192,228034,1,0,0:0:0:0:
256,192,228109,1,8,0:0:0:0:
256,192,228184,1,0,0:0:0:0:
256,192,228259,1,0,0:0:0:0:
256,192,228334,1,0,0:0:0:0:
256,192,228409,1,8,0:0:0:0:
256,192,228484,1,8,0:0:0:0:
256,192,228559,1,0,0:0:0:0:
256,192,228634,1,8,0:0:0:0:
256,192,228709,1,0,0:0:0:0:
256,192,228784,1,0,0:0:0:0:
256,192,228859,1,0,0:0:0:0:
256,192,228934,1,0,0:0:0:0:
256,192,229009,1,8,0:0:0:0:
256,192,229084,1,0,0:0:0:0:
256,192,229159,1,0,0:0:0:0:
256,192,229234,1,0,0:0:0:0:
256,192,229309,1,8,0:0:0:0:
256,192,229384,1,8,0:0:0:0:
256,192,229459,1,0,0:0:0:0:
256,192,229534,1,0,0:0:0:0:
256,192,229609,1,8,0:0:0:0:
256,192,229684,1,0,0:0:0:0:
256,192,229759,1,8,0:0:0:0:
256,192,229834,1,8,0:0:0:0:
256,192,229909,1,0,0:0:0:0:
256,192,229984,1,0,0:0:0:0:
256,192,230059,1,8,0:0:0:0:
256,192,230134,1,0,0:0:0:0:
256,192,230209,1,8,0:0:0:0:
256,192,230284,1,0,0:0:0:0:
256,192,230359,1,0,0:0:0:0:
256,192,230434,1,0,0:0:0:0:
256,192,230509,1,8,0:0:0:0:
256,192,230584,1,8,0:0:0:0:
256,192,230659,1,0,0:0:0:0:
256,192,230734,1,0,0:0:0:0:
256,192,230809,1,8,0:0:0:0:
256,192,230884,1,8,0:0:0:0:
256,192,230959,1,8,0:0:0:0:
256,192,231034,1,8,0:0:0:0:
256,192,231109,1,0,0:0:0:0:
256,192,231184,1,0,0:0:0:0:
256,192,231259,1,8,0:0:0:0:
256,192,231334,1,0,0:0:0:0:
256,192,231409,1,8,0:0:0:0:
256,192,231484,1,8,0:0:0:0:
256,192,231559,1,0,0:0:0:0:
256,192,231634,1,8,0:0:0:0:
256,192,231709,1,0,0:0:0:0:
256,192,231784,1,0,0:0:0:0:
256,192,231859,1,0,0:0:0:0:
256,192,231934,1,0,0:0:0:0:
256,192,232009,1,8,0:0:0:0:
256,192,232084,1,8,0:0:0:0:
256,192,232159,1,0,0:0:0:0:
256,192,232234,1,8,0:0:0:0:
256,192,232309,1,0,0:0:0:0:
256,192,232384,1,0,0:0:0:0:
256,192,232459,1,8,0:0:0:0:
256,192,232534,1,0,0:0:0:0:
256,192,232609,1,8,0:0:0:0:
256,192,232684,1,0,0:0:0:0:
256,192,232759,1,0,0:0:0:0:
256,192,232834,1,0,0:0:0:0:
256,192,232909,1,8,0:0:0:0:
256,192,232984,1,8,0:0:0:0:
256,192,233059,1,0,0:0:0:0:
256,192,233134,1,0,0:0:0:0:
256,192,233209,1,8,0:0:0:0:
256,192,233284,1,0,0:0:0:0:
256,192,233359,1,8,0:0:0:0:
256,192,233434,1,8,0:0:0:0:
256,192,233509,1,0,0:0:0:0:
256,192,233584,1,0,0:0:0:0:
256,192,233659,1,8,0:0:0:0:
256,192,233734,1,0,0:0:0:0:
256,192,233809,1,8,0:0:0:0:
256,192,233884,1,0,0:0:0:0:
256,192,233959,1,8,0:0:0:0:
256,192,234034,1,8,0:0:0:0:
256,192,234109,1,0,0:0:0:0:
256,192,234184,1,0,0:0:0:0:
256,192,234259,1,8,0:0:0:0:
256,192,234334,1,0,0:0:0:0:
256,192,234409,1,8,0:0:0:0:
256,192,234484,1,0,0:0:0:0:
256,192,234559,1,8,0:0:0:0:
256,192,234634,1,8,0:0:0:0:
256,192,234709,1,0,0:0:0:0:
256,192,234759,1,0,0:0:0:0:
256,192,234809,1,0,0:0:0:0:
256,192,234859,1,0,0:0:0:0:
256,192,234934,1,0,0:0:0:0:
256,192,235009,1,8,0:0:0:0:
256,192,235084,1,8,0:0:0:0:
256,192,235159,1,0,0:0:0:0:
256,192,235234,1,0,0:0:0:0:
256,192,235309,1,8,0:0:0:0:
256,192,235459,1,0,0:0:0:0:
256,192,235609,1,8,0:0:0:0:
256,192,235659,1,8,0:0:0:0:
256,192,235709,1,8,0:0:0:0:
256,192,235759,1,8,0:0:0:0:
256,192,235834,1,8,0:0:0:0:
256,192,235909,1,0,0:0:0:0:
256,192,236059,1,0,0:0:0:0:
256,192,236134,1,0,0:0:0:0:
256,192,236209,1,8,0:0:0:0:
256,192,236359,1,8,0:0:0:0:
256,192,236434,1,8,0:0:0:0:
256,192,236509,1,0,0:0:0:0:
256,192,236584,1,0,0:0:0:0:
256,192,236659,1,8,0:0:0:0:
256,192,236734,1,0,0:0:0:0:
256,192,236809,1,8,0:0:0:0:
256,192,236884,1,0,0:0:0:0:
256,192,236959,1,8,0:0:0:0:
256,192,237034,1,8,0:0:0:0:
256,192,237109,1,0,0:0:0:0:
256,192,237259,1,0,0:0:0:0:
256,192,237334,1,0,0:0:0:0:
256,192,237409,1,8,0:0:0:0:
256,192,237484,1,8,0:0:0:0:
256,192,237559,1,0,0:0:0:0:
256,192,237634,1,0,0:0:0:0:
256,192,237709,1,8,0:0:0:0:
256,192,237784,1,0,0:0:0:0:
256,192,237859,1,0,0:0:0:0:
256,192,237934,1,0,0:0:0:0:
256,192,238009,1,8,0:0:0:0:
256,192,238084,1,0,0:0:0:0:
256,192,238159,1,8,0:0:0:0:
256,192,238234,1,8,0:0:0:0:
256,192,238309,1,0,0:0:0:0:
256,192,238459,1,8,0:0:0:0:
256,192,238534,1,8,0:0:0:0:
256,192,238609,1,0,0:0:0:0:
256,192,238759,1,8,0:0:0:0:
256,192,238834,1,8,0:0:0:0:
256,192,238909,1,0,0:0:0:0:
256,192,238984,1,0,0:0:0:0:
256,192,239059,1,8,0:0:0:0:
256,192,239134,1,0,0:0:0:0:
256,192,239209,1,8,0:0:0:0:
256,192,239284,1,8,0:0:0:0:
256,192,239359,1,0,0:0:0:0:
256,192,239434,1,8,0:0:0:0:
256,192,239509,1,0,0:0:0:0:
256,192,239659,1,0,0:0:0:0:
256,192,239734,1,0,0:0:0:0:
256,192,239809,1,8,0:0:0:0:
256,192,239884,1,8,0:0:0:0:
256,192,239959,1,8,0:0:0:0:
256,192,240034,1,0,0:0:0:0:
256,192,240109,1,8,0:0:0:0:
256,192,240184,1,8,0:0:0:0:
256,192,240259,1,0,0:0:0:0:
256,192,240334,1,0,0:0:0:0:
256,192,240409,1,8,0:0:0:0:
256,192,240484,1,0,0:0:0:0:
256,192,240559,1,8,0:0:0:0:
256,192,240634,1,8,0:0:0:0:
256,192,240709,1,0,0:0:0:0:
256,192,240859,1,0,0:0:0:0:
256,192,240934,1,0,0:0:0:0:
256,192,241009,1,8,0:0:0:0:
256,192,241159,1,8,0:0:0:0:
256,192,241234,1,8,0:0:0:0:
256,192,241309,1,0,0:0:0:0:
256,192,241384,1,0,0:0:0:0:
256,192,241459,1,8,0:0:0:0:
256,192,241534,1,0,0:0:0:0:
256,192,241609,1,8,0:0:0:0:
256,192,241684,1,8,0:0:0:0:
256,192,241759,1,0,0:0:0:0:
256,192,241834,1,8,0:0:0:0:
256,192,241909,1,0,0:0:0:0:
256,192,242059,1,0,0:0:0:0:
256,192,242134,1,0,0:0:0:0:
256,192,242209,1,8,0:0:0:0:
256,192,242284,1,0,0:0:0:0:
256,192,242359,1,0,0:0:0:0:
256,192,242434,1,0,0:0:0:0:
256,192,242509,1,8,0:0:0:0:
256,192,242584,1,8,0:0:0:0:
256,192,242659,1,0,0:0:0:0:
256,192,242734,1,0,0:0:0:0:
256,192,242809,1,8,0:0:0:0:
256,192,242884,1,0,0:0:0:0:
256,192,242959,1,8,0:0:0:0:
256,192,243034,1,8,0:0:0:0:
256,192,243109,1,0,0:0:0:0:
256,192,243259,1,8,0:0:0:0:
256,192,243334,1,8,0:0:0:0:
256,192,243409,1,0,0:0:0:0:
256,192,243484,1,0,0:0:0:0:
256,192,243559,1,0,0:0:0:0:
256,192,243634,1,0,0:0:0:0:
256,192,243709,1,8,0:0:0:0:
256,192,243859,1,0,0:0:0:0:
256,192,243934,1,0,0:0:0:0:
256,192,244009,1,8,0:0:0:0:
256,192,244059,1,8,0:0:0:0:
256,192,244109,1,8,0:0:0:0:
256,192,244159,1,0,0:0:0:0:
256,192,244234,1,0,0:0:0:0:
256,192,244309,1,8,0:0:0:0:
256,192,244459,1,8,0:0:0:0:
256,192,244534,1,8,0:0:0:0:
256,192,244609,1,8,0:0:0:0:
256,192,244759,1,8,0:0:0:0:
256,192,244834,1,0,0:0:0:0:
256,192,244909,1,8,0:0:0:0:
256,192,244959,1,8,0:0:0:0:
256,192,245009,1,8,0:0:0:0:
256,192,245059,1,0,0:0:0:0:
256,192,245134,1,0,0:0:0:0:
256,192,245209,1,8,0:0:0:0:
256,192,245359,1,8,0:0:0:0:
256,192,245434,1,8,0:0:0:0:
256,192,245509,1,0,0:0:0:0:
256,192,245659,1,0,0:0:0:0:
256,192,245734,1,0,0:0:0:0:
256,192,245809,1,8,0:0:0:0:
256,192,245959,1,0,0:0:0:0:
256,192,246034,1,0,0:0:0:0:
256,192,246109,1,8,0:0:0:0:
256,192,246184,1,8,0:0:0:0:
256,192,246259,1,8,0:0:0:0:
256,192,246334,1,0,0:0:0:0:
256,192,246409,1,8,0:0:0:0:
256,192,246484,1,0,0:0:0:0:
256,192,246559,1,8,0:0:0:0:
256,192,246634,1,8,0:0:0:0:
256,192,246709,1,0,0:0:0:0:
256,192,246859,1,0,0:0:0:0:
256,192,246934,1,0,0:0:0:0:
256,192,247009,1,8,0:0:0:0:
256,192,247084,1,0,0:0:0:0:
256,192,247159,1,0,0:0:0:0:
256,192,247234,1,0,0:0:0:0:
256,192,247309,1,8,0:0:0:0:
256,192,247384,1,8,0:0:0:0:
256,192,247459,1,0,0:0:0:0:
256,192,247534,1,0,0:0:0:0:
256,192,247609,1,8,0:0:0:0:
256,192,247684,1,0,0:0:0:0:
256,192,247759,1,8,0:0:0:0:
256,192,247834,1,8,0:0:0:0:
256,192,247909,1,0,0:0:0:0:
256,192,248059,1,8,0:0:0:0:
256,192,248134,1,8,0:0:0:0:
256,192,248209,1,0,0:0:0:0:
256,192,248359,1,8,0:0:0:0:
256,192,248434,1,8,0:0:0:0:
256,192,248509,1,0,0:0:0:0:
256,192,248584,1,0,0:0:0:0:
256,192,248659,1,8,0:0:0:0:
256,192,248734,1,0,0:0:0:0:
256,192,248809,1,8,0:0:0:0:
256,192,248884,1,8,0:0:0:0:
256,192,248959,1,0,0:0:0:0:
256,192,249034,1,8,0:0:0:0:
256,192,249109,1,0,0:0:0:0:
256,192,249259,1,0,0:0:0:0:
256,192,249334,1,0,0:0:0:0:
256,192,249409,1,8,0:0:0:0:
256,192,249484,1,0,0:0:0:0:
256,192,249559,1,0,0:0:0:0:
256,192,249634,1,0,0:0:0:0:
256,192,249709,1,8,0:0:0:0:
256,192,249784,1,8,0:0:0:0:
256,192,249859,1,0,0:0:0:0:
256,192,249934,1,0,0:0:0:0:
256,192,250009,1,8,0:0:0:0:
256,192,250084,1,0,0:0:0:0:
256,192,250159,1,8,0:0:0:0:
256,192,250234,1,8,0:0:0:0:
256,192,250309,1,0,0:0:0:0:
256,192,250459,1,8,0:0:0:0:
256,192,250534,1,0,0:0:0:0:
256,192,250609,1,8,0:0:0:0:
256,192,250759,1,0,0:0:0:0:
256,192,250834,1,8,0:0:0:0:
256,192,250909,1,0,0:0:0:0:
256,192,250984,1,0,0:0:0:0:
256,192,251059,1,8,0:0:0:0:
256,192,251134,1,0,0:0:0:0:
256,192,251209,1,8,0:0:0:0:
256,192,251284,1,0,0:0:0:0:
256,192,251359,1,8,0:0:0:0:
256,192,251434,1,8,0:0:0:0:
256,192,251509,1,0,0:0:0:0:
256,192,251659,1,8,0:0:0:0:
256,192,251734,1,8,0:0:0:0:
256,192,251809,1,0,0:0:0:0:
256,192,251959,1,8,0:0:0:0:
256,192,252034,1,8,0:0:0:0:
256,192,252109,1,0,0:0:0:0:
256,192,252184,1,8,0:0:0:0:
256,192,252259,1,0,0:0:0:0:
256,192,252334,1,0,0:0:0:0:
256,192,252409,1,8,0:0:0:0:
256,192,252484,1,8,0:0:0:0:
256,192,252559,1,8,0:0:0:0:
256,192,252634,1,8,0:0:0:0:
256,192,252709,1,0,0:0:0:0:
256,192,252784,1,0,0:0:0:0:
256,192,252859,1,8,0:0:0:0:
256,192,252934,1,0,0:0:0:0:
256,192,253009,1,8,0:0:0:0:
256,192,253084,1,8,0:0:0:0:
256,192,253159,1,0,0:0:0:0:
256,192,253234,1,8,0:0:0:0:
256,192,253309,1,0,0:0:0:0:
256,192,253384,1,0,0:0:0:0:
256,192,253459,1,8,0:0:0:0:
256,192,253534,1,0,0:0:0:0:
256,192,253609,1,8,0:0:0:0:
256,192,253684,1,8,0:0:0:0:
256,192,253759,1,0,0:0:0:0:
256,192,253834,1,8,0:0:0:0:
256,192,253909,1,0,0:0:0:0:
256,192,253959,1,0,0:0:0:0:
256,192,254009,1,0,0:0:0:0:
256,192,254059,1,0,0:0:0:0:
256,192,254134,1,0,0:0:0:0:
256,192,254209,1,8,0:0:0:0:
256,192,254284,1,8,0:0:0:0:
256,192,254359,1,0,0:0:0:0:
256,192,254434,1,0,0:0:0:0:
256,192,254509,1,8,0:0:0:0:
256,192,254659,1,8,0:0:0:0:
256,192,254809,1,8,0:0:0:0:
256,192,254859,1,8,0:0:0:0:
256,192,254909,1,8,0:0:0:0:
256,192,254959,1,8,0:0:0:0:
256,192,255034,1,8,0:0:0:0:
256,192,255109,1,0,0:0:0:0:
256,192,255259,1,8,0:0:0:0:
256,192,255334,1,8,0:0:0:0:
256,192,255409,1,0,0:0:0:0:
256,192,255484,1,0,0:0:0:0:
256,192,255559,1,8,0:0:0:0:
256,192,255709,1,0,0:0:0:0:
256,192,255784,1,0,0:0:0:0:
256,192,255859,1,8,0:0:0:0:
256,192,256009,1,8,0:0:0:0:
256,192,256084,1,8,0:0:0:0:
256,192,256159,1,8,0:0:0:0:
256,192,256234,1,8,0:0:0:0:
256,192,256309,1,0,0:0:0:0:
256,192,256459,1,8,0:0:0:0:
256,192,256534,1,8,0:0:0:0:
256,192,256609,1,0,0:0:0:0:
256,192,256684,1,0,0:0:0:0:
256,192,256759,1,8,0:0:0:0:
256,192,256834,1,0,0:0:0:0:
256,192,256909,1,0,0:0:0:0:
256,192,256984,1,0,0:0:0:0:
256,192,257059,1,8,0:0:0:0:
256,192,257209,1,8,0:0:0:0:
256,192,257284,1,8,0:0:0:0:
256,192,257359,1,0,0:0:0:0:
256,192,257434,1,8,0:0:0:0:
256,192,257509,1,0,0:0:0:0:
256,192,257659,1,8,0:0:0:0:
256,192,257734,1,8,0:0:0:0:
256,192,257809,1,0,0:0:0:0:
256,192,257884,1,8,0:0:0:0:
256,192,257959,1,8,0:0:0:0:
256,192,258109,1,0,0:0:0:0:
256,192,258184,1,0,0:0:0:0:
256,192,258259,1,8,0:0:0:0:
256,192,258409,1,8,0:0:0:0:
256,192,258484,1,8,0:0:0:0:
256,192,258559,1,0,0:0:0:0:
256,192,258634,1,8,0:0:0:0:
256,192,258709,1,0,0:0:0:0:
256,192,258859,1,8,0:0:0:0:
256,192,258934,1,8,0:0:0:0:
256,192,259009,1,0,0:0:0:0:
256,192,259084,1,8,0:0:0:0:
256,192,259159,1,0,0:0:0:0:
256,192,259234,1,0,0:0:0:0:
256,192,259309,1,8,0:0:0:0:
256,192,259459,1,0,0:0:0:0:
256,192,259534,1,0,0:0:0:0:
256,192,259609,1,8,0:0:0:0:
256,192,259759,1,8,0:0:0:0:
256,192,259909,1,4,0:0:0:0:
256,192,260059,1,8,0:0:0:0:
256,192,260134,1,8,0:0:0:0:
256,192,260209,1,0,0:0:0:0:
256,192,260284,1,0,0:0:0:0:
256,192,260359,1,8,0:0:0:0:
256,192,260434,1,0,0:0:0:0:
256,192,260509,1,0,0:0:0:0:
256,192,260659,1,8,0:0:0:0:
256,192,260809,1,8,0:0:0:0:
256,192,260884,1,8,0:0:0:0:
256,192,260959,1,0,0:0:0:0:
256,192,261034,1,8,0:0:0:0:
256,192,261109,1,0,0:0:0:0:
256,192,261259,1,8,0:0:0:0:
256,192,261334,1,8,0:0:0:0:
256,192,261409,1,0,0:0:0:0:
256,192,261484,1,0,0:0:0:0:
256,192,261559,1,8,0:0:0:0:
256,192,261634,1,0,0:0:0:0:
256,192,261709,1,0,0:0:0:0:
256,192,261784,1,0,0:0:0:0:
256,192,261859,1,8,0:0:0:0:
256,192,262009,1,8,0:0:0:0:
256,192,262084,1,8,0:0:0:0:
256,192,262159,1,8,0:0:0:0:
256,192,262234,1,8,0:0:0:0:
256,192,262309,1,0,0:0:0:0:
256,192,262459,1,8,0:0:0:0:
256,192,262534,1,8,0:0:0:0:
256,192,262609,1,0,0:0:0:0:
256,192,262684,1,8,0:0:0:0:
256,192,262759,1,8,0:0:0:0:
256,192,262834,1,0,0:0:0:0:
256,192,262909,1,0,0:0:0:0:
256,192,263059,1,8,0:0:0:0:
256,192,263209,1,8,0:0:0:0:
256,192,263284,1,8,0:0:0:0:
256,192,263359,1,0,0:0:0:0:
256,192,263434,1,0,0:0:0:0:
256,192,263509,1,8,0:0:0:0:
256,192,263659,1,8,0:0:0:0:
256,192,263734,1,8,0:0:0:0:
256,192,263809,1,8,0:0:0:0:
256,192,263959,1,8,0:0:0:0:
256,192,264034,1,0,0:0:0:0:
256,192,264109,1,8,0:0:0:0:
256,192,264159,1,8,0:0:0:0:
256,192,264209,1,8,0:0:0:0:
256,192,264259,1,0,0:0:0:0:
256,192,264334,1,0,0:0:0:0:
256,192,264409,1,8,0:0:0:0:
256,192,264559,1,8,0:0:0:0:
256,192,264709,1,4,0:0:0:0:
256,192,264859,1,0,0:0:0:0:
256,192,264934,1,0,0:0:0:0:
256,192,265009,1,8,0:0:0:0:
256,192,265159,1,8,0:0:0:0:
256,192,265234,1,8,0:0:0:0:
256,192,265309,1,0,0:0:0:0:
256,192,265384,1,0,0:0:0:0:
256,192,265459,1,8,0:0:0:0:
256,192,265609,1,8,0:0:0:0:
256,192,265759,1,8,0:0:0:0:
256,192,265834,1,8,0:0:0:0:
256,192,265909,1,0,0:0:0:0:
256,192,266059,1,0,0:0:0:0:
256,192,266134,1,0,0:0:0:0:
256,192,266209,1,8,0:0:0:0:
256,192,266284,1,8,0:0:0:0:
256,192,266359,1,0,0:0:0:0:
256,192,266434,1,8,0:0:0:0:
256,192,266509,1,0,0:0:0:0:
256,192,266584,1,0,0:0:0:0:
256,192,266659,1,8,0:0:0:0:
256,192,266809,1,8,0:0:0:0:
256,192,266884,1,8,0:0:0:0:
256,192,266959,1,0,0:0:0:0:
256,192,267034,1,0,0:0:0:0:
256,192,267109,1,0,0:0:0:0:
256,192,267259,1,0,0:0:0:0:
256,192,267334,1,0,0:0:0:0:
256,192,267409,1,8,0:0:0:0:
256,192,267559,1,8,0:0:0:0:
256,192,267634,1,8,0:0:0:0:
256,192,267709,1,0,0:0:0:0:
256,192,267784,1,0,0:0:0:0:
256,192,267859,1,8,0:0:0:0:
256,192,268009,1,8,0:0:0:0:
256,192,268084,1,8,0:0:0:0:
256,192,268159,1,8,0:0:0:0:
256,192,268234,1,8,0:0:0:0:
256,192,268309,1,0,0:0:0:0:
256,192,268459,1,0,0:0:0:0:
256,192,268534,1,0,0:0:0:0:
256,192,268609,1,8,0:0:0:0:
256,192,268684,1,8,0:0:0:0:
256,192,268759,1,0,0:0:0:0:
256,192,268834,1,0,0:0:0:0:
256,192,268909,1,8,0:0:0:0:
256,192,269059,1,0,0:0:0:0:
256,192,269209,1,8,0:0:0:0:
256,192,269284,1,8,0:0:0:0:
256,192,269359,1,0,0:0:0:0:
256,192,269434,1,8,0:0:0:0:
256,192,269509,1,0,0:0:0:0:
256,192,269659,1,0,0:0:0:0:
256,192,269734,1,0,0:0:0:0:
256,192,269809,1,8,0:0:0:0:
256,192,269959,1,8,0:0:0:0:
256,192,270034,1,8,0:0:0:0:
256,192,270109,1,0,0:0:0:0:
256,192,270184,1,0,0:0:0:0:
256,192,270259,1,8,0:0:0:0:
256,192,270409,1,8,0:0:0:0:
256,192,270559,1,8,0:0:0:0:
256,192,270634,1,8,0:0:0:0:
256,192,270709,1,0,0:0:0:0:
256,192,270859,1,0,0:0:0:0:
256,192,270934,1,0,0:0:0:0:
256,192,271009,1,8,0:0:0:0:
256,192,271084,1,8,0:0:0:0:
256,192,271159,1,0,0:0:0:0:
256,192,271234,1,8,0:0:0:0:
256,192,271309,1,0,0:0:0:0:
256,192,271384,1,0,0:0:0:0:
256,192,271459,1,8,0:0:0:0:
256,192,271609,1,8,0:0:0:0:
256,192,271759,1,8,0:0:0:0:
256,192,271834,1,8,0:0:0:0:
256,192,271909,1,0,0:0:0:0:
256,192,272059,1,0,0:0:0:0:
256,192,272134,1,0,0:0:0:0:
256,192,272209,1,8,0:0:0:0:
256,192,272359,1,8,0:0:0:0:
256,192,272434,1,8,0:0:0:0:
256,192,272509,1,0,0:0:0:0:
256,192,272584,1,0,0:0:0:0:
256,192,272659,1,8,0:0:0:0:
256,192,272734,1,0,0:0:0:0:
256,192,272809,1,8,0:0:0:0:
256,192,272959,1,8,0:0:0:0:
256,192,273034,1,8,0:0:0:0:
256,192,273109,1,0,0:0:0:0:
256,192,273159,1,0,0:0:0:0:
256,192,273209,1,0,0:0:0:0:
256,192,273259,1,0,0:0:0:0:
256,192,273334,1,0,0:0:0:0:
256,192,273409,1,8,0:0:0:0:
256,192,273484,1,8,0:0:0:0:
256,192,273559,1,0,0:0:0:0:
256,192,273634,1,0,0:0:0:0:
256,192,273709,1,8,0:0:0:0:
256,192,273859,1,0,0:0:0:0:
256,192,274009,1,8,0:0:0:0:
256,192,274059,1,8,0:0:0:0:
256,192,274109,1,8,0:0:0:0:
256,192,274159,1,8,0:0:0:0:
256,192,274234,1,8,0:0:0:0:
256,192,274309,1,0,0:0:0:0:
