osu file format v14

[General]
AudioFilename: audio.mp3
AudioLeadIn: 0
PreviewTime: 93120
Countdown: 0
SampleSet: Normal
StackLeniency: 0.7
Mode: 3
LetterboxInBreaks: 0
SpecialStyle: 0
WidescreenStoryboard: 0

[Editor]
DistanceSpacing: 0.8
BeatDivisor: 4
GridSize: 8
TimelineZoom: 1.8

[Metadata]
Title:B.O.L.
TitleUnicode:B.O.L.
Artist:LV.4 feat. Chiaki Iwasaki
ArtistUnicode:LV.4 feat. 岩﨑千明
Creator:hna
Version:Extra
Source:osu!mania 4K World Cup 2023
Tags:rice mwc mwc23 mwc2023 semifinals sf osu! original fa featured artist beginning of liberation bol hana hytex elexire -mint- qqqant hardstyle electronic japanese instrumental
BeatmapID:4407838
BeatmapSetID:2055265

[Difficulty]
HPDrainRate:8
CircleSize:4
OverallDifficulty:8
ApproachRate:5
SliderMultiplier:1.4
SliderTickRate:1

[Events]
//Background and Video events
0,0,"bol.jpg",0,0
//Break Periods
//Storyboard Layer 0 (Background)
//Storyboard Layer 1 (Fail)
//Storyboard Layer 2 (Pass)
//Storyboard Layer 3 (Foreground)
//Storyboard Layer 4 (Overlay)
//Storyboard Sound Samples

[TimingPoints]
960,240,4,1,1,100,1,0
31680,-100,4,1,1,55,0,0
47040,-100,4,1,1,60,0,0
54720,-100,4,1,1,55,0,0
62400,-100,4,1,1,45,0,0
77760,-100,4,1,1,55,0,0
123840,-100,4,1,1,35,0,0
146880,-100,4,1,1,40,0,0
154560,-100,4,1,1,55,0,0
169920,-100,4,1,1,60,0,0
177600,-100,4,1,1,55,0,0
185280,-100,4,1,1,45,0,0
200640,-100,4,1,1,60,0,0
214080,-100,4,1,1,45,0,0

[HitObjects]
192,192,960,5,0,0:0:0:0:
448,192,960,1,0,0:0:0:0:
320,192,1200,1,0,0:0:0:0:
320,192,1440,1,0,0:0:0:0:
192,192,1680,1,0,0:0:0:0:
192,192,1920,1,0,0:0:0:0:
64,192,2040,1,0,0:0:0:0:
320,192,2280,1,0,0:0:0:0:
320,192,2520,1,0,0:0:0:0:
64,192,2640,1,0,0:0:0:0:
192,192,2760,1,0,0:0:0:0:
320,192,2880,1,0,0:0:0:0:
448,192,2880,1,0,0:0:0:0:
320,192,3120,1,0,0:0:0:0:
320,192,3360,1,0,0:0:0:0:
192,192,3600,1,0,0:0:0:0:
192,192,3840,1,0,0:0:0:0:
64,192,3960,1,0,0:0:0:0:
320,192,4200,1,0,0:0:0:0:
64,192,4800,1,0,0:0:0:0:
192,192,4800,1,0,0:0:0:0:
448,192,4800,1,0,0:0:0:0:
320,192,5040,1,0,0:0:0:0:
320,192,5280,1,0,0:0:0:0:
192,192,5520,1,0,0:0:0:0:
192,192,5760,1,0,0:0:0:0:
64,192,5880,1,0,0:0:0:0:
320,192,6120,1,0,0:0:0:0:
320,192,6360,1,0,0:0:0:0:
64,192,6480,1,0,0:0:0:0:
192,192,6600,1,0,0:0:0:0:
320,192,6720,1,0,0:0:0:0:
448,192,6720,1,0,0:0:0:0:
320,192,6960,1,0,0:0:0:0:
320,192,7200,1,0,0:0:0:0:
192,192,7440,1,0,0:0:0:0:
448,192,7680,1,0,0:0:0:0:
320,192,7800,1,0,0:0:0:0:
448,192,8040,1,0,0:0:0:0:
320,192,8280,1,0,0:0:0:0:
192,192,8400,1,0,0:0:0:0:
64,192,8520,1,0,0:0:0:0:
192,192,8640,1,0,0:0:0:0:
320,192,8640,1,0,0:0:0:0:
448,192,8640,1,0,0:0:0:0:
320,192,8880,1,0,0:0:0:0:
320,192,9120,1,0,0:0:0:0:
192,192,9360,1,0,0:0:0:0:
192,192,9600,1,0,0:0:0:0:
64,192,9720,1,0,0:0:0:0:
320,192,9960,1,0,0:0:0:0:
320,192,10200,1,0,0:0:0:0:
64,192,10320,1,0,0:0:0:0:
192,192,10440,1,0,0:0:0:0:
320,192,10560,1,0,0:0:0:0:
448,192,10560,1,0,0:0:0:0:
320,192,10800,1,0,0:0:0:0:
320,192,11040,1,0,0:0:0:0:
192,192,11280,1,0,0:0:0:0:
192,192,11520,1,0,0:0:0:0:
64,192,11640,1,0,0:0:0:0:
320,192,11880,1,0,0:0:0:0:
64,192,12480,1,0,0:0:0:0:
320,192,12480,1,0,0:0:0:0:
448,192,12480,1,0,0:0:0:0:
192,192,12720,1,0,0:0:0:0:
192,192,12960,1,0,0:0:0:0:
64,192,13200,1,0,0:0:0:0:
64,192,13440,1,0,0:0:0:0:
192,192,13560,1,0,0:0:0:0:
320,192,13800,1,0,0:0:0:0:
320,192,14040,1,0,0:0:0:0:
192,192,14160,1,0,0:0:0:0:
448,192,14280,1,0,0:0:0:0:
64,192,14400,1,0,0:0:0:0:
192,192,14400,1,0,0:0:0:0:
320,192,14400,1,0,0:0:0:0:
64,192,14760,1,0,0:0:0:0:
192,192,14760,1,0,0:0:0:0:
448,192,14760,1,0,0:0:0:0:
192,192,15120,1,0,0:0:0:0:
320,192,15120,1,0,0:0:0:0:
448,192,15120,1,0,0:0:0:0:
64,192,15480,1,0,0:0:0:0:
192,192,15480,1,0,0:0:0:0:
448,192,15480,1,0,0:0:0:0:
192,192,15840,1,0,0:0:0:0:
320,192,15840,1,0,0:0:0:0:
448,192,15840,1,0,0:0:0:0:
64,192,16080,1,0,0:0:0:0:
192,192,16080,1,0,0:0:0:0:
320,192,16080,1,0,0:0:0:0:
64,192,16320,1,0,0:0:0:0:
320,192,16320,1,0,0:0:0:0:
448,192,16320,1,0,0:0:0:0:
320,192,16560,1,0,0:0:0:0:
448,192,16560,1,0,0:0:0:0:
192,192,16680,1,0,0:0:0:0:
64,192,16800,1,0,0:0:0:0:
320,192,16800,1,0,0:0:0:0:
448,192,16800,1,0,0:0:0:0:
192,192,17040,1,0,0:0:0:0:
448,192,17040,1,0,0:0:0:0:
192,192,17280,1,0,0:0:0:0:
320,192,17280,1,0,0:0:0:0:
64,192,17400,1,0,0:0:0:0:
320,192,17400,1,0,0:0:0:0:
192,192,17520,1,0,0:0:0:0:
320,192,17640,1,0,0:0:0:0:
448,192,17640,1,0,0:0:0:0:
64,192,17760,1,0,0:0:0:0:
192,192,17760,1,0,0:0:0:0:
448,192,17880,1,0,0:0:0:0:
192,192,18000,1,0,0:0:0:0:
320,192,18000,1,0,0:0:0:0:
64,192,18120,1,0,0:0:0:0:
192,192,18240,1,0,0:0:0:0:
320,192,18240,1,0,0:0:0:0:
448,192,18240,1,0,0:0:0:0:
320,192,18480,1,0,0:0:0:0:
448,192,18480,1,0,0:0:0:0:
192,192,18600,1,0,0:0:0:0:
64,192,18720,1,0,0:0:0:0:
320,192,18720,1,0,0:0:0:0:
448,192,18720,1,0,0:0:0:0:
192,192,18960,1,0,0:0:0:0:
448,192,18960,1,0,0:0:0:0:
192,192,19200,1,0,0:0:0:0:
320,192,19200,1,0,0:0:0:0:
64,192,19320,1,0,0:0:0:0:
320,192,19320,1,0,0:0:0:0:
192,192,19440,1,0,0:0:0:0:
64,192,19560,1,0,0:0:0:0:
448,192,19560,1,0,0:0:0:0:
192,192,19680,1,0,0:0:0:0:
320,192,19680,1,0,0:0:0:0:
448,192,19800,1,0,0:0:0:0:
64,192,19920,1,0,0:0:0:0:
320,192,19920,1,0,0:0:0:0:
192,192,20040,1,0,0:0:0:0:
64,192,20160,1,0,0:0:0:0:
320,192,20160,1,0,0:0:0:0:
448,192,20160,1,0,0:0:0:0:
320,192,20400,1,0,0:0:0:0:
448,192,20400,1,0,0:0:0:0:
192,192,20520,1,0,0:0:0:0:
64,192,20640,1,0,0:0:0:0:
320,192,20640,1,0,0:0:0:0:
448,192,20640,1,0,0:0:0:0:
192,192,20880,1,0,0:0:0:0:
448,192,20880,1,0,0:0:0:0:
192,192,21120,1,0,0:0:0:0:
320,192,21120,1,0,0:0:0:0:
64,192,21240,1,0,0:0:0:0:
320,192,21240,1,0,0:0:0:0:
192,192,21360,1,0,0:0:0:0:
320,192,21480,1,0,0:0:0:0:
448,192,21480,1,0,0:0:0:0:
64,192,21600,1,0,0:0:0:0:
192,192,21600,1,0,0:0:0:0:
448,192,21720,1,0,0:0:0:0:
192,192,21840,1,0,0:0:0:0:
320,192,21840,1,0,0:0:0:0:
64,192,21960,1,0,0:0:0:0:
192,192,22080,1,0,0:0:0:0:
320,192,22080,1,0,0:0:0:0:
448,192,22080,1,0,0:0:0:0:
320,192,22320,1,0,0:0:0:0:
448,192,22320,1,0,0:0:0:0:
192,192,22440,1,0,0:0:0:0:
64,192,22560,1,0,0:0:0:0:
320,192,22560,1,0,0:0:0:0:
448,192,22560,1,0,0:0:0:0:
192,192,22800,1,0,0:0:0:0:
448,192,22800,1,0,0:0:0:0:
64,192,23040,1,0,0:0:0:0:
320,192,23040,1,0,0:0:0:0:
192,192,23160,1,0,0:0:0:0:
320,192,23160,1,0,0:0:0:0:
64,192,23280,1,0,0:0:0:0:
448,192,23280,1,0,0:0:0:0:
320,192,23400,1,0,0:0:0:0:
448,192,23400,1,0,0:0:0:0:
64,192,23520,1,0,0:0:0:0:
192,192,23520,1,0,0:0:0:0:
448,192,23640,1,0,0:0:0:0:
192,192,23760,1,0,0:0:0:0:
320,192,23760,1,0,0:0:0:0:
64,192,23880,1,0,0:0:0:0:
192,192,24000,1,0,0:0:0:0:
320,192,24000,1,0,0:0:0:0:
448,192,24000,1,0,0:0:0:0:
320,192,24240,1,0,0:0:0:0:
448,192,24240,1,0,0:0:0:0:
192,192,24360,1,0,0:0:0:0:
64,192,24480,1,0,0:0:0:0:
320,192,24480,1,0,0:0:0:0:
448,192,24480,1,0,0:0:0:0:
192,192,24720,1,0,0:0:0:0:
448,192,24720,1,0,0:0:0:0:
192,192,24960,1,0,0:0:0:0:
320,192,24960,1,0,0:0:0:0:
64,192,25080,1,0,0:0:0:0:
320,192,25080,1,0,0:0:0:0:
192,192,25200,1,0,0:0:0:0:
320,192,25320,1,0,0:0:0:0:
448,192,25320,1,0,0:0:0:0:
64,192,25440,1,0,0:0:0:0:
192,192,25440,1,0,0:0:0:0:
448,192,25560,1,0,0:0:0:0:
192,192,25680,1,0,0:0:0:0:
320,192,25680,1,0,0:0:0:0:
64,192,25800,1,0,0:0:0:0:
192,192,25920,1,0,0:0:0:0:
320,192,25920,1,0,0:0:0:0:
448,192,25920,1,0,0:0:0:0:
320,192,26160,1,0,0:0:0:0:
448,192,26160,1,0,0:0:0:0:
192,192,26280,1,0,0:0:0:0:
64,192,26400,1,0,0:0:0:0:
320,192,26400,1,0,0:0:0:0:
448,192,26400,1,0,0:0:0:0:
192,192,26640,1,0,0:0:0:0:
448,192,26640,1,0,0:0:0:0:
192,192,26880,1,0,0:0:0:0:
320,192,26880,1,0,0:0:0:0:
64,192,27000,1,0,0:0:0:0:
320,192,27000,1,0,0:0:0:0:
192,192,27120,1,0,0:0:0:0:
64,192,27240,1,0,0:0:0:0:
448,192,27240,1,0,0:0:0:0:
192,192,27360,1,0,0:0:0:0:
320,192,27360,1,0,0:0:0:0:
448,192,27480,1,0,0:0:0:0:
64,192,27600,1,0,0:0:0:0:
320,192,27600,1,0,0:0:0:0:
192,192,27720,1,0,0:0:0:0:
192,192,27840,1,0,0:0:0:0:
448,192,27840,1,0,0:0:0:0:
64,192,27960,1,0,0:0:0:0:
320,192,27960,1,0,0:0:0:0:
192,192,28080,1,0,0:0:0:0:
320,192,28080,1,0,0:0:0:0:
64,192,28200,1,0,0:0:0:0:
192,192,28200,1,0,0:0:0:0:
320,192,28320,1,0,0:0:0:0:
448,192,28320,1,0,0:0:0:0:
64,192,28440,1,0,0:0:0:0:
448,192,28440,1,0,0:0:0:0:
192,192,28560,1,0,0:0:0:0:
320,192,28560,1,0,0:0:0:0:
64,192,28680,1,0,0:0:0:0:
320,192,28680,1,0,0:0:0:0:
192,192,28800,1,0,0:0:0:0:
448,192,28800,1,0,0:0:0:0:
64,192,28920,1,0,0:0:0:0:
192,192,28920,1,0,0:0:0:0:
320,192,29040,1,0,0:0:0:0:
448,192,29040,1,0,0:0:0:0:
64,192,29160,1,0,0:0:0:0:
448,192,29160,1,0,0:0:0:0:
192,192,29280,1,0,0:0:0:0:
320,192,29280,1,0,0:0:0:0:
192,192,29400,1,0,0:0:0:0:
448,192,29400,1,0,0:0:0:0:
64,192,29520,1,0,0:0:0:0:
320,192,29520,1,0,0:0:0:0:
192,192,29580,1,0,0:0:0:0:
64,192,29640,1,0,0:0:0:0:
64,192,29760,1,0,0:0:0:0:
192,192,29760,1,0,0:0:0:0:
320,192,29820,1,0,0:0:0:0:
192,192,29880,1,0,0:0:0:0:
448,192,29880,1,0,0:0:0:0:
448,192,30000,1,0,0:0:0:0:
320,192,30120,1,0,0:0:0:0:
448,192,30120,1,0,0:0:0:0:
192,192,30180,1,0,0:0:0:0:
64,192,30240,1,0,0:0:0:0:
320,192,30240,1,0,0:0:0:0:
64,192,30360,1,0,0:0:0:0:
64,192,30480,1,0,0:0:0:0:
192,192,30480,1,0,0:0:0:0:
448,192,30540,1,0,0:0:0:0:
192,192,30600,1,0,0:0:0:0:
320,192,30600,1,0,0:0:0:0:
320,192,30720,1,0,0:0:0:0:
320,192,30840,1,0,0:0:0:0:
448,192,30840,1,0,0:0:0:0:
64,192,30900,1,0,0:0:0:0:
192,192,30960,1,0,0:0:0:0:
448,192,30960,1,0,0:0:0:0:
192,192,31080,1,0,0:0:0:0:
448,192,31140,1,0,0:0:0:0:
192,192,31200,1,0,0:0:0:0:
320,192,31200,1,0,0:0:0:0:
64,192,31260,1,0,0:0:0:0:
448,192,31260,1,0,0:0:0:0:
320,192,31320,1,0,0:0:0:0:
192,192,31380,1,0,0:0:0:0:
64,192,31440,1,0,0:0:0:0:
448,192,31440,1,0,0:0:0:0:
320,192,31500,1,0,0:0:0:0:
192,192,31560,1,0,0:0:0:0:
320,192,31680,1,0,0:0:0:0:
448,192,31680,1,0,0:0:0:0:
64,192,31740,1,0,0:0:0:0:
192,192,31800,1,0,0:0:0:0:
320,192,31800,1,0,0:0:0:0:
448,192,31860,1,0,0:0:0:0:
192,192,31920,1,0,0:0:0:0:
64,192,31980,1,0,0:0:0:0:
320,192,32040,1,0,0:0:0:0:
448,192,32040,1,0,0:0:0:0:
192,192,32100,1,0,0:0:0:0:
64,192,32160,1,0,0:0:0:0:
320,192,32160,1,0,0:0:0:0:
448,192,32220,1,0,0:0:0:0:
64,192,32280,1,0,0:0:0:0:
192,192,32340,1,0,0:0:0:0:
320,192,32400,1,0,0:0:0:0:
448,192,32400,1,0,0:0:0:0:
320,192,32520,1,0,0:0:0:0:
64,192,32640,1,0,0:0:0:0:
192,192,32640,1,0,0:0:0:0:
320,192,32700,1,0,0:0:0:0:
64,192,32760,1,0,0:0:0:0:
448,192,32760,1,0,0:0:0:0:
192,192,32820,1,0,0:0:0:0:
448,192,32880,1,0,0:0:0:0:
320,192,32940,1,0,0:0:0:0:
64,192,33000,1,0,0:0:0:0:
192,192,33000,1,0,0:0:0:0:
448,192,33060,1,0,0:0:0:0:
64,192,33120,1,0,0:0:0:0:
320,192,33120,1,0,0:0:0:0:
192,192,33180,1,0,0:0:0:0:
320,192,33240,1,0,0:0:0:0:
448,192,33300,1,0,0:0:0:0:
64,192,33360,1,0,0:0:0:0:
192,192,33360,1,0,0:0:0:0:
64,192,33480,1,0,0:0:0:0:
320,192,33600,1,0,0:0:0:0:
448,192,33600,1,0,0:0:0:0:
64,192,33660,1,0,0:0:0:0:
192,192,33720,1,0,0:0:0:0:
320,192,33720,1,0,0:0:0:0:
448,192,33780,1,0,0:0:0:0:
192,192,33840,1,0,0:0:0:0:
64,192,33900,1,0,0:0:0:0:
320,192,33960,1,0,0:0:0:0:
448,192,33960,1,0,0:0:0:0:
192,192,34020,1,0,0:0:0:0:
64,192,34080,1,0,0:0:0:0:
320,192,34080,1,0,0:0:0:0:
448,192,34140,1,0,0:0:0:0:
64,192,34200,1,0,0:0:0:0:
192,192,34260,1,0,0:0:0:0:
320,192,34320,1,0,0:0:0:0:
448,192,34320,1,0,0:0:0:0:
448,192,34440,1,0,0:0:0:0:
192,192,34560,1,0,0:0:0:0:
320,192,34560,1,0,0:0:0:0:
64,192,34620,1,0,0:0:0:0:
192,192,34680,1,0,0:0:0:0:
448,192,34680,1,0,0:0:0:0:
64,192,34740,1,0,0:0:0:0:
448,192,34800,1,0,0:0:0:0:
192,192,34860,1,0,0:0:0:0:
64,192,34920,1,0,0:0:0:0:
320,192,34920,1,0,0:0:0:0:
448,192,34980,1,0,0:0:0:0:
192,192,35040,1,0,0:0:0:0:
320,192,35040,1,0,0:0:0:0:
448,192,35100,1,0,0:0:0:0:
192,192,35160,1,0,0:0:0:0:
320,192,35220,1,0,0:0:0:0:
64,192,35280,1,0,0:0:0:0:
448,192,35280,1,0,0:0:0:0:
64,192,35400,1,0,0:0:0:0:
192,192,35400,1,0,0:0:0:0:
320,192,35520,1,0,0:0:0:0:
448,192,35520,1,0,0:0:0:0:
64,192,35580,1,0,0:0:0:0:
192,192,35640,1,0,0:0:0:0:
320,192,35640,1,0,0:0:0:0:
448,192,35700,1,0,0:0:0:0:
192,192,35760,1,0,0:0:0:0:
64,192,35820,1,0,0:0:0:0:
320,192,35880,1,0,0:0:0:0:
448,192,35880,1,0,0:0:0:0:
192,192,35940,1,0,0:0:0:0:
64,192,36000,1,0,0:0:0:0:
320,192,36000,1,0,0:0:0:0:
448,192,36060,1,0,0:0:0:0:
64,192,36120,1,0,0:0:0:0:
192,192,36180,1,0,0:0:0:0:
320,192,36240,1,0,0:0:0:0:
448,192,36240,1,0,0:0:0:0:
320,192,36360,1,0,0:0:0:0:
64,192,36480,1,0,0:0:0:0:
192,192,36480,1,0,0:0:0:0:
320,192,36540,1,0,0:0:0:0:
64,192,36600,1,0,0:0:0:0:
448,192,36600,1,0,0:0:0:0:
192,192,36660,1,0,0:0:0:0:
448,192,36720,1,0,0:0:0:0:
320,192,36780,1,0,0:0:0:0:
64,192,36840,1,0,0:0:0:0:
192,192,36840,1,0,0:0:0:0:
448,192,36900,1,0,0:0:0:0:
64,192,36960,1,0,0:0:0:0:
320,192,36960,1,0,0:0:0:0:
192,192,37020,1,0,0:0:0:0:
320,192,37080,1,0,0:0:0:0:
448,192,37140,1,0,0:0:0:0:
64,192,37200,1,0,0:0:0:0:
192,192,37200,1,0,0:0:0:0:
64,192,37320,1,0,0:0:0:0:
320,192,37440,1,0,0:0:0:0:
448,192,37440,1,0,0:0:0:0:
64,192,37500,1,0,0:0:0:0:
192,192,37560,1,0,0:0:0:0:
320,192,37560,1,0,0:0:0:0:
448,192,37620,1,0,0:0:0:0:
192,192,37680,1,0,0:0:0:0:
64,192,37740,1,0,0:0:0:0:
320,192,37800,1,0,0:0:0:0:
448,192,37800,1,0,0:0:0:0:
192,192,37860,1,0,0:0:0:0:
64,192,37920,1,0,0:0:0:0:
320,192,37920,1,0,0:0:0:0:
448,192,37980,1,0,0:0:0:0:
64,192,38040,1,0,0:0:0:0:
192,192,38100,1,0,0:0:0:0:
320,192,38160,1,0,0:0:0:0:
448,192,38160,1,0,0:0:0:0:
320,192,38280,1,0,0:0:0:0:
64,192,38400,1,0,0:0:0:0:
448,192,38400,1,0,0:0:0:0:
320,192,38460,1,0,0:0:0:0:
192,192,38520,1,0,0:0:0:0:
320,192,38640,1,0,0:0:0:0:
448,192,38640,1,0,0:0:0:0:
64,192,38760,1,0,0:0:0:0:
192,192,38760,1,0,0:0:0:0:
64,192,38880,1,0,0:0:0:0:
320,192,38880,1,0,0:0:0:0:
192,192,39000,1,0,0:0:0:0:
448,192,39120,1,0,0:0:0:0:
64,192,39150,1,0,0:0:0:0:
320,192,39195,1,0,0:0:0:0:
192,192,39225,1,0,0:0:0:0:
64,192,39260,1,0,0:0:0:0:
320,192,39285,1,0,0:0:0:0:
448,192,39330,1,0,0:0:0:0:
64,192,39360,1,0,0:0:0:0:
192,192,39360,1,0,0:0:0:0:
448,192,39420,1,0,0:0:0:0:
192,192,39480,1,0,0:0:0:0:
320,192,39480,1,0,0:0:0:0:
64,192,39540,1,0,0:0:0:0:
320,192,39600,1,0,0:0:0:0:
448,192,39660,1,0,0:0:0:0:
64,192,39720,1,0,0:0:0:0:
192,192,39720,1,0,0:0:0:0:
320,192,39780,1,0,0:0:0:0:
192,192,39840,1,0,0:0:0:0:
448,192,39840,1,0,0:0:0:0:
64,192,39900,1,0,0:0:0:0:
448,192,39960,1,0,0:0:0:0:
320,192,40020,1,0,0:0:0:0:
64,192,40080,1,0,0:0:0:0:
192,192,40080,1,0,0:0:0:0:
192,192,40200,1,0,0:0:0:0:
320,192,40200,1,0,0:0:0:0:
320,192,40320,1,0,0:0:0:0:
448,192,40320,1,0,0:0:0:0:
192,192,40380,1,0,0:0:0:0:
64,192,40440,1,0,0:0:0:0:
448,192,40440,1,0,0:0:0:0:
320,192,40500,1,0,0:0:0:0:
64,192,40560,1,0,0:0:0:0:
192,192,40620,1,0,0:0:0:0:
320,192,40680,1,0,0:0:0:0:
448,192,40680,1,0,0:0:0:0:
64,192,40740,1,0,0:0:0:0:
192,192,40800,1,0,0:0:0:0:
448,192,40800,1,0,0:0:0:0:
320,192,40860,1,0,0:0:0:0:
192,192,40920,1,0,0:0:0:0:
64,192,40980,1,0,0:0:0:0:
320,192,41040,1,0,0:0:0:0:
448,192,41040,1,0,0:0:0:0:
64,192,41160,1,0,0:0:0:0:
448,192,41160,1,0,0:0:0:0:
64,192,41280,1,0,0:0:0:0:
192,192,41280,1,0,0:0:0:0:
448,192,41340,1,0,0:0:0:0:
192,192,41400,1,0,0:0:0:0:
320,192,41400,1,0,0:0:0:0:
64,192,41460,1,0,0:0:0:0:
320,192,41520,1,0,0:0:0:0:
448,192,41580,1,0,0:0:0:0:
64,192,41640,1,0,0:0:0:0:
192,192,41640,1,0,0:0:0:0:
320,192,41700,1,0,0:0:0:0:
192,192,41760,1,0,0:0:0:0:
448,192,41760,1,0,0:0:0:0:
64,192,41820,1,0,0:0:0:0:
448,192,41880,1,0,0:0:0:0:
320,192,41940,1,0,0:0:0:0:
64,192,42000,1,0,0:0:0:0:
192,192,42000,1,0,0:0:0:0:
64,192,42120,1,0,0:0:0:0:
192,192,42120,1,0,0:0:0:0:
64,192,42240,1,0,0:0:0:0:
448,192,42240,1,0,0:0:0:0:
192,192,42360,1,0,0:0:0:0:
320,192,42420,1,0,0:0:0:0:
448,192,42420,1,0,0:0:0:0:
64,192,42600,1,0,0:0:0:0:
448,192,42600,1,0,0:0:0:0:
192,192,42720,1,0,0:0:0:0:
320,192,42720,1,0,0:0:0:0:
448,192,42840,1,0,0:0:0:0:
64,192,42960,1,0,0:0:0:0:
320,192,42960,1,0,0:0:0:0:
192,192,43080,1,0,0:0:0:0:
448,192,43080,1,0,0:0:0:0:
64,192,43200,1,0,0:0:0:0:
192,192,43200,1,0,0:0:0:0:
448,192,43260,1,0,0:0:0:0:
192,192,43320,1,0,0:0:0:0:
320,192,43320,1,0,0:0:0:0:
64,192,43380,1,0,0:0:0:0:
320,192,43440,1,0,0:0:0:0:
448,192,43500,1,0,0:0:0:0:
64,192,43560,1,0,0:0:0:0:
192,192,43560,1,0,0:0:0:0:
320,192,43620,1,0,0:0:0:0:
192,192,43680,1,0,0:0:0:0:
448,192,43680,1,0,0:0:0:0:
64,192,43740,1,0,0:0:0:0:
448,192,43800,1,0,0:0:0:0:
320,192,43860,1,0,0:0:0:0:
64,192,43920,1,0,0:0:0:0:
192,192,43920,1,0,0:0:0:0:
64,192,44040,1,0,0:0:0:0:
192,192,44040,1,0,0:0:0:0:
192,192,44160,1,0,0:0:0:0:
320,192,44160,1,0,0:0:0:0:
64,192,44280,1,0,0:0:0:0:
320,192,44340,1,0,0:0:0:0:
448,192,44340,1,0,0:0:0:0:
192,192,44520,1,0,0:0:0:0:
320,192,44520,1,0,0:0:0:0:
64,192,44640,1,0,0:0:0:0:
448,192,44640,1,0,0:0:0:0:
64,192,44820,1,0,0:0:0:0:
320,192,44820,1,0,0:0:0:0:
192,192,44880,1,0,0:0:0:0:
448,192,44880,1,0,0:0:0:0:
320,192,45000,1,0,0:0:0:0:
448,192,45000,1,0,0:0:0:0:
64,192,45120,1,0,0:0:0:0:
192,192,45120,1,0,0:0:0:0:
448,192,45180,1,0,0:0:0:0:
64,192,45240,1,0,0:0:0:0:
320,192,45240,1,0,0:0:0:0:
192,192,45300,1,0,0:0:0:0:
320,192,45360,1,0,0:0:0:0:
448,192,45420,1,0,0:0:0:0:
64,192,45480,1,0,0:0:0:0:
192,192,45480,1,0,0:0:0:0:
320,192,45540,1,0,0:0:0:0:
64,192,45600,1,0,0:0:0:0:
448,192,45600,1,0,0:0:0:0:
192,192,45660,1,0,0:0:0:0:
448,192,45720,1,0,0:0:0:0:
320,192,45780,1,0,0:0:0:0:
64,192,45840,1,0,0:0:0:0:
192,192,45840,1,0,0:0:0:0:
64,192,45960,1,0,0:0:0:0:
192,192,46080,1,0,0:0:0:0:
320,192,46080,1,0,0:0:0:0:
64,192,46140,1,0,0:0:0:0:
192,192,46200,1,0,0:0:0:0:
448,192,46200,1,0,0:0:0:0:
64,192,46320,1,0,0:0:0:0:
448,192,46320,1,0,0:0:0:0:
192,192,46440,1,0,0:0:0:0:
320,192,46440,1,0,0:0:0:0:
64,192,46560,1,0,0:0:0:0:
320,192,46560,1,0,0:0:0:0:
192,192,46680,1,0,0:0:0:0:
448,192,46680,1,0,0:0:0:0:
64,192,46800,1,0,0:0:0:0:
320,192,46830,1,0,0:0:0:0:
448,192,46875,1,0,0:0:0:0:
192,192,46905,1,0,0:0:0:0:
64,192,46940,1,0,0:0:0:0:
320,192,46965,1,0,0:0:0:0:
448,192,47010,1,0,0:0:0:0:
64,192,47040,1,0,0:0:0:0:
192,192,47040,1,0,0:0:0:0:
320,192,47100,1,0,0:0:0:0:
192,192,47160,1,0,0:0:0:0:
448,192,47160,1,0,0:0:0:0:
320,192,47220,1,0,0:0:0:0:
64,192,47280,1,0,0:0:0:0:
448,192,47340,1,0,0:0:0:0:
192,192,47400,1,0,0:0:0:0:
320,192,47400,1,0,0:0:0:0:
64,192,47460,1,0,0:0:0:0:
192,192,47520,1,0,0:0:0:0:
448,192,47520,1,0,0:0:0:0:
64,192,47580,1,0,0:0:0:0:
320,192,47640,1,0,0:0:0:0:
192,192,47700,1,0,0:0:0:0:
320,192,47760,1,0,0:0:0:0:
448,192,47760,1,0,0:0:0:0:
448,192,47880,1,0,0:0:0:0:
64,192,48000,1,0,0:0:0:0:
192,192,48000,1,0,0:0:0:0:
320,192,48060,1,0,0:0:0:0:
192,192,48120,1,0,0:0:0:0:
448,192,48120,1,0,0:0:0:0:
320,192,48180,1,0,0:0:0:0:
64,192,48240,1,0,0:0:0:0:
448,192,48300,1,0,0:0:0:0:
192,192,48360,1,0,0:0:0:0:
320,192,48360,1,0,0:0:0:0:
64,192,48420,1,0,0:0:0:0:
192,192,48480,1,0,0:0:0:0:
448,192,48480,1,0,0:0:0:0:
64,192,48540,1,0,0:0:0:0:
320,192,48600,1,0,0:0:0:0:
192,192,48660,1,0,0:0:0:0:
320,192,48720,1,0,0:0:0:0:
448,192,48720,1,0,0:0:0:0:
448,192,48840,1,0,0:0:0:0:
64,192,48960,1,0,0:0:0:0:
192,192,48960,1,0,0:0:0:0:
320,192,49020,1,0,0:0:0:0:
192,192,49080,1,0,0:0:0:0:
448,192,49080,1,0,0:0:0:0:
320,192,49140,1,0,0:0:0:0:
64,192,49200,1,0,0:0:0:0:
448,192,49260,1,0,0:0:0:0:
192,192,49320,1,0,0:0:0:0:
320,192,49320,1,0,0:0:0:0:
64,192,49380,1,0,0:0:0:0:
192,192,49440,1,0,0:0:0:0:
448,192,49440,1,0,0:0:0:0:
64,192,49500,1,0,0:0:0:0:
320,192,49560,1,0,0:0:0:0:
192,192,49620,1,0,0:0:0:0:
320,192,49680,1,0,0:0:0:0:
448,192,49680,1,0,0:0:0:0:
448,192,49800,1,0,0:0:0:0:
64,192,49920,1,0,0:0:0:0:
192,192,49920,1,0,0:0:0:0:
320,192,49980,1,0,0:0:0:0:
192,192,50040,1,0,0:0:0:0:
448,192,50040,1,0,0:0:0:0:
320,192,50100,1,0,0:0:0:0:
192,192,50160,1,0,0:0:0:0:
64,192,50220,1,0,0:0:0:0:
320,192,50280,1,0,0:0:0:0:
448,192,50280,1,0,0:0:0:0:
192,192,50340,1,0,0:0:0:0:
64,192,50400,1,0,0:0:0:0:
320,192,50400,1,0,0:0:0:0:
192,192,50460,1,0,0:0:0:0:
320,192,50520,1,0,0:0:0:0:
448,192,50580,1,0,0:0:0:0:
64,192,50640,1,0,0:0:0:0:
192,192,50640,1,0,0:0:0:0:
64,192,50760,1,0,0:0:0:0:
320,192,50760,1,0,0:0:0:0:
320,192,50880,1,0,0:0:0:0:
448,192,50880,1,0,0:0:0:0:
64,192,50940,1,0,0:0:0:0:
192,192,51000,1,0,0:0:0:0:
448,192,51000,1,0,0:0:0:0:
64,192,51060,1,0,0:0:0:0:
320,192,51120,1,0,0:0:0:0:
192,192,51180,1,0,0:0:0:0:
64,192,51240,1,0,0:0:0:0:
448,192,51240,1,0,0:0:0:0:
320,192,51300,1,0,0:0:0:0:
192,192,51360,1,0,0:0:0:0:
448,192,51360,1,0,0:0:0:0:
320,192,51420,1,0,0:0:0:0:
64,192,51480,1,0,0:0:0:0:
448,192,51540,1,0,0:0:0:0:
64,192,51600,1,0,0:0:0:0:
192,192,51600,1,0,0:0:0:0:
192,192,51720,1,0,0:0:0:0:
320,192,51840,1,0,0:0:0:0:
448,192,51840,1,0,0:0:0:0:
64,192,51900,1,0,0:0:0:0:
192,192,51960,1,0,0:0:0:0:
448,192,51960,1,0,0:0:0:0:
64,192,52020,1,0,0:0:0:0:
320,192,52080,1,0,0:0:0:0:
192,192,52140,1,0,0:0:0:0:
64,192,52200,1,0,0:0:0:0:
448,192,52200,1,0,0:0:0:0:
320,192,52260,1,0,0:0:0:0:
192,192,52320,1,0,0:0:0:0:
448,192,52320,1,0,0:0:0:0:
320,192,52380,1,0,0:0:0:0:
64,192,52440,1,0,0:0:0:0:
448,192,52500,1,0,0:0:0:0:
64,192,52560,1,0,0:0:0:0:
192,192,52560,1,0,0:0:0:0:
192,192,52680,1,0,0:0:0:0:
320,192,52680,1,0,0:0:0:0:
448,192,52800,1,0,0:0:0:0:
64,192,52860,1,0,0:0:0:0:
448,192,52920,1,0,0:0:0:0:
64,192,52980,1,0,0:0:0:0:
192,192,53040,1,0,0:0:0:0:
320,192,53040,1,0,0:0:0:0:
448,192,53100,1,0,0:0:0:0:
320,192,53160,1,0,0:0:0:0:
192,192,53220,1,0,0:0:0:0:
64,192,53280,1,0,0:0:0:0:
448,192,53280,1,0,0:0:0:0:
320,192,53340,1,0,0:0:0:0:
64,192,53400,1,0,0:0:0:0:
192,192,53400,1,0,0:0:0:0:
320,192,53460,1,0,0:0:0:0:
64,192,53520,1,0,0:0:0:0:
448,192,53520,1,0,0:0:0:0:
448,192,53640,1,0,0:0:0:0:
64,192,53760,1,0,0:0:0:0:
320,192,53760,1,0,0:0:0:0:
448,192,53820,1,0,0:0:0:0:
64,192,53880,1,0,0:0:0:0:
320,192,54000,1,0,0:0:0:0:
448,192,54000,1,0,0:0:0:0:
64,192,54120,1,0,0:0:0:0:
192,192,54120,1,0,0:0:0:0:
64,192,54240,1,0,0:0:0:0:
320,192,54240,1,0,0:0:0:0:
192,192,54360,1,0,0:0:0:0:
64,192,54480,1,0,0:0:0:0:
320,192,54480,1,0,0:0:0:0:
448,192,54480,1,0,0:0:0:0:
64,192,54720,1,0,0:0:0:0:
192,192,54720,1,0,0:0:0:0:
320,192,54780,1,0,0:0:0:0:
192,192,54840,1,0,0:0:0:0:
448,192,54840,1,0,0:0:0:0:
320,192,54900,1,0,0:0:0:0:
64,192,54960,1,0,0:0:0:0:
448,192,55020,1,0,0:0:0:0:
192,192,55080,1,0,0:0:0:0:
320,192,55080,1,0,0:0:0:0:
64,192,55140,1,0,0:0:0:0:
192,192,55200,1,0,0:0:0:0:
448,192,55200,1,0,0:0:0:0:
64,192,55260,1,0,0:0:0:0:
320,192,55320,1,0,0:0:0:0:
192,192,55380,1,0,0:0:0:0:
320,192,55440,1,0,0:0:0:0:
448,192,55440,1,0,0:0:0:0:
64,192,55560,1,0,0:0:0:0:
448,192,55560,1,0,0:0:0:0:
64,192,55680,1,0,0:0:0:0:
192,192,55680,1,0,0:0:0:0:
320,192,55740,1,0,0:0:0:0:
192,192,55800,1,0,0:0:0:0:
448,192,55800,1,0,0:0:0:0:
320,192,55860,1,0,0:0:0:0:
64,192,55920,1,0,0:0:0:0:
448,192,55980,1,0,0:0:0:0:
192,192,56040,1,0,0:0:0:0:
320,192,56040,1,0,0:0:0:0:
64,192,56100,1,0,0:0:0:0:
192,192,56160,1,0,0:0:0:0:
448,192,56160,1,0,0:0:0:0:
64,192,56220,1,0,0:0:0:0:
320,192,56280,1,0,0:0:0:0:
192,192,56340,1,0,0:0:0:0:
320,192,56400,1,0,0:0:0:0:
448,192,56400,1,0,0:0:0:0:
64,192,56520,1,0,0:0:0:0:
448,192,56520,1,0,0:0:0:0:
64,192,56640,1,0,0:0:0:0:
192,192,56640,1,0,0:0:0:0:
320,192,56700,1,0,0:0:0:0:
192,192,56760,1,0,0:0:0:0:
448,192,56760,1,0,0:0:0:0:
320,192,56820,1,0,0:0:0:0:
64,192,56880,1,0,0:0:0:0:
448,192,56940,1,0,0:0:0:0:
192,192,57000,1,0,0:0:0:0:
320,192,57000,1,0,0:0:0:0:
64,192,57060,1,0,0:0:0:0:
192,192,57120,1,0,0:0:0:0:
448,192,57120,1,0,0:0:0:0:
64,192,57180,1,0,0:0:0:0:
320,192,57240,1,0,0:0:0:0:
192,192,57300,1,0,0:0:0:0:
320,192,57360,1,0,0:0:0:0:
448,192,57360,1,0,0:0:0:0:
64,192,57480,1,0,0:0:0:0:
448,192,57480,1,0,0:0:0:0:
64,192,57600,1,0,0:0:0:0:
192,192,57600,1,0,0:0:0:0:
320,192,57660,1,0,0:0:0:0:
448,192,57720,1,0,0:0:0:0:
192,192,57780,1,0,0:0:0:0:
320,192,57780,1,0,0:0:0:0:
64,192,57840,1,0,0:0:0:0:
448,192,57900,1,0,0:0:0:0:
64,192,57960,1,0,0:0:0:0:
192,192,57960,1,0,0:0:0:0:
320,192,58020,1,0,0:0:0:0:
448,192,58080,1,0,0:0:0:0:
192,192,58140,1,0,0:0:0:0:
64,192,58200,1,0,0:0:0:0:
448,192,58200,1,0,0:0:0:0:
320,192,58260,1,0,0:0:0:0:
192,192,58320,1,0,0:0:0:0:
448,192,58350,1,0,0:0:0:0:
64,192,58395,1,0,0:0:0:0:
320,192,58425,1,0,0:0:0:0:
192,192,58460,1,0,0:0:0:0:
448,192,58500,1,0,0:0:0:0:
64,192,58530,1,0,0:0:0:0:
320,192,58560,1,0,0:0:0:0:
320,192,58680,1,0,0:0:0:0:
448,192,58680,1,0,0:0:0:0:
64,192,58800,1,0,0:0:0:0:
64,192,58920,1,0,0:0:0:0:
192,192,58920,1,0,0:0:0:0:
320,192,58920,1,0,0:0:0:0:
320,192,59040,1,0,0:0:0:0:
448,192,59040,1,0,0:0:0:0:
192,192,59160,1,0,0:0:0:0:
64,192,59280,1,0,0:0:0:0:
320,192,59280,1,0,0:0:0:0:
448,192,59280,1,0,0:0:0:0:
64,192,59400,1,0,0:0:0:0:
448,192,59400,1,0,0:0:0:0:
192,192,59520,1,0,0:0:0:0:
320,192,59520,1,0,0:0:0:0:
64,192,59640,1,0,0:0:0:0:
192,192,59640,1,0,0:0:0:0:
448,192,59760,1,0,0:0:0:0:
192,192,59880,1,0,0:0:0:0:
320,192,59880,1,0,0:0:0:0:
448,192,59880,1,0,0:0:0:0:
64,192,60000,1,0,0:0:0:0:
192,192,60000,1,0,0:0:0:0:
320,192,60120,1,0,0:0:0:0:
64,192,60240,1,0,0:0:0:0:
192,192,60240,1,0,0:0:0:0:
448,192,60240,1,0,0:0:0:0:
320,192,60360,1,0,0:0:0:0:
64,192,60360,1,0,0:0:0:0:
192,192,60480,1,0,0:0:0:0:
320,192,60480,1,0,0:0:0:0:
64,192,60540,1,0,0:0:0:0:
192,192,60600,1,0,0:0:0:0:
448,192,60600,1,0,0:0:0:0:
64,192,60720,1,0,0:0:0:0:
64,192,60840,1,0,0:0:0:0:
192,192,60840,1,0,0:0:0:0:
320,192,60840,1,0,0:0:0:0:
320,192,60960,1,0,0:0:0:0:
448,192,60960,1,0,0:0:0:0:
192,192,61080,1,0,0:0:0:0:
64,192,61140,1,0,0:0:0:0:
320,192,61140,1,0,0:0:0:0:
192,192,61200,1,0,0:0:0:0:
448,192,61200,1,0,0:0:0:0:
64,192,61320,1,0,0:0:0:0:
192,192,61320,1,0,0:0:0:0:
64,192,61440,1,0,0:0:0:0:
320,192,61440,1,0,0:0:0:0:
448,192,61440,1,0,0:0:0:0:
192,192,61500,1,0,0:0:0:0:
320,192,61560,1,0,0:0:0:0:
448,192,61560,1,0,0:0:0:0:
192,192,61680,1,0,0:0:0:0:
448,192,61680,1,0,0:0:0:0:
64,192,61800,1,0,0:0:0:0:
192,192,61800,1,0,0:0:0:0:
320,192,61800,1,0,0:0:0:0:
320,192,61920,1,0,0:0:0:0:
448,192,61920,1,0,0:0:0:0:
64,192,62040,1,0,0:0:0:0:
448,192,62040,1,0,0:0:0:0:
64,192,62160,1,0,0:0:0:0:
192,192,62160,1,0,0:0:0:0:
320,192,62160,1,0,0:0:0:0:
448,192,62220,1,0,0:0:0:0:
64,192,62280,1,0,0:0:0:0:
320,192,62280,1,0,0:0:0:0:
192,192,62340,1,0,0:0:0:0:
320,192,62400,1,0,0:0:0:0:
448,192,62400,1,0,0:0:0:0:
64,192,62520,1,0,0:0:0:0:
448,192,62580,1,0,0:0:0:0:
192,192,62640,1,0,0:0:0:0:
320,192,62640,1,0,0:0:0:0:
192,192,62760,1,0,0:0:0:0:
320,192,62820,1,0,0:0:0:0:
448,192,62820,1,0,0:0:0:0:
64,192,62940,1,0,0:0:0:0:
448,192,62940,1,0,0:0:0:0:
64,192,63060,1,0,0:0:0:0:
320,192,63060,1,0,0:0:0:0:
448,192,63120,1,0,0:0:0:0:
192,192,63180,1,0,0:0:0:0:
320,192,63180,1,0,0:0:0:0:
64,192,63300,1,0,0:0:0:0:
192,192,63300,1,0,0:0:0:0:
320,192,63360,1,0,0:0:0:0:
448,192,63360,1,0,0:0:0:0:
64,192,63480,1,0,0:0:0:0:
448,192,63480,1,0,0:0:0:0:
192,192,63600,1,0,0:0:0:0:
320,192,63600,1,0,0:0:0:0:
64,192,63720,1,0,0:0:0:0:
448,192,63720,1,0,0:0:0:0:
192,192,63780,1,0,0:0:0:0:
64,192,63840,1,0,0:0:0:0:
320,192,63840,1,0,0:0:0:0:
320,192,63960,1,0,0:0:0:0:
448,192,63960,1,0,0:0:0:0:
192,192,64020,1,0,0:0:0:0:
64,192,64080,1,0,0:0:0:0:
448,192,64140,1,0,0:0:0:0:
192,192,64200,1,0,0:0:0:0:
320,192,64200,1,0,0:0:0:0:
448,192,64260,1,0,0:0:0:0:
64,192,64320,1,0,0:0:0:0:
192,192,64320,1,0,0:0:0:0:
64,192,64440,1,0,0:0:0:0:
320,192,64440,1,0,0:0:0:0:
192,192,64500,1,0,0:0:0:0:
448,192,64500,1,0,0:0:0:0:
64,192,64620,1,0,0:0:0:0:
448,192,64620,1,0,0:0:0:0:
192,192,64740,1,0,0:0:0:0:
320,192,64740,1,0,0:0:0:0:
64,192,64920,1,0,0:0:0:0:
448,192,64920,1,0,0:0:0:0:
64,192,65040,1,0,0:0:0:0:
320,192,65040,1,0,0:0:0:0:
320,192,65160,1,0,0:0:0:0:
192,192,65220,1,0,0:0:0:0:
64,192,65280,1,0,0:0:0:0:
448,192,65280,1,0,0:0:0:0:
320,192,65400,1,0,0:0:0:0:
64,192,65460,1,0,0:0:0:0:
192,192,65520,1,0,0:0:0:0:
448,192,65520,1,0,0:0:0:0:
448,192,65640,1,0,0:0:0:0:
192,192,65700,1,0,0:0:0:0:
64,192,65760,1,0,0:0:0:0:
320,192,65760,1,0,0:0:0:0:
320,192,65880,1,0,0:0:0:0:
448,192,65880,1,0,0:0:0:0:
320,192,66000,1,0,0:0:0:0:
448,192,66000,1,0,0:0:0:0:
64,192,66060,1,0,0:0:0:0:
192,192,66060,1,0,0:0:0:0:
320,192,66120,1,0,0:0:0:0:
448,192,66120,1,0,0:0:0:0:
64,192,66240,1,0,0:0:0:0:
448,192,66240,1,0,0:0:0:0:
192,192,66360,1,0,0:0:0:0:
320,192,66360,1,0,0:0:0:0:
64,192,66420,1,0,0:0:0:0:
448,192,66420,1,0,0:0:0:0:
64,192,66540,1,0,0:0:0:0:
192,192,66540,1,0,0:0:0:0:
320,192,66660,1,0,0:0:0:0:
448,192,66660,1,0,0:0:0:0:
64,192,66720,1,0,0:0:0:0:
192,192,66720,1,0,0:0:0:0:
64,192,66840,1,0,0:0:0:0:
320,192,66840,1,0,0:0:0:0:
192,192,66960,1,0,0:0:0:0:
320,192,66960,1,0,0:0:0:0:
64,192,67080,1,0,0:0:0:0:
448,192,67080,1,0,0:0:0:0:
320,192,67140,1,0,0:0:0:0:
192,192,67200,1,0,0:0:0:0:
448,192,67200,1,0,0:0:0:0:
192,192,67320,1,0,0:0:0:0:
64,192,67380,1,0,0:0:0:0:
320,192,67440,1,0,0:0:0:0:
448,192,67440,1,0,0:0:0:0:
192,192,67560,1,0,0:0:0:0:
320,192,67560,1,0,0:0:0:0:
448,192,67620,1,0,0:0:0:0:
64,192,67680,1,0,0:0:0:0:
192,192,67680,1,0,0:0:0:0:
64,192,67800,1,0,0:0:0:0:
448,192,67800,1,0,0:0:0:0:
448,192,67920,1,0,0:0:0:0:
192,192,67980,1,0,0:0:0:0:
64,192,68040,1,0,0:0:0:0:
320,192,68040,1,0,0:0:0:0:
192,192,68100,1,0,0:0:0:0:
448,192,68100,1,0,0:0:0:0:
64,192,68220,1,0,0:0:0:0:
448,192,68220,1,0,0:0:0:0:
192,192,68340,1,0,0:0:0:0:
320,192,68340,1,0,0:0:0:0:
64,192,68460,1,0,0:0:0:0:
448,192,68460,1,0,0:0:0:0:
64,192,68580,1,0,0:0:0:0:
192,192,68580,1,0,0:0:0:0:
192,192,68700,1,0,0:0:0:0:
320,192,68700,1,0,0:0:0:0:
448,192,68760,1,0,0:0:0:0:
64,192,68820,1,0,0:0:0:0:
320,192,68820,1,0,0:0:0:0:
64,192,69000,1,0,0:0:0:0:
192,192,69000,1,0,0:0:0:0:
192,192,69120,1,0,0:0:0:0:
448,192,69120,1,0,0:0:0:0:
320,192,69240,1,0,0:0:0:0:
448,192,69240,1,0,0:0:0:0:
64,192,69360,1,0,0:0:0:0:
192,192,69360,1,0,0:0:0:0:
192,192,69480,1,0,0:0:0:0:
320,192,69540,1,0,0:0:0:0:
64,192,69600,1,0,0:0:0:0:
448,192,69600,1,0,0:0:0:0:
448,192,69720,1,0,0:0:0:0:
64,192,69780,1,0,0:0:0:0:
192,192,69780,1,0,0:0:0:0:
320,192,69840,1,0,0:0:0:0:
320,192,69960,1,0,0:0:0:0:
448,192,69960,1,0,0:0:0:0:
64,192,70020,1,0,0:0:0:0:
192,192,70080,1,0,0:0:0:0:
320,192,70080,1,0,0:0:0:0:
448,192,70080,1,0,0:0:0:0:
64,192,70200,1,0,0:0:0:0:
192,192,70200,1,0,0:0:0:0:
64,192,70320,1,0,0:0:0:0:
448,192,70320,1,0,0:0:0:0:
192,192,70440,1,0,0:0:0:0:
320,192,70440,1,0,0:0:0:0:
320,192,70620,1,0,0:0:0:0:
448,192,70620,1,0,0:0:0:0:
64,192,70680,1,0,0:0:0:0:
192,192,70680,1,0,0:0:0:0:
64,192,70800,1,0,0:0:0:0:
320,192,70800,1,0,0:0:0:0:
192,192,70920,1,0,0:0:0:0:
320,192,70920,1,0,0:0:0:0:
192,192,71040,1,0,0:0:0:0:
448,192,71040,1,0,0:0:0:0:
64,192,71160,1,0,0:0:0:0:
320,192,71160,1,0,0:0:0:0:
448,192,71220,1,0,0:0:0:0:
192,192,71280,1,0,0:0:0:0:
320,192,71280,1,0,0:0:0:0:
64,192,71400,1,0,0:0:0:0:
192,192,71400,1,0,0:0:0:0:
64,192,71520,1,0,0:0:0:0:
448,192,71520,1,0,0:0:0:0:
192,192,71640,1,0,0:0:0:0:
320,192,71640,1,0,0:0:0:0:
448,192,71700,1,0,0:0:0:0:
192,192,71760,1,0,0:0:0:0:
64,192,71820,1,0,0:0:0:0:
320,192,71820,1,0,0:0:0:0:
192,192,71880,1,0,0:0:0:0:
448,192,71880,1,0,0:0:0:0:
448,192,72000,1,0,0:0:0:0:
64,192,72060,1,0,0:0:0:0:
192,192,72120,1,0,0:0:0:0:
320,192,72120,1,0,0:0:0:0:
448,192,72180,1,0,0:0:0:0:
64,192,72240,1,0,0:0:0:0:
320,192,72240,1,0,0:0:0:0:
192,192,72420,1,0,0:0:0:0:
320,192,72420,1,0,0:0:0:0:
64,192,72480,1,0,0:0:0:0:
448,192,72480,1,0,0:0:0:0:
320,192,72600,1,0,0:0:0:0:
192,192,72660,1,0,0:0:0:0:
448,192,72660,1,0,0:0:0:0:
64,192,72720,1,0,0:0:0:0:
320,192,72720,1,0,0:0:0:0:
64,192,72840,1,0,0:0:0:0:
320,192,72840,1,0,0:0:0:0:
192,192,72900,1,0,0:0:0:0:
448,192,72900,1,0,0:0:0:0:
64,192,73020,1,0,0:0:0:0:
448,192,73020,1,0,0:0:0:0:
192,192,73140,1,0,0:0:0:0:
320,192,73140,1,0,0:0:0:0:
64,192,73260,1,0,0:0:0:0:
192,192,73260,1,0,0:0:0:0:
64,192,73440,1,0,0:0:0:0:
448,192,73440,1,0,0:0:0:0:
320,192,73560,1,0,0:0:0:0:
448,192,73560,1,0,0:0:0:0:
320,192,73680,1,0,0:0:0:0:
448,192,73680,1,0,0:0:0:0:
320,192,73800,1,0,0:0:0:0:
448,192,73800,1,0,0:0:0:0:
64,192,73920,1,0,0:0:0:0:
192,192,73920,1,0,0:0:0:0:
192,192,74040,1,0,0:0:0:0:
320,192,74040,1,0,0:0:0:0:
448,192,74100,1,0,0:0:0:0:
64,192,74160,1,0,0:0:0:0:
320,192,74160,1,0,0:0:0:0:
64,192,74280,1,0,0:0:0:0:
320,192,74340,1,0,0:0:0:0:
192,192,74400,1,0,0:0:0:0:
448,192,74400,1,0,0:0:0:0:
448,192,74520,1,0,0:0:0:0:
320,192,74580,1,0,0:0:0:0:
64,192,74640,1,0,0:0:0:0:
448,192,74640,1,0,0:0:0:0:
64,192,74760,1,0,0:0:0:0:
320,192,74760,1,0,0:0:0:0:
192,192,74880,1,0,0:0:0:0:
320,192,74880,1,0,0:0:0:0:
64,192,74940,1,0,0:0:0:0:
448,192,74940,1,0,0:0:0:0:
320,192,75120,1,0,0:0:0:0:
448,192,75120,1,0,0:0:0:0:
320,192,75240,1,0,0:0:0:0:
192,192,75300,1,0,0:0:0:0:
64,192,75360,1,0,0:0:0:0:
448,192,75360,1,0,0:0:0:0:
64,192,75480,1,0,0:0:0:0:
192,192,75480,1,0,0:0:0:0:
192,192,75600,1,0,0:0:0:0:
448,192,75660,1,0,0:0:0:0:
64,192,75720,1,0,0:0:0:0:
320,192,75720,1,0,0:0:0:0:
320,192,75840,1,0,0:0:0:0:
448,192,75840,1,0,0:0:0:0:
64,192,75900,1,0,0:0:0:0:
192,192,75900,1,0,0:0:0:0:
64,192,76080,1,0,0:0:0:0:
320,192,76080,1,0,0:0:0:0:
192,192,76200,1,0,0:0:0:0:
320,192,76200,1,0,0:0:0:0:
64,192,76260,1,0,0:0:0:0:
448,192,76260,1,0,0:0:0:0:
320,192,76440,1,0,0:0:0:0:
448,192,76440,1,0,0:0:0:0:
64,192,76560,1,0,0:0:0:0:
192,192,76560,1,0,0:0:0:0:
64,192,76680,1,0,0:0:0:0:
320,192,76680,1,0,0:0:0:0:
192,192,76800,1,0,0:0:0:0:
320,192,76800,1,0,0:0:0:0:
448,192,76920,1,0,0:0:0:0:
64,192,77040,1,0,0:0:0:0:
192,192,77040,1,0,0:0:0:0:
64,192,77160,1,0,0:0:0:0:
448,192,77220,1,0,0:0:0:0:
192,192,77280,1,0,0:0:0:0:
320,192,77280,1,0,0:0:0:0:
192,192,77400,1,0,0:0:0:0:
448,192,77400,1,0,0:0:0:0:
64,192,77460,1,0,0:0:0:0:
320,192,77520,1,0,0:0:0:0:
320,192,77640,1,0,0:0:0:0:
64,192,77760,1,0,0:0:0:0:
192,192,77760,1,0,0:0:0:0:
448,192,77760,1,0,0:0:0:0:
320,192,77820,1,0,0:0:0:0:
64,192,77880,1,0,0:0:0:0:
448,192,77940,1,0,0:0:0:0:
192,192,78000,1,0,0:0:0:0:
320,192,78000,1,0,0:0:0:0:
64,192,78060,1,0,0:0:0:0:
320,192,78120,1,0,0:0:0:0:
64,192,78180,1,0,0:0:0:0:
192,192,78240,1,0,0:0:0:0:
448,192,78240,1,0,0:0:0:0:
320,192,78300,1,0,0:0:0:0:
448,192,78360,1,0,0:0:0:0:
192,192,78420,1,0,0:0:0:0:
64,192,78480,1,0,0:0:0:0:
320,192,78480,1,0,0:0:0:0:
448,192,78540,1,0,0:0:0:0:
64,192,78600,1,0,0:0:0:0:
448,192,78660,1,0,0:0:0:0:
192,192,78720,1,0,0:0:0:0:
320,192,78720,1,0,0:0:0:0:
64,192,78780,1,0,0:0:0:0:
192,192,78840,1,0,0:0:0:0:
448,192,78900,1,0,0:0:0:0:
64,192,78960,1,0,0:0:0:0:
320,192,78960,1,0,0:0:0:0:
192,192,79020,1,0,0:0:0:0:
320,192,79080,1,0,0:0:0:0:
192,192,79140,1,0,0:0:0:0:
64,192,79200,1,0,0:0:0:0:
448,192,79200,1,0,0:0:0:0:
320,192,79260,1,0,0:0:0:0:
448,192,79320,1,0,0:0:0:0:
192,192,79380,1,0,0:0:0:0:
64,192,79440,1,0,0:0:0:0:
320,192,79440,1,0,0:0:0:0:
192,192,79500,1,0,0:0:0:0:
64,192,79560,1,0,0:0:0:0:
448,192,79620,1,0,0:0:0:0:
192,192,79680,1,0,0:0:0:0:
320,192,79680,1,0,0:0:0:0:
64,192,79740,1,0,0:0:0:0:
320,192,79800,1,0,0:0:0:0:
192,192,79860,1,0,0:0:0:0:
64,192,79920,1,0,0:0:0:0:
448,192,79920,1,0,0:0:0:0:
320,192,79980,1,0,0:0:0:0:
64,192,80040,1,0,0:0:0:0:
320,192,80100,1,0,0:0:0:0:
192,192,80160,1,0,0:0:0:0:
448,192,80160,1,0,0:0:0:0:
64,192,80220,1,0,0:0:0:0:
448,192,80280,1,0,0:0:0:0:
64,192,80340,1,0,0:0:0:0:
192,192,80400,1,0,0:0:0:0:
320,192,80400,1,0,0:0:0:0:
448,192,80460,1,0,0:0:0:0:
192,192,80520,1,0,0:0:0:0:
320,192,80580,1,0,0:0:0:0:
64,192,80640,1,0,0:0:0:0:
448,192,80640,1,0,0:0:0:0:
320,192,80700,1,0,0:0:0:0:
64,192,80760,1,0,0:0:0:0:
192,192,80820,1,0,0:0:0:0:
320,192,80880,1,0,0:0:0:0:
448,192,80880,1,0,0:0:0:0:
192,192,80940,1,0,0:0:0:0:
448,192,81000,1,0,0:0:0:0:
64,192,81060,1,0,0:0:0:0:
192,192,81120,1,0,0:0:0:0:
320,192,81120,1,0,0:0:0:0:
64,192,81180,1,0,0:0:0:0:
448,192,81180,1,0,0:0:0:0:
192,192,81240,1,0,0:0:0:0:
320,192,81240,1,0,0:0:0:0:
320,192,81360,1,0,0:0:0:0:
448,192,81360,1,0,0:0:0:0:
64,192,81480,1,0,0:0:0:0:
448,192,81480,1,0,0:0:0:0:
64,192,81600,1,0,0:0:0:0:
192,192,81600,1,0,0:0:0:0:
320,192,81600,1,0,0:0:0:0:
448,192,81660,1,0,0:0:0:0:
192,192,81720,1,0,0:0:0:0:
320,192,81780,1,0,0:0:0:0:
64,192,81840,1,0,0:0:0:0:
448,192,81840,1,0,0:0:0:0:
192,192,81900,1,0,0:0:0:0:
448,192,81960,1,0,0:0:0:0:
64,192,82020,1,0,0:0:0:0:
192,192,82080,1,0,0:0:0:0:
320,192,82080,1,0,0:0:0:0:
64,192,82140,1,0,0:0:0:0:
448,192,82200,1,0,0:0:0:0:
192,192,82260,1,0,0:0:0:0:
64,192,82320,1,0,0:0:0:0:
320,192,82320,1,0,0:0:0:0:
448,192,82380,1,0,0:0:0:0:
192,192,82440,1,0,0:0:0:0:
320,192,82500,1,0,0:0:0:0:
64,192,82560,1,0,0:0:0:0:
448,192,82560,1,0,0:0:0:0:
320,192,82620,1,0,0:0:0:0:
448,192,82680,1,0,0:0:0:0:
192,192,82740,1,0,0:0:0:0:
64,192,82800,1,0,0:0:0:0:
320,192,82800,1,0,0:0:0:0:
448,192,82860,1,0,0:0:0:0:
64,192,82920,1,0,0:0:0:0:
448,192,82980,1,0,0:0:0:0:
192,192,83040,1,0,0:0:0:0:
320,192,83040,1,0,0:0:0:0:
64,192,83100,1,0,0:0:0:0:
320,192,83160,1,0,0:0:0:0:
64,192,83220,1,0,0:0:0:0:
192,192,83280,1,0,0:0:0:0:
448,192,83280,1,0,0:0:0:0:
320,192,83340,1,0,0:0:0:0:
192,192,83400,1,0,0:0:0:0:
448,192,83460,1,0,0:0:0:0:
64,192,83520,1,0,0:0:0:0:
320,192,83520,1,0,0:0:0:0:
192,192,83580,1,0,0:0:0:0:
64,192,83640,1,0,0:0:0:0:
448,192,83700,1,0,0:0:0:0:
192,192,83760,1,0,0:0:0:0:
320,192,83760,1,0,0:0:0:0:
64,192,83820,1,0,0:0:0:0:
320,192,83880,1,0,0:0:0:0:
64,192,83940,1,0,0:0:0:0:
192,192,84000,1,0,0:0:0:0:
448,192,84000,1,0,0:0:0:0:
320,192,84060,1,0,0:0:0:0:
448,192,84120,1,0,0:0:0:0:
64,192,84180,1,0,0:0:0:0:
192,192,84240,1,0,0:0:0:0:
448,192,84240,1,0,0:0:0:0:
320,192,84300,1,0,0:0:0:0:
192,192,84360,1,0,0:0:0:0:
320,192,84420,1,0,0:0:0:0:
64,192,84480,1,0,0:0:0:0:
448,192,84480,1,0,0:0:0:0:
192,192,84540,1,0,0:0:0:0:
320,192,84540,1,0,0:0:0:0:
64,192,84600,1,0,0:0:0:0:
448,192,84600,1,0,0:0:0:0:
64,192,84720,1,0,0:0:0:0:
192,192,84720,1,0,0:0:0:0:
320,192,84840,1,0,0:0:0:0:
448,192,84840,1,0,0:0:0:0:
192,192,84960,1,0,0:0:0:0:
320,192,84960,1,0,0:0:0:0:
64,192,85020,1,0,0:0:0:0:
448,192,85020,1,0,0:0:0:0:
192,192,85080,1,0,0:0:0:0:
320,192,85080,1,0,0:0:0:0:
64,192,85200,1,0,0:0:0:0:
192,192,85200,1,0,0:0:0:0:
320,192,85320,1,0,0:0:0:0:
448,192,85320,1,0,0:0:0:0:
64,192,85440,1,0,0:0:0:0:
192,192,85440,1,0,0:0:0:0:
448,192,85440,1,0,0:0:0:0:
320,192,85500,1,0,0:0:0:0:
64,192,85560,1,0,0:0:0:0:
320,192,85620,1,0,0:0:0:0:
192,192,85680,1,0,0:0:0:0:
448,192,85680,1,0,0:0:0:0:
64,192,85740,1,0,0:0:0:0:
448,192,85800,1,0,0:0:0:0:
320,192,85860,1,0,0:0:0:0:
192,192,85920,1,0,0:0:0:0:
448,192,85920,1,0,0:0:0:0:
64,192,85980,1,0,0:0:0:0:
192,192,86040,1,0,0:0:0:0:
64,192,86100,1,0,0:0:0:0:
320,192,86160,1,0,0:0:0:0:
448,192,86160,1,0,0:0:0:0:
192,192,86220,1,0,0:0:0:0:
320,192,86280,1,0,0:0:0:0:
448,192,86340,1,0,0:0:0:0:
64,192,86400,1,0,0:0:0:0:
320,192,86400,1,0,0:0:0:0:
192,192,86460,1,0,0:0:0:0:
64,192,86520,1,0,0:0:0:0:
192,192,86580,1,0,0:0:0:0:
320,192,86640,1,0,0:0:0:0:
448,192,86640,1,0,0:0:0:0:
64,192,86700,1,0,0:0:0:0:
448,192,86760,1,0,0:0:0:0:
64,192,86820,1,0,0:0:0:0:
192,192,86880,1,0,0:0:0:0:
320,192,86880,1,0,0:0:0:0:
448,192,86940,1,0,0:0:0:0:
320,192,87000,1,0,0:0:0:0:
448,192,87060,1,0,0:0:0:0:
64,192,87120,1,0,0:0:0:0:
192,192,87120,1,0,0:0:0:0:
320,192,87180,1,0,0:0:0:0:
448,192,87180,1,0,0:0:0:0:
64,192,87240,1,0,0:0:0:0:
192,192,87240,1,0,0:0:0:0:
64,192,87360,1,0,0:0:0:0:
448,192,87360,1,0,0:0:0:0:
192,192,87420,1,0,0:0:0:0:
448,192,87480,1,0,0:0:0:0:
320,192,87540,1,0,0:0:0:0:
192,192,87600,1,0,0:0:0:0:
448,192,87600,1,0,0:0:0:0:
64,192,87660,1,0,0:0:0:0:
320,192,87720,1,0,0:0:0:0:
64,192,87780,1,0,0:0:0:0:
192,192,87840,1,0,0:0:0:0:
448,192,87840,1,0,0:0:0:0:
320,192,87900,1,0,0:0:0:0:
192,192,87960,1,0,0:0:0:0:
320,192,88020,1,0,0:0:0:0:
64,192,88080,1,0,0:0:0:0:
448,192,88080,1,0,0:0:0:0:
192,192,88140,1,0,0:0:0:0:
320,192,88200,1,0,0:0:0:0:
448,192,88260,1,0,0:0:0:0:
64,192,88320,1,0,0:0:0:0:
192,192,88320,1,0,0:0:0:0:
320,192,88380,1,0,0:0:0:0:
192,192,88500,1,0,0:0:0:0:
448,192,88500,1,0,0:0:0:0:
64,192,88560,1,0,0:0:0:0:
320,192,88680,1,0,0:0:0:0:
448,192,88680,1,0,0:0:0:0:
64,192,88800,1,0,0:0:0:0:
192,192,88800,1,0,0:0:0:0:
320,192,88860,1,0,0:0:0:0:
448,192,88860,1,0,0:0:0:0:
64,192,88920,1,0,0:0:0:0:
192,192,88920,1,0,0:0:0:0:
64,192,89040,1,0,0:0:0:0:
448,192,89040,1,0,0:0:0:0:
320,192,89160,1,0,0:0:0:0:
448,192,89160,1,0,0:0:0:0:
64,192,89280,1,0,0:0:0:0:
192,192,89280,1,0,0:0:0:0:
320,192,89340,1,0,0:0:0:0:
64,192,89400,1,0,0:0:0:0:
320,192,89460,1,0,0:0:0:0:
192,192,89520,1,0,0:0:0:0:
448,192,89520,1,0,0:0:0:0:
64,192,89580,1,0,0:0:0:0:
448,192,89640,1,0,0:0:0:0:
64,192,89700,1,0,0:0:0:0:
192,192,89760,1,0,0:0:0:0:
320,192,89760,1,0,0:0:0:0:
448,192,89820,1,0,0:0:0:0:
192,192,89880,1,0,0:0:0:0:
320,192,89940,1,0,0:0:0:0:
64,192,90000,1,0,0:0:0:0:
448,192,90000,1,0,0:0:0:0:
192,192,90060,1,0,0:0:0:0:
320,192,90060,1,0,0:0:0:0:
64,192,90120,1,0,0:0:0:0:
448,192,90120,1,0,0:0:0:0:
192,192,90240,1,0,0:0:0:0:
320,192,90240,1,0,0:0:0:0:
64,192,90300,1,0,0:0:0:0:
320,192,90360,1,0,0:0:0:0:
448,192,90420,1,0,0:0:0:0:
64,192,90480,1,0,0:0:0:0:
320,192,90480,1,0,0:0:0:0:
192,192,90540,1,0,0:0:0:0:
64,192,90600,1,0,0:0:0:0:
320,192,90660,1,0,0:0:0:0:
192,192,90720,1,0,0:0:0:0:
448,192,90720,1,0,0:0:0:0:
320,192,90780,1,0,0:0:0:0:
448,192,90840,1,0,0:0:0:0:
192,192,90900,1,0,0:0:0:0:
320,192,90960,1,0,0:0:0:0:
64,192,90990,1,0,0:0:0:0:
448,192,91035,1,0,0:0:0:0:
192,192,91065,1,0,0:0:0:0:
64,192,91100,1,0,0:0:0:0:
320,192,91125,1,0,0:0:0:0:
448,192,91170,1,0,0:0:0:0:
64,192,91200,1,0,0:0:0:0:
192,192,91200,1,0,0:0:0:0:
320,192,91260,1,0,0:0:0:0:
192,192,91320,1,0,0:0:0:0:
320,192,91380,1,0,0:0:0:0:
64,192,91440,1,0,0:0:0:0:
448,192,91440,1,0,0:0:0:0:
192,192,91500,1,0,0:0:0:0:
448,192,91560,1,0,0:0:0:0:
192,192,91620,1,0,0:0:0:0:
64,192,91680,1,0,0:0:0:0:
320,192,91680,1,0,0:0:0:0:
448,192,91740,1,0,0:0:0:0:
320,192,91800,1,0,0:0:0:0:
64,192,91860,1,0,0:0:0:0:
192,192,91860,1,0,0:0:0:0:
448,192,91920,1,0,0:0:0:0:
64,192,91980,1,0,0:0:0:0:
192,192,92040,1,0,0:0:0:0:
320,192,92040,1,0,0:0:0:0:
448,192,92100,1,0,0:0:0:0:
64,192,92160,1,0,0:0:0:0:
192,192,92160,1,0,0:0:0:0:
320,192,92220,1,0,0:0:0:0:
448,192,92220,1,0,0:0:0:0:
64,192,92280,1,0,0:0:0:0:
192,192,92280,1,0,0:0:0:0:
320,192,92340,1,0,0:0:0:0:
64,192,92400,1,0,0:0:0:0:
448,192,92400,1,0,0:0:0:0:
192,192,92460,1,0,0:0:0:0:
448,192,92520,1,0,0:0:0:0:
320,192,92580,1,0,0:0:0:0:
64,192,92640,1,0,0:0:0:0:
192,192,92640,1,0,0:0:0:0:
320,192,92700,1,0,0:0:0:0:
448,192,92700,1,0,0:0:0:0:
64,192,92760,1,0,0:0:0:0:
192,192,92760,1,0,0:0:0:0:
448,192,92820,1,0,0:0:0:0:
64,192,92880,1,0,0:0:0:0:
320,192,92880,1,0,0:0:0:0:
192,192,92940,1,0,0:0:0:0:
64,192,93000,1,0,0:0:0:0:
192,192,93060,1,0,0:0:0:0:
64,192,93120,1,0,0:0:0:0:
320,192,93120,1,0,0:0:0:0:
448,192,93120,1,0,0:0:0:0:
448,192,93240,1,0,0:0:0:0:
64,192,93300,1,0,0:0:0:0:
192,192,93360,1,0,0:0:0:0:
320,192,93360,1,0,0:0:0:0:
64,192,93480,1,0,0:0:0:0:
192,192,93480,1,0,0:0:0:0:
448,192,93480,1,0,0:0:0:0:
64,192,93600,1,0,0:0:0:0:
448,192,93660,1,0,0:0:0:0:
192,192,93720,1,0,0:0:0:0:
320,192,93720,1,0,0:0:0:0:
64,192,93840,1,0,0:0:0:0:
448,192,93840,1,0,0:0:0:0:
192,192,93900,1,0,0:0:0:0:
320,192,93900,1,0,0:0:0:0:
64,192,93960,1,0,0:0:0:0:
448,192,93960,1,0,0:0:0:0:
192,192,94080,1,0,0:0:0:0:
320,192,94080,1,0,0:0:0:0:
448,192,94140,1,0,0:0:0:0:
64,192,94200,1,0,0:0:0:0:
192,192,94200,1,0,0:0:0:0:
448,192,94260,1,0,0:0:0:0:
64,192,94320,1,0,0:0:0:0:
320,192,94320,1,0,0:0:0:0:
192,192,94440,1,0,0:0:0:0:
448,192,94440,1,0,0:0:0:0:
64,192,94560,1,0,0:0:0:0:
448,192,94560,1,0,0:0:0:0:
192,192,94680,1,0,0:0:0:0:
320,192,94680,1,0,0:0:0:0:
448,192,94740,1,0,0:0:0:0:
64,192,94800,1,0,0:0:0:0:
192,192,94800,1,0,0:0:0:0:
320,192,94920,1,0,0:0:0:0:
64,192,94960,1,0,0:0:0:0:
448,192,95000,1,0,0:0:0:0:
64,192,95040,1,0,0:0:0:0:
192,192,95040,1,0,0:0:0:0:
320,192,95040,1,0,0:0:0:0:
192,192,95160,1,0,0:0:0:0:
320,192,95220,1,0,0:0:0:0:
64,192,95280,1,0,0:0:0:0:
192,192,95400,1,0,0:0:0:0:
320,192,95400,1,0,0:0:0:0:
448,192,95400,1,0,0:0:0:0:
320,192,95520,1,0,0:0:0:0:
192,192,95580,1,0,0:0:0:0:
64,192,95640,1,0,0:0:0:0:
448,192,95640,1,0,0:0:0:0:
192,192,95760,1,0,0:0:0:0:
320,192,95760,1,0,0:0:0:0:
64,192,95820,1,0,0:0:0:0:
448,192,95820,1,0,0:0:0:0:
192,192,95880,1,0,0:0:0:0:
320,192,95880,1,0,0:0:0:0:
64,192,96000,1,0,0:0:0:0:
448,192,96000,1,0,0:0:0:0:
320,192,96060,1,0,0:0:0:0:
64,192,96120,1,0,0:0:0:0:
192,192,96120,1,0,0:0:0:0:
320,192,96180,1,0,0:0:0:0:
64,192,96240,1,0,0:0:0:0:
448,192,96240,1,0,0:0:0:0:
192,192,96360,1,0,0:0:0:0:
448,192,96360,1,0,0:0:0:0:
64,192,96480,1,0,0:0:0:0:
320,192,96480,1,0,0:0:0:0:
192,192,96600,1,0,0:0:0:0:
320,192,96660,1,0,0:0:0:0:
64,192,96720,1,0,0:0:0:0:
448,192,96720,1,0,0:0:0:0:
320,192,96765,1,0,0:0:0:0:
192,192,96810,1,0,0:0:0:0:
448,192,96870,1,0,0:0:0:0:
64,192,96915,1,0,0:0:0:0:
192,192,96960,1,0,0:0:0:0:
320,192,96960,1,0,0:0:0:0:
448,192,96960,1,0,0:0:0:0:
192,192,97080,1,0,0:0:0:0:
320,192,97140,1,0,0:0:0:0:
64,192,97200,1,0,0:0:0:0:
448,192,97200,1,0,0:0:0:0:
192,192,97320,1,0,0:0:0:0:
320,192,97320,1,0,0:0:0:0:
448,192,97320,1,0,0:0:0:0:
320,192,97440,1,0,0:0:0:0:
192,192,97500,1,0,0:0:0:0:
64,192,97560,1,0,0:0:0:0:
448,192,97560,1,0,0:0:0:0:
192,192,97680,1,0,0:0:0:0:
320,192,97680,1,0,0:0:0:0:
64,192,97740,1,0,0:0:0:0:
448,192,97740,1,0,0:0:0:0:
192,192,97800,1,0,0:0:0:0:
320,192,97800,1,0,0:0:0:0:
64,192,97920,1,0,0:0:0:0:
448,192,97920,1,0,0:0:0:0:
192,192,97980,1,0,0:0:0:0:
320,192,98040,1,0,0:0:0:0:
448,192,98040,1,0,0:0:0:0:
192,192,98100,1,0,0:0:0:0:
64,192,98160,1,0,0:0:0:0:
320,192,98160,1,0,0:0:0:0:
192,192,98280,1,0,0:0:0:0:
448,192,98280,1,0,0:0:0:0:
192,192,98400,1,0,0:0:0:0:
320,192,98400,1,0,0:0:0:0:
64,192,98520,1,0,0:0:0:0:
448,192,98520,1,0,0:0:0:0:
192,192,98580,1,0,0:0:0:0:
320,192,98640,1,0,0:0:0:0:
448,192,98640,1,0,0:0:0:0:
64,192,98760,1,0,0:0:0:0:
320,192,98800,1,0,0:0:0:0:
192,192,98840,1,0,0:0:0:0:
64,192,98880,1,0,0:0:0:0:
320,192,98880,1,0,0:0:0:0:
448,192,98880,1,0,0:0:0:0:
448,192,99000,1,0,0:0:0:0:
64,192,99060,1,0,0:0:0:0:
320,192,99120,1,0,0:0:0:0:
64,192,99240,1,0,0:0:0:0:
192,192,99240,1,0,0:0:0:0:
448,192,99240,1,0,0:0:0:0:
64,192,99360,1,0,0:0:0:0:
448,192,99420,1,0,0:0:0:0:
192,192,99480,1,0,0:0:0:0:
320,192,99480,1,0,0:0:0:0:
64,192,99600,1,0,0:0:0:0:
448,192,99600,1,0,0:0:0:0:
192,192,99660,1,0,0:0:0:0:
320,192,99660,1,0,0:0:0:0:
64,192,99720,1,0,0:0:0:0:
448,192,99720,1,0,0:0:0:0:
192,192,99840,1,0,0:0:0:0:
320,192,99880,1,0,0:0:0:0:
64,192,99920,1,0,0:0:0:0:
448,192,99960,1,0,0:0:0:0:
192,192,100000,1,0,0:0:0:0:
64,192,100040,1,0,0:0:0:0:
320,192,100080,1,0,0:0:0:0:
448,192,100080,1,0,0:0:0:0:
192,192,100200,1,0,0:0:0:0:
320,192,100200,1,0,0:0:0:0:
64,192,100320,1,0,0:0:0:0:
448,192,100320,1,0,0:0:0:0:
320,192,100440,1,0,0:0:0:0:
64,192,100500,1,0,0:0:0:0:
448,192,100500,1,0,0:0:0:0:
192,192,100560,1,0,0:0:0:0:
320,192,100605,1,0,0:0:0:0:
192,192,100650,1,0,0:0:0:0:
448,192,100710,1,0,0:0:0:0:
320,192,100755,1,0,0:0:0:0:
64,192,100800,1,0,0:0:0:0:
192,192,100800,1,0,0:0:0:0:
448,192,100800,1,0,0:0:0:0:
64,192,100920,1,0,0:0:0:0:
448,192,100980,1,0,0:0:0:0:
192,192,101040,1,0,0:0:0:0:
320,192,101040,1,0,0:0:0:0:
64,192,101160,1,0,0:0:0:0:
320,192,101160,1,0,0:0:0:0:
448,192,101160,1,0,0:0:0:0:
448,192,101280,1,0,0:0:0:0:
64,192,101340,1,0,0:0:0:0:
192,192,101400,1,0,0:0:0:0:
320,192,101400,1,0,0:0:0:0:
64,192,101520,1,0,0:0:0:0:
448,192,101520,1,0,0:0:0:0:
192,192,101580,1,0,0:0:0:0:
320,192,101580,1,0,0:0:0:0:
64,192,101640,1,0,0:0:0:0:
448,192,101640,1,0,0:0:0:0:
192,192,101760,1,0,0:0:0:0:
320,192,101760,1,0,0:0:0:0:
64,192,101820,1,0,0:0:0:0:
320,192,101880,1,0,0:0:0:0:
448,192,101880,1,0,0:0:0:0:
64,192,101940,1,0,0:0:0:0:
192,192,102000,1,0,0:0:0:0:
448,192,102000,1,0,0:0:0:0:
64,192,102120,1,0,0:0:0:0:
320,192,102120,1,0,0:0:0:0:
64,192,102240,1,0,0:0:0:0:
448,192,102240,1,0,0:0:0:0:
192,192,102360,1,0,0:0:0:0:
320,192,102360,1,0,0:0:0:0:
64,192,102420,1,0,0:0:0:0:
320,192,102480,1,0,0:0:0:0:
448,192,102480,1,0,0:0:0:0:
192,192,102600,1,0,0:0:0:0:
448,192,102640,1,0,0:0:0:0:
64,192,102680,1,0,0:0:0:0:
192,192,102720,1,0,0:0:0:0:
320,192,102720,1,0,0:0:0:0:
448,192,102720,1,0,0:0:0:0:
320,192,102840,1,0,0:0:0:0:
192,192,102900,1,0,0:0:0:0:
448,192,102960,1,0,0:0:0:0:
64,192,103080,1,0,0:0:0:0:
192,192,103080,1,0,0:0:0:0:
320,192,103080,1,0,0:0:0:0:
192,192,103200,1,0,0:0:0:0:
320,192,103260,1,0,0:0:0:0:
64,192,103320,1,0,0:0:0:0:
448,192,103320,1,0,0:0:0:0:
192,192,103440,1,0,0:0:0:0:
320,192,103440,1,0,0:0:0:0:
64,192,103500,1,0,0:0:0:0:
448,192,103500,1,0,0:0:0:0:
192,192,103560,1,0,0:0:0:0:
320,192,103560,1,0,0:0:0:0:
64,192,103680,1,0,0:0:0:0:
448,192,103680,1,0,0:0:0:0:
192,192,103740,1,0,0:0:0:0:
320,192,103800,1,0,0:0:0:0:
448,192,103800,1,0,0:0:0:0:
192,192,103860,1,0,0:0:0:0:
64,192,103920,1,0,0:0:0:0:
448,192,103920,1,0,0:0:0:0:
64,192,104040,1,0,0:0:0:0:
320,192,104040,1,0,0:0:0:0:
192,192,104160,1,0,0:0:0:0:
448,192,104160,1,0,0:0:0:0:
320,192,104280,1,0,0:0:0:0:
192,192,104340,1,0,0:0:0:0:
64,192,104400,1,0,0:0:0:0:
448,192,104400,1,0,0:0:0:0:
192,192,104445,1,0,0:0:0:0:
320,192,104490,1,0,0:0:0:0:
64,192,104550,1,0,0:0:0:0:
448,192,104595,1,0,0:0:0:0:
64,192,104640,1,0,0:0:0:0:
192,192,104640,1,0,0:0:0:0:
320,192,104640,1,0,0:0:0:0:
320,192,104760,1,0,0:0:0:0:
192,192,104820,1,0,0:0:0:0:
64,192,104880,1,0,0:0:0:0:
448,192,104880,1,0,0:0:0:0:
64,192,105000,1,0,0:0:0:0:
192,192,105000,1,0,0:0:0:0:
320,192,105000,1,0,0:0:0:0:
192,192,105120,1,0,0:0:0:0:
320,192,105180,1,0,0:0:0:0:
64,192,105240,1,0,0:0:0:0:
448,192,105240,1,0,0:0:0:0:
192,192,105360,1,0,0:0:0:0:
320,192,105360,1,0,0:0:0:0:
64,192,105420,1,0,0:0:0:0:
448,192,105420,1,0,0:0:0:0:
192,192,105480,1,0,0:0:0:0:
320,192,105480,1,0,0:0:0:0:
64,192,105600,1,0,0:0:0:0:
192,192,105600,1,0,0:0:0:0:
448,192,105600,1,0,0:0:0:0:
64,192,105720,1,0,0:0:0:0:
448,192,105780,1,0,0:0:0:0:
192,192,105840,1,0,0:0:0:0:
320,192,105840,1,0,0:0:0:0:
64,192,105960,1,0,0:0:0:0:
320,192,105960,1,0,0:0:0:0:
448,192,105960,1,0,0:0:0:0:
448,192,106080,1,0,0:0:0:0:
64,192,106140,1,0,0:0:0:0:
192,192,106200,1,0,0:0:0:0:
320,192,106200,1,0,0:0:0:0:
64,192,106320,1,0,0:0:0:0:
192,192,106320,1,0,0:0:0:0:
448,192,106320,1,0,0:0:0:0:
320,192,106440,1,0,0:0:0:0:
192,192,106480,1,0,0:0:0:0:
448,192,106520,1,0,0:0:0:0:
64,192,106560,1,0,0:0:0:0:
192,192,106560,1,0,0:0:0:0:
320,192,106560,1,0,0:0:0:0:
64,192,106740,1,0,0:0:0:0:
320,192,106740,1,0,0:0:0:0:
448,192,106740,1,0,0:0:0:0:
64,192,106920,1,0,0:0:0:0:
192,192,106920,1,0,0:0:0:0:
448,192,106920,1,0,0:0:0:0:
192,192,107040,1,0,0:0:0:0:
320,192,107040,1,0,0:0:0:0:
192,192,107160,1,0,0:0:0:0:
64,192,107220,1,0,0:0:0:0:
320,192,107220,1,0,0:0:0:0:
448,192,107220,1,0,0:0:0:0:
64,192,107400,1,0,0:0:0:0:
192,192,107400,1,0,0:0:0:0:
320,192,107400,1,0,0:0:0:0:
192,192,107520,1,0,0:0:0:0:
320,192,107520,1,0,0:0:0:0:
448,192,107520,1,0,0:0:0:0:
64,192,107640,1,0,0:0:0:0:
64,192,107760,1,0,0:0:0:0:
192,192,107760,1,0,0:0:0:0:
448,192,107760,1,0,0:0:0:0:
448,192,107880,1,0,0:0:0:0:
192,192,108000,1,0,0:0:0:0:
320,192,108000,1,0,0:0:0:0:
64,192,108060,1,0,0:0:0:0:
448,192,108060,1,0,0:0:0:0:
192,192,108120,1,0,0:0:0:0:
320,192,108120,1,0,0:0:0:0:
64,192,108180,1,0,0:0:0:0:
448,192,108180,1,0,0:0:0:0:
192,192,108240,1,0,0:0:0:0:
320,192,108240,1,0,0:0:0:0:
192,192,108360,1,0,0:0:0:0:
64,192,108480,1,0,0:0:0:0:
320,192,108480,1,0,0:0:0:0:
448,192,108480,1,0,0:0:0:0:
192,192,108540,1,0,0:0:0:0:
320,192,108600,1,0,0:0:0:0:
192,192,108660,1,0,0:0:0:0:
64,192,108720,1,0,0:0:0:0:
448,192,108780,1,0,0:0:0:0:
64,192,108840,1,0,0:0:0:0:
192,192,108840,1,0,0:0:0:0:
320,192,108900,1,0,0:0:0:0:
192,192,108960,1,0,0:0:0:0:
320,192,109020,1,0,0:0:0:0:
448,192,109080,1,0,0:0:0:0:
64,192,109140,1,0,0:0:0:0:
192,192,109200,1,0,0:0:0:0:
320,192,109200,1,0,0:0:0:0:
448,192,109260,1,0,0:0:0:0:
320,192,109320,1,0,0:0:0:0:
448,192,109380,1,0,0:0:0:0:
64,192,109440,1,0,0:0:0:0:
192,192,109440,1,0,0:0:0:0:
320,192,109500,1,0,0:0:0:0:
64,192,109560,1,0,0:0:0:0:
320,192,109620,1,0,0:0:0:0:
192,192,109680,1,0,0:0:0:0:
448,192,109680,1,0,0:0:0:0:
64,192,109740,1,0,0:0:0:0:
448,192,109800,1,0,0:0:0:0:
64,192,109860,1,0,0:0:0:0:
192,192,109920,1,0,0:0:0:0:
320,192,109920,1,0,0:0:0:0:
448,192,109980,1,0,0:0:0:0:
192,192,110040,1,0,0:0:0:0:
448,192,110100,1,0,0:0:0:0:
64,192,110160,1,0,0:0:0:0:
320,192,110160,1,0,0:0:0:0:
192,192,110220,1,0,0:0:0:0:
448,192,110220,1,0,0:0:0:0:
64,192,110280,1,0,0:0:0:0:
320,192,110280,1,0,0:0:0:0:
320,192,110400,1,0,0:0:0:0:
448,192,110400,1,0,0:0:0:0:
64,192,110460,1,0,0:0:0:0:
448,192,110520,1,0,0:0:0:0:
64,192,110580,1,0,0:0:0:0:
192,192,110640,1,0,0:0:0:0:
448,192,110700,1,0,0:0:0:0:
64,192,110760,1,0,0:0:0:0:
320,192,110760,1,0,0:0:0:0:
192,192,110820,1,0,0:0:0:0:
64,192,110880,1,0,0:0:0:0:
192,192,110940,1,0,0:0:0:0:
320,192,111000,1,0,0:0:0:0:
64,192,111060,1,0,0:0:0:0:
192,192,111120,1,0,0:0:0:0:
448,192,111120,1,0,0:0:0:0:
320,192,111180,1,0,0:0:0:0:
64,192,111240,1,0,0:0:0:0:
448,192,111240,1,0,0:0:0:0:
192,192,111300,1,0,0:0:0:0:
320,192,111300,1,0,0:0:0:0:
64,192,111360,1,0,0:0:0:0:
448,192,111360,1,0,0:0:0:0:
320,192,111480,1,0,0:0:0:0:
448,192,111480,1,0,0:0:0:0:
64,192,111540,1,0,0:0:0:0:
320,192,111600,1,0,0:0:0:0:
192,192,111660,1,0,0:0:0:0:
64,192,111720,1,0,0:0:0:0:
448,192,111720,1,0,0:0:0:0:
320,192,111780,1,0,0:0:0:0:
64,192,111840,1,0,0:0:0:0:
192,192,111840,1,0,0:0:0:0:
320,192,111900,1,0,0:0:0:0:
448,192,111900,1,0,0:0:0:0:
64,192,111960,1,0,0:0:0:0:
192,192,111960,1,0,0:0:0:0:
64,192,112080,1,0,0:0:0:0:
448,192,112080,1,0,0:0:0:0:
192,192,112140,1,0,0:0:0:0:
320,192,112200,1,0,0:0:0:0:
448,192,112260,1,0,0:0:0:0:
64,192,112320,1,0,0:0:0:0:
192,192,112320,1,0,0:0:0:0:
320,192,112380,1,0,0:0:0:0:
192,192,112440,1,0,0:0:0:0:
320,192,112500,1,0,0:0:0:0:
448,192,112560,1,0,0:0:0:0:
64,192,112620,1,0,0:0:0:0:
320,192,112680,1,0,0:0:0:0:
448,192,112680,1,0,0:0:0:0:
192,192,112740,1,0,0:0:0:0:
320,192,112800,1,0,0:0:0:0:
192,192,112860,1,0,0:0:0:0:
64,192,112920,1,0,0:0:0:0:
448,192,112980,1,0,0:0:0:0:
192,192,113040,1,0,0:0:0:0:
320,192,113040,1,0,0:0:0:0:
64,192,113100,1,0,0:0:0:0:
192,192,113160,1,0,0:0:0:0:
64,192,113220,1,0,0:0:0:0:
320,192,113280,1,0,0:0:0:0:
448,192,113280,1,0,0:0:0:0:
192,192,113340,1,0,0:0:0:0:
448,192,113400,1,0,0:0:0:0:
192,192,113460,1,0,0:0:0:0:
64,192,113520,1,0,0:0:0:0:
320,192,113520,1,0,0:0:0:0:
448,192,113580,1,0,0:0:0:0:
64,192,113640,1,0,0:0:0:0:
448,192,113700,1,0,0:0:0:0:
192,192,113760,1,0,0:0:0:0:
320,192,113760,1,0,0:0:0:0:
64,192,113820,1,0,0:0:0:0:
320,192,113880,1,0,0:0:0:0:
64,192,113940,1,0,0:0:0:0:
192,192,114000,1,0,0:0:0:0:
448,192,114000,1,0,0:0:0:0:
64,192,114060,1,0,0:0:0:0:
320,192,114060,1,0,0:0:0:0:
192,192,114120,1,0,0:0:0:0:
448,192,114120,1,0,0:0:0:0:
64,192,114240,1,0,0:0:0:0:
192,192,114240,1,0,0:0:0:0:
448,192,114300,1,0,0:0:0:0:
64,192,114360,1,0,0:0:0:0:
448,192,114420,1,0,0:0:0:0:
320,192,114480,1,0,0:0:0:0:
64,192,114540,1,0,0:0:0:0:
192,192,114600,1,0,0:0:0:0:
448,192,114600,1,0,0:0:0:0:
320,192,114660,1,0,0:0:0:0:
448,192,114720,1,0,0:0:0:0:
320,192,114780,1,0,0:0:0:0:
192,192,114840,1,0,0:0:0:0:
448,192,114900,1,0,0:0:0:0:
64,192,114960,1,0,0:0:0:0:
320,192,114960,1,0,0:0:0:0:
192,192,115020,1,0,0:0:0:0:
64,192,115080,1,0,0:0:0:0:
192,192,115140,1,0,0:0:0:0:
320,192,115200,1,0,0:0:0:0:
448,192,115200,1,0,0:0:0:0:
64,192,115260,1,0,0:0:0:0:
192,192,115260,1,0,0:0:0:0:
320,192,115320,1,0,0:0:0:0:
448,192,115320,1,0,0:0:0:0:
192,192,115440,1,0,0:0:0:0:
448,192,115440,1,0,0:0:0:0:
320,192,115500,1,0,0:0:0:0:
64,192,115560,1,0,0:0:0:0:
448,192,115560,1,0,0:0:0:0:
192,192,115620,1,0,0:0:0:0:
320,192,115680,1,0,0:0:0:0:
448,192,115680,1,0,0:0:0:0:
64,192,115740,1,0,0:0:0:0:
192,192,115740,1,0,0:0:0:0:
320,192,115800,1,0,0:0:0:0:
448,192,115800,1,0,0:0:0:0:
64,192,115860,1,0,0:0:0:0:
192,192,115920,1,0,0:0:0:0:
320,192,115920,1,0,0:0:0:0:
448,192,115980,1,0,0:0:0:0:
192,192,116040,1,0,0:0:0:0:
64,192,116100,1,0,0:0:0:0:
320,192,116160,1,0,0:0:0:0:
448,192,116160,1,0,0:0:0:0:
192,192,116220,1,0,0:0:0:0:
320,192,116280,1,0,0:0:0:0:
192,192,116340,1,0,0:0:0:0:
64,192,116400,1,0,0:0:0:0:
448,192,116460,1,0,0:0:0:0:
64,192,116520,1,0,0:0:0:0:
192,192,116520,1,0,0:0:0:0:
320,192,116580,1,0,0:0:0:0:
192,192,116640,1,0,0:0:0:0:
320,192,116700,1,0,0:0:0:0:
448,192,116760,1,0,0:0:0:0:
64,192,116820,1,0,0:0:0:0:
192,192,116880,1,0,0:0:0:0:
320,192,116880,1,0,0:0:0:0:
448,192,116940,1,0,0:0:0:0:
320,192,117000,1,0,0:0:0:0:
448,192,117060,1,0,0:0:0:0:
64,192,117120,1,0,0:0:0:0:
192,192,117120,1,0,0:0:0:0:
320,192,117180,1,0,0:0:0:0:
64,192,117240,1,0,0:0:0:0:
320,192,117300,1,0,0:0:0:0:
192,192,117360,1,0,0:0:0:0:
448,192,117360,1,0,0:0:0:0:
64,192,117420,1,0,0:0:0:0:
448,192,117480,1,0,0:0:0:0:
64,192,117540,1,0,0:0:0:0:
192,192,117600,1,0,0:0:0:0:
320,192,117600,1,0,0:0:0:0:
448,192,117660,1,0,0:0:0:0:
192,192,117720,1,0,0:0:0:0:
448,192,117780,1,0,0:0:0:0:
64,192,117840,1,0,0:0:0:0:
320,192,117840,1,0,0:0:0:0:
192,192,117900,1,0,0:0:0:0:
448,192,117900,1,0,0:0:0:0:
64,192,117960,1,0,0:0:0:0:
320,192,117960,1,0,0:0:0:0:
320,192,118080,1,0,0:0:0:0:
448,192,118080,1,0,0:0:0:0:
64,192,118140,1,0,0:0:0:0:
448,192,118200,1,0,0:0:0:0:
64,192,118260,1,0,0:0:0:0:
192,192,118320,1,0,0:0:0:0:
448,192,118380,1,0,0:0:0:0:
64,192,118440,1,0,0:0:0:0:
320,192,118440,1,0,0:0:0:0:
192,192,118500,1,0,0:0:0:0:
64,192,118560,1,0,0:0:0:0:
192,192,118620,1,0,0:0:0:0:
320,192,118680,1,0,0:0:0:0:
64,192,118740,1,0,0:0:0:0:
192,192,118800,1,0,0:0:0:0:
448,192,118800,1,0,0:0:0:0:
320,192,118860,1,0,0:0:0:0:
64,192,118920,1,0,0:0:0:0:
448,192,118920,1,0,0:0:0:0:
320,192,118980,1,0,0:0:0:0:
448,192,119040,1,0,0:0:0:0:
192,192,119040,1,0,0:0:0:0:
320,192,119160,1,0,0:0:0:0:
448,192,119160,1,0,0:0:0:0:
64,192,119220,1,0,0:0:0:0:
320,192,119280,1,0,0:0:0:0:
192,192,119340,1,0,0:0:0:0:
64,192,119400,1,0,0:0:0:0:
448,192,119400,1,0,0:0:0:0:
320,192,119460,1,0,0:0:0:0:
192,192,119520,1,0,0:0:0:0:
448,192,119550,1,0,0:0:0:0:
320,192,119580,1,0,0:0:0:0:
192,192,119610,1,0,0:0:0:0:
64,192,119640,1,0,0:0:0:0:
448,192,119700,1,0,0:0:0:0:
192,192,119760,1,0,0:0:0:0:
320,192,119760,1,0,0:0:0:0:
64,192,119820,1,0,0:0:0:0:
320,192,119880,1,0,0:0:0:0:
64,192,119940,1,0,0:0:0:0:
192,192,120000,1,0,0:0:0:0:
448,192,120000,1,0,0:0:0:0:
320,192,120060,1,0,0:0:0:0:
448,192,120120,1,0,0:0:0:0:
320,192,120180,1,0,0:0:0:0:
64,192,120240,1,0,0:0:0:0:
192,192,120240,1,0,0:0:0:0:
448,192,120300,1,0,0:0:0:0:
64,192,120360,1,0,0:0:0:0:
320,192,120360,1,0,0:0:0:0:
192,192,120420,1,0,0:0:0:0:
64,192,120480,1,0,0:0:0:0:
192,192,120540,1,0,0:0:0:0:
320,192,120600,1,0,0:0:0:0:
448,192,120600,1,0,0:0:0:0:
64,192,120660,1,0,0:0:0:0:
192,192,120720,1,0,0:0:0:0:
448,192,120720,1,0,0:0:0:0:
320,192,120780,1,0,0:0:0:0:
64,192,120840,1,0,0:0:0:0:
320,192,120900,1,0,0:0:0:0:
192,192,120960,1,0,0:0:0:0:
448,192,120960,1,0,0:0:0:0:
64,192,121020,1,0,0:0:0:0:
192,192,121080,1,0,0:0:0:0:
64,192,121140,1,0,0:0:0:0:
320,192,121200,1,0,0:0:0:0:
448,192,121200,1,0,0:0:0:0:
192,192,121260,1,0,0:0:0:0:
64,192,121320,1,0,0:0:0:0:
320,192,121320,1,0,0:0:0:0:
448,192,121380,1,0,0:0:0:0:
320,192,121440,1,0,0:0:0:0:
448,192,121500,1,0,0:0:0:0:
64,192,121560,1,0,0:0:0:0:
192,192,121560,1,0,0:0:0:0:
320,192,121620,1,0,0:0:0:0:
64,192,121680,1,0,0:0:0:0:
192,192,121680,1,0,0:0:0:0:
320,192,121740,1,0,0:0:0:0:
448,192,121740,1,0,0:0:0:0:
64,192,121800,1,0,0:0:0:0:
192,192,121800,1,0,0:0:0:0:
448,192,121860,1,0,0:0:0:0:
192,192,121920,1,0,0:0:0:0:
320,192,121920,1,0,0:0:0:0:
64,192,121980,1,0,0:0:0:0:
320,192,122040,1,0,0:0:0:0:
64,192,122100,1,0,0:0:0:0:
448,192,122100,1,0,0:0:0:0:
192,192,122280,1,0,0:0:0:0:
320,192,122280,1,0,0:0:0:0:
448,192,122340,1,0,0:0:0:0:
64,192,122400,1,0,0:0:0:0:
192,192,122400,1,0,0:0:0:0:
64,192,122580,1,0,0:0:0:0:
448,192,122580,1,0,0:0:0:0:
192,192,122760,1,0,0:0:0:0:
320,192,122760,1,0,0:0:0:0:
64,192,122820,1,0,0:0:0:0:
320,192,122880,1,0,0:0:0:0:
448,192,122880,1,0,0:0:0:0:
64,192,122940,1,0,0:0:0:0:
192,192,122940,1,0,0:0:0:0:
320,192,123000,1,0,0:0:0:0:
448,192,123000,1,0,0:0:0:0:
192,192,123120,1,0,0:0:0:0:
448,192,123120,1,0,0:0:0:0:
64,192,123240,1,0,0:0:0:0:
320,192,123240,1,0,0:0:0:0:
64,192,123360,1,0,0:0:0:0:
448,192,123360,1,0,0:0:0:0:
192,192,123420,1,0,0:0:0:0:
320,192,123420,1,0,0:0:0:0:
64,192,123480,1,0,0:0:0:0:
448,192,123480,1,0,0:0:0:0:
192,192,123600,1,0,0:0:0:0:
320,192,123600,1,0,0:0:0:0:
64,192,123720,1,0,0:0:0:0:
320,192,123720,1,0,0:0:0:0:
64,192,123840,1,0,0:0:0:0:
448,192,123840,1,0,0:0:0:0:
64,192,124710,1,0,0:0:0:0:
448,192,124710,1,0,0:0:0:0:
320,192,125760,1,0,0:0:0:0:
448,192,125760,1,0,0:0:0:0:
192,192,127680,1,0,0:0:0:0:
448,192,127680,1,0,0:0:0:0:
448,192,129510,1,0,0:0:0:0:
64,192,129600,1,0,0:0:0:0:
192,192,129600,1,0,0:0:0:0:
320,192,131280,1,0,0:0:0:0:
64,192,131520,1,0,0:0:0:0:
192,192,131520,1,0,0:0:0:0:
448,192,131520,1,0,0:0:0:0:
192,192,133440,1,0,0:0:0:0:
320,192,133440,1,0,0:0:0:0:
448,192,134310,1,0,0:0:0:0:
64,192,134310,1,0,0:0:0:0:
320,192,135360,1,0,0:0:0:0:
448,192,135360,1,0,0:0:0:0:
192,192,137280,1,0,0:0:0:0:
448,192,137280,1,0,0:0:0:0:
448,192,138240,1,0,0:0:0:0:
192,192,138720,128,0,138960:0:0:0:0:
64,192,139200,1,0,0:0:0:0:
320,192,139200,1,0,0:0:0:0:
192,192,139320,1,0,0:0:0:0:
320,192,139440,1,0,0:0:0:0:
448,192,139440,1,0,0:0:0:0:
64,192,139560,1,0,0:0:0:0:
320,192,139680,1,0,0:0:0:0:
448,192,139680,1,0,0:0:0:0:
64,192,139800,1,0,0:0:0:0:
192,192,139800,1,0,0:0:0:0:
448,192,139920,1,0,0:0:0:0:
64,192,140040,1,0,0:0:0:0:
320,192,140040,1,0,0:0:0:0:
192,192,140160,1,0,0:0:0:0:
448,192,140160,1,0,0:0:0:0:
64,192,140280,1,0,0:0:0:0:
192,192,140400,1,0,0:0:0:0:
448,192,140400,1,0,0:0:0:0:
64,192,140520,1,0,0:0:0:0:
320,192,140520,1,0,0:0:0:0:
448,192,140640,1,0,0:0:0:0:
64,192,140760,1,0,0:0:0:0:
192,192,140760,1,0,0:0:0:0:
320,192,140880,1,0,0:0:0:0:
448,192,140880,1,0,0:0:0:0:
64,192,141000,1,0,0:0:0:0:
448,192,141000,1,0,0:0:0:0:
64,192,141120,1,0,0:0:0:0:
320,192,141120,1,0,0:0:0:0:
192,192,141240,1,0,0:0:0:0:
320,192,141360,1,0,0:0:0:0:
448,192,141360,1,0,0:0:0:0:
448,192,141480,1,0,0:0:0:0:
64,192,141600,1,0,0:0:0:0:
192,192,141600,1,0,0:0:0:0:
64,192,141720,1,0,0:0:0:0:
320,192,141720,1,0,0:0:0:0:
192,192,141840,1,0,0:0:0:0:
64,192,141960,1,0,0:0:0:0:
320,192,141960,1,0,0:0:0:0:
192,192,142080,1,0,0:0:0:0:
448,192,142080,1,0,0:0:0:0:
64,192,142200,1,0,0:0:0:0:
192,192,142320,1,0,0:0:0:0:
448,192,142320,1,0,0:0:0:0:
64,192,142440,1,0,0:0:0:0:
320,192,142440,1,0,0:0:0:0:
448,192,142560,1,0,0:0:0:0:
64,192,142680,1,0,0:0:0:0:
192,192,142680,1,0,0:0:0:0:
320,192,142800,1,0,0:0:0:0:
448,192,142800,1,0,0:0:0:0:
64,192,142920,1,0,0:0:0:0:
448,192,142920,1,0,0:0:0:0:
64,192,143040,1,0,0:0:0:0:
192,192,143040,1,0,0:0:0:0:
320,192,143040,1,0,0:0:0:0:
192,192,143160,1,0,0:0:0:0:
320,192,143280,1,0,0:0:0:0:
448,192,143280,1,0,0:0:0:0:
448,192,143400,1,0,0:0:0:0:
192,192,143520,1,0,0:0:0:0:
320,192,143520,1,0,0:0:0:0:
64,192,143640,1,0,0:0:0:0:
192,192,143640,1,0,0:0:0:0:
64,192,143760,1,0,0:0:0:0:
192,192,143880,1,0,0:0:0:0:
320,192,143880,1,0,0:0:0:0:
64,192,144000,1,0,0:0:0:0:
448,192,144000,1,0,0:0:0:0:
64,192,144120,1,0,0:0:0:0:
192,192,144240,1,0,0:0:0:0:
320,192,144240,1,0,0:0:0:0:
64,192,144360,1,0,0:0:0:0:
448,192,144360,1,0,0:0:0:0:
448,192,144480,1,0,0:0:0:0:
64,192,144600,1,0,0:0:0:0:
192,192,144600,1,0,0:0:0:0:
320,192,144720,1,0,0:0:0:0:
448,192,144720,1,0,0:0:0:0:
64,192,144840,1,0,0:0:0:0:
448,192,144840,1,0,0:0:0:0:
64,192,144960,1,0,0:0:0:0:
192,192,144960,1,0,0:0:0:0:
320,192,144960,1,0,0:0:0:0:
320,192,145080,1,0,0:0:0:0:
64,192,145200,1,0,0:0:0:0:
192,192,145200,1,0,0:0:0:0:
64,192,145320,1,0,0:0:0:0:
192,192,145440,1,0,0:0:0:0:
320,192,145440,1,0,0:0:0:0:
320,192,145560,1,0,0:0:0:0:
448,192,145560,1,0,0:0:0:0:
448,192,145680,1,0,0:0:0:0:
192,192,145800,1,0,0:0:0:0:
320,192,145800,1,0,0:0:0:0:
64,192,145920,1,0,0:0:0:0:
448,192,145920,1,0,0:0:0:0:
64,192,146040,1,0,0:0:0:0:
192,192,146160,1,0,0:0:0:0:
320,192,146160,1,0,0:0:0:0:
192,192,146280,1,0,0:0:0:0:
320,192,146400,1,0,0:0:0:0:
448,192,146400,1,0,0:0:0:0:
64,192,146520,1,0,0:0:0:0:
192,192,146520,1,0,0:0:0:0:
320,192,146640,1,0,0:0:0:0:
448,192,146640,1,0,0:0:0:0:
64,192,146760,1,0,0:0:0:0:
448,192,146760,1,0,0:0:0:0:
192,192,146880,1,0,0:0:0:0:
320,192,146880,1,0,0:0:0:0:
448,192,146880,1,0,0:0:0:0:
64,192,147000,1,0,0:0:0:0:
192,192,147120,1,0,0:0:0:0:
320,192,147120,1,0,0:0:0:0:
448,192,147120,1,0,0:0:0:0:
320,192,147240,1,0,0:0:0:0:
64,192,147360,1,0,0:0:0:0:
192,192,147360,1,0,0:0:0:0:
448,192,147360,1,0,0:0:0:0:
64,192,147480,1,0,0:0:0:0:
320,192,147480,1,0,0:0:0:0:
448,192,147600,1,0,0:0:0:0:
64,192,147720,1,0,0:0:0:0:
192,192,147720,1,0,0:0:0:0:
64,192,147840,1,0,0:0:0:0:
320,192,147840,1,0,0:0:0:0:
448,192,147840,1,0,0:0:0:0:
448,192,147960,1,0,0:0:0:0:
64,192,148080,1,0,0:0:0:0:
192,192,148080,1,0,0:0:0:0:
320,192,148080,1,0,0:0:0:0:
64,192,148200,1,0,0:0:0:0:
448,192,148200,1,0,0:0:0:0:
320,192,148320,1,0,0:0:0:0:
64,192,148440,1,0,0:0:0:0:
192,192,148440,1,0,0:0:0:0:
64,192,148560,1,0,0:0:0:0:
320,192,148560,1,0,0:0:0:0:
448,192,148560,1,0,0:0:0:0:
320,192,148680,1,0,0:0:0:0:
448,192,148680,1,0,0:0:0:0:
64,192,148800,1,0,0:0:0:0:
192,192,148800,1,0,0:0:0:0:
448,192,148800,1,0,0:0:0:0:
64,192,148920,1,0,0:0:0:0:
192,192,149040,1,0,0:0:0:0:
320,192,149040,1,0,0:0:0:0:
448,192,149040,1,0,0:0:0:0:
320,192,149160,1,0,0:0:0:0:
64,192,149280,1,0,0:0:0:0:
192,192,149280,1,0,0:0:0:0:
448,192,149280,1,0,0:0:0:0:
64,192,149400,1,0,0:0:0:0:
320,192,149400,1,0,0:0:0:0:
448,192,149520,1,0,0:0:0:0:
64,192,149640,1,0,0:0:0:0:
192,192,149640,1,0,0:0:0:0:
64,192,149760,1,0,0:0:0:0:
320,192,149760,1,0,0:0:0:0:
448,192,149760,1,0,0:0:0:0:
448,192,149880,1,0,0:0:0:0:
64,192,150000,1,0,0:0:0:0:
192,192,150000,1,0,0:0:0:0:
320,192,150000,1,0,0:0:0:0:
64,192,150120,1,0,0:0:0:0:
448,192,150120,1,0,0:0:0:0:
320,192,150240,1,0,0:0:0:0:
64,192,150360,1,0,0:0:0:0:
192,192,150360,1,0,0:0:0:0:
64,192,150480,1,0,0:0:0:0:
320,192,150480,1,0,0:0:0:0:
448,192,150480,1,0,0:0:0:0:
320,192,150600,1,0,0:0:0:0:
448,192,150600,1,0,0:0:0:0:
64,192,150720,1,0,0:0:0:0:
192,192,150720,1,0,0:0:0:0:
448,192,150720,1,0,0:0:0:0:
64,192,150840,1,0,0:0:0:0:
192,192,150960,1,0,0:0:0:0:
320,192,150960,1,0,0:0:0:0:
448,192,150960,1,0,0:0:0:0:
320,192,151080,1,0,0:0:0:0:
64,192,151200,1,0,0:0:0:0:
192,192,151200,1,0,0:0:0:0:
448,192,151200,1,0,0:0:0:0:
64,192,151320,1,0,0:0:0:0:
320,192,151320,1,0,0:0:0:0:
448,192,151440,1,0,0:0:0:0:
64,192,151560,1,0,0:0:0:0:
192,192,151560,1,0,0:0:0:0:
64,192,151680,1,0,0:0:0:0:
320,192,151680,1,0,0:0:0:0:
448,192,151680,1,0,0:0:0:0:
448,192,151800,1,0,0:0:0:0:
64,192,151920,1,0,0:0:0:0:
192,192,151920,1,0,0:0:0:0:
320,192,151920,1,0,0:0:0:0:
64,192,152040,1,0,0:0:0:0:
448,192,152040,1,0,0:0:0:0:
320,192,152160,1,0,0:0:0:0:
64,192,152280,1,0,0:0:0:0:
192,192,152280,1,0,0:0:0:0:
64,192,152400,1,0,0:0:0:0:
320,192,152400,1,0,0:0:0:0:
448,192,152400,1,0,0:0:0:0:
320,192,152520,1,0,0:0:0:0:
448,192,152520,1,0,0:0:0:0:
64,192,152640,1,0,0:0:0:0:
192,192,152640,1,0,0:0:0:0:
448,192,152640,1,0,0:0:0:0:
64,192,152760,1,0,0:0:0:0:
448,192,152820,1,0,0:0:0:0:
192,192,152880,1,0,0:0:0:0:
192,192,153000,1,0,0:0:0:0:
320,192,153000,1,0,0:0:0:0:
448,192,153000,1,0,0:0:0:0:
448,192,153120,1,0,0:0:0:0:
64,192,153180,1,0,0:0:0:0:
320,192,153240,1,0,0:0:0:0:
64,192,153360,1,0,0:0:0:0:
192,192,153360,1,0,0:0:0:0:
448,192,153360,1,0,0:0:0:0:
448,192,153480,1,0,0:0:0:0:
64,192,153540,1,0,0:0:0:0:
192,192,153600,1,0,0:0:0:0:
320,192,153600,1,0,0:0:0:0:
64,192,153660,1,0,0:0:0:0:
448,192,153660,1,0,0:0:0:0:
192,192,153720,1,0,0:0:0:0:
320,192,153720,1,0,0:0:0:0:
320,192,153840,1,0,0:0:0:0:
448,192,153840,1,0,0:0:0:0:
64,192,153960,1,0,0:0:0:0:
192,192,153960,1,0,0:0:0:0:
192,192,154080,1,0,0:0:0:0:
320,192,154080,1,0,0:0:0:0:
320,192,154200,1,0,0:0:0:0:
448,192,154200,1,0,0:0:0:0:
64,192,154320,1,0,0:0:0:0:
192,192,154440,1,0,0:0:0:0:
320,192,154560,1,0,0:0:0:0:
448,192,154560,1,0,0:0:0:0:
64,192,154620,1,0,0:0:0:0:
192,192,154680,1,0,0:0:0:0:
320,192,154740,1,0,0:0:0:0:
64,192,154800,1,0,0:0:0:0:
448,192,154800,1,0,0:0:0:0:
192,192,154860,1,0,0:0:0:0:
448,192,154920,1,0,0:0:0:0:
192,192,154980,1,0,0:0:0:0:
64,192,155040,1,0,0:0:0:0:
320,192,155040,1,0,0:0:0:0:
448,192,155100,1,0,0:0:0:0:
64,192,155160,1,0,0:0:0:0:
192,192,155160,1,0,0:0:0:0:
320,192,155220,1,0,0:0:0:0:
448,192,155280,1,0,0:0:0:0:
320,192,155340,1,0,0:0:0:0:
64,192,155400,1,0,0:0:0:0:
192,192,155400,1,0,0:0:0:0:
448,192,155460,1,0,0:0:0:0:
192,192,155520,1,0,0:0:0:0:
320,192,155520,1,0,0:0:0:0:
64,192,155580,1,0,0:0:0:0:
192,192,155640,1,0,0:0:0:0:
64,192,155700,1,0,0:0:0:0:
320,192,155760,1,0,0:0:0:0:
448,192,155760,1,0,0:0:0:0:
192,192,155820,1,0,0:0:0:0:
64,192,155880,1,0,0:0:0:0:
320,192,155880,1,0,0:0:0:0:
448,192,155940,1,0,0:0:0:0:
320,192,156000,1,0,0:0:0:0:
448,192,156060,1,0,0:0:0:0:
64,192,156120,1,0,0:0:0:0:
192,192,156120,1,0,0:0:0:0:
320,192,156180,1,0,0:0:0:0:
192,192,156240,1,0,0:0:0:0:
448,192,156300,1,0,0:0:0:0:
320,192,156360,1,0,0:0:0:0:
448,192,156420,1,0,0:0:0:0:
64,192,156480,1,0,0:0:0:0:
192,192,156480,1,0,0:0:0:0:
320,192,156540,1,0,0:0:0:0:
448,192,156600,1,0,0:0:0:0:
192,192,156660,1,0,0:0:0:0:
64,192,156720,1,0,0:0:0:0:
448,192,156720,1,0,0:0:0:0:
320,192,156780,1,0,0:0:0:0:
64,192,156840,1,0,0:0:0:0:
320,192,156900,1,0,0:0:0:0:
192,192,156960,1,0,0:0:0:0:
448,192,156960,1,0,0:0:0:0:
64,192,157020,1,0,0:0:0:0:
320,192,157080,1,0,0:0:0:0:
448,192,157080,1,0,0:0:0:0:
192,192,157140,1,0,0:0:0:0:
64,192,157200,1,0,0:0:0:0:
192,192,157260,1,0,0:0:0:0:
320,192,157320,1,0,0:0:0:0:
448,192,157320,1,0,0:0:0:0:
192,192,157440,1,0,0:0:0:0:
320,192,157440,1,0,0:0:0:0:
64,192,157500,1,0,0:0:0:0:
448,192,157500,1,0,0:0:0:0:
192,192,157560,1,0,0:0:0:0:
320,192,157560,1,0,0:0:0:0:
64,192,157680,1,0,0:0:0:0:
192,192,157680,1,0,0:0:0:0:
320,192,157740,1,0,0:0:0:0:
64,192,157800,1,0,0:0:0:0:
448,192,157800,1,0,0:0:0:0:
192,192,157860,1,0,0:0:0:0:
64,192,157920,1,0,0:0:0:0:
192,192,157980,1,0,0:0:0:0:
320,192,158040,1,0,0:0:0:0:
448,192,158040,1,0,0:0:0:0:
64,192,158100,1,0,0:0:0:0:
448,192,158160,1,0,0:0:0:0:
192,192,158220,1,0,0:0:0:0:
64,192,158280,1,0,0:0:0:0:
192,192,158340,1,0,0:0:0:0:
320,192,158400,1,0,0:0:0:0:
448,192,158400,1,0,0:0:0:0:
64,192,158460,1,0,0:0:0:0:
192,192,158520,1,0,0:0:0:0:
448,192,158580,1,0,0:0:0:0:
192,192,158640,1,0,0:0:0:0:
320,192,158640,1,0,0:0:0:0:
64,192,158700,1,0,0:0:0:0:
320,192,158760,1,0,0:0:0:0:
64,192,158820,1,0,0:0:0:0:
192,192,158880,1,0,0:0:0:0:
448,192,158880,1,0,0:0:0:0:
320,192,158940,1,0,0:0:0:0:
64,192,159000,1,0,0:0:0:0:
192,192,159000,1,0,0:0:0:0:
448,192,159060,1,0,0:0:0:0:
320,192,159120,1,0,0:0:0:0:
448,192,159180,1,0,0:0:0:0:
64,192,159240,1,0,0:0:0:0:
192,192,159240,1,0,0:0:0:0:
320,192,159300,1,0,0:0:0:0:
64,192,159360,1,0,0:0:0:0:
448,192,159360,1,0,0:0:0:0:
192,192,159420,1,0,0:0:0:0:
64,192,159480,1,0,0:0:0:0:
192,192,159540,1,0,0:0:0:0:
320,192,159600,1,0,0:0:0:0:
448,192,159600,1,0,0:0:0:0:
64,192,159660,1,0,0:0:0:0:
192,192,159720,1,0,0:0:0:0:
448,192,159720,1,0,0:0:0:0:
320,192,159780,1,0,0:0:0:0:
448,192,159840,1,0,0:0:0:0:
320,192,159900,1,0,0:0:0:0:
64,192,159960,1,0,0:0:0:0:
192,192,159960,1,0,0:0:0:0:
448,192,160020,1,0,0:0:0:0:
64,192,160080,1,0,0:0:0:0:
320,192,160140,1,0,0:0:0:0:
448,192,160200,1,0,0:0:0:0:
320,192,160260,1,0,0:0:0:0:
64,192,160320,1,0,0:0:0:0:
192,192,160320,1,0,0:0:0:0:
448,192,160380,1,0,0:0:0:0:
320,192,160440,1,0,0:0:0:0:
64,192,160500,1,0,0:0:0:0:
192,192,160560,1,0,0:0:0:0:
320,192,160560,1,0,0:0:0:0:
448,192,160620,1,0,0:0:0:0:
192,192,160680,1,0,0:0:0:0:
448,192,160740,1,0,0:0:0:0:
64,192,160800,1,0,0:0:0:0:
320,192,160800,1,0,0:0:0:0:
192,192,160860,1,0,0:0:0:0:
320,192,160920,1,0,0:0:0:0:
448,192,160920,1,0,0:0:0:0:
64,192,160980,1,0,0:0:0:0:
192,192,161040,1,0,0:0:0:0:
64,192,161100,1,0,0:0:0:0:
320,192,161160,1,0,0:0:0:0:
448,192,161160,1,0,0:0:0:0:
320,192,161280,1,0,0:0:0:0:
192,192,161310,1,0,0:0:0:0:
448,192,161355,1,0,0:0:0:0:
64,192,161385,1,0,0:0:0:0:
192,192,161420,1,0,0:0:0:0:
320,192,161445,1,0,0:0:0:0:
448,192,161490,1,0,0:0:0:0:
64,192,161520,1,0,0:0:0:0:
192,192,161520,1,0,0:0:0:0:
320,192,161580,1,0,0:0:0:0:
448,192,161640,1,0,0:0:0:0:
320,192,161700,1,0,0:0:0:0:
64,192,161760,1,0,0:0:0:0:
192,192,161760,1,0,0:0:0:0:
448,192,161820,1,0,0:0:0:0:
64,192,161880,1,0,0:0:0:0:
192,192,161940,1,0,0:0:0:0:
64,192,162000,1,0,0:0:0:0:
320,192,162000,1,0,0:0:0:0:
448,192,162060,1,0,0:0:0:0:
192,192,162120,1,0,0:0:0:0:
64,192,162180,1,0,0:0:0:0:
192,192,162240,1,0,0:0:0:0:
320,192,162240,1,0,0:0:0:0:
448,192,162300,1,0,0:0:0:0:
320,192,162360,1,0,0:0:0:0:
192,192,162420,1,0,0:0:0:0:
64,192,162480,1,0,0:0:0:0:
448,192,162480,1,0,0:0:0:0:
320,192,162540,1,0,0:0:0:0:
64,192,162600,1,0,0:0:0:0:
320,192,162660,1,0,0:0:0:0:
192,192,162720,1,0,0:0:0:0:
448,192,162720,1,0,0:0:0:0:
64,192,162780,1,0,0:0:0:0:
320,192,162840,1,0,0:0:0:0:
448,192,162840,1,0,0:0:0:0:
192,192,162900,1,0,0:0:0:0:
64,192,162960,1,0,0:0:0:0:
192,192,163020,1,0,0:0:0:0:
320,192,163080,1,0,0:0:0:0:
448,192,163080,1,0,0:0:0:0:
64,192,163140,1,0,0:0:0:0:
192,192,163200,1,0,0:0:0:0:
320,192,163200,1,0,0:0:0:0:
448,192,163260,1,0,0:0:0:0:
320,192,163320,1,0,0:0:0:0:
448,192,163380,1,0,0:0:0:0:
64,192,163440,1,0,0:0:0:0:
192,192,163440,1,0,0:0:0:0:
320,192,163500,1,0,0:0:0:0:
192,192,163560,1,0,0:0:0:0:
448,192,163560,1,0,0:0:0:0:
64,192,163620,1,0,0:0:0:0:
192,192,163680,1,0,0:0:0:0:
64,192,163740,1,0,0:0:0:0:
320,192,163800,1,0,0:0:0:0:
448,192,163800,1,0,0:0:0:0:
192,192,163860,1,0,0:0:0:0:
320,192,163920,1,0,0:0:0:0:
64,192,163980,1,0,0:0:0:0:
192,192,164040,1,0,0:0:0:0:
64,192,164100,1,0,0:0:0:0:
320,192,164160,1,0,0:0:0:0:
448,192,164160,1,0,0:0:0:0:
192,192,164220,1,0,0:0:0:0:
64,192,164280,1,0,0:0:0:0:
320,192,164340,1,0,0:0:0:0:
64,192,164400,1,0,0:0:0:0:
448,192,164400,1,0,0:0:0:0:
192,192,164460,1,0,0:0:0:0:
448,192,164520,1,0,0:0:0:0:
192,192,164580,1,0,0:0:0:0:
64,192,164640,1,0,0:0:0:0:
320,192,164640,1,0,0:0:0:0:
448,192,164700,1,0,0:0:0:0:
64,192,164760,1,0,0:0:0:0:
192,192,164760,1,0,0:0:0:0:
320,192,164820,1,0,0:0:0:0:
448,192,164880,1,0,0:0:0:0:
320,192,164940,1,0,0:0:0:0:
64,192,165000,1,0,0:0:0:0:
192,192,165000,1,0,0:0:0:0:
448,192,165060,1,0,0:0:0:0:
192,192,165120,1,0,0:0:0:0:
320,192,165120,1,0,0:0:0:0:
64,192,165180,1,0,0:0:0:0:
192,192,165240,1,0,0:0:0:0:
64,192,165300,1,0,0:0:0:0:
320,192,165360,1,0,0:0:0:0:
448,192,165360,1,0,0:0:0:0:
192,192,165420,1,0,0:0:0:0:
64,192,165480,1,0,0:0:0:0:
320,192,165480,1,0,0:0:0:0:
448,192,165540,1,0,0:0:0:0:
320,192,165600,1,0,0:0:0:0:
448,192,165660,1,0,0:0:0:0:
64,192,165720,1,0,0:0:0:0:
192,192,165720,1,0,0:0:0:0:
320,192,165780,1,0,0:0:0:0:
192,192,165840,1,0,0:0:0:0:
448,192,165900,1,0,0:0:0:0:
320,192,165960,1,0,0:0:0:0:
448,192,166020,1,0,0:0:0:0:
64,192,166080,1,0,0:0:0:0:
192,192,166080,1,0,0:0:0:0:
320,192,166140,1,0,0:0:0:0:
448,192,166200,1,0,0:0:0:0:
64,192,166260,1,0,0:0:0:0:
192,192,166320,1,0,0:0:0:0:
320,192,166320,1,0,0:0:0:0:
448,192,166380,1,0,0:0:0:0:
192,192,166440,1,0,0:0:0:0:
448,192,166500,1,0,0:0:0:0:
64,192,166560,1,0,0:0:0:0:
320,192,166560,1,0,0:0:0:0:
192,192,166620,1,0,0:0:0:0:
320,192,166680,1,0,0:0:0:0:
448,192,166680,1,0,0:0:0:0:
64,192,166740,1,0,0:0:0:0:
192,192,166800,1,0,0:0:0:0:
64,192,166860,1,0,0:0:0:0:
320,192,166920,1,0,0:0:0:0:
448,192,166920,1,0,0:0:0:0:
192,192,166980,1,0,0:0:0:0:
64,192,167040,1,0,0:0:0:0:
448,192,167040,1,0,0:0:0:0:
320,192,167100,1,0,0:0:0:0:
448,192,167160,1,0,0:0:0:0:
320,192,167220,1,0,0:0:0:0:
64,192,167280,1,0,0:0:0:0:
192,192,167280,1,0,0:0:0:0:
448,192,167340,1,0,0:0:0:0:
64,192,167400,1,0,0:0:0:0:
320,192,167400,1,0,0:0:0:0:
192,192,167460,1,0,0:0:0:0:
64,192,167520,1,0,0:0:0:0:
192,192,167580,1,0,0:0:0:0:
320,192,167640,1,0,0:0:0:0:
448,192,167640,1,0,0:0:0:0:
192,192,167760,1,0,0:0:0:0:
320,192,167790,1,0,0:0:0:0:
64,192,167835,1,0,0:0:0:0:
448,192,167865,1,0,0:0:0:0:
320,192,167900,1,0,0:0:0:0:
192,192,167925,1,0,0:0:0:0:
64,192,167970,1,0,0:0:0:0:
320,192,168000,1,0,0:0:0:0:
448,192,168000,1,0,0:0:0:0:
192,192,168060,1,0,0:0:0:0:
448,192,168120,1,0,0:0:0:0:
64,192,168180,1,0,0:0:0:0:
192,192,168240,1,0,0:0:0:0:
320,192,168300,1,0,0:0:0:0:
192,192,168360,1,0,0:0:0:0:
448,192,168360,1,0,0:0:0:0:
64,192,168420,1,0,0:0:0:0:
448,192,168480,1,0,0:0:0:0:
192,192,168540,1,0,0:0:0:0:
64,192,168600,1,0,0:0:0:0:
320,192,168660,1,0,0:0:0:0:
64,192,168720,1,0,0:0:0:0:
448,192,168720,1,0,0:0:0:0:
192,192,168780,1,0,0:0:0:0:
448,192,168840,1,0,0:0:0:0:
64,192,168900,1,0,0:0:0:0:
192,192,168960,1,0,0:0:0:0:
320,192,168960,1,0,0:0:0:0:
64,192,169020,1,0,0:0:0:0:
448,192,169020,1,0,0:0:0:0:
192,192,169080,1,0,0:0:0:0:
320,192,169080,1,0,0:0:0:0:
320,192,169200,1,0,0:0:0:0:
448,192,169200,1,0,0:0:0:0:
64,192,169260,1,0,0:0:0:0:
192,192,169320,1,0,0:0:0:0:
448,192,169320,1,0,0:0:0:0:
320,192,169380,1,0,0:0:0:0:
64,192,169440,1,0,0:0:0:0:
192,192,169440,1,0,0:0:0:0:
320,192,169500,1,0,0:0:0:0:
64,192,169560,1,0,0:0:0:0:
448,192,169560,1,0,0:0:0:0:
192,192,169620,1,0,0:0:0:0:
64,192,169680,1,0,0:0:0:0:
320,192,169680,1,0,0:0:0:0:
448,192,169740,1,0,0:0:0:0:
192,192,169800,1,0,0:0:0:0:
64,192,169920,1,0,0:0:0:0:
448,192,169920,1,0,0:0:0:0:
192,192,169980,1,0,0:0:0:0:
64,192,170040,1,0,0:0:0:0:
320,192,170100,1,0,0:0:0:0:
192,192,170160,1,0,0:0:0:0:
448,192,170160,1,0,0:0:0:0:
320,192,170220,1,0,0:0:0:0:
192,192,170280,1,0,0:0:0:0:
448,192,170340,1,0,0:0:0:0:
64,192,170400,1,0,0:0:0:0:
320,192,170400,1,0,0:0:0:0:
192,192,170460,1,0,0:0:0:0:
64,192,170520,1,0,0:0:0:0:
192,192,170580,1,0,0:0:0:0:
448,192,170640,1,0,0:0:0:0:
64,192,170700,1,0,0:0:0:0:
192,192,170760,1,0,0:0:0:0:
320,192,170760,1,0,0:0:0:0:
448,192,170820,1,0,0:0:0:0:
320,192,170880,1,0,0:0:0:0:
448,192,170940,1,0,0:0:0:0:
64,192,171000,1,0,0:0:0:0:
320,192,171060,1,0,0:0:0:0:
192,192,171120,1,0,0:0:0:0:
448,192,171120,1,0,0:0:0:0:
64,192,171180,1,0,0:0:0:0:
192,192,171240,1,0,0:0:0:0:
64,192,171300,1,0,0:0:0:0:
320,192,171360,1,0,0:0:0:0:
192,192,171420,1,0,0:0:0:0:
64,192,171480,1,0,0:0:0:0:
448,192,171480,1,0,0:0:0:0:
320,192,171540,1,0,0:0:0:0:
192,192,171600,1,0,0:0:0:0:
448,192,171600,1,0,0:0:0:0:
64,192,171660,1,0,0:0:0:0:
320,192,171660,1,0,0:0:0:0:
192,192,171720,1,0,0:0:0:0:
448,192,171720,1,0,0:0:0:0:
64,192,171780,1,0,0:0:0:0:
192,192,171840,1,0,0:0:0:0:
320,192,171900,1,0,0:0:0:0:
448,192,171960,1,0,0:0:0:0:
192,192,172020,1,0,0:0:0:0:
64,192,172080,1,0,0:0:0:0:
320,192,172080,1,0,0:0:0:0:
192,192,172140,1,0,0:0:0:0:
320,192,172200,1,0,0:0:0:0:
64,192,172260,1,0,0:0:0:0:
192,192,172320,1,0,0:0:0:0:
448,192,172320,1,0,0:0:0:0:
320,192,172380,1,0,0:0:0:0:
448,192,172440,1,0,0:0:0:0:
320,192,172500,1,0,0:0:0:0:
64,192,172560,1,0,0:0:0:0:
448,192,172620,1,0,0:0:0:0:
192,192,172680,1,0,0:0:0:0:
320,192,172680,1,0,0:0:0:0:
64,192,172740,1,0,0:0:0:0:
192,192,172800,1,0,0:0:0:0:
64,192,172860,1,0,0:0:0:0:
448,192,172920,1,0,0:0:0:0:
192,192,172980,1,0,0:0:0:0:
64,192,173040,1,0,0:0:0:0:
320,192,173040,1,0,0:0:0:0:
448,192,173100,1,0,0:0:0:0:
320,192,173160,1,0,0:0:0:0:
448,192,173220,1,0,0:0:0:0:
64,192,173280,1,0,0:0:0:0:
192,192,173280,1,0,0:0:0:0:
320,192,173340,1,0,0:0:0:0:
448,192,173340,1,0,0:0:0:0:
64,192,173400,1,0,0:0:0:0:
192,192,173400,1,0,0:0:0:0:
64,192,173520,1,0,0:0:0:0:
448,192,173550,1,0,0:0:0:0:
192,192,173595,1,0,0:0:0:0:
320,192,173625,1,0,0:0:0:0:
448,192,173660,1,0,0:0:0:0:
192,192,173685,1,0,0:0:0:0:
64,192,173730,1,0,0:0:0:0:
320,192,173760,1,0,0:0:0:0:
448,192,173760,1,0,0:0:0:0:
192,192,173820,1,0,0:0:0:0:
64,192,173880,1,0,0:0:0:0:
320,192,173940,1,0,0:0:0:0:
192,192,174000,1,0,0:0:0:0:
448,192,174000,1,0,0:0:0:0:
320,192,174060,1,0,0:0:0:0:
192,192,174120,1,0,0:0:0:0:
448,192,174180,1,0,0:0:0:0:
64,192,174240,1,0,0:0:0:0:
320,192,174240,1,0,0:0:0:0:
192,192,174300,1,0,0:0:0:0:
64,192,174360,1,0,0:0:0:0:
192,192,174420,1,0,0:0:0:0:
448,192,174480,1,0,0:0:0:0:
64,192,174540,1,0,0:0:0:0:
192,192,174600,1,0,0:0:0:0:
320,192,174600,1,0,0:0:0:0:
448,192,174660,1,0,0:0:0:0:
320,192,174720,1,0,0:0:0:0:
448,192,174780,1,0,0:0:0:0:
64,192,174840,1,0,0:0:0:0:
320,192,174900,1,0,0:0:0:0:
192,192,174960,1,0,0:0:0:0:
448,192,174960,1,0,0:0:0:0:
64,192,175020,1,0,0:0:0:0:
192,192,175080,1,0,0:0:0:0:
64,192,175140,1,0,0:0:0:0:
320,192,175200,1,0,0:0:0:0:
192,192,175260,1,0,0:0:0:0:
64,192,175320,1,0,0:0:0:0:
448,192,175320,1,0,0:0:0:0:
320,192,175380,1,0,0:0:0:0:
192,192,175440,1,0,0:0:0:0:
448,192,175470,1,0,0:0:0:0:
64,192,175515,1,0,0:0:0:0:
320,192,175545,1,0,0:0:0:0:
192,192,175580,1,0,0:0:0:0:
448,192,175605,1,0,0:0:0:0:
320,192,175650,1,0,0:0:0:0:
64,192,175680,1,0,0:0:0:0:
192,192,175680,1,0,0:0:0:0:
448,192,175740,1,0,0:0:0:0:
64,192,175800,1,0,0:0:0:0:
192,192,175860,1,0,0:0:0:0:
64,192,175920,1,0,0:0:0:0:
320,192,175920,1,0,0:0:0:0:
192,192,175980,1,0,0:0:0:0:
448,192,176040,1,0,0:0:0:0:
64,192,176100,1,0,0:0:0:0:
192,192,176160,1,0,0:0:0:0:
320,192,176160,1,0,0:0:0:0:
448,192,176220,1,0,0:0:0:0:
320,192,176280,1,0,0:0:0:0:
448,192,176340,1,0,0:0:0:0:
64,192,176400,1,0,0:0:0:0:
192,192,176400,1,0,0:0:0:0:
320,192,176460,1,0,0:0:0:0:
64,192,176520,1,0,0:0:0:0:
448,192,176580,1,0,0:0:0:0:
192,192,176640,1,0,0:0:0:0:
320,192,176640,1,0,0:0:0:0:
64,192,176700,1,0,0:0:0:0:
448,192,176760,1,0,0:0:0:0:
64,192,176820,1,0,0:0:0:0:
320,192,176820,1,0,0:0:0:0:
192,192,176880,1,0,0:0:0:0:
448,192,176880,1,0,0:0:0:0:
320,192,177000,1,0,0:0:0:0:
192,192,177040,1,0,0:0:0:0:
64,192,177080,1,0,0:0:0:0:
320,192,177120,1,0,0:0:0:0:
448,192,177120,1,0,0:0:0:0:
192,192,177180,1,0,0:0:0:0:
448,192,177240,1,0,0:0:0:0:
320,192,177300,1,0,0:0:0:0:
64,192,177360,1,0,0:0:0:0:
448,192,177360,1,0,0:0:0:0:
192,192,177420,1,0,0:0:0:0:
64,192,177480,1,0,0:0:0:0:
192,192,177540,1,0,0:0:0:0:
320,192,177600,1,0,0:0:0:0:
448,192,177600,1,0,0:0:0:0:
64,192,177660,1,0,0:0:0:0:
192,192,177720,1,0,0:0:0:0:
448,192,177780,1,0,0:0:0:0:
64,192,177840,1,0,0:0:0:0:
320,192,177840,1,0,0:0:0:0:
448,192,177900,1,0,0:0:0:0:
64,192,177960,1,0,0:0:0:0:
320,192,178020,1,0,0:0:0:0:
192,192,178080,1,0,0:0:0:0:
448,192,178080,1,0,0:0:0:0:
64,192,178140,1,0,0:0:0:0:
192,192,178200,1,0,0:0:0:0:
64,192,178260,1,0,0:0:0:0:
320,192,178320,1,0,0:0:0:0:
192,192,178380,1,0,0:0:0:0:
64,192,178440,1,0,0:0:0:0:
448,192,178440,1,0,0:0:0:0:
320,192,178500,1,0,0:0:0:0:
448,192,178560,1,0,0:0:0:0:
320,192,178620,1,0,0:0:0:0:
192,192,178680,1,0,0:0:0:0:
448,192,178740,1,0,0:0:0:0:
64,192,178800,1,0,0:0:0:0:
320,192,178800,1,0,0:0:0:0:
192,192,178860,1,0,0:0:0:0:
64,192,178920,1,0,0:0:0:0:
192,192,178980,1,0,0:0:0:0:
448,192,179040,1,0,0:0:0:0:
64,192,179100,1,0,0:0:0:0:
192,192,179160,1,0,0:0:0:0:
320,192,179160,1,0,0:0:0:0:
448,192,179220,1,0,0:0:0:0:
320,192,179280,1,0,0:0:0:0:
64,192,179280,1,0,0:0:0:0:
192,192,179340,1,0,0:0:0:0:
64,192,179400,1,0,0:0:0:0:
448,192,179400,1,0,0:0:0:0:
320,192,179460,1,0,0:0:0:0:
192,192,179520,1,0,0:0:0:0:
64,192,179520,1,0,0:0:0:0:
448,192,179580,1,0,0:0:0:0:
320,192,179640,1,0,0:0:0:0:
64,192,179700,1,0,0:0:0:0:
192,192,179760,1,0,0:0:0:0:
448,192,179760,1,0,0:0:0:0:
64,192,179820,1,0,0:0:0:0:
448,192,179880,1,0,0:0:0:0:
192,192,179940,1,0,0:0:0:0:
64,192,180000,1,0,0:0:0:0:
320,192,180000,1,0,0:0:0:0:
448,192,180060,1,0,0:0:0:0:
320,192,180120,1,0,0:0:0:0:
448,192,180180,1,0,0:0:0:0:
192,192,180240,1,0,0:0:0:0:
320,192,180300,1,0,0:0:0:0:
64,192,180360,1,0,0:0:0:0:
448,192,180360,1,0,0:0:0:0:
192,192,180420,1,0,0:0:0:0:
64,192,180480,1,0,0:0:0:0:
192,192,180540,1,0,0:0:0:0:
320,192,180600,1,0,0:0:0:0:
64,192,180660,1,0,0:0:0:0:
192,192,180720,1,0,0:0:0:0:
448,192,180720,1,0,0:0:0:0:
320,192,180780,1,0,0:0:0:0:
448,192,180840,1,0,0:0:0:0:
320,192,180900,1,0,0:0:0:0:
64,192,180960,1,0,0:0:0:0:
192,192,180960,1,0,0:0:0:0:
320,192,181020,1,0,0:0:0:0:
448,192,181020,1,0,0:0:0:0:
64,192,181080,1,0,0:0:0:0:
192,192,181080,1,0,0:0:0:0:
192,192,181200,1,0,0:0:0:0:
320,192,181230,1,0,0:0:0:0:
64,192,181275,1,0,0:0:0:0:
448,192,181305,1,0,0:0:0:0:
320,192,181340,1,0,0:0:0:0:
64,192,181365,1,0,0:0:0:0:
192,192,181410,1,0,0:0:0:0:
320,192,181440,1,0,0:0:0:0:
448,192,181440,1,0,0:0:0:0:
64,192,181500,1,0,0:0:0:0:
192,192,181560,1,0,0:0:0:0:
448,192,181620,1,0,0:0:0:0:
64,192,181680,1,0,0:0:0:0:
320,192,181680,1,0,0:0:0:0:
448,192,181740,1,0,0:0:0:0:
64,192,181800,1,0,0:0:0:0:
320,192,181860,1,0,0:0:0:0:
192,192,181920,1,0,0:0:0:0:
448,192,181920,1,0,0:0:0:0:
64,192,181980,1,0,0:0:0:0:
192,192,182040,1,0,0:0:0:0:
64,192,182100,1,0,0:0:0:0:
320,192,182160,1,0,0:0:0:0:
192,192,182220,1,0,0:0:0:0:
64,192,182280,1,0,0:0:0:0:
448,192,182280,1,0,0:0:0:0:
320,192,182340,1,0,0:0:0:0:
448,192,182400,1,0,0:0:0:0:
320,192,182460,1,0,0:0:0:0:
192,192,182520,1,0,0:0:0:0:
448,192,182580,1,0,0:0:0:0:
64,192,182640,1,0,0:0:0:0:
320,192,182640,1,0,0:0:0:0:
192,192,182700,1,0,0:0:0:0:
64,192,182760,1,0,0:0:0:0:
192,192,182820,1,0,0:0:0:0:
448,192,182880,1,0,0:0:0:0:
64,192,182940,1,0,0:0:0:0:
192,192,183000,1,0,0:0:0:0:
320,192,183000,1,0,0:0:0:0:
448,192,183060,1,0,0:0:0:0:
64,192,183120,1,0,0:0:0:0:
320,192,183150,1,0,0:0:0:0:
192,192,183195,1,0,0:0:0:0:
448,192,183225,1,0,0:0:0:0:
64,192,183260,1,0,0:0:0:0:
320,192,183285,1,0,0:0:0:0:
448,192,183330,1,0,0:0:0:0:
64,192,183360,1,0,0:0:0:0:
192,192,183360,1,0,0:0:0:0:
320,192,183420,1,0,0:0:0:0:
192,192,183480,1,0,0:0:0:0:
320,192,183540,1,0,0:0:0:0:
448,192,183600,1,0,0:0:0:0:
64,192,183660,1,0,0:0:0:0:
320,192,183720,1,0,0:0:0:0:
448,192,183720,1,0,0:0:0:0:
192,192,183780,1,0,0:0:0:0:
320,192,183840,1,0,0:0:0:0:
192,192,183900,1,0,0:0:0:0:
64,192,183960,1,0,0:0:0:0:
448,192,184020,1,0,0:0:0:0:
64,192,184080,1,0,0:0:0:0:
192,192,184080,1,0,0:0:0:0:
320,192,184140,1,0,0:0:0:0:
192,192,184200,1,0,0:0:0:0:
320,192,184260,1,0,0:0:0:0:
448,192,184320,1,0,0:0:0:0:
64,192,184380,1,0,0:0:0:0:
192,192,184440,1,0,0:0:0:0:
320,192,184440,1,0,0:0:0:0:
448,192,184500,1,0,0:0:0:0:
320,192,184560,1,0,0:0:0:0:
448,192,184620,1,0,0:0:0:0:
192,192,184680,1,0,0:0:0:0:
64,192,184740,1,0,0:0:0:0:
448,192,184800,1,0,0:0:0:0:
320,192,184830,1,0,0:0:0:0:
192,192,184875,1,0,0:0:0:0:
448,192,184905,1,0,0:0:0:0:
64,192,184940,1,0,0:0:0:0:
192,192,184965,1,0,0:0:0:0:
320,192,185010,1,0,0:0:0:0:
64,192,185040,1,0,0:0:0:0:
448,192,185040,1,0,0:0:0:0:
192,192,185160,1,0,0:0:0:0:
320,192,185160,1,0,0:0:0:0:
64,192,185280,1,0,0:0:0:0:
320,192,185280,1,0,0:0:0:0:
448,192,185280,1,0,0:0:0:0:
192,192,185340,1,0,0:0:0:0:
448,192,185400,1,0,0:0:0:0:
192,192,185460,1,0,0:0:0:0:
64,192,185520,1,0,0:0:0:0:
320,192,185520,1,0,0:0:0:0:
448,192,185580,1,0,0:0:0:0:
64,192,185640,1,0,0:0:0:0:
448,192,185700,1,0,0:0:0:0:
192,192,185760,1,0,0:0:0:0:
320,192,185760,1,0,0:0:0:0:
64,192,185820,1,0,0:0:0:0:
320,192,185880,1,0,0:0:0:0:
64,192,185940,1,0,0:0:0:0:
192,192,186000,1,0,0:0:0:0:
448,192,186000,1,0,0:0:0:0:
320,192,186060,1,0,0:0:0:0:
448,192,186120,1,0,0:0:0:0:
320,192,186180,1,0,0:0:0:0:
64,192,186240,1,0,0:0:0:0:
192,192,186240,1,0,0:0:0:0:
448,192,186300,1,0,0:0:0:0:
64,192,186360,1,0,0:0:0:0:
320,192,186420,1,0,0:0:0:0:
192,192,186480,1,0,0:0:0:0:
448,192,186480,1,0,0:0:0:0:
64,192,186540,1,0,0:0:0:0:
320,192,186600,1,0,0:0:0:0:
448,192,186660,1,0,0:0:0:0:
64,192,186720,1,0,0:0:0:0:
192,192,186720,1,0,0:0:0:0:
320,192,186780,1,0,0:0:0:0:
64,192,186840,1,0,0:0:0:0:
448,192,186900,1,0,0:0:0:0:
192,192,186960,1,0,0:0:0:0:
320,192,186960,1,0,0:0:0:0:
448,192,187020,1,0,0:0:0:0:
192,192,187080,1,0,0:0:0:0:
64,192,187140,1,0,0:0:0:0:
320,192,187200,1,0,0:0:0:0:
448,192,187200,1,0,0:0:0:0:
192,192,187260,1,0,0:0:0:0:
320,192,187320,1,0,0:0:0:0:
192,192,187380,1,0,0:0:0:0:
64,192,187440,1,0,0:0:0:0:
448,192,187440,1,0,0:0:0:0:
320,192,187500,1,0,0:0:0:0:
64,192,187560,1,0,0:0:0:0:
320,192,187620,1,0,0:0:0:0:
192,192,187680,1,0,0:0:0:0:
448,192,187680,1,0,0:0:0:0:
64,192,187740,1,0,0:0:0:0:
448,192,187800,1,0,0:0:0:0:
64,192,187860,1,0,0:0:0:0:
192,192,187920,1,0,0:0:0:0:
320,192,187920,1,0,0:0:0:0:
448,192,187980,1,0,0:0:0:0:
320,192,188040,1,0,0:0:0:0:
448,192,188100,1,0,0:0:0:0:
64,192,188160,1,0,0:0:0:0:
192,192,188160,1,0,0:0:0:0:
320,192,188220,1,0,0:0:0:0:
64,192,188280,1,0,0:0:0:0:
448,192,188340,1,0,0:0:0:0:
192,192,188400,1,0,0:0:0:0:
320,192,188400,1,0,0:0:0:0:
64,192,188460,1,0,0:0:0:0:
448,192,188520,1,0,0:0:0:0:
192,192,188580,1,0,0:0:0:0:
64,192,188640,1,0,0:0:0:0:
320,192,188640,1,0,0:0:0:0:
448,192,188700,1,0,0:0:0:0:
192,192,188760,1,0,0:0:0:0:
320,192,188820,1,0,0:0:0:0:
64,192,188880,1,0,0:0:0:0:
448,192,188880,1,0,0:0:0:0:
192,192,188940,1,0,0:0:0:0:
320,192,189000,1,0,0:0:0:0:
448,192,189000,1,0,0:0:0:0:
192,192,189060,1,0,0:0:0:0:
64,192,189120,1,0,0:0:0:0:
448,192,189120,1,0,0:0:0:0:
320,192,189180,1,0,0:0:0:0:
64,192,189240,1,0,0:0:0:0:
320,192,189300,1,0,0:0:0:0:
192,192,189360,1,0,0:0:0:0:
448,192,189360,1,0,0:0:0:0:
64,192,189420,1,0,0:0:0:0:
448,192,189480,1,0,0:0:0:0:
64,192,189540,1,0,0:0:0:0:
192,192,189600,1,0,0:0:0:0:
320,192,189600,1,0,0:0:0:0:
448,192,189660,1,0,0:0:0:0:
192,192,189720,1,0,0:0:0:0:
448,192,189780,1,0,0:0:0:0:
64,192,189840,1,0,0:0:0:0:
320,192,189840,1,0,0:0:0:0:
192,192,189900,1,0,0:0:0:0:
64,192,189960,1,0,0:0:0:0:
192,192,190020,1,0,0:0:0:0:
320,192,190080,1,0,0:0:0:0:
448,192,190080,1,0,0:0:0:0:
64,192,190140,1,0,0:0:0:0:
448,192,190200,1,0,0:0:0:0:
192,192,190260,1,0,0:0:0:0:
64,192,190320,1,0,0:0:0:0:
320,192,190320,1,0,0:0:0:0:
448,192,190380,1,0,0:0:0:0:
192,192,190440,1,0,0:0:0:0:
64,192,190500,1,0,0:0:0:0:
320,192,190560,1,0,0:0:0:0:
448,192,190560,1,0,0:0:0:0:
192,192,190620,1,0,0:0:0:0:
448,192,190680,1,0,0:0:0:0:
64,192,190740,1,0,0:0:0:0:
192,192,190800,1,0,0:0:0:0:
320,192,190800,1,0,0:0:0:0:
64,192,190860,1,0,0:0:0:0:
320,192,190920,1,0,0:0:0:0:
448,192,190980,1,0,0:0:0:0:
64,192,191040,1,0,0:0:0:0:
192,192,191040,1,0,0:0:0:0:
320,192,191100,1,0,0:0:0:0:
192,192,191160,1,0,0:0:0:0:
320,192,191220,1,0,0:0:0:0:
64,192,191280,1,0,0:0:0:0:
448,192,191280,1,0,0:0:0:0:
192,192,191340,1,0,0:0:0:0:
448,192,191400,1,0,0:0:0:0:
192,192,191460,1,0,0:0:0:0:
64,192,191520,1,0,0:0:0:0:
320,192,191520,1,0,0:0:0:0:
448,192,191580,1,0,0:0:0:0:
64,192,191640,1,0,0:0:0:0:
448,192,191700,1,0,0:0:0:0:
192,192,191760,1,0,0:0:0:0:
320,192,191760,1,0,0:0:0:0:
64,192,191820,1,0,0:0:0:0:
192,192,191880,1,0,0:0:0:0:
64,192,191940,1,0,0:0:0:0:
320,192,192000,1,0,0:0:0:0:
448,192,192000,1,0,0:0:0:0:
64,192,192060,1,0,0:0:0:0:
192,192,192060,1,0,0:0:0:0:
320,192,192120,1,0,0:0:0:0:
448,192,192120,1,0,0:0:0:0:
192,192,192240,1,0,0:0:0:0:
320,192,192240,1,0,0:0:0:0:
448,192,192300,1,0,0:0:0:0:
64,192,192360,1,0,0:0:0:0:
192,192,192360,1,0,0:0:0:0:
448,192,192420,1,0,0:0:0:0:
64,192,192480,1,0,0:0:0:0:
320,192,192480,1,0,0:0:0:0:
192,192,192540,1,0,0:0:0:0:
64,192,192600,1,0,0:0:0:0:
320,192,192660,1,0,0:0:0:0:
192,192,192720,1,0,0:0:0:0:
448,192,192720,1,0,0:0:0:0:
64,192,192780,1,0,0:0:0:0:
320,192,192840,1,0,0:0:0:0:
448,192,192840,1,0,0:0:0:0:
64,192,192900,1,0,0:0:0:0:
192,192,192960,1,0,0:0:0:0:
320,192,192960,1,0,0:0:0:0:
448,192,193020,1,0,0:0:0:0:
192,192,193080,1,0,0:0:0:0:
448,192,193140,1,0,0:0:0:0:
64,192,193200,1,0,0:0:0:0:
320,192,193200,1,0,0:0:0:0:
192,192,193260,1,0,0:0:0:0:
320,192,193320,1,0,0:0:0:0:
192,192,193380,1,0,0:0:0:0:
64,192,193440,1,0,0:0:0:0:
448,192,193440,1,0,0:0:0:0:
320,192,193500,1,0,0:0:0:0:
64,192,193560,1,0,0:0:0:0:
320,192,193620,1,0,0:0:0:0:
192,192,193680,1,0,0:0:0:0:
448,192,193680,1,0,0:0:0:0:
64,192,193740,1,0,0:0:0:0:
192,192,193800,1,0,0:0:0:0:
64,192,193860,1,0,0:0:0:0:
320,192,193920,1,0,0:0:0:0:
448,192,193920,1,0,0:0:0:0:
192,192,193980,1,0,0:0:0:0:
448,192,194040,1,0,0:0:0:0:
320,192,194100,1,0,0:0:0:0:
64,192,194160,1,0,0:0:0:0:
448,192,194160,1,0,0:0:0:0:
192,192,194220,1,0,0:0:0:0:
320,192,194280,1,0,0:0:0:0:
448,192,194340,1,0,0:0:0:0:
64,192,194400,1,0,0:0:0:0:
192,192,194400,1,0,0:0:0:0:
320,192,194460,1,0,0:0:0:0:
192,192,194520,1,0,0:0:0:0:
64,192,194580,1,0,0:0:0:0:
320,192,194640,1,0,0:0:0:0:
448,192,194640,1,0,0:0:0:0:
192,192,194700,1,0,0:0:0:0:
64,192,194760,1,0,0:0:0:0:
448,192,194760,1,0,0:0:0:0:
320,192,194820,1,0,0:0:0:0:
64,192,194880,1,0,0:0:0:0:
192,192,194880,1,0,0:0:0:0:
448,192,194940,1,0,0:0:0:0:
192,192,195000,1,0,0:0:0:0:
448,192,195060,1,0,0:0:0:0:
64,192,195120,1,0,0:0:0:0:
320,192,195120,1,0,0:0:0:0:
192,192,195180,1,0,0:0:0:0:
320,192,195240,1,0,0:0:0:0:
192,192,195300,1,0,0:0:0:0:
64,192,195360,1,0,0:0:0:0:
448,192,195360,1,0,0:0:0:0:
320,192,195420,1,0,0:0:0:0:
64,192,195480,1,0,0:0:0:0:
320,192,195540,1,0,0:0:0:0:
192,192,195600,1,0,0:0:0:0:
448,192,195600,1,0,0:0:0:0:
64,192,195660,1,0,0:0:0:0:
192,192,195720,1,0,0:0:0:0:
64,192,195780,1,0,0:0:0:0:
320,192,195840,1,0,0:0:0:0:
448,192,195840,1,0,0:0:0:0:
192,192,195900,1,0,0:0:0:0:
64,192,195960,1,0,0:0:0:0:
320,192,195960,1,0,0:0:0:0:
448,192,196020,1,0,0:0:0:0:
64,192,196080,1,0,0:0:0:0:
192,192,196080,1,0,0:0:0:0:
448,192,196140,1,0,0:0:0:0:
320,192,196200,1,0,0:0:0:0:
64,192,196260,1,0,0:0:0:0:
192,192,196320,1,0,0:0:0:0:
448,192,196320,1,0,0:0:0:0:
320,192,196380,1,0,0:0:0:0:
192,192,196440,1,0,0:0:0:0:
64,192,196500,1,0,0:0:0:0:
320,192,196560,1,0,0:0:0:0:
448,192,196560,1,0,0:0:0:0:
320,192,196680,1,0,0:0:0:0:
64,192,196800,1,0,0:0:0:0:
192,192,196800,1,0,0:0:0:0:
448,192,196800,1,0,0:0:0:0:
320,192,196860,1,0,0:0:0:0:
192,192,196920,1,0,0:0:0:0:
320,192,196980,1,0,0:0:0:0:
64,192,197040,1,0,0:0:0:0:
448,192,197040,1,0,0:0:0:0:
192,192,197100,1,0,0:0:0:0:
448,192,197160,1,0,0:0:0:0:
192,192,197220,1,0,0:0:0:0:
64,192,197280,1,0,0:0:0:0:
320,192,197280,1,0,0:0:0:0:
448,192,197340,1,0,0:0:0:0:
64,192,197400,1,0,0:0:0:0:
448,192,197460,1,0,0:0:0:0:
192,192,197520,1,0,0:0:0:0:
320,192,197520,1,0,0:0:0:0:
64,192,197580,1,0,0:0:0:0:
192,192,197640,1,0,0:0:0:0:
64,192,197700,1,0,0:0:0:0:
320,192,197760,1,0,0:0:0:0:
448,192,197760,1,0,0:0:0:0:
192,192,197820,1,0,0:0:0:0:
64,192,197880,1,0,0:0:0:0:
448,192,197880,1,0,0:0:0:0:
320,192,197940,1,0,0:0:0:0:
64,192,198000,1,0,0:0:0:0:
192,192,198000,1,0,0:0:0:0:
320,192,198060,1,0,0:0:0:0:
448,192,198120,1,0,0:0:0:0:
64,192,198180,1,0,0:0:0:0:
192,192,198240,1,0,0:0:0:0:
320,192,198240,1,0,0:0:0:0:
448,192,198300,1,0,0:0:0:0:
192,192,198360,1,0,0:0:0:0:
64,192,198420,1,0,0:0:0:0:
320,192,198480,1,0,0:0:0:0:
448,192,198480,1,0,0:0:0:0:
192,192,198600,1,0,0:0:0:0:
64,192,198720,1,0,0:0:0:0:
320,192,198720,1,0,0:0:0:0:
448,192,198720,1,0,0:0:0:0:
64,192,198840,1,0,0:0:0:0:
448,192,198840,1,0,0:0:0:0:
320,192,198960,1,0,0:0:0:0:
64,192,199080,1,0,0:0:0:0:
192,192,199080,1,0,0:0:0:0:
448,192,199080,1,0,0:0:0:0:
64,192,199200,1,0,0:0:0:0:
448,192,199200,1,0,0:0:0:0:
192,192,199320,1,0,0:0:0:0:
64,192,199440,1,0,0:0:0:0:
320,192,199440,1,0,0:0:0:0:
448,192,199440,1,0,0:0:0:0:
64,192,199560,1,0,0:0:0:0:
448,192,199560,1,0,0:0:0:0:
320,192,199680,1,0,0:0:0:0:
64,192,199800,1,0,0:0:0:0:
192,192,199800,1,0,0:0:0:0:
448,192,199800,1,0,0:0:0:0:
64,192,199920,1,0,0:0:0:0:
448,192,199920,1,0,0:0:0:0:
192,192,200040,1,0,0:0:0:0:
64,192,200160,1,0,0:0:0:0:
320,192,200160,1,0,0:0:0:0:
448,192,200160,1,0,0:0:0:0:
192,192,200220,1,0,0:0:0:0:
64,192,200280,1,0,0:0:0:0:
320,192,200280,1,0,0:0:0:0:
192,192,200340,1,0,0:0:0:0:
448,192,200400,1,0,0:0:0:0:
320,192,200430,1,0,0:0:0:0:
64,192,200475,1,0,0:0:0:0:
192,192,200505,1,0,0:0:0:0:
448,192,200540,1,0,0:0:0:0:
320,192,200565,1,0,0:0:0:0:
192,192,200610,1,0,0:0:0:0:
64,192,200640,1,0,0:0:0:0:
448,192,200640,1,0,0:0:0:0:
320,192,200700,1,0,0:0:0:0:
64,192,200760,1,0,0:0:0:0:
320,192,200820,1,0,0:0:0:0:
192,192,200880,1,0,0:0:0:0:
448,192,200880,1,0,0:0:0:0:
64,192,200940,1,0,0:0:0:0:
192,192,201000,1,0,0:0:0:0:
64,192,201060,1,0,0:0:0:0:
320,192,201120,1,0,0:0:0:0:
448,192,201120,1,0,0:0:0:0:
192,192,201180,1,0,0:0:0:0:
320,192,201240,1,0,0:0:0:0:
192,192,201300,1,0,0:0:0:0:
64,192,201360,1,0,0:0:0:0:
448,192,201360,1,0,0:0:0:0:
320,192,201420,1,0,0:0:0:0:
448,192,201480,1,0,0:0:0:0:
320,192,201540,1,0,0:0:0:0:
64,192,201600,1,0,0:0:0:0:
192,192,201600,1,0,0:0:0:0:
448,192,201660,1,0,0:0:0:0:
64,192,201720,1,0,0:0:0:0:
320,192,201720,1,0,0:0:0:0:
448,192,201780,1,0,0:0:0:0:
192,192,201840,1,0,0:0:0:0:
320,192,201900,1,0,0:0:0:0:
64,192,201960,1,0,0:0:0:0:
448,192,201960,1,0,0:0:0:0:
192,192,202020,1,0,0:0:0:0:
64,192,202080,1,0,0:0:0:0:
448,192,202140,1,0,0:0:0:0:
192,192,202200,1,0,0:0:0:0:
320,192,202200,1,0,0:0:0:0:
64,192,202260,1,0,0:0:0:0:
192,192,202320,1,0,0:0:0:0:
448,192,202320,1,0,0:0:0:0:
320,192,202380,1,0,0:0:0:0:
64,192,202440,1,0,0:0:0:0:
448,192,202440,1,0,0:0:0:0:
192,192,202500,1,0,0:0:0:0:
320,192,202560,1,0,0:0:0:0:
448,192,202560,1,0,0:0:0:0:
64,192,202620,1,0,0:0:0:0:
320,192,202680,1,0,0:0:0:0:
64,192,202740,1,0,0:0:0:0:
192,192,202800,1,0,0:0:0:0:
448,192,202800,1,0,0:0:0:0:
320,192,202860,1,0,0:0:0:0:
448,192,202920,1,0,0:0:0:0:
320,192,202980,1,0,0:0:0:0:
64,192,203040,1,0,0:0:0:0:
192,192,203040,1,0,0:0:0:0:
448,192,203100,1,0,0:0:0:0:
64,192,203160,1,0,0:0:0:0:
448,192,203220,1,0,0:0:0:0:
192,192,203280,1,0,0:0:0:0:
320,192,203280,1,0,0:0:0:0:
64,192,203340,1,0,0:0:0:0:
192,192,203400,1,0,0:0:0:0:
64,192,203460,1,0,0:0:0:0:
320,192,203520,1,0,0:0:0:0:
448,192,203520,1,0,0:0:0:0:
192,192,203580,1,0,0:0:0:0:
64,192,203640,1,0,0:0:0:0:
448,192,203640,1,0,0:0:0:0:
192,192,203700,1,0,0:0:0:0:
320,192,203760,1,0,0:0:0:0:
64,192,203820,1,0,0:0:0:0:
320,192,203880,1,0,0:0:0:0:
448,192,203880,1,0,0:0:0:0:
64,192,204000,1,0,0:0:0:0:
448,192,204000,1,0,0:0:0:0:
192,192,204060,1,0,0:0:0:0:
320,192,204060,1,0,0:0:0:0:
64,192,204120,1,0,0:0:0:0:
448,192,204120,1,0,0:0:0:0:
192,192,204240,1,0,0:0:0:0:
320,192,204270,1,0,0:0:0:0:
64,192,204315,1,0,0:0:0:0:
448,192,204345,1,0,0:0:0:0:
320,192,204380,1,0,0:0:0:0:
192,192,204405,1,0,0:0:0:0:
64,192,204450,1,0,0:0:0:0:
320,192,204480,1,0,0:0:0:0:
448,192,204480,1,0,0:0:0:0:
192,192,204540,1,0,0:0:0:0:
448,192,204600,1,0,0:0:0:0:
192,192,204660,1,0,0:0:0:0:
64,192,204720,1,0,0:0:0:0:
320,192,204720,1,0,0:0:0:0:
448,192,204780,1,0,0:0:0:0:
320,192,204840,1,0,0:0:0:0:
448,192,204900,1,0,0:0:0:0:
64,192,204960,1,0,0:0:0:0:
192,192,204960,1,0,0:0:0:0:
320,192,205020,1,0,0:0:0:0:
192,192,205080,1,0,0:0:0:0:
320,192,205140,1,0,0:0:0:0:
64,192,205200,1,0,0:0:0:0:
448,192,205200,1,0,0:0:0:0:
192,192,205260,1,0,0:0:0:0:
64,192,205320,1,0,0:0:0:0:
192,192,205380,1,0,0:0:0:0:
320,192,205440,1,0,0:0:0:0:
448,192,205440,1,0,0:0:0:0:
64,192,205500,1,0,0:0:0:0:
192,192,205560,1,0,0:0:0:0:
448,192,205560,1,0,0:0:0:0:
64,192,205620,1,0,0:0:0:0:
320,192,205680,1,0,0:0:0:0:
192,192,205740,1,0,0:0:0:0:
64,192,205800,1,0,0:0:0:0:
448,192,205800,1,0,0:0:0:0:
320,192,205860,1,0,0:0:0:0:
448,192,205920,1,0,0:0:0:0:
64,192,205980,1,0,0:0:0:0:
192,192,206040,1,0,0:0:0:0:
320,192,206040,1,0,0:0:0:0:
448,192,206100,1,0,0:0:0:0:
64,192,206160,1,0,0:0:0:0:
320,192,206160,1,0,0:0:0:0:
192,192,206220,1,0,0:0:0:0:
64,192,206280,1,0,0:0:0:0:
448,192,206280,1,0,0:0:0:0:
320,192,206340,1,0,0:0:0:0:
64,192,206400,1,0,0:0:0:0:
192,192,206400,1,0,0:0:0:0:
448,192,206460,1,0,0:0:0:0:
192,192,206520,1,0,0:0:0:0:
448,192,206580,1,0,0:0:0:0:
64,192,206640,1,0,0:0:0:0:
320,192,206640,1,0,0:0:0:0:
192,192,206700,1,0,0:0:0:0:
64,192,206760,1,0,0:0:0:0:
192,192,206820,1,0,0:0:0:0:
320,192,206880,1,0,0:0:0:0:
448,192,206880,1,0,0:0:0:0:
64,192,206940,1,0,0:0:0:0:
448,192,207000,1,0,0:0:0:0:
64,192,207060,1,0,0:0:0:0:
192,192,207120,1,0,0:0:0:0:
320,192,207120,1,0,0:0:0:0:
448,192,207180,1,0,0:0:0:0:
320,192,207240,1,0,0:0:0:0:
448,192,207300,1,0,0:0:0:0:
64,192,207360,1,0,0:0:0:0:
192,192,207360,1,0,0:0:0:0:
320,192,207420,1,0,0:0:0:0:
448,192,207420,1,0,0:0:0:0:
64,192,207480,1,0,0:0:0:0:
192,192,207480,1,0,0:0:0:0:
192,192,207600,1,0,0:0:0:0:
320,192,207600,1,0,0:0:0:0:
64,192,207720,1,0,0:0:0:0:
448,192,207720,1,0,0:0:0:0:
320,192,207840,1,0,0:0:0:0:
448,192,207840,1,0,0:0:0:0:
192,192,207960,1,0,0:0:0:0:
320,192,208080,1,0,0:0:0:0:
64,192,208110,1,0,0:0:0:0:
448,192,208155,1,0,0:0:0:0:
192,192,208185,1,0,0:0:0:0:
64,192,208220,1,0,0:0:0:0:
320,192,208245,1,0,0:0:0:0:
448,192,208290,1,0,0:0:0:0:
64,192,208320,1,0,0:0:0:0:
192,192,208320,1,0,0:0:0:0:
320,192,208380,1,0,0:0:0:0:
192,192,208440,1,0,0:0:0:0:
448,192,208500,1,0,0:0:0:0:
64,192,208560,1,0,0:0:0:0:
320,192,208560,1,0,0:0:0:0:
448,192,208620,1,0,0:0:0:0:
192,192,208680,1,0,0:0:0:0:
64,192,208740,1,0,0:0:0:0:
192,192,208800,1,0,0:0:0:0:
320,192,208800,1,0,0:0:0:0:
64,192,208860,1,0,0:0:0:0:
448,192,208920,1,0,0:0:0:0:
320,192,208980,1,0,0:0:0:0:
192,192,209040,1,0,0:0:0:0:
448,192,209040,1,0,0:0:0:0:
320,192,209100,1,0,0:0:0:0:
192,192,209160,1,0,0:0:0:0:
64,192,209220,1,0,0:0:0:0:
320,192,209280,1,0,0:0:0:0:
448,192,209280,1,0,0:0:0:0:
64,192,209340,1,0,0:0:0:0:
320,192,209400,1,0,0:0:0:0:
192,192,209460,1,0,0:0:0:0:
64,192,209520,1,0,0:0:0:0:
448,192,209520,1,0,0:0:0:0:
192,192,209580,1,0,0:0:0:0:
320,192,209640,1,0,0:0:0:0:
448,192,209700,1,0,0:0:0:0:
64,192,209760,1,0,0:0:0:0:
192,192,209760,1,0,0:0:0:0:
448,192,209820,1,0,0:0:0:0:
192,192,209880,1,0,0:0:0:0:
320,192,209940,1,0,0:0:0:0:
64,192,210000,1,0,0:0:0:0:
448,192,210000,1,0,0:0:0:0:
320,192,210060,1,0,0:0:0:0:
192,192,210120,1,0,0:0:0:0:
64,192,210180,1,0,0:0:0:0:
192,192,210240,1,0,0:0:0:0:
320,192,210240,1,0,0:0:0:0:
64,192,210300,1,0,0:0:0:0:
320,192,210360,1,0,0:0:0:0:
448,192,210420,1,0,0:0:0:0:
64,192,210480,1,0,0:0:0:0:
192,192,210480,1,0,0:0:0:0:
448,192,210540,1,0,0:0:0:0:
64,192,210600,1,0,0:0:0:0:
320,192,210660,1,0,0:0:0:0:
192,192,210720,1,0,0:0:0:0:
448,192,210720,1,0,0:0:0:0:
320,192,210780,1,0,0:0:0:0:
192,192,210840,1,0,0:0:0:0:
64,192,210900,1,0,0:0:0:0:
320,192,210960,1,0,0:0:0:0:
448,192,210960,1,0,0:0:0:0:
64,192,211020,1,0,0:0:0:0:
448,192,211080,1,0,0:0:0:0:
192,192,211140,1,0,0:0:0:0:
64,192,211200,1,0,0:0:0:0:
320,192,211200,1,0,0:0:0:0:
192,192,211260,1,0,0:0:0:0:
320,192,211320,1,0,0:0:0:0:
448,192,211380,1,0,0:0:0:0:
64,192,211440,1,0,0:0:0:0:
192,192,211440,1,0,0:0:0:0:
448,192,211500,1,0,0:0:0:0:
192,192,211560,1,0,0:0:0:0:
320,192,211620,1,0,0:0:0:0:
64,192,211680,1,0,0:0:0:0:
448,192,211680,1,0,0:0:0:0:
320,192,211740,1,0,0:0:0:0:
448,192,211800,1,0,0:0:0:0:
64,192,211860,1,0,0:0:0:0:
192,192,211920,1,0,0:0:0:0:
320,192,211950,1,0,0:0:0:0:
448,192,211995,1,0,0:0:0:0:
64,192,212025,1,0,0:0:0:0:
192,192,212060,1,0,0:0:0:0:
448,192,212085,1,0,0:0:0:0:
320,192,212130,1,0,0:0:0:0:
64,192,212160,1,0,0:0:0:0:
192,192,212160,1,0,0:0:0:0:
448,192,212220,1,0,0:0:0:0:
64,192,212280,1,0,0:0:0:0:
320,192,212340,1,0,0:0:0:0:
192,192,212400,1,0,0:0:0:0:
448,192,212400,1,0,0:0:0:0:
320,192,212460,1,0,0:0:0:0:
192,192,212520,1,0,0:0:0:0:
64,192,212580,1,0,0:0:0:0:
320,192,212640,1,0,0:0:0:0:
448,192,212640,1,0,0:0:0:0:
64,192,212700,1,0,0:0:0:0:
192,192,212760,1,0,0:0:0:0:
448,192,212820,1,0,0:0:0:0:
192,192,212880,1,0,0:0:0:0:
320,192,212880,1,0,0:0:0:0:
448,192,212940,1,0,0:0:0:0:
320,192,213000,1,0,0:0:0:0:
64,192,213060,1,0,0:0:0:0:
192,192,213120,1,0,0:0:0:0:
448,192,213120,1,0,0:0:0:0:
64,192,213180,1,0,0:0:0:0:
448,192,213240,1,0,0:0:0:0:
192,192,213300,1,0,0:0:0:0:
64,192,213360,1,0,0:0:0:0:
320,192,213360,1,0,0:0:0:0:
192,192,213420,1,0,0:0:0:0:
64,192,213480,1,0,0:0:0:0:
320,192,213540,1,0,0:0:0:0:
192,192,213600,1,0,0:0:0:0:
448,192,213600,1,0,0:0:0:0:
320,192,213660,1,0,0:0:0:0:
192,192,213720,1,0,0:0:0:0:
448,192,213780,1,0,0:0:0:0:
64,192,213840,1,0,0:0:0:0:
320,192,213840,1,0,0:0:0:0:
192,192,213960,1,0,0:0:0:0:
448,192,213960,1,0,0:0:0:0:
64,192,214080,1,0,0:0:0:0:
192,192,214080,1,0,0:0:0:0:
320,192,214080,1,0,0:0:0:0:
64,192,214200,1,0,0:0:0:0:
320,192,214200,1,0,0:0:0:0:
192,192,214320,1,0,0:0:0:0:
64,192,214440,1,0,0:0:0:0:
320,192,214440,1,0,0:0:0:0:
448,192,214440,1,0,0:0:0:0:
64,192,214560,1,0,0:0:0:0:
448,192,214560,1,0,0:0:0:0:
320,192,214680,1,0,0:0:0:0:
64,192,214800,1,0,0:0:0:0:
192,192,214800,1,0,0:0:0:0:
448,192,214800,1,0,0:0:0:0:
192,192,214920,1,0,0:0:0:0:
448,192,214920,1,0,0:0:0:0:
64,192,215040,1,0,0:0:0:0:
192,192,215100,1,0,0:0:0:0:
64,192,215160,1,0,0:0:0:0:
320,192,215160,1,0,0:0:0:0:
448,192,215160,1,0,0:0:0:0:
64,192,215280,1,0,0:0:0:0:
320,192,215280,1,0,0:0:0:0:
448,192,215400,1,0,0:0:0:0:
64,192,215520,1,0,0:0:0:0:
192,192,215520,1,0,0:0:0:0:
320,192,215520,1,0,0:0:0:0:
64,192,215640,1,0,0:0:0:0:
320,192,215640,1,0,0:0:0:0:
192,192,215760,1,0,0:0:0:0:
448,192,215760,1,0,0:0:0:0:
64,192,215880,1,0,0:0:0:0:
192,192,215880,1,0,0:0:0:0:
64,192,216000,1,0,0:0:0:0:
320,192,216000,1,0,0:0:0:0:
448,192,216000,1,0,0:0:0:0:
