osu file format v14

[General]
AudioFilename: audio.mp3
AudioLeadIn: 0
PreviewTime: 261533
Countdown: 0
SampleSet: Soft
StackLeniency: 0.7
Mode: 3
LetterboxInBreaks: 0
SpecialStyle: 0
WidescreenStoryboard: 0

[Editor]
Bookmarks: 200,10866,21533,42866,64199,85533,106852,128199,138866,149533,170866,192199,194866,216199,226866,237533,248199,258866,261533,282866,304199,325533,346866,368199,389533
DistanceSpacing: 1.2
BeatDivisor: 4
GridSize: 16
TimelineZoom: 2.35

[Metadata]
Title:Fragile... (2011 Mix)
TitleUnicode:Fragile... (2011 Mix)
Artist:LV.4
ArtistUnicode:LV.4
Creator:Blue_Potion
Version:Fantasy
Source:
Tags:CODE-49, C81, comiket 81, comic market, A.D.2995, 49CD-0009, Electronic, Instrumental, TRANCE, HARDCORE, angki, marathon, Jumpstream, js, Stamina, Endurance, j-core, jcore, techno
BeatmapID:2347438
BeatmapSetID:1123359

[Difficulty]
HPDrainRate:8
CircleSize:4
OverallDifficulty:8
ApproachRate:6
SliderMultiplier:1.4
SliderTickRate:1

[Events]
//Background and Video events
0,0,"BG.jpg",0,0
//Break Periods
//Storyboard Layer 0 (Background)
//Storyboard Layer 1 (Fail)
//Storyboard Layer 2 (Pass)
//Storyboard Layer 3 (Foreground)
//Storyboard Layer 4 (Overlay)
//Storyboard Sound Samples
Sample,42685,0,"hithat.wav",100
Sample,85352,0,"hithat.wav",100
Sample,86352,0,"hithat.wav",100
Sample,87685,0,"hithat.wav",100
Sample,89019,0,"hithat.wav",100
Sample,91685,0,"hithat.wav",100
Sample,93019,0,"hithat.wav",100
Sample,94352,0,"hithat.wav",100
Sample,97019,0,"hithat.wav",100
Sample,98352,0,"hithat.wav",100
Sample,99685,0,"hithat.wav",100
Sample,102352,0,"hithat.wav",100
Sample,103685,0,"hithat.wav",100
Sample,107685,0,"hithat.wav",100
Sample,109019,0,"hithat.wav",100
Sample,110352,0,"hithat.wav",100
Sample,113019,0,"hithat.wav",100
Sample,114352,0,"hithat.wav",100
Sample,115685,0,"hithat.wav",100
Sample,118352,0,"hithat.wav",100
Sample,119685,0,"hithat.wav",100
Sample,121019,0,"hithat.wav",100
Sample,125685,0,"hithat.wav",100
Sample,126019,0,"hithat.wav",100
Sample,301685,0,"hithat.wav",100
Sample,302019,0,"hithat.wav",100
Sample,302352,0,"hithat.wav",100
Sample,302685,0,"hithat.wav",100
Sample,323019,0,"hithat.wav",100
Sample,323352,0,"hithat.wav",100
Sample,323685,0,"hithat.wav",100
Sample,324019,0,"hithat.wav",100
Sample,346685,0,"hithat.wav",100
Sample,365685,0,"hithat.wav",100
Sample,366019,0,"hithat.wav",100
Sample,366352,0,"hithat.wav",100
Sample,366685,0,"hithat.wav",100
Sample,368019,0,"hithat.wav",100
Sample,389352,0,"hithat.wav",100

[TimingPoints]
178,333.333333333333,4,2,1,60,1,0
194844,-100,4,2,1,20,0,0
197511,-100,4,2,1,25,0,0
200177,-100,4,2,1,30,0,0
202844,-100,4,2,1,35,0,0
205511,-100,4,2,1,40,0,0
208177,-100,4,2,1,45,0,0
210844,-100,4,2,1,50,0,0
213511,-100,4,2,1,55,0,0
216177,-100,4,2,1,60,0,0
261511,-100,4,2,1,60,0,1
325511,-100,4,2,1,60,0,0

[HitObjects]
192,192,178,5,4,0:0:0:0:
320,192,178,1,0,0:0:0:0:
64,192,511,1,0,0:0:0:0:
192,192,511,1,0,0:0:0:0:
320,192,761,1,0,0:0:0:0:
448,192,844,1,0,0:0:0:0:
320,192,1177,1,0,0:0:0:0:
192,192,1177,1,0,0:0:0:0:
64,192,1427,1,0,0:0:0:0:
192,192,1511,1,0,0:0:0:0:
320,192,1844,1,0,0:0:0:0:
448,192,1844,1,0,0:0:0:0:
192,192,2094,1,0,0:0:0:0:
64,192,2177,1,0,0:0:0:0:
320,192,2427,1,0,0:0:0:0:
64,192,2511,1,0,0:0:0:0:
448,192,2511,1,0,0:0:0:0:
192,192,2677,1,0,0:0:0:0:
320,192,2761,1,0,0:0:0:0:
192,192,2844,1,0,0:0:0:0:
64,192,3177,1,0,0:0:0:0:
448,192,3177,1,0,0:0:0:0:
192,192,3427,1,0,0:0:0:0:
320,192,3511,1,0,0:0:0:0:
64,192,3844,1,0,0:0:0:0:
192,192,3844,1,0,0:0:0:0:
448,192,4094,1,0,0:0:0:0:
64,192,4177,1,0,0:0:0:0:
192,192,4511,1,0,0:0:0:0:
320,192,4511,1,0,0:0:0:0:
448,192,4677,1,0,0:0:0:0:
64,192,4761,1,0,0:0:0:0:
320,192,4844,1,0,0:0:0:0:
64,192,4927,1,0,0:0:0:0:
448,192,5011,1,0,0:0:0:0:
192,192,5177,1,0,0:0:0:0:
320,192,5177,1,0,0:0:0:0:
448,192,5344,1,0,0:0:0:0:
64,192,5427,1,0,0:0:0:0:
448,192,5511,1,0,0:0:0:0:
448,192,5844,1,0,0:0:0:0:
320,192,5844,1,0,0:0:0:0:
192,192,6094,1,0,0:0:0:0:
64,192,6177,1,0,0:0:0:0:
192,192,6511,1,0,0:0:0:0:
320,192,6511,1,0,0:0:0:0:
448,192,6761,1,0,0:0:0:0:
320,192,6844,1,0,0:0:0:0:
192,192,7177,1,0,0:0:0:0:
64,192,7177,1,0,0:0:0:0:
320,192,7427,1,0,0:0:0:0:
448,192,7511,1,0,0:0:0:0:
192,192,7761,1,0,0:0:0:0:
448,192,7844,1,0,0:0:0:0:
64,192,7844,1,0,0:0:0:0:
320,192,8011,1,0,0:0:0:0:
192,192,8094,1,0,0:0:0:0:
320,192,8177,1,0,0:0:0:0:
448,192,8511,1,0,0:0:0:0:
64,192,8511,1,0,0:0:0:0:
320,192,8761,1,0,0:0:0:0:
192,192,8844,1,0,0:0:0:0:
448,192,9177,1,0,0:0:0:0:
320,192,9177,1,0,0:0:0:0:
64,192,9427,1,0,0:0:0:0:
448,192,9511,1,0,0:0:0:0:
320,192,9844,1,0,0:0:0:0:
192,192,9844,1,0,0:0:0:0:
64,192,10011,1,0,0:0:0:0:
448,192,10094,1,0,0:0:0:0:
192,192,10177,1,0,0:0:0:0:
448,192,10261,1,0,0:0:0:0:
64,192,10344,1,0,0:0:0:0:
320,192,10511,1,0,0:0:0:0:
192,192,10511,1,0,0:0:0:0:
64,192,10677,1,0,0:0:0:0:
448,192,10761,1,0,0:0:0:0:
192,192,10844,1,2,0:0:0:0:
320,192,10844,1,4,0:0:0:0:
64,192,10844,1,0,0:0:0:0:
320,192,11177,1,2,0:0:0:0:
64,192,11177,1,0,0:0:0:0:
192,192,11427,1,0,0:0:0:0:
320,192,11511,1,2,0:0:0:0:
448,192,11511,1,0,0:0:0:0:
448,192,11844,1,2,0:0:0:0:
192,192,11844,1,0,0:0:0:0:
320,192,12094,1,0,0:0:0:0:
192,192,12177,1,2,0:0:0:0:
64,192,12177,1,0,0:0:0:0:
448,192,12511,1,2,0:0:0:0:
64,192,12511,1,0,0:0:0:0:
192,192,12761,1,0,0:0:0:0:
448,192,12844,1,2,0:0:0:0:
320,192,12844,1,0,0:0:0:0:
192,192,13177,1,2,0:0:0:0:
320,192,13177,1,0,0:0:0:0:
448,192,13344,1,2,0:0:0:0:
64,192,13344,1,0,0:0:0:0:
320,192,13427,1,0,0:0:0:0:
192,192,13511,1,2,0:0:0:0:
64,192,13511,1,0,0:0:0:0:
320,192,13844,1,2,0:0:0:0:
64,192,13844,1,0,0:0:0:0:
192,192,14094,1,0,0:0:0:0:
448,192,14177,1,2,0:0:0:0:
320,192,14177,1,0,0:0:0:0:
192,192,14511,1,2,0:0:0:0:
448,192,14511,1,0,0:0:0:0:
320,192,14761,1,0,0:0:0:0:
192,192,14844,1,2,0:0:0:0:
64,192,14844,1,0,0:0:0:0:
448,192,15177,1,2,0:0:0:0:
64,192,15177,1,0,0:0:0:0:
320,192,15427,1,0,0:0:0:0:
192,192,15511,1,2,0:0:0:0:
64,192,15511,1,0,0:0:0:0:
448,192,15594,1,2,0:0:0:0:
320,192,15594,1,0,0:0:0:0:
192,192,15677,1,2,0:0:0:0:
64,192,15677,1,0,0:0:0:0:
320,192,15844,1,2,0:0:0:0:
192,192,15844,1,0,0:0:0:0:
448,192,16011,1,2,0:0:0:0:
320,192,16011,1,0,0:0:0:0:
64,192,16094,1,0,0:0:0:0:
192,192,16177,1,2,0:0:0:0:
448,192,16177,1,0,0:0:0:0:
448,192,16511,1,2,0:0:0:0:
64,192,16511,1,0,0:0:0:0:
192,192,16761,1,0,0:0:0:0:
448,192,16844,1,2,0:0:0:0:
320,192,16844,1,0,0:0:0:0:
320,192,17177,1,2,0:0:0:0:
192,192,17177,1,0,0:0:0:0:
448,192,17427,1,0,0:0:0:0:
192,192,17511,1,2,0:0:0:0:
64,192,17511,1,0,0:0:0:0:
320,192,17844,1,2,0:0:0:0:
64,192,17844,1,0,0:0:0:0:
192,192,18094,1,0,0:0:0:0:
448,192,18177,1,2,0:0:0:0:
320,192,18177,1,0,0:0:0:0:
448,192,18511,1,2,0:0:0:0:
192,192,18511,1,0,0:0:0:0:
192,192,18677,1,2,0:0:0:0:
64,192,18677,1,0,0:0:0:0:
448,192,18761,1,0,0:0:0:0:
320,192,18844,1,0,0:0:0:0:
64,192,18844,1,2,0:0:0:0:
320,192,19177,1,2,0:0:0:0:
192,192,19177,1,0,0:0:0:0:
448,192,19427,1,0,0:0:0:0:
192,192,19511,1,2,0:0:0:0:
64,192,19511,1,0,0:0:0:0:
448,192,19844,1,2,0:0:0:0:
64,192,19844,1,0,0:0:0:0:
192,192,20094,1,0,0:0:0:0:
320,192,20177,1,2,0:0:0:0:
448,192,20177,1,0,0:0:0:0:
320,192,20511,1,2,0:0:0:0:
64,192,20511,1,0,0:0:0:0:
448,192,20761,1,0,0:0:0:0:
64,192,20844,1,2,0:0:0:0:
192,192,20886,1,2,0:0:0:0:
320,192,20927,1,2,0:0:0:0:
448,192,20969,1,2,0:0:0:0:
192,192,21011,1,2,0:0:0:0:
64,192,21011,1,0,0:0:0:0:
448,192,21177,1,2,0:0:0:0:
320,192,21177,1,0,0:0:0:0:
320,192,21344,1,2,0:0:0:0:
64,192,21344,1,0,0:0:0:0:
192,192,21427,1,0,0:0:0:0:
64,192,21511,1,2,0:0:0:0:
320,192,21511,1,4,0:0:0:0:
448,192,21511,1,0,0:0:0:0:
192,192,21677,128,0,21844:0:0:0:100:hithat.wav
64,192,21844,1,2,0:0:0:0:
448,192,21844,1,0,0:0:0:0:
320,192,22011,128,0,22177:0:0:0:100:hithat.wav
64,192,22177,1,2,0:0:0:0:
192,192,22177,1,0,0:0:0:0:
448,192,22344,128,0,22511:0:0:0:100:hithat.wav
192,192,22511,1,2,0:0:0:0:
320,192,22511,1,0,0:0:0:0:
64,192,22677,128,0,22844:0:0:0:100:hithat.wav
320,192,22844,1,2,0:0:0:0:
448,192,22844,1,0,0:0:0:0:
192,192,23011,128,0,23177:0:0:0:100:hithat.wav
320,192,23177,1,2,0:0:0:0:
448,192,23177,1,0,0:0:0:0:
64,192,23344,128,0,23511:0:0:0:100:hithat.wav
192,192,23511,1,2,0:0:0:0:
448,192,23511,1,0,0:0:0:0:
320,192,23677,128,0,23844:0:0:0:100:hithat.wav
64,192,23844,1,2,0:0:0:0:
448,192,23844,1,0,0:0:0:0:
64,192,24011,1,2,0:0:0:0:
192,192,24011,1,0,0:0:0:100:hithat.wav
320,192,24177,1,2,0:0:0:0:
448,192,24177,1,0,0:0:0:0:
64,192,24344,128,0,24511:0:0:0:100:hithat.wav
192,192,24511,1,2,0:0:0:0:
320,192,24511,1,0,0:0:0:0:
448,192,24677,128,0,24844:0:0:0:100:hithat.wav
64,192,24844,1,2,0:0:0:0:
320,192,24844,1,0,0:0:0:0:
192,192,25011,128,0,25177:0:0:0:100:hithat.wav
64,192,25177,1,2,0:0:0:0:
448,192,25177,1,0,0:0:0:0:
320,192,25344,128,0,25511:0:0:0:100:hithat.wav
64,192,25511,1,2,0:0:0:0:
192,192,25511,1,0,0:0:0:0:
448,192,25677,128,0,25844:0:0:0:100:hithat.wav
192,192,25844,1,2,0:0:0:0:
320,192,25844,1,0,0:0:0:0:
64,192,26011,128,0,26177:0:0:0:100:hithat.wav
320,192,26177,1,2,0:0:0:0:
448,192,26177,1,0,0:0:0:0:
64,192,26261,1,2,0:0:0:0:
192,192,26261,1,0,0:0:0:0:
320,192,26344,1,2,0:0:0:0:
448,192,26344,1,0,0:0:0:100:hithat.wav
64,192,26511,1,2,0:0:0:0:
448,192,26511,1,0,0:0:0:0:
192,192,26677,1,2,0:0:0:0:
320,192,26677,1,0,0:0:0:100:hithat.wav
64,192,26844,1,2,0:0:0:0:
192,192,26844,1,0,0:0:0:0:
448,192,27011,128,0,27177:0:0:0:100:hithat.wav
192,192,27177,1,2,0:0:0:0:
320,192,27177,1,0,0:0:0:0:
64,192,27344,128,0,27511:0:0:0:100:hithat.wav
320,192,27511,1,2,0:0:0:0:
448,192,27511,1,0,0:0:0:0:
192,192,27677,128,0,27844:0:0:0:100:hithat.wav
64,192,27844,1,2,0:0:0:0:
448,192,27844,1,0,0:0:0:0:
320,192,28011,128,0,28177:0:0:0:100:hithat.wav
192,192,28177,1,2,0:0:0:0:
448,192,28177,1,0,0:0:0:0:
64,192,28344,128,0,28511:0:0:0:100:hithat.wav
192,192,28511,1,2,0:0:0:0:
320,192,28511,1,0,0:0:0:0:
448,192,28677,128,0,28844:0:0:0:100:hithat.wav
64,192,28844,1,2,0:0:0:0:
320,192,28844,1,0,0:0:0:0:
192,192,29011,128,0,29177:0:0:0:100:hithat.wav
64,192,29177,1,2,0:0:0:0:
320,192,29177,1,0,0:0:0:0:
320,192,29344,1,2,0:0:0:0:
448,192,29344,1,0,0:0:0:100:hithat.wav
192,192,29511,1,2,0:0:0:0:
448,192,29511,1,0,0:0:0:0:
64,192,29677,128,0,29844:0:0:0:100:hithat.wav
192,192,29844,1,2,0:0:0:0:
320,192,29844,1,0,0:0:0:0:
448,192,30011,128,0,30177:0:0:0:100:hithat.wav
64,192,30177,1,2,0:0:0:0:
320,192,30177,1,0,0:0:0:0:
192,192,30344,128,0,30511:0:0:0:100:hithat.wav
64,192,30511,1,2,0:0:0:0:
448,192,30511,1,0,0:0:0:0:
320,192,30677,128,0,30844:0:0:0:100:hithat.wav
192,192,30844,1,2,0:0:0:0:
448,192,30844,1,0,0:0:0:0:
64,192,31011,128,0,31177:0:0:0:100:hithat.wav
192,192,31177,1,2,0:0:0:0:
320,192,31177,1,0,0:0:0:0:
448,192,31344,128,0,31511:0:0:0:100:hithat.wav
64,192,31511,1,2,0:0:0:0:
192,192,31552,1,2,0:0:0:0:
320,192,31594,1,2,0:0:0:0:
448,192,31636,1,2,0:0:0:0:
64,192,31677,1,2,0:0:0:0:
192,192,31677,1,0,0:0:0:100:hithat.wav
192,192,31844,1,2,0:0:0:0:
320,192,31844,1,0,0:0:0:0:
320,192,32011,1,2,0:0:0:0:
448,192,32011,1,0,0:0:0:100:hithat.wav
64,192,32177,1,2,0:0:0:0:
192,192,32177,1,4,0:0:0:0:
448,192,32177,1,0,0:0:0:0:
320,192,32344,128,0,32511:0:0:0:100:hithat.wav
192,192,32511,1,2,0:0:0:0:
448,192,32511,1,0,0:0:0:0:
64,192,32677,128,0,32844:0:0:0:100:hithat.wav
192,192,32844,1,2,0:0:0:0:
320,192,32844,1,0,0:0:0:0:
448,192,33011,128,0,33177:0:0:0:100:hithat.wav
64,192,33177,1,2,0:0:0:0:
192,192,33177,1,0,0:0:0:0:
320,192,33344,128,0,33511:0:0:0:100:hithat.wav
64,192,33511,1,2,0:0:0:0:
448,192,33511,1,0,0:0:0:0:
192,192,33677,128,0,33844:0:0:0:100:hithat.wav
320,192,33844,1,2,0:0:0:0:
448,192,33844,1,0,0:0:0:0:
64,192,34011,128,0,34177:0:0:0:100:hithat.wav
192,192,34177,1,2,0:0:0:0:
448,192,34177,1,0,0:0:0:0:
320,192,34344,128,0,34511:0:0:0:100:hithat.wav
64,192,34511,1,2,0:0:0:0:
192,192,34511,1,0,0:0:0:0:
192,192,34677,1,2,0:0:0:0:
320,192,34677,1,0,0:0:0:100:hithat.wav
320,192,34844,1,2,0:0:0:0:
448,192,34844,1,0,0:0:0:0:
64,192,35011,128,0,35177:0:0:0:100:hithat.wav
192,192,35177,1,2,0:0:0:0:
320,192,35177,1,0,0:0:0:0:
448,192,35344,128,0,35511:0:0:0:100:hithat.wav
64,192,35511,1,2,0:0:0:0:
320,192,35511,1,0,0:0:0:0:
192,192,35677,128,0,35844:0:0:0:100:hithat.wav
64,192,35844,1,2,0:0:0:0:
448,192,35844,1,0,0:0:0:0:
320,192,36011,128,0,36177:0:0:0:100:hithat.wav
192,192,36177,1,2,0:0:0:0:
448,192,36177,1,0,0:0:0:0:
64,192,36344,128,0,36511:0:0:0:100:hithat.wav
192,192,36511,1,2,0:0:0:0:
448,192,36511,1,0,0:0:0:0:
320,192,36677,128,0,36844:0:0:0:100:hithat.wav
64,192,36844,1,2,0:0:0:0:
192,192,36844,1,0,0:0:0:0:
320,192,36927,1,2,0:0:0:0:
448,192,36927,1,0,0:0:0:0:
64,192,37011,1,2,0:0:0:0:
192,192,37011,1,0,0:0:0:100:hithat.wav
320,192,37177,1,2,0:0:0:0:
448,192,37177,1,0,0:0:0:0:
192,192,37344,1,2,0:0:0:0:
320,192,37344,1,0,0:0:0:100:hithat.wav
64,192,37511,1,0,0:0:0:0:
192,192,37677,128,0,37844:0:0:0:100:hithat.wav
320,192,37844,1,0,0:0:0:0:
448,192,38011,128,0,38177:0:0:0:100:hithat.wav
320,192,38177,1,0,0:0:0:0:
64,192,38344,128,0,38511:0:0:0:100:hithat.wav
192,192,38511,1,0,0:0:0:0:
320,192,38677,128,0,38844:0:0:0:100:hithat.wav
64,192,38844,1,0,0:0:0:0:
192,192,39011,128,0,39177:0:0:0:100:hithat.wav
448,192,39177,1,0,0:0:0:0:
64,192,39344,128,0,39511:0:0:0:100:hithat.wav
320,192,39511,1,0,0:0:0:0:
448,192,39677,128,0,39844:0:0:0:100:hithat.wav
64,192,39844,1,0,0:0:0:0:
320,192,40011,128,0,40177:0:0:0:100:hithat.wav
448,192,40177,1,2,0:0:0:0:
64,192,40177,1,0,0:0:0:0:
192,192,40344,1,2,0:0:0:0:
64,192,40344,1,0,0:0:0:100:hithat.wav
192,192,40511,1,2,0:0:0:0:
320,192,40511,1,0,0:0:0:0:
320,192,40677,1,2,0:0:0:0:
448,192,40677,1,0,0:0:0:100:hithat.wav
448,192,40844,1,2,0:0:0:0:
192,192,40844,1,0,0:0:0:0:
64,192,41011,1,2,0:0:0:0:
192,192,41011,1,0,0:0:0:100:hithat.wav
64,192,41177,1,2,0:0:0:0:
320,192,41177,1,0,0:0:0:0:
320,192,41344,1,2,0:0:0:0:
448,192,41344,1,0,0:0:0:100:hithat.wav
64,192,41511,1,2,0:0:0:0:
192,192,41511,1,0,0:0:0:0:
320,192,41594,1,2,0:0:0:0:
448,192,41594,1,0,0:0:0:0:
64,192,41677,1,2,0:0:0:0:
192,192,41677,1,0,0:0:0:100:hithat.wav
320,192,41761,1,2,0:0:0:0:
448,192,41761,1,0,0:0:0:0:
64,192,41844,1,2,0:0:0:0:
192,192,41844,1,0,0:0:0:0:
320,192,41927,1,2,0:0:0:0:
448,192,41927,1,0,0:0:0:0:
64,192,42011,1,2,0:0:0:0:
192,192,42011,1,0,0:0:0:100:hithat.wav
320,192,42094,1,2,0:0:0:0:
448,192,42094,1,0,0:0:0:0:
64,192,42177,1,0,0:0:0:0:
192,192,42261,1,0,0:0:0:0:
320,192,42344,1,0,0:0:0:100:hithat.wav
448,192,42427,1,0,0:0:0:0:
64,192,42511,1,2,0:0:0:40:
192,192,42552,1,2,0:0:0:40:
320,192,42594,1,2,0:0:0:40:
448,192,42636,1,2,0:0:0:40:
64,192,42677,1,2,0:0:0:40:
192,192,42719,1,2,0:0:0:40:
320,192,42761,1,2,0:0:0:40:
448,192,42802,1,2,0:0:0:40:
64,192,42844,1,2,0:0:0:0:
192,192,42844,1,4,0:0:0:0:
320,192,42927,1,0,0:0:0:0:
448,192,43011,1,0,0:0:0:100:hithat.wav
320,192,43177,1,2,0:0:0:0:
448,192,43177,1,0,0:0:0:0:
192,192,43261,1,0,0:0:0:0:
64,192,43344,1,0,0:0:0:100:hithat.wav
64,192,43511,1,2,0:0:0:0:
192,192,43511,1,0,0:0:0:0:
320,192,43594,1,0,0:0:0:0:
448,192,43677,1,0,0:0:0:100:hithat.wav
320,192,43844,1,2,0:0:0:0:
448,192,43844,1,0,0:0:0:0:
192,192,43927,1,0,0:0:0:0:
64,192,44011,1,0,0:0:0:100:hithat.wav
448,192,44177,1,2,0:0:0:0:
64,192,44177,1,0,0:0:0:0:
192,192,44261,1,0,0:0:0:0:
320,192,44344,1,0,0:0:0:100:hithat.wav
448,192,44511,1,2,0:0:0:0:
64,192,44511,1,0,0:0:0:0:
320,192,44594,1,0,0:0:0:0:
192,192,44677,1,0,0:0:0:100:hithat.wav
64,192,44844,1,2,0:0:0:0:
448,192,44844,1,0,0:0:0:0:
192,192,44927,1,0,0:0:0:0:
320,192,45011,1,0,0:0:0:100:hithat.wav
64,192,45177,1,2,0:0:0:0:
448,192,45177,1,0,0:0:0:0:
192,192,45344,1,2,0:0:0:0:
320,192,45344,1,0,0:0:0:100:hithat.wav
64,192,45511,1,2,0:0:0:0:
448,192,45511,1,0,0:0:0:0:
192,192,45594,1,0,0:0:0:0:
320,192,45677,1,0,0:0:0:100:hithat.wav
448,192,45844,1,2,0:0:0:0:
64,192,45844,1,0,0:0:0:0:
320,192,45927,1,0,0:0:0:0:
192,192,46011,1,0,0:0:0:100:hithat.wav
448,192,46177,1,0,0:0:0:0:
64,192,46177,1,2,0:0:0:0:
192,192,46261,1,0,0:0:0:0:
320,192,46344,1,0,0:0:0:100:hithat.wav
64,192,46511,1,2,0:0:0:0:
448,192,46511,1,0,0:0:0:0:
320,192,46594,1,0,0:0:0:0:
192,192,46677,1,0,0:0:0:100:hithat.wav
64,192,46844,1,2,0:0:0:0:
320,192,46844,1,0,0:0:0:0:
192,192,46927,1,0,0:0:0:0:
320,192,47011,1,0,0:0:0:100:hithat.wav
192,192,47177,1,2,0:0:0:0:
448,192,47177,1,0,0:0:0:0:
320,192,47261,1,0,0:0:0:0:
192,192,47344,1,0,0:0:0:100:hithat.wav
64,192,47511,1,2,0:0:0:0:
192,192,47511,1,0,0:0:0:0:
320,192,47594,1,2,0:0:0:0:
448,192,47594,1,0,0:0:0:0:
64,192,47677,1,2,0:0:0:0:
192,192,47677,1,0,0:0:0:100:hithat.wav
320,192,47844,1,2,0:0:0:0:
448,192,47844,1,0,0:0:0:0:
64,192,48011,1,2,0:0:0:0:
320,192,48011,1,0,0:0:0:100:hithat.wav
192,192,48177,1,2,0:0:0:0:
448,192,48177,1,0,0:0:0:0:
320,192,48261,1,0,0:0:0:0:
192,192,48344,1,0,0:0:0:100:hithat.wav
64,192,48511,1,2,0:0:0:0:
320,192,48511,1,0,0:0:0:0:
192,192,48594,1,0,0:0:0:0:
320,192,48677,1,0,0:0:0:100:hithat.wav
192,192,48844,1,2,0:0:0:0:
448,192,48844,1,0,0:0:0:0:
320,192,48927,1,0,0:0:0:0:
192,192,49011,1,0,0:0:0:100:hithat.wav
64,192,49177,1,2,0:0:0:0:
320,192,49177,1,0,0:0:0:0:
192,192,49261,1,0,0:0:0:0:
320,192,49344,1,0,0:0:0:100:hithat.wav
64,192,49511,1,2,0:0:0:0:
448,192,49511,1,0,0:0:0:0:
192,192,49594,1,0,0:0:0:0:
320,192,49677,1,0,0:0:0:100:hithat.wav
64,192,49844,1,2,0:0:0:0:
448,192,49844,1,0,0:0:0:0:
320,192,49927,1,0,0:0:0:0:
192,192,50011,1,0,0:0:0:100:hithat.wav
448,192,50177,1,2,0:0:0:0:
64,192,50177,1,0,0:0:0:0:
192,192,50261,1,0,0:0:0:0:
320,192,50344,1,0,0:0:0:100:hithat.wav
192,192,50511,1,2,0:0:0:0:
448,192,50511,1,0,0:0:0:0:
320,192,50677,1,2,0:0:0:0:
448,192,50677,1,0,0:0:0:100:hithat.wav
64,192,50844,1,2,0:0:0:0:
320,192,50844,1,0,0:0:0:0:
192,192,50927,1,0,0:0:0:0:
64,192,51011,1,0,0:0:0:100:hithat.wav
192,192,51177,1,2,0:0:0:0:
448,192,51177,1,0,0:0:0:0:
320,192,51261,1,0,0:0:0:0:
448,192,51344,1,0,0:0:0:100:hithat.wav
320,192,51511,1,2,0:0:0:0:
64,192,51511,1,0,0:0:0:0:
192,192,51594,1,0,0:0:0:0:
64,192,51677,1,0,0:0:0:100:hithat.wav
448,192,51844,1,2,0:0:0:0:
192,192,51844,1,0,0:0:0:0:
320,192,51927,1,0,0:0:0:0:
448,192,52011,1,0,0:0:0:100:hithat.wav
64,192,52177,1,2,0:0:0:0:
192,192,52177,1,0,0:0:0:0:
320,192,52261,1,0,0:0:0:0:
448,192,52344,1,0,0:0:0:100:hithat.wav
448,192,52511,1,2,0:0:0:0:
320,192,52511,1,0,0:0:0:0:
192,192,52594,1,0,0:0:0:0:
64,192,52677,1,0,0:0:0:100:hithat.wav
64,192,52844,1,2,0:0:0:0:
192,192,52886,1,2,0:0:0:0:
448,192,52927,1,2,0:0:0:0:
320,192,52969,1,2,0:0:0:0:
64,192,53011,1,2,0:0:0:0:
192,192,53011,1,0,0:0:0:100:hithat.wav
192,192,53177,1,2,0:0:0:0:
320,192,53177,1,0,0:0:0:0:
320,192,53344,1,2,0:0:0:0:
448,192,53344,1,0,0:0:0:100:hithat.wav
192,192,53511,1,2,0:0:0:0:
448,192,53511,1,0,0:0:0:0:
64,192,53511,1,4,0:0:0:0:
320,192,53594,1,0,0:0:0:0:
192,192,53677,1,0,0:0:0:100:hithat.wav
448,192,53844,1,2,0:0:0:0:
64,192,53844,1,0,0:0:0:0:
192,192,53927,1,0,0:0:0:0:
320,192,54011,1,0,0:0:0:100:hithat.wav
64,192,54177,1,2,0:0:0:0:
448,192,54177,1,0,0:0:0:0:
320,192,54261,1,0,0:0:0:0:
192,192,54344,1,0,0:0:0:100:hithat.wav
64,192,54511,1,2,0:0:0:0:
448,192,54511,1,0,0:0:0:0:
192,192,54594,1,0,0:0:0:0:
320,192,54677,1,0,0:0:0:100:hithat.wav
320,192,54844,1,2,0:0:0:0:
448,192,54844,1,0,0:0:0:0:
192,192,54927,1,0,0:0:0:0:
64,192,55011,1,0,0:0:0:100:hithat.wav
192,192,55177,1,2,0:0:0:0:
64,192,55177,1,0,0:0:0:0:
320,192,55261,1,0,0:0:0:0:
448,192,55344,1,0,0:0:0:100:hithat.wav
320,192,55511,1,2,0:0:0:0:
448,192,55511,1,0,0:0:0:0:
192,192,55594,1,0,0:0:0:0:
64,192,55677,1,0,0:0:0:100:hithat.wav
192,192,55844,1,2,0:0:0:0:
448,192,55844,1,0,0:0:0:0:
64,192,56011,1,2,0:0:0:0:
320,192,56011,1,0,0:0:0:100:hithat.wav
192,192,56177,1,2,0:0:0:0:
448,192,56177,1,0,0:0:0:0:
320,192,56261,1,0,0:0:0:0:
192,192,56344,1,0,0:0:0:100:hithat.wav
64,192,56511,1,2,0:0:0:0:
320,192,56511,1,0,0:0:0:0:
192,192,56594,1,0,0:0:0:0:
320,192,56677,1,0,0:0:0:100:hithat.wav
192,192,56844,1,2,0:0:0:0:
448,192,56844,1,0,0:0:0:0:
320,192,56927,1,0,0:0:0:0:
192,192,57011,1,0,0:0:0:100:hithat.wav
320,192,57177,1,2,0:0:0:0:
64,192,57177,1,0,0:0:0:0:
192,192,57261,1,0,0:0:0:0:
320,192,57344,1,0,0:0:0:100:hithat.wav
448,192,57511,1,2,0:0:0:0:
192,192,57511,1,0,0:0:0:0:
320,192,57594,1,0,0:0:0:0:
448,192,57677,1,0,0:0:0:100:hithat.wav
320,192,57844,1,2,0:0:0:0:
64,192,57844,1,0,0:0:0:0:
192,192,57927,1,0,0:0:0:0:
64,192,58011,1,0,0:0:0:100:hithat.wav
192,192,58177,1,2,0:0:0:0:
64,192,58177,1,0,0:0:0:0:
320,192,58261,1,2,0:0:0:0:
448,192,58261,1,0,0:0:0:0:
64,192,58344,1,2,0:0:0:0:
192,192,58344,1,0,0:0:0:100:hithat.wav
320,192,58511,1,2,0:0:0:0:
448,192,58511,1,0,0:0:0:0:
192,192,58677,1,2,0:0:0:0:
320,192,58677,1,0,0:0:0:100:hithat.wav
64,192,58844,1,2,0:0:0:0:
192,192,58844,1,0,0:0:0:0:
320,192,58927,1,0,0:0:0:0:
448,192,59011,1,0,0:0:0:100:hithat.wav
320,192,59177,1,2,0:0:0:0:
448,192,59177,1,0,0:0:0:0:
192,192,59261,1,0,0:0:0:0:
64,192,59344,1,0,0:0:0:100:hithat.wav
192,192,59511,1,2,0:0:0:0:
64,192,59511,1,0,0:0:0:0:
320,192,59594,1,0,0:0:0:0:
448,192,59677,1,0,0:0:0:100:hithat.wav
320,192,59844,1,2,0:0:0:0:
448,192,59844,1,0,0:0:0:0:
192,192,59927,1,0,0:0:0:0:
64,192,60011,1,0,0:0:0:100:hithat.wav
192,192,60177,1,2,0:0:0:0:
448,192,60177,1,0,0:0:0:0:
320,192,60261,1,0,0:0:0:0:
448,192,60344,1,0,0:0:0:100:hithat.wav
64,192,60511,1,2,0:0:0:0:
320,192,60511,1,0,0:0:0:0:
192,192,60594,1,0,0:0:0:0:
64,192,60677,1,0,0:0:0:100:hithat.wav
192,192,60844,1,2,0:0:0:0:
448,192,60844,1,0,0:0:0:0:
320,192,60927,1,0,0:0:0:0:
448,192,61011,1,0,0:0:0:100:hithat.wav
64,192,61177,1,2,0:0:0:0:
192,192,61177,1,0,0:0:0:0:
320,192,61344,1,2,0:0:0:0:
448,192,61344,1,0,0:0:0:100:hithat.wav
192,192,61511,1,0,0:0:0:0:
64,192,61511,1,2,0:0:0:0:
320,192,61594,1,0,0:0:0:0:
448,192,61677,1,0,0:0:0:100:hithat.wav
448,192,61844,1,2,0:0:0:0:
320,192,61844,1,0,0:0:0:0:
192,192,61927,1,0,0:0:0:0:
64,192,62011,1,0,0:0:0:100:hithat.wav
192,192,62177,1,2,0:0:0:0:
64,192,62177,1,0,0:0:0:0:
320,192,62261,1,0,0:0:0:0:
448,192,62344,1,0,0:0:0:100:hithat.wav
320,192,62511,1,2,0:0:0:0:
448,192,62511,1,0,0:0:0:0:
192,192,62594,1,0,0:0:0:0:
64,192,62677,1,0,0:0:0:100:hithat.wav
64,192,62844,1,2,0:0:0:0:
448,192,62844,1,0,0:0:0:0:
320,192,62927,1,0,0:0:0:0:
192,192,63011,1,0,0:0:0:100:hithat.wav
64,192,63177,1,2,0:0:0:0:
448,192,63177,1,0,0:0:0:0:
192,192,63261,1,0,0:0:0:0:
320,192,63344,1,0,0:0:0:100:hithat.wav
64,192,63511,1,2,0:0:0:0:
192,192,63552,1,2,0:0:0:0:
448,192,63594,1,2,0:0:0:0:
320,192,63636,1,2,0:0:0:0:
64,192,63677,1,2,0:0:0:0:
192,192,63677,1,0,0:0:0:100:hithat.wav
192,192,63844,1,2,0:0:0:0:
320,192,63844,1,0,0:0:0:0:
320,192,64011,1,0,0:0:0:100:hithat.wav
448,192,64011,1,0,0:0:0:0:
64,192,64177,1,2,0:0:0:0:
192,192,64177,1,4,0:0:0:0:
448,192,64177,1,0,0:0:0:0:
320,192,64344,1,0,0:0:0:100:hithat.wav
192,192,64427,1,0,0:0:0:0:
64,192,64511,1,2,0:0:0:0:
448,192,64511,1,0,0:0:0:0:
320,192,64594,1,0,0:0:0:0:
192,192,64677,1,0,0:0:0:100:hithat.wav
448,192,64761,1,0,0:0:0:0:
64,192,64844,1,2,0:0:0:0:
320,192,64844,1,0,0:0:0:0:
192,192,64927,1,0,0:0:0:0:
320,192,65094,1,0,0:0:0:0:
192,192,65177,1,2,0:0:0:0:
448,192,65177,1,0,0:0:0:0:
64,192,65344,1,0,0:0:0:100:hithat.wav
320,192,65511,1,2,0:0:0:0:
448,192,65511,1,0,0:0:0:0:
64,192,65677,1,0,0:0:0:100:hithat.wav
192,192,65761,1,0,0:0:0:0:
320,192,65844,1,0,0:0:0:0:
448,192,65844,1,2,0:0:0:0:
64,192,65927,1,0,0:0:0:0:
192,192,66011,1,0,0:0:0:100:hithat.wav
320,192,66094,1,0,0:0:0:0:
64,192,66177,1,2,0:0:0:0:
448,192,66177,1,0,0:0:0:0:
192,192,66261,1,0,0:0:0:0:
320,192,66427,1,0,0:0:0:0:
64,192,66511,1,2,0:0:0:0:
448,192,66511,1,0,0:0:0:0:
320,192,66677,1,2,0:0:0:0:
64,192,66677,1,0,0:0:0:100:hithat.wav
192,192,66844,1,2,0:0:0:0:
448,192,66844,1,0,0:0:0:0:
320,192,67011,1,0,0:0:0:100:hithat.wav
192,192,67094,1,0,0:0:0:0:
64,192,67177,1,2,0:0:0:0:
320,192,67177,1,0,0:0:0:0:
448,192,67261,1,0,0:0:0:0:
192,192,67344,1,0,0:0:0:100:hithat.wav
320,192,67427,1,0,0:0:0:0:
192,192,67511,1,2,0:0:0:0:
448,192,67511,1,0,0:0:0:0:
64,192,67594,1,0,0:0:0:0:
448,192,67761,1,0,0:0:0:0:
64,192,67844,1,2,0:0:0:0:
320,192,67844,1,0,0:0:0:0:
448,192,68011,1,0,0:0:0:100:hithat.wav
320,192,68177,1,2,0:0:0:0:
192,192,68177,1,0,0:0:0:0:
448,192,68344,1,0,0:0:0:100:hithat.wav
320,192,68427,1,0,0:0:0:0:
64,192,68511,1,2,0:0:0:0:
192,192,68511,1,0,0:0:0:0:
448,192,68594,1,0,0:0:0:0:
64,192,68677,1,0,0:0:0:100:hithat.wav
192,192,68761,1,0,0:0:0:0:
448,192,68844,1,2,0:0:0:0:
320,192,68844,1,0,0:0:0:0:
192,192,68927,1,2,0:0:0:0:
64,192,68927,1,0,0:0:0:0:
448,192,69011,1,2,0:0:0:0:
320,192,69011,1,0,0:0:0:100:hithat.wav
320,192,69177,1,2,0:0:0:0:
64,192,69177,1,0,0:0:0:0:
192,192,69344,1,2,0:0:0:0:
448,192,69344,1,0,0:0:0:100:hithat.wav
64,192,69511,1,2,0:0:0:0:
192,192,69511,1,0,0:0:0:0:
320,192,69677,1,0,0:0:0:100:hithat.wav
192,192,69761,1,0,0:0:0:0:
64,192,69844,1,2,0:0:0:0:
320,192,69844,1,0,0:0:0:0:
448,192,69927,1,0,0:0:0:0:
64,192,70011,1,0,0:0:0:100:hithat.wav
192,192,70094,1,0,0:0:0:0:
448,192,70177,1,2,0:0:0:0:
320,192,70177,1,0,0:0:0:0:
64,192,70261,1,0,0:0:0:0:
448,192,70427,1,0,0:0:0:0:
192,192,70511,1,2,0:0:0:0:
64,192,70511,1,0,0:0:0:0:
320,192,70677,1,0,0:0:0:70:hithat.wav
64,192,70844,1,2,0:0:0:0:
448,192,70844,1,0,0:0:0:0:
192,192,71011,1,0,0:0:0:100:hithat.wav
320,192,71094,1,0,0:0:0:0:
64,192,71177,1,2,0:0:0:0:
448,192,71177,1,0,0:0:0:0:
192,192,71261,1,0,0:0:0:0:
448,192,71344,1,0,0:0:0:100:hithat.wav
320,192,71427,1,0,0:0:0:0:
192,192,71511,1,2,0:0:0:0:
64,192,71511,1,0,0:0:0:0:
448,192,71594,1,0,0:0:0:0:
64,192,71761,1,0,0:0:0:0:
320,192,71844,1,2,0:0:0:0:
448,192,71844,1,0,0:0:0:0:
192,192,72011,1,2,0:0:0:0:
320,192,72011,1,0,0:0:0:100:hithat.wav
64,192,72177,1,2,0:0:0:0:
192,192,72177,1,0,0:0:0:0:
320,192,72344,1,0,0:0:0:100:hithat.wav
448,192,72427,1,0,0:0:0:0:
192,192,72511,1,2,0:0:0:0:
64,192,72511,1,0,0:0:0:0:
448,192,72594,1,0,0:0:0:0:
320,192,72677,1,0,0:0:0:100:hithat.wav
192,192,72761,1,0,0:0:0:0:
64,192,72844,1,2,0:0:0:0:
448,192,72844,1,0,0:0:0:0:
320,192,72927,1,0,0:0:0:0:
192,192,73094,1,0,0:0:0:0:
448,192,73177,1,2,0:0:0:0:
64,192,73177,1,0,0:0:0:0:
192,192,73344,1,0,0:0:0:100:hithat.wav
448,192,73511,1,2,0:0:0:0:
320,192,73511,1,0,0:0:0:0:
192,192,73677,1,0,0:0:0:100:hithat.wav
320,192,73761,1,0,0:0:0:0:
448,192,73844,1,2,0:0:0:0:
64,192,73844,1,0,0:0:0:0:
192,192,73927,1,0,0:0:0:0:
320,192,74011,1,0,0:0:0:100:hithat.wav
64,192,74094,1,0,0:0:0:0:
448,192,74177,1,2,0:0:0:0:
320,192,74219,1,2,0:0:0:0:
192,192,74261,1,2,0:0:0:0:
64,192,74302,1,2,0:0:0:0:
320,192,74344,1,2,0:0:0:0:
448,192,74344,1,0,0:0:0:100:hithat.wav
192,192,74511,1,2,0:0:0:0:
320,192,74511,1,0,0:0:0:0:
192,192,74677,1,2,0:0:0:0:
64,192,74677,1,0,0:0:0:100:hithat.wav
64,192,74844,1,2,0:0:0:0:
320,192,74844,1,4,0:0:0:0:
448,192,74844,1,0,0:0:0:0:
192,192,75011,1,0,0:0:0:100:hithat.wav
320,192,75094,1,0,0:0:0:0:
64,192,75177,1,0,0:0:0:0:
448,192,75177,1,2,0:0:0:0:
192,192,75261,1,0,0:0:0:0:
320,192,75344,1,0,0:0:0:100:hithat.wav
64,192,75427,1,0,0:0:0:0:
192,192,75511,1,0,0:0:0:0:
448,192,75511,1,2,0:0:0:0:
320,192,75594,1,0,0:0:0:0:
192,192,75761,1,0,0:0:0:0:
64,192,75844,1,0,0:0:0:0:
320,192,75844,1,2,0:0:0:0:
448,192,76011,1,0,0:0:0:100:hithat.wav
64,192,76177,1,0,0:0:0:0:
192,192,76177,1,2,0:0:0:0:
448,192,76344,1,0,0:0:0:100:hithat.wav
320,192,76427,1,0,0:0:0:0:
64,192,76511,1,2,0:0:0:0:
192,192,76511,1,0,0:0:0:0:
448,192,76594,1,0,0:0:0:0:
320,192,76677,1,0,0:0:0:100:hithat.wav
192,192,76761,1,0,0:0:0:0:
64,192,76844,1,0,0:0:0:0:
448,192,76844,1,2,0:0:0:0:
320,192,76927,1,0,0:0:0:0:
192,192,77094,1,0,0:0:0:0:
64,192,77177,1,0,0:0:0:0:
448,192,77177,1,2,0:0:0:0:
448,192,77344,1,0,0:0:0:100:hithat.wav
192,192,77344,1,2,0:0:0:0:
64,192,77511,1,0,0:0:0:0:
320,192,77511,1,2,0:0:0:0:
192,192,77677,1,0,0:0:0:100:hithat.wav
320,192,77761,1,0,0:0:0:0:
192,192,77844,1,0,0:0:0:0:
448,192,77844,1,2,0:0:0:0:
64,192,77927,1,0,0:0:0:0:
320,192,78011,1,0,0:0:0:100:hithat.wav
192,192,78094,1,0,0:0:0:0:
64,192,78177,1,0,0:0:0:0:
320,192,78177,1,2,0:0:0:0:
448,192,78261,1,0,0:0:0:0:
64,192,78427,1,0,0:0:0:0:
192,192,78511,1,0,0:0:0:0:
448,192,78511,1,2,0:0:0:0:
64,192,78677,1,0,0:0:0:100:hithat.wav
320,192,78844,1,0,0:0:0:0:
192,192,78844,1,2,0:0:0:0:
64,192,79011,1,0,0:0:0:100:hithat.wav
192,192,79094,1,0,0:0:0:0:
320,192,79177,5,0,0:0:0:0:
448,192,79177,1,2,0:0:0:0:
64,192,79261,1,0,0:0:0:0:
448,192,79344,1,0,0:0:0:100:hithat.wav
320,192,79427,1,0,0:0:0:0:
192,192,79511,1,0,0:0:0:0:
64,192,79511,1,2,0:0:0:0:
448,192,79594,1,0,0:0:0:0:
320,192,79594,1,2,0:0:0:0:
192,192,79677,1,0,0:0:0:100:hithat.wav
64,192,79677,1,2,0:0:0:0:
448,192,79844,1,0,0:0:0:0:
192,192,79844,1,2,0:0:0:0:
64,192,80011,1,0,0:0:0:100:hithat.wav
320,192,80011,1,2,0:0:0:0:
192,192,80177,5,4,0:0:0:0:
448,192,80177,1,0,0:0:0:0:
320,192,80344,128,0,80511:0:0:0:100:hithat.wav
448,192,80511,1,0,0:0:0:0:
192,192,80677,128,0,80844:0:0:0:100:hithat.wav
320,192,80844,1,0,0:0:0:0:
64,192,81011,128,0,81177:0:0:0:100:hithat.wav
192,192,81177,1,0,0:0:0:0:
448,192,81344,128,0,81511:0:0:0:100:hithat.wav
64,192,81511,1,4,0:0:0:0:
320,192,81511,1,0,0:0:0:0:
192,192,81677,128,0,81844:0:0:0:100:hithat.wav
448,192,81844,1,0,0:0:0:0:
64,192,82011,128,0,82177:0:0:0:100:hithat.wav
320,192,82177,1,0,0:0:0:0:
448,192,82344,128,0,82511:0:0:0:100:hithat.wav
64,192,82511,1,0,0:0:0:0:
320,192,82677,128,0,82844:0:0:0:100:hithat.wav
192,192,82844,1,2,0:0:0:0:
448,192,82844,1,4,0:0:0:0:
64,192,82844,1,0,0:0:0:0:
320,192,83011,1,2,0:0:0:0:
448,192,83011,1,0,0:0:0:100:hithat.wav
64,192,83177,1,2,0:0:0:0:
192,192,83177,1,0,0:0:0:0:
192,192,83344,1,2,0:0:0:0:
320,192,83344,1,0,0:0:0:100:hithat.wav
64,192,83511,1,2,0:0:0:0:
448,192,83511,1,4,0:0:0:0:
320,192,83511,1,0,0:0:0:0:
64,192,83677,1,2,0:0:0:0:
192,192,83677,1,0,0:0:0:100:hithat.wav
192,192,83844,1,2,0:0:0:0:
320,192,83844,1,0,0:0:0:0:
320,192,84011,1,2,0:0:0:0:
448,192,84011,1,0,0:0:0:100:hithat.wav
64,192,84177,1,2,0:0:0:0:
192,192,84177,1,4,0:0:0:0:
320,192,84261,1,2,0:0:0:0:
448,192,84261,1,0,0:0:0:0:
64,192,84344,1,2,0:0:0:0:
192,192,84344,1,0,0:0:0:100:hithat.wav
320,192,84427,1,2,0:0:0:0:
448,192,84427,1,0,0:0:0:0:
64,192,84511,1,2,0:0:0:0:
192,192,84511,1,4,0:0:0:0:
320,192,84594,1,2,0:0:0:0:
448,192,84594,1,0,0:0:0:0:
64,192,84677,1,2,0:0:0:0:
192,192,84677,1,0,0:0:0:100:hithat.wav
320,192,84761,1,2,0:0:0:0:
448,192,84761,1,0,0:0:0:0:
192,192,84844,1,4,0:0:0:0:
64,192,84844,1,2,0:0:0:0:
320,192,84927,1,0,0:0:0:0:
192,192,85011,1,0,0:0:0:100:hithat.wav
448,192,85094,1,0,0:0:0:0:
64,192,85177,1,2,0:0:0:40:
320,192,85177,1,4,0:0:0:0:
192,192,85219,1,2,0:0:0:40:
448,192,85261,1,2,0:0:0:40:
320,192,85302,1,2,0:0:0:40:
64,192,85344,1,2,0:0:0:40:
192,192,85386,1,2,0:0:0:40:
448,192,85427,1,2,0:0:0:40:
320,192,85469,1,2,0:0:0:40:
64,192,85511,1,2,0:0:0:0:
192,192,85511,1,4,0:0:0:0:
448,192,85594,1,0,0:0:0:0:
192,192,85677,1,0,0:0:0:100:hithat.wav
448,192,85761,1,0,0:0:0:0:
320,192,85844,1,2,0:0:0:0:
64,192,85844,1,0,0:0:0:0:
192,192,85927,1,0,0:0:0:0:
448,192,86011,1,0,0:0:0:100:hithat.wav
64,192,86177,1,2,0:0:0:0:
320,192,86177,1,0,0:0:0:0:
448,192,86261,1,0,0:0:0:0:
64,192,86427,1,0,0:0:0:0:
192,192,86511,1,2,0:0:0:0:
448,192,86511,1,0,0:0:0:0:
192,192,86677,1,0,0:0:0:100:hithat.wav
320,192,86844,1,2,0:0:0:0:
448,192,86844,1,0,0:0:0:0:
64,192,86927,1,0,0:0:0:0:
448,192,87011,1,0,0:0:0:100:hithat.wav
64,192,87094,1,0,0:0:0:0:
320,192,87177,1,2,0:0:0:0:
192,192,87177,1,0,0:0:0:0:
448,192,87261,1,0,0:0:0:0:
64,192,87344,1,0,0:0:0:100:hithat.wav
192,192,87511,1,2,0:0:0:0:
448,192,87511,1,0,0:0:0:0:
64,192,87594,1,0,0:0:0:0:
448,192,87761,1,0,0:0:0:0:
64,192,87844,1,2,0:0:0:0:
320,192,87844,1,0,0:0:0:0:
192,192,88011,1,2,0:0:0:0:
320,192,88011,1,0,0:0:0:100:hithat.wav
64,192,88177,1,2,0:0:0:0:
448,192,88177,1,0,0:0:0:0:
320,192,88261,1,0,0:0:0:0:
64,192,88344,1,0,0:0:0:100:hithat.wav
320,192,88427,1,0,0:0:0:0:
448,192,88511,1,2,0:0:0:0:
192,192,88511,1,0,0:0:0:0:
64,192,88594,1,0,0:0:0:0:
320,192,88677,1,0,0:0:0:100:hithat.wav
64,192,88844,1,2,0:0:0:0:
192,192,88844,1,0,0:0:0:0:
320,192,88927,1,0,0:0:0:0:
192,192,89094,1,0,0:0:0:0:
448,192,89177,1,2,0:0:0:0:
320,192,89177,1,0,0:0:0:0:
448,192,89344,1,0,0:0:0:100:hithat.wav
64,192,89511,1,2,0:0:0:0:
320,192,89511,1,0,0:0:0:0:
192,192,89594,1,0,0:0:0:0:
320,192,89677,1,0,0:0:0:100:hithat.wav
192,192,89761,1,0,0:0:0:0:
448,192,89844,1,0,0:0:0:0:
64,192,89844,1,2,0:0:0:0:
320,192,89927,1,0,0:0:0:0:
192,192,90011,1,0,0:0:0:100:hithat.wav
64,192,90177,1,2,0:0:0:0:
192,192,90177,1,0,0:0:0:0:
320,192,90261,1,2,0:0:0:0:
448,192,90261,1,0,0:0:0:0:
64,192,90344,1,2,0:0:0:0:
192,192,90344,1,0,0:0:0:100:hithat.wav
320,192,90427,1,0,0:0:0:0:
192,192,90511,1,2,0:0:0:0:
448,192,90511,1,0,0:0:0:0:
64,192,90594,1,0,0:0:0:0:
320,192,90677,1,2,0:0:0:0:
448,192,90677,1,0,0:0:0:100:hithat.wav
192,192,90761,1,0,0:0:0:0:
320,192,90844,1,2,0:0:0:0:
448,192,90844,1,0,0:0:0:0:
64,192,90927,1,0,0:0:0:0:
320,192,91011,1,0,0:0:0:100:hithat.wav
64,192,91094,1,0,0:0:0:0:
192,192,91177,1,2,0:0:0:0:
448,192,91177,1,0,0:0:0:0:
320,192,91261,1,0,0:0:0:0:
64,192,91344,1,0,0:0:0:100:hithat.wav
448,192,91511,1,2,0:0:0:0:
320,192,91511,1,0,0:0:0:0:
64,192,91594,1,0,0:0:0:0:
448,192,91761,1,0,0:0:0:0:
192,192,91844,1,2,0:0:0:0:
64,192,91844,1,0,0:0:0:0:
192,192,92011,1,0,0:0:0:100:hithat.wav
320,192,92177,1,2,0:0:0:0:
448,192,92177,1,0,0:0:0:0:
64,192,92261,1,0,0:0:0:0:
448,192,92344,1,0,0:0:0:100:hithat.wav
64,192,92427,1,0,0:0:0:0:
192,192,92511,1,2,0:0:0:0:
320,192,92511,1,0,0:0:0:0:
448,192,92594,1,0,0:0:0:0:
64,192,92677,1,0,0:0:0:100:hithat.wav
192,192,92844,1,2,0:0:0:0:
320,192,92844,1,0,0:0:0:0:
448,192,92927,1,0,0:0:0:0:
64,192,93094,1,0,0:0:0:0:
320,192,93177,1,2,0:0:0:0:
192,192,93177,1,0,0:0:0:0:
448,192,93344,1,2,0:0:0:0:
320,192,93344,1,0,0:0:0:100:hithat.wav
192,192,93511,1,2,0:0:0:0:
64,192,93511,1,0,0:0:0:0:
448,192,93594,1,0,0:0:0:0:
192,192,93677,1,0,0:0:0:100:hithat.wav
448,192,93761,1,0,0:0:0:0:
64,192,93844,1,2,0:0:0:0:
320,192,93844,1,0,0:0:0:0:
192,192,93927,1,0,0:0:0:0:
448,192,94011,1,0,0:0:0:100:hithat.wav
64,192,94177,1,2,0:0:0:0:
448,192,94177,1,0,0:0:0:0:
192,192,94261,1,0,0:0:0:0:
320,192,94427,1,0,0:0:0:0:
64,192,94511,1,2,0:0:0:0:
448,192,94511,1,0,0:0:0:0:
448,192,94677,1,0,0:0:0:100:hithat.wav
64,192,94844,1,2,0:0:0:0:
192,192,94844,1,0,0:0:0:0:
320,192,94927,1,0,0:0:0:0:
192,192,95011,1,0,0:0:0:100:hithat.wav
320,192,95094,1,0,0:0:0:0:
64,192,95177,1,2,0:0:0:0:
448,192,95177,1,0,0:0:0:0:
192,192,95261,1,0,0:0:0:0:
320,192,95344,1,0,0:0:0:100:hithat.wav
448,192,95511,1,2,0:0:0:0:
320,192,95552,1,2,0:0:0:0:
192,192,95594,1,2,0:0:0:0:
64,192,95636,1,2,0:0:0:0:
320,192,95677,1,2,0:0:0:0:
448,192,95677,1,0,0:0:0:100:hithat.wav
192,192,95761,1,0,0:0:0:0:
64,192,95844,1,2,0:0:0:0:
320,192,95844,1,0,0:0:0:0:
448,192,95927,1,0,0:0:0:0:
64,192,96011,1,2,0:0:0:0:
192,192,96011,1,0,0:0:0:100:hithat.wav
320,192,96094,1,0,0:0:0:0:
448,192,96177,1,2,0:0:0:0:
64,192,96177,1,4,0:0:0:0:
192,192,96177,1,0,0:0:0:0:
320,192,96261,1,0,0:0:0:0:
192,192,96344,1,0,0:0:0:100:hithat.wav
320,192,96427,1,0,0:0:0:0:
448,192,96511,1,2,0:0:0:0:
64,192,96511,1,0,0:0:0:0:
192,192,96594,1,0,0:0:0:0:
320,192,96677,1,0,0:0:0:100:hithat.wav
64,192,96844,1,2,0:0:0:0:
192,192,96844,1,0,0:0:0:0:
448,192,96927,1,0,0:0:0:0:
64,192,97094,1,0,0:0:0:0:
320,192,97177,1,2,0:0:0:0:
448,192,97177,1,0,0:0:0:0:
320,192,97344,1,0,0:0:0:100:hithat.wav
64,192,97511,1,2,0:0:0:0:
448,192,97511,1,0,0:0:0:0:
320,192,97594,1,0,0:0:0:0:
64,192,97677,1,0,0:0:0:100:hithat.wav
320,192,97761,1,0,0:0:0:0:
192,192,97844,1,2,0:0:0:0:
448,192,97844,1,0,0:0:0:0:
64,192,97927,1,0,0:0:0:0:
320,192,98011,1,0,0:0:0:100:hithat.wav
64,192,98177,1,2,0:0:0:0:
192,192,98177,1,0,0:0:0:0:
320,192,98261,1,0,0:0:0:0:
192,192,98427,1,0,0:0:0:0:
448,192,98511,1,2,0:0:0:0:
320,192,98511,1,0,0:0:0:0:
448,192,98677,1,2,0:0:0:0:
64,192,98677,1,0,0:0:0:100:hithat.wav
192,192,98844,1,2,0:0:0:0:
320,192,98844,1,0,0:0:0:0:
448,192,98927,1,0,0:0:0:0:
192,192,99011,1,0,0:0:0:100:hithat.wav
448,192,99094,1,0,0:0:0:0:
320,192,99177,1,2,0:0:0:0:
64,192,99177,1,0,0:0:0:0:
192,192,99261,1,0,0:0:0:0:
448,192,99344,1,0,0:0:0:100:hithat.wav
320,192,99511,1,2,0:0:0:0:
64,192,99511,1,0,0:0:0:0:
448,192,99594,1,0,0:0:0:0:
64,192,99761,1,0,0:0:0:0:
448,192,99844,1,2,0:0:0:0:
192,192,99844,1,0,0:0:0:0:
192,192,100011,1,0,0:0:0:100:hithat.wav
448,192,100177,1,2,0:0:0:0:
320,192,100177,1,0,0:0:0:0:
64,192,100261,1,0,0:0:0:0:
448,192,100344,1,0,0:0:0:100:hithat.wav
64,192,100427,1,0,0:0:0:0:
192,192,100511,1,2,0:0:0:0:
320,192,100511,1,0,0:0:0:0:
448,192,100594,1,0,0:0:0:0:
64,192,100677,1,0,0:0:0:100:hithat.wav
64,192,100844,1,2,0:0:0:0:
192,192,100844,1,0,0:0:0:0:
320,192,100927,1,2,0:0:0:0:
448,192,100927,1,0,0:0:0:0:
64,192,101011,1,2,0:0:0:0:
192,192,101011,1,0,0:0:0:100:hithat.wav
448,192,101094,1,0,0:0:0:0:
192,192,101177,1,2,0:0:0:0:
320,192,101177,1,0,0:0:0:0:
64,192,101261,1,0,0:0:0:0:
320,192,101344,1,2,0:0:0:0:
448,192,101344,1,0,0:0:0:100:hithat.wav
192,192,101427,1,0,0:0:0:0:
64,192,101511,1,2,0:0:0:0:
320,192,101511,1,0,0:0:0:0:
448,192,101594,1,0,0:0:0:0:
64,192,101677,1,0,0:0:0:100:hithat.wav
448,192,101761,1,0,0:0:0:0:
320,192,101844,1,2,0:0:0:0:
192,192,101844,1,0,0:0:0:0:
64,192,101927,1,0,0:0:0:0:
448,192,102011,1,0,0:0:0:100:hithat.wav
64,192,102177,1,2,0:0:0:0:
192,192,102177,1,0,0:0:0:0:
448,192,102261,1,0,0:0:0:0:
64,192,102427,1,0,0:0:0:0:
320,192,102511,1,2,0:0:0:0:
448,192,102511,1,0,0:0:0:0:
320,192,102677,1,0,0:0:0:100:hithat.wav
448,192,102844,1,2,0:0:0:0:
192,192,102844,1,0,0:0:0:0:
320,192,102927,1,0,0:0:0:0:
192,192,103011,1,0,0:0:0:100:hithat.wav
320,192,103094,1,0,0:0:0:0:
64,192,103177,1,2,0:0:0:0:
448,192,103177,1,0,0:0:0:0:
192,192,103261,1,0,0:0:0:0:
320,192,103344,1,0,0:0:0:100:hithat.wav
64,192,103511,1,2,0:0:0:0:
192,192,103511,1,0,0:0:0:0:
320,192,103594,1,0,0:0:0:0:
192,192,103761,1,0,0:0:0:0:
448,192,103844,1,2,0:0:0:0:
320,192,103844,1,0,0:0:0:0:
64,192,104011,1,2,0:0:0:0:
448,192,104011,1,0,0:0:0:100:hithat.wav
64,192,104177,1,2,0:0:0:0:
192,192,104177,1,0,0:0:0:0:
320,192,104344,1,2,0:0:0:0:
448,192,104344,1,0,0:0:0:100:hithat.wav
64,192,104511,1,2,0:0:0:0:
448,192,104511,1,0,0:0:0:0:
192,192,104677,1,2,0:0:0:0:
320,192,104677,1,0,0:0:0:100:hithat.wav
448,192,104844,1,2,0:0:0:0:
320,192,104844,1,0,0:0:0:0:
192,192,105011,1,2,0:0:0:0:
64,192,105011,1,0,0:0:0:100:hithat.wav
64,192,105177,1,2,0:0:0:0:
320,192,105177,1,0,0:0:0:0:
192,192,105344,1,2,0:0:0:0:
448,192,105344,1,0,0:0:0:100:hithat.wav
320,192,105511,1,2,0:0:0:0:
448,192,105511,1,0,0:0:0:0:
64,192,105594,1,2,0:0:0:0:
192,192,105594,1,0,0:0:0:0:
320,192,105677,1,2,0:0:0:0:
448,192,105677,1,0,0:0:0:100:hithat.wav
64,192,105761,1,2,0:0:0:0:
192,192,105761,1,0,0:0:0:0:
320,192,105844,1,2,0:0:0:0:
448,192,105844,1,0,0:0:0:0:
64,192,105927,1,2,0:0:0:0:
192,192,105927,1,0,0:0:0:0:
320,192,106011,1,2,0:0:0:0:
448,192,106011,1,0,0:0:0:100:hithat.wav
64,192,106094,1,2,0:0:0:0:
192,192,106094,1,0,0:0:0:0:
448,192,106177,1,2,0:0:0:0:
320,192,106219,1,2,0:0:0:0:
192,192,106261,1,2,0:0:0:0:
64,192,106302,1,2,0:0:0:0:
320,192,106344,1,2,0:0:0:0:
448,192,106344,1,0,0:0:0:100:hithat.wav
192,192,106427,1,2,0:0:0:0:
64,192,106427,1,0,0:0:0:0:
320,192,106511,1,2,0:0:0:0:
448,192,106511,1,0,0:0:0:0:
192,192,106594,1,2,0:0:0:0:
64,192,106594,1,0,0:0:0:0:
320,192,106677,1,2,0:0:0:0:
448,192,106677,1,0,0:0:0:100:hithat.wav
192,192,106761,1,2,0:0:0:0:
64,192,106844,1,0,0:0:0:0:
320,192,106844,1,2,0:0:0:0:
448,192,106844,1,4,0:0:0:0:
192,192,106927,1,0,0:0:0:0:
320,192,107011,1,0,0:0:0:100:hithat.wav
192,192,107094,1,0,0:0:0:0:
64,192,107177,1,2,0:0:0:0:
448,192,107177,1,0,0:0:0:0:
320,192,107261,1,0,0:0:0:0:
192,192,107344,1,0,0:0:0:100:hithat.wav
64,192,107511,1,2,0:0:0:0:
320,192,107511,1,0,0:0:0:0:
448,192,107594,1,0,0:0:0:0:
64,192,107761,1,0,0:0:0:0:
192,192,107844,1,2,0:0:0:0:
448,192,107844,1,0,0:0:0:0:
192,192,108011,1,0,0:0:0:100:hithat.wav
64,192,108177,1,2,0:0:0:0:
320,192,108177,1,0,0:0:0:0:
448,192,108261,1,0,0:0:0:0:
320,192,108344,1,0,0:0:0:100:hithat.wav
448,192,108427,1,0,0:0:0:0:
192,192,108511,1,2,0:0:0:0:
64,192,108511,1,0,0:0:0:0:
320,192,108594,1,0,0:0:0:0:
448,192,108677,1,0,0:0:0:100:hithat.wav
192,192,108844,1,2,0:0:0:0:
320,192,108844,1,0,0:0:0:0:
64,192,108927,1,0,0:0:0:0:
448,192,109094,1,0,0:0:0:0:
192,192,109177,1,2,0:0:0:0:
320,192,109177,1,0,0:0:0:0:
64,192,109344,1,2,0:0:0:0:
320,192,109344,1,0,0:0:0:100:hithat.wav
192,192,109511,1,2,0:0:0:0:
448,192,109511,1,0,0:0:0:0:
64,192,109594,1,0,0:0:0:0:
448,192,109677,1,0,0:0:0:100:hithat.wav
64,192,109761,1,0,0:0:0:0:
192,192,109844,1,2,0:0:0:0:
320,192,109844,1,0,0:0:0:0:
448,192,109927,1,0,0:0:0:0:
64,192,110011,1,0,0:0:0:100:hithat.wav
320,192,110177,1,2,0:0:0:0:
448,192,110177,1,0,0:0:0:0:
192,192,110261,1,0,0:0:0:0:
320,192,110427,1,0,0:0:0:0:
64,192,110511,1,2,0:0:0:0:
192,192,110511,1,0,0:0:0:0:
192,192,110677,1,0,0:0:0:100:hithat.wav
64,192,110844,1,2,0:0:0:0:
448,192,110844,1,0,0:0:0:0:
192,192,110927,1,0,0:0:0:0:
64,192,111011,1,0,0:0:0:100:hithat.wav
192,192,111094,1,0,0:0:0:0:
448,192,111177,1,2,0:0:0:0:
320,192,111177,1,0,0:0:0:0:
64,192,111261,1,0,0:0:0:0:
192,192,111344,1,0,0:0:0:100:hithat.wav
448,192,111511,1,2,0:0:0:0:
320,192,111511,1,0,0:0:0:0:
192,192,111594,1,2,0:0:0:0:
64,192,111594,1,0,0:0:0:0:
448,192,111677,1,2,0:0:0:0:
320,192,111677,1,0,0:0:0:100:hithat.wav
64,192,111761,1,0,0:0:0:0:
448,192,111844,1,2,0:0:0:0:
192,192,111844,1,0,0:0:0:0:
320,192,111927,1,0,0:0:0:0:
192,192,112011,1,2,0:0:0:0:
64,192,112011,1,0,0:0:0:100:hithat.wav
320,192,112094,1,0,0:0:0:0:
448,192,112177,1,2,0:0:0:0:
64,192,112177,1,0,0:0:0:0:
192,192,112261,1,0,0:0:0:0:
448,192,112344,1,0,0:0:0:100:hithat.wav
192,192,112427,1,0,0:0:0:0:
64,192,112511,1,2,0:0:0:0:
320,192,112511,1,0,0:0:0:0:
448,192,112594,1,0,0:0:0:0:
192,192,112677,1,0,0:0:0:100:hithat.wav
64,192,112844,1,2,0:0:0:0:
448,192,112844,1,0,0:0:0:0:
320,192,112927,1,0,0:0:0:0:
192,192,113094,1,0,0:0:0:0:
64,192,113177,1,2,0:0:0:0:
448,192,113177,1,0,0:0:0:0:
448,192,113344,1,0,0:0:0:100:hithat.wav
64,192,113511,1,2,0:0:0:0:
320,192,113511,1,0,0:0:0:0:
192,192,113594,1,0,0:0:0:0:
64,192,113677,1,0,0:0:0:100:hithat.wav
192,192,113761,1,0,0:0:0:0:
448,192,113844,1,2,0:0:0:0:
320,192,113844,1,0,0:0:0:0:
64,192,113927,1,0,0:0:0:0:
192,192,114011,1,0,0:0:0:100:hithat.wav
448,192,114177,1,2,0:0:0:0:
64,192,114177,1,0,0:0:0:0:
320,192,114261,1,0,0:0:0:0:
192,192,114427,1,0,0:0:0:0:
64,192,114511,1,2,0:0:0:0:
448,192,114511,1,0,0:0:0:0:
448,192,114677,1,2,0:0:0:0:
192,192,114677,1,0,0:0:0:100:hithat.wav
192,192,114844,1,2,0:0:0:0:
64,192,114844,1,0,0:0:0:0:
320,192,114927,1,0,0:0:0:0:
64,192,115011,1,0,0:0:0:100:hithat.wav
320,192,115094,1,0,0:0:0:0:
192,192,115177,1,2,0:0:0:0:
448,192,115177,1,0,0:0:0:0:
64,192,115261,1,0,0:0:0:0:
320,192,115344,1,0,0:0:0:100:hithat.wav
320,192,115511,1,2,0:0:0:0:
448,192,115511,1,0,0:0:0:0:
192,192,115594,1,0,0:0:0:0:
320,192,115761,1,0,0:0:0:0:
64,192,115844,1,2,0:0:0:0:
192,192,115844,1,0,0:0:0:0:
64,192,116011,1,0,0:0:0:100:hithat.wav
192,192,116177,1,2,0:0:0:0:
448,192,116177,1,0,0:0:0:0:
320,192,116261,1,0,0:0:0:0:
448,192,116344,1,0,0:0:0:100:hithat.wav
320,192,116427,1,0,0:0:0:0:
192,192,116511,1,2,0:0:0:0:
64,192,116511,1,0,0:0:0:0:
448,192,116594,1,0,0:0:0:0:
320,192,116677,1,0,0:0:0:100:hithat.wav
448,192,116844,1,2,0:0:0:0:
320,192,116886,1,2,0:0:0:0:
64,192,116927,1,2,0:0:0:0:
192,192,116969,1,2,0:0:0:0:
448,192,117011,1,2,0:0:0:0:
320,192,117011,1,0,0:0:0:100:hithat.wav
64,192,117094,1,0,0:0:0:0:
192,192,117177,1,0,0:0:0:0:
320,192,117177,1,2,0:0:0:0:
448,192,117261,1,0,0:0:0:0:
192,192,117344,1,2,0:0:0:0:
64,192,117344,1,0,0:0:0:100:hithat.wav
320,192,117427,1,0,0:0:0:0:
448,192,117511,1,2,0:0:0:0:
192,192,117511,1,4,0:0:0:0:
64,192,117511,1,0,0:0:0:0:
320,192,117594,1,0,0:0:0:0:
64,192,117677,1,0,0:0:0:100:hithat.wav
320,192,117761,1,0,0:0:0:0:
448,192,117844,1,2,0:0:0:0:
192,192,117844,1,0,0:0:0:0:
64,192,117927,1,0,0:0:0:0:
320,192,118011,1,0,0:0:0:100:hithat.wav
448,192,118177,1,0,0:0:0:0:
192,192,118177,1,2,0:0:0:0:
64,192,118261,1,0,0:0:0:0:
448,192,118427,1,0,0:0:0:0:
64,192,118511,1,2,0:0:0:0:
320,192,118511,1,0,0:0:0:0:
64,192,118677,1,0,0:0:0:100:hithat.wav
192,192,118844,1,2,0:0:0:0:
320,192,118844,1,0,0:0:0:0:
448,192,118927,1,0,0:0:0:0:
320,192,119011,1,0,0:0:0:100:hithat.wav
448,192,119094,1,0,0:0:0:0:
64,192,119177,1,2,0:0:0:0:
192,192,119177,1,0,0:0:0:0:
320,192,119261,1,0,0:0:0:0:
448,192,119344,1,0,0:0:0:100:hithat.wav
192,192,119511,1,2,0:0:0:0:
64,192,119511,1,0,0:0:0:0:
320,192,119594,1,0,0:0:0:0:
192,192,119761,1,0,0:0:0:0:
448,192,119844,1,2,0:0:0:0:
64,192,119844,1,4,0:0:0:0:
320,192,119844,1,0,0:0:0:0:
192,192,120011,1,2,0:0:0:0:
320,192,120011,1,0,0:0:0:100:hithat.wav
64,192,120177,1,2,0:0:0:0:
320,192,120177,1,4,0:0:0:0:
448,192,120177,1,0,0:0:0:0:
192,192,120261,1,0,0:0:0:0:
448,192,120344,1,0,0:0:0:100:hithat.wav
192,192,120427,1,0,0:0:0:0:
64,192,120511,1,2,0:0:0:0:
320,192,120511,1,0,0:0:0:0:
448,192,120594,1,0,0:0:0:0:
192,192,120677,1,0,0:0:0:100:hithat.wav
64,192,120844,1,2,0:0:0:0:
448,192,120844,1,0,0:0:0:0:
320,192,120927,1,0,0:0:0:0:
192,192,121094,1,0,0:0:0:0:
64,192,121177,1,2,0:0:0:0:
320,192,121177,1,4,0:0:0:0:
448,192,121177,1,0,0:0:0:0:
64,192,121344,1,0,0:0:0:100:hithat.wav
320,192,121511,1,2,0:0:0:0:
448,192,121511,1,4,0:0:0:0:
192,192,121511,1,0,0:0:0:0:
64,192,121594,1,0,0:0:0:0:
192,192,121677,1,0,0:0:0:100:hithat.wav
64,192,121761,1,0,0:0:0:0:
448,192,121844,1,2,0:0:0:0:
320,192,121844,1,0,0:0:0:0:
192,192,121927,1,0,0:0:0:0:
64,192,122011,1,4,0:0:0:0:
448,192,122011,1,0,0:0:0:100:hithat.wav
64,192,122177,1,2,0:0:0:0:
192,192,122177,1,4,0:0:0:0:
320,192,122261,1,2,0:0:0:0:
448,192,122261,1,0,0:0:0:0:
64,192,122344,1,2,0:0:0:0:
192,192,122344,1,0,0:0:0:100:hithat.wav
320,192,122427,1,0,0:0:0:0:
64,192,122511,1,2,0:0:0:0:
448,192,122511,1,4,0:0:0:0:
192,192,122511,1,0,0:0:0:0:
320,192,122594,1,0,0:0:0:0:
64,192,122677,1,2,0:0:0:0:
192,192,122677,1,0,0:0:0:100:hithat.wav
448,192,122761,1,0,0:0:0:0:
64,192,122844,1,2,0:0:0:0:
320,192,122844,1,4,0:0:0:0:
192,192,122844,1,0,0:0:0:0:
448,192,123011,1,2,0:0:0:0:
320,192,123011,1,0,0:0:0:100:hithat.wav
448,192,123177,1,2,0:0:0:0:
192,192,123177,1,0,0:0:0:0:
64,192,123344,1,2,0:0:0:0:
192,192,123344,1,0,0:0:0:100:hithat.wav
64,192,123511,1,2,0:0:0:0:
320,192,123511,1,0,0:0:0:0:
320,192,123677,1,2,0:0:0:0:
448,192,123677,1,0,0:0:0:100:hithat.wav
192,192,123844,1,2,0:0:0:0:
448,192,123844,1,0,0:0:0:0:
64,192,124011,1,2,0:0:0:0:
192,192,124011,1,0,0:0:0:100:hithat.wav
64,192,124177,1,2,0:0:0:0:
320,192,124177,1,4,0:0:0:0:
448,192,124177,1,0,0:0:0:0:
192,192,124344,1,2,0:0:0:0:
448,192,124344,1,0,0:0:0:100:hithat.wav
192,192,124511,1,2,0:0:0:0:
64,192,124511,1,0,0:0:0:0:
64,192,124677,1,2,0:0:0:0:
320,192,124677,1,0,0:0:0:100:hithat.wav
320,192,124844,1,2,0:0:0:0:
448,192,124844,1,0,0:0:0:0:
64,192,125011,1,2,0:0:0:0:
448,192,125011,1,0,0:0:0:100:hithat.wav
64,192,125177,1,2,0:0:0:0:
192,192,125177,1,0,0:0:0:0:
320,192,125344,1,2,0:0:0:0:
192,192,125344,1,0,0:0:0:100:hithat.wav
320,192,125511,1,2,0:0:0:0:
448,192,125511,1,4,0:0:0:0:
64,192,125594,1,2,0:0:0:0:
192,192,125677,1,2,0:0:0:0:
448,192,125761,1,2,0:0:0:0:
320,192,125844,1,2,0:0:0:0:
192,192,125927,1,2,0:0:0:0:
64,192,126011,1,2,0:0:0:0:
320,192,126094,1,2,0:0:0:0:
192,192,126177,1,2,0:0:0:0:
448,192,126177,1,4,0:0:0:0:
64,192,126261,1,2,0:0:0:0:
320,192,126344,1,2,0:0:0:0:
448,192,126344,1,0,0:0:0:100:hithat.wav
64,192,126427,1,2,0:0:0:0:
192,192,126427,1,0,0:0:0:0:
320,192,126511,1,2,0:0:0:0:
448,192,126511,1,0,0:0:0:0:
64,192,126594,1,2,0:0:0:0:
192,192,126594,1,0,0:0:0:0:
320,192,126677,1,2,0:0:0:0:
448,192,126677,1,0,0:0:0:100:hithat.wav
64,192,126761,1,2,0:0:0:0:
192,192,126761,1,0,0:0:0:0:
448,192,126844,128,0,127844:0:0:0:0:
64,192,127511,1,4,0:0:0:0:
64,192,127844,1,2,0:0:0:40:
192,192,127886,1,2,0:0:0:40:
320,192,127927,1,2,0:0:0:40:
448,192,127969,1,2,0:0:0:40:
64,192,128011,1,2,0:0:0:40:
192,192,128052,1,2,0:0:0:40:
320,192,128094,1,2,0:0:0:40:
448,192,128136,1,2,0:0:0:40:
64,192,128177,1,4,0:0:0:0:
192,192,128177,1,0,0:0:0:70:Tekdung.wav
448,192,128261,1,0,0:0:0:0:
320,192,128344,1,0,0:0:0:0:
192,192,128427,1,0,0:0:0:0:
64,192,128594,1,0,0:0:0:0:
448,192,128677,1,0,0:0:0:0:
320,192,128844,1,0,0:0:0:0:
192,192,128927,1,0,0:0:0:0:
192,192,129094,1,0,0:0:0:0:
320,192,129177,1,0,0:0:0:0:
448,192,129344,1,0,0:0:0:0:
64,192,129511,1,0,0:0:0:0:
448,192,129594,1,0,0:0:0:0:
320,192,129677,1,0,0:0:0:0:
64,192,129761,1,0,0:0:0:0:
192,192,129927,1,0,0:0:0:0:
448,192,130011,1,0,0:0:0:0:
64,192,130177,1,0,0:0:0:0:
320,192,130261,1,0,0:0:0:0:
320,192,130427,1,0,0:0:0:0:
64,192,130511,1,0,0:0:0:0:
448,192,130677,1,0,0:0:0:0:
192,192,130844,1,0,0:0:0:0:
64,192,130927,1,0,0:0:0:0:
320,192,131011,1,0,0:0:0:0:
448,192,131094,1,0,0:0:0:0:
192,192,131261,1,0,0:0:0:0:
320,192,131344,1,0,0:0:0:0:
448,192,131511,1,0,0:0:0:0:
64,192,131594,1,0,0:0:0:0:
64,192,131761,1,0,0:0:0:0:
448,192,131844,1,0,0:0:0:0:
192,192,132011,1,0,0:0:0:0:
320,192,132177,1,0,0:0:0:0:
64,192,132261,1,0,0:0:0:0:
192,192,132344,1,0,0:0:0:0:
448,192,132427,1,0,0:0:0:0:
320,192,132594,1,0,0:0:0:0:
64,192,132677,1,0,0:0:0:0:
192,192,132844,1,0,0:0:0:0:
448,192,132927,1,0,0:0:0:0:
448,192,133094,1,0,0:0:0:0:
192,192,133261,1,0,0:0:0:0:
64,192,133344,1,0,0:0:0:0:
448,192,133427,1,0,0:0:0:0:
320,192,133511,1,0,0:0:0:0:
64,192,133594,1,0,0:0:0:0:
192,192,133677,1,0,0:0:0:0:
448,192,133761,1,0,0:0:0:0:
64,192,133927,1,0,0:0:0:0:
448,192,134011,1,0,0:0:0:0:
320,192,134177,1,0,0:0:0:0:
192,192,134261,1,0,0:0:0:0:
192,192,134427,1,0,0:0:0:0:
320,192,134511,1,0,0:0:0:0:
64,192,134677,1,0,0:0:0:0:
320,192,134844,1,0,0:0:0:0:
192,192,134927,1,0,0:0:0:0:
64,192,135011,1,0,0:0:0:0:
448,192,135094,1,0,0:0:0:0:
192,192,135261,1,0,0:0:0:0:
320,192,135344,1,0,0:0:0:0:
448,192,135511,1,0,0:0:0:0:
64,192,135594,1,0,0:0:0:0:
64,192,135761,1,0,0:0:0:0:
448,192,135844,1,0,0:0:0:0:
320,192,136011,1,0,0:0:0:0:
64,192,136177,1,0,0:0:0:0:
192,192,136261,1,0,0:0:0:0:
320,192,136344,1,0,0:0:0:0:
448,192,136427,1,0,0:0:0:0:
320,192,136594,1,0,0:0:0:0:
64,192,136677,1,0,0:0:0:0:
448,192,136844,1,0,0:0:0:0:
192,192,136927,1,0,0:0:0:0:
192,192,137094,1,0,0:0:0:0:
448,192,137177,1,0,0:0:0:0:
64,192,137344,1,0,0:0:0:0:
448,192,137511,1,0,0:0:0:0:
320,192,137594,1,0,0:0:0:0:
64,192,137677,1,0,0:0:0:0:
192,192,137761,1,0,0:0:0:0:
448,192,137927,1,0,0:0:0:0:
192,192,138011,1,0,0:0:0:0:
64,192,138177,1,0,0:0:0:0:
320,192,138261,1,0,0:0:0:0:
320,192,138427,1,0,0:0:0:0:
64,192,138594,1,0,0:0:0:0:
320,192,138677,1,0,0:0:0:0:
192,192,138761,1,0,0:0:0:0:
64,192,138844,1,4,0:0:0:0:
448,192,138844,1,0,0:0:0:0:
320,192,138927,1,0,0:0:0:0:
192,192,139011,1,0,0:0:0:0:
448,192,139094,1,0,0:0:0:0:
64,192,139261,1,0,0:0:0:0:
320,192,139344,1,0,0:0:0:0:
192,192,139511,1,0,0:0:0:0:
64,192,139594,1,0,0:0:0:0:
448,192,139761,1,0,0:0:0:0:
320,192,139844,1,0,0:0:0:0:
192,192,140011,1,0,0:0:0:0:
64,192,140177,1,0,0:0:0:0:
320,192,140261,1,0,0:0:0:0:
448,192,140344,1,0,0:0:0:0:
192,192,140427,1,0,0:0:0:0:
320,192,140594,1,0,0:0:0:0:
64,192,140677,1,0,0:0:0:0:
448,192,140844,1,0,0:0:0:0:
192,192,140927,1,0,0:0:0:0:
320,192,141094,1,0,0:0:0:0:
64,192,141177,1,0,0:0:0:0:
448,192,141344,1,0,0:0:0:0:
192,192,141511,1,0,0:0:0:0:
320,192,141594,1,0,0:0:0:0:
448,192,141677,1,0,0:0:0:0:
64,192,141761,1,0,0:0:0:0:
192,192,141927,1,0,0:0:0:0:
320,192,142011,1,0,0:0:0:0:
64,192,142177,1,0,0:0:0:0:
448,192,142261,1,0,0:0:0:0:
192,192,142427,1,0,0:0:0:0:
320,192,142511,1,0,0:0:0:0:
64,192,142677,1,0,0:0:0:0:
320,192,142844,1,0,0:0:0:0:
192,192,142927,1,0,0:0:0:0:
64,192,143011,1,0,0:0:0:0:
448,192,143094,1,0,0:0:0:0:
320,192,143261,1,0,0:0:0:0:
192,192,143344,1,0,0:0:0:0:
64,192,143511,1,0,0:0:0:0:
448,192,143594,1,0,0:0:0:0:
192,192,143761,1,0,0:0:0:0:
448,192,143927,1,0,0:0:0:0:
64,192,144011,1,0,0:0:0:0:
320,192,144094,1,0,0:0:0:0:
192,192,144177,1,0,0:0:0:0:
64,192,144261,1,0,0:0:0:0:
448,192,144344,1,0,0:0:0:0:
320,192,144427,1,0,0:0:0:0:
192,192,144594,1,0,0:0:0:0:
320,192,144677,1,0,0:0:0:0:
64,192,144844,1,0,0:0:0:0:
448,192,144927,1,0,0:0:0:0:
192,192,145094,1,0,0:0:0:0:
320,192,145177,1,0,0:0:0:0:
64,192,145344,1,0,0:0:0:0:
320,192,145511,1,0,0:0:0:0:
64,192,145594,1,0,0:0:0:0:
192,192,145677,1,0,0:0:0:0:
448,192,145761,1,0,0:0:0:0:
64,192,145927,1,0,0:0:0:0:
320,192,146011,1,0,0:0:0:0:
448,192,146177,1,0,0:0:0:0:
192,192,146261,1,0,0:0:0:0:
320,192,146427,1,0,0:0:0:0:
64,192,146511,1,0,0:0:0:0:
448,192,146677,1,0,0:0:0:0:
192,192,146844,1,0,0:0:0:0:
320,192,146927,1,0,0:0:0:0:
448,192,147011,1,0,0:0:0:0:
64,192,147094,1,0,0:0:0:0:
192,192,147261,1,0,0:0:0:0:
64,192,147344,1,0,0:0:0:0:
448,192,147511,1,0,0:0:0:0:
320,192,147594,1,0,0:0:0:0:
64,192,147761,1,0,0:0:0:0:
192,192,147844,1,0,0:0:0:0:
448,192,148011,1,0,0:0:0:0:
64,192,148177,1,0,0:0:0:0:
192,192,148261,1,0,0:0:0:0:
320,192,148344,1,0,0:0:0:0:
448,192,148427,1,0,0:0:0:0:
320,192,148594,1,0,0:0:0:0:
64,192,148677,1,0,0:0:0:0:
192,192,148844,1,0,0:0:0:0:
448,192,148927,1,0,0:0:0:0:
64,192,149094,1,0,0:0:0:0:
320,192,149261,1,0,0:0:0:0:
192,192,149344,1,0,0:0:0:0:
64,192,149427,1,0,0:0:0:0:
320,192,149511,1,4,0:0:0:0:
448,192,149511,1,0,0:0:0:0:
64,192,150177,128,0,150344:0:0:0:0:
192,192,150344,128,0,150511:0:0:0:0:
448,192,150511,128,0,150677:0:0:0:0:
320,192,150677,128,0,150844:0:0:0:0:
64,192,150844,128,0,151011:0:0:0:0:
192,192,150844,1,0,0:0:0:0:
448,192,151011,128,0,151344:0:0:0:0:
320,192,151344,128,0,151677:0:0:0:0:
192,192,151677,128,0,152011:0:0:0:0:
320,192,152011,128,0,152177:0:0:0:0:
448,192,152177,128,0,153011:0:0:0:0:
64,192,152177,1,0,0:0:0:0:
64,192,153011,128,0,153177:0:0:0:0:
192,192,153177,128,0,153344:0:0:0:0:
448,192,153344,128,0,153511:0:0:0:0:
64,192,153511,128,0,154177:0:0:0:0:
320,192,153511,1,0,0:0:0:0:
320,192,154177,128,0,154844:0:0:0:0:
448,192,154177,1,0,0:0:0:0:
192,192,154844,1,0,0:0:0:0:
64,192,155511,128,0,155677:0:0:0:0:
192,192,155677,128,0,155844:0:0:0:0:
448,192,155844,128,0,156011:0:0:0:0:
320,192,156011,128,0,156177:0:0:0:0:
64,192,156177,128,0,156677:0:0:0:0:
192,192,156177,1,0,0:0:0:0:
192,192,156677,128,0,157011:0:0:0:0:
320,192,157011,128,0,157344:0:0:0:0:
448,192,157344,128,0,157511:0:0:0:0:
64,192,157511,128,0,158344:0:0:0:0:
192,192,157511,1,0,0:0:0:0:
192,192,158344,128,0,158511:0:0:0:0:
320,192,158511,128,0,158677:0:0:0:0:
448,192,158677,128,0,158844:0:0:0:0:
192,192,158844,128,0,159511:0:0:0:0:
64,192,158844,1,0,0:0:0:0:
64,192,159511,128,0,160177:0:0:0:0:
320,192,159511,1,0,0:0:0:0:
448,192,160177,1,0,0:0:0:0:
64,192,160844,128,0,161011:0:0:0:0:
192,192,161011,128,0,161177:0:0:0:0:
448,192,161177,128,0,161344:0:0:0:0:
320,192,161344,128,0,161511:0:0:0:0:
64,192,161511,128,0,161677:0:0:0:0:
192,192,161511,1,0,0:0:0:0:
448,192,161677,128,0,162011:0:0:0:0:
320,192,162011,128,0,162344:0:0:0:0:
192,192,162344,128,0,162677:0:0:0:0:
64,192,162677,128,0,162844:0:0:0:0:
448,192,162844,128,0,163677:0:0:0:0:
320,192,162844,1,0,0:0:0:0:
64,192,163677,128,0,163844:0:0:0:0:
320,192,163844,128,0,164011:0:0:0:0:
448,192,164011,128,0,164177:0:0:0:0:
192,192,164177,128,0,164844:0:0:0:0:
64,192,164177,1,0,0:0:0:0:
320,192,164844,128,0,165511:0:0:0:0:
448,192,164844,1,0,0:0:0:0:
64,192,165511,1,0,0:0:0:0:
192,192,166177,128,0,166344:0:0:0:0:
448,192,166344,128,0,166511:0:0:0:0:
320,192,166511,128,0,166677:0:0:0:0:
64,192,166677,128,0,166844:0:0:0:0:
192,192,166844,1,0,0:0:0:0:
448,192,166844,128,0,167344:0:0:0:0:
192,192,167344,128,0,167677:0:0:0:0:
320,192,167677,128,0,168011:0:0:0:0:
448,192,168011,128,0,168177:0:0:0:0:
64,192,168177,1,0,0:0:0:0:
192,192,168177,1,0,0:0:0:0:
320,192,168261,1,0,0:0:0:0:
64,192,168344,1,0,0:0:0:0:
320,192,168427,1,0,0:0:0:0:
64,192,168511,1,0,0:0:0:0:
320,192,168594,1,0,0:0:0:0:
64,192,168677,1,0,0:0:0:0:
320,192,168761,1,0,0:0:0:0:
192,192,168844,1,0,0:0:0:0:
448,192,168927,1,0,0:0:0:0:
192,192,169011,1,0,0:0:0:0:
448,192,169094,1,0,0:0:0:0:
192,192,169177,1,0,0:0:0:0:
448,192,169261,1,0,0:0:0:0:
192,192,169344,1,0,0:0:0:0:
448,192,169427,1,0,0:0:0:0:
320,192,169511,1,0,0:0:0:0:
192,192,169594,1,0,0:0:0:0:
64,192,169677,1,0,0:0:0:0:
448,192,169719,1,0,0:0:0:0:
320,192,169761,1,0,0:0:0:0:
192,192,169802,1,0,0:0:0:0:
64,192,169844,1,0,0:0:0:0:
448,192,169927,1,0,0:0:0:0:
64,192,170011,1,0,0:0:0:0:
192,192,170052,1,0,0:0:0:0:
320,192,170094,1,0,0:0:0:0:
448,192,170136,1,0,0:0:0:0:
64,192,170177,1,4,0:0:0:0:
192,192,170177,1,0,0:0:0:0:
320,192,170261,1,0,0:0:0:0:
448,192,170344,1,0,0:0:0:0:
64,192,170427,1,0,0:0:0:0:
192,192,170511,1,0,0:0:0:0:
320,192,170594,1,0,0:0:0:0:
448,192,170677,1,0,0:0:0:0:
64,192,170761,1,0,0:0:0:0:
320,192,170844,1,4,0:0:0:0:
192,192,170844,1,2,0:0:0:0:
448,192,170844,1,0,0:0:0:0:
320,192,171344,1,2,0:0:0:0:
448,192,171344,1,0,0:0:0:0:
192,192,171511,128,0,171677:0:0:0:0:
64,192,171677,1,2,0:0:0:0:
320,192,171677,128,0,171844:0:0:0:0:
448,192,171844,128,0,172011:0:0:0:0:
64,192,172011,128,0,172177:0:0:0:0:
192,192,172177,1,2,0:0:0:0:
320,192,172177,1,0,0:0:0:0:
448,192,172344,128,0,172511:0:0:0:0:
192,192,172677,1,2,0:0:0:0:
320,192,172677,128,0,172844:0:0:0:0:
64,192,173011,1,2,0:0:0:0:
192,192,173011,128,0,173177:0:0:0:0:
320,192,173177,1,2,0:0:0:0:
448,192,173177,1,0,0:0:0:0:
64,192,173261,1,2,0:0:0:0:
192,192,173261,1,0,0:0:0:0:
320,192,173344,1,2,0:0:0:0:
448,192,173344,128,0,173511:0:0:0:0:
192,192,173511,1,2,0:0:0:0:
64,192,173511,1,0,0:0:0:0:
64,192,174011,1,2,0:0:0:0:
192,192,174011,1,0,0:0:0:0:
192,192,174344,1,2,0:0:0:0:
320,192,174344,128,0,174511:0:0:0:0:
64,192,174511,128,0,174677:0:0:0:0:
192,192,174677,128,0,174844:0:0:0:0:
320,192,174844,1,2,0:0:0:0:
448,192,174844,1,0,0:0:0:0:
448,192,175344,1,0,0:0:0:0:
320,192,175344,1,2,0:0:0:0:
64,192,175511,1,2,0:0:0:0:
192,192,175511,128,0,175677:0:0:0:0:
320,192,175677,1,2,0:0:0:0:
448,192,175677,1,0,0:0:0:0:
64,192,175844,1,6,0:0:0:0:
192,192,175886,1,2,0:0:0:0:
320,192,175927,1,2,0:0:0:0:
448,192,175969,1,2,0:0:0:0:
64,192,176011,1,2,0:0:0:0:
192,192,176011,1,0,0:0:0:0:
320,192,176094,1,2,0:0:0:0:
448,192,176094,1,0,0:0:0:0:
64,192,176177,1,2,0:0:0:0:
192,192,176177,1,4,0:0:0:0:
192,192,176677,1,2,0:0:0:0:
448,192,176677,1,0,0:0:0:0:
64,192,176844,128,0,177011:0:0:0:0:
320,192,177011,1,2,0:0:0:0:
448,192,177011,128,0,177177:0:0:0:0:
192,192,177177,128,0,177344:0:0:0:0:
320,192,177344,128,0,177511:0:0:0:0:
64,192,177511,1,2,0:0:0:0:
448,192,177511,1,0,0:0:0:0:
192,192,178011,1,2,0:0:0:0:
320,192,178011,128,0,178177:0:0:0:0:
192,192,178344,1,2,0:0:0:0:
64,192,178344,128,0,178511:0:0:0:0:
320,192,178511,1,2,0:0:0:0:
448,192,178511,1,0,0:0:0:0:
64,192,178594,1,2,0:0:0:0:
192,192,178594,1,0,0:0:0:0:
320,192,178677,1,2,0:0:0:0:
448,192,178677,128,0,178844:0:0:0:0:
192,192,178844,1,2,0:0:0:0:
64,192,178844,1,0,0:0:0:0:
64,192,179344,1,2,0:0:0:0:
192,192,179344,1,0,0:0:0:0:
320,192,179677,1,2,0:0:0:0:
448,192,179677,128,0,179844:0:0:0:0:
64,192,179844,128,0,180011:0:0:0:0:
320,192,180011,128,0,180177:0:0:0:0:
192,192,180177,1,2,0:0:0:0:
448,192,180177,1,0,0:0:0:0:
320,192,180677,1,2,0:0:0:0:
448,192,180677,1,0,0:0:0:0:
192,192,180844,1,2,0:0:0:0:
64,192,180844,128,0,181011:0:0:0:0:
320,192,181011,1,2,0:0:0:0:
448,192,181011,1,0,0:0:0:0:
192,192,181177,1,2,0:0:0:0:
64,192,181219,1,2,0:0:0:0:
320,192,181261,1,2,0:0:0:0:
448,192,181302,1,2,0:0:0:0:
64,192,181344,1,2,0:0:0:0:
192,192,181344,1,0,0:0:0:0:
320,192,181427,1,2,0:0:0:0:
448,192,181427,1,0,0:0:0:0:
64,192,181511,1,2,0:0:0:0:
192,192,181511,1,4,0:0:0:0:
192,192,182011,1,2,0:0:0:0:
448,192,182011,1,0,0:0:0:0:
320,192,182177,128,0,182344:0:0:0:0:
64,192,182344,1,2,0:0:0:0:
448,192,182344,128,0,182511:0:0:0:0:
192,192,182511,128,0,182677:0:0:0:0:
64,192,182677,128,0,182844:0:0:0:0:
320,192,182844,1,2,0:0:0:0:
448,192,182844,1,0,0:0:0:0:
192,192,183011,128,0,183177:0:0:0:0:
64,192,183344,1,2,0:0:0:0:
320,192,183344,128,0,183511:0:0:0:0:
192,192,183677,1,2,0:0:0:0:
64,192,183677,128,0,183844:0:0:0:0:
320,192,183844,1,2,0:0:0:0:
448,192,183844,1,0,0:0:0:0:
64,192,183927,1,2,0:0:0:0:
192,192,183927,1,0,0:0:0:0:
320,192,184011,1,2,0:0:0:0:
448,192,184011,128,0,184177:0:0:0:0:
192,192,184177,1,2,0:0:0:0:
64,192,184177,1,0,0:0:0:0:
192,192,184677,1,2,0:0:0:0:
320,192,184677,1,0,0:0:0:0:
320,192,185011,1,2,0:0:0:0:
448,192,185011,128,0,185177:0:0:0:0:
192,192,185177,128,0,185344:0:0:0:0:
64,192,185344,128,0,185511:0:0:0:0:
448,192,185511,1,2,0:0:0:0:
320,192,185511,1,0,0:0:0:0:
320,192,186011,1,2,0:0:0:0:
448,192,186011,1,0,0:0:0:0:
192,192,186177,1,2,0:0:0:0:
64,192,186177,128,0,186344:0:0:0:0:
448,192,186344,1,2,0:0:0:0:
320,192,186344,1,0,0:0:0:0:
192,192,186511,1,6,0:0:0:0:
64,192,186552,1,2,0:0:0:0:
448,192,186594,1,2,0:0:0:0:
320,192,186636,1,2,0:0:0:0:
64,192,186677,1,2,0:0:0:0:
192,192,186677,1,0,0:0:0:0:
320,192,186761,1,2,0:0:0:0:
448,192,186761,1,0,0:0:0:0:
64,192,186844,1,2,0:0:0:0:
192,192,186844,1,4,0:0:0:0:
320,192,187011,1,0,0:0:0:0:
448,192,187177,1,0,0:0:0:0:
64,192,187344,1,0,0:0:0:0:
192,192,187511,128,0,187677:0:0:0:0:
320,192,187677,128,0,187844:0:0:0:0:
448,192,187844,128,0,188011:0:0:0:0:
320,192,188011,128,0,188677:0:0:0:0:
64,192,188177,1,0,0:0:0:0:
448,192,188344,1,0,0:0:0:0:
192,192,188511,1,0,0:0:0:0:
64,192,188677,128,0,189011:0:0:0:0:
448,192,188844,1,0,0:0:0:0:
192,192,189011,128,0,189344:0:0:0:0:
448,192,189177,1,0,0:0:0:0:
320,192,189344,128,0,190177:0:0:0:0:
64,192,189511,1,0,0:0:0:0:
192,192,189677,1,0,0:0:0:0:
448,192,189844,1,0,0:0:0:0:
64,192,190011,1,0,0:0:0:0:
448,192,190177,128,0,190844:0:0:0:0:
192,192,190344,1,0,0:0:0:0:
64,192,190511,1,0,0:0:0:0:
192,192,190677,1,0,0:0:0:0:
320,192,190844,128,0,191177:0:0:0:0:
64,192,191011,1,0,0:0:0:0:
192,192,191177,128,0,191344:0:0:0:0:
448,192,191344,128,0,191844:0:0:0:0:
64,192,191511,1,0,0:0:0:0:
192,192,191677,1,0,0:0:0:0:
64,192,191844,128,0,194844:0:0:0:0:
320,192,192011,1,0,0:0:0:0:
448,192,194177,1,4,0:0:0:0:
320,192,194844,1,4,0:0:0:0:
448,192,194844,1,0,0:0:0:0:
192,192,194927,1,0,0:0:0:0:
64,192,195011,1,0,0:0:0:0:
320,192,195094,1,0,0:0:0:0:
448,192,195261,1,0,0:0:0:0:
64,192,195344,1,0,0:0:0:0:
192,192,195511,1,0,0:0:0:0:
448,192,195677,1,0,0:0:0:0:
320,192,195761,1,0,0:0:0:0:
64,192,195927,1,0,0:0:0:0:
192,192,196011,1,0,0:0:0:0:
320,192,196177,1,0,0:0:0:0:
448,192,196344,1,0,0:0:0:0:
64,192,196427,1,0,0:0:0:0:
192,192,196594,1,0,0:0:0:0:
320,192,196677,1,0,0:0:0:0:
448,192,196761,1,0,0:0:0:0:
64,192,196844,1,0,0:0:0:0:
320,192,197011,1,0,0:0:0:0:
64,192,197094,1,0,0:0:0:0:
192,192,197261,1,0,0:0:0:0:
448,192,197344,1,0,0:0:0:0:
64,192,197511,1,0,0:0:0:0:
192,192,197594,1,0,0:0:0:0:
320,192,197677,1,0,0:0:0:0:
448,192,197761,1,0,0:0:0:0:
192,192,197927,1,0,0:0:0:0:
64,192,198011,1,0,0:0:0:0:
448,192,198177,1,0,0:0:0:0:
320,192,198261,1,0,0:0:0:0:
192,192,198344,1,0,0:0:0:0:
64,192,198427,1,0,0:0:0:0:
320,192,198594,1,0,0:0:0:0:
448,192,198677,1,0,0:0:0:0:
64,192,198844,1,0,0:0:0:0:
320,192,198927,1,0,0:0:0:0:
192,192,199011,1,0,0:0:0:0:
448,192,199094,1,0,0:0:0:0:
320,192,199261,1,0,0:0:0:0:
64,192,199344,1,0,0:0:0:0:
448,192,199511,1,0,0:0:0:0:
192,192,199594,1,0,0:0:0:0:
320,192,199677,1,0,0:0:0:0:
64,192,199761,1,0,0:0:0:0:
192,192,199927,1,0,0:0:0:0:
448,192,200011,1,0,0:0:0:0:
64,192,200177,1,0,0:0:0:0:
192,192,200261,1,0,0:0:0:0:
448,192,200344,1,0,0:0:0:0:
320,192,200427,1,0,0:0:0:0:
64,192,200594,1,0,0:0:0:0:
448,192,200677,1,0,0:0:0:0:
192,192,200844,1,0,0:0:0:0:
320,192,201011,1,0,0:0:0:0:
448,192,201094,1,0,0:0:0:0:
192,192,201261,1,0,0:0:0:0:
64,192,201344,1,0,0:0:0:0:
320,192,201511,1,0,0:0:0:0:
192,192,201677,1,0,0:0:0:0:
448,192,201761,1,0,0:0:0:0:
64,192,201927,1,0,0:0:0:0:
192,192,202011,1,0,0:0:0:0:
320,192,202094,1,0,0:0:0:0:
448,192,202177,1,0,0:0:0:0:
64,192,202344,1,0,0:0:0:0:
192,192,202427,1,0,0:0:0:0:
448,192,202594,1,0,0:0:0:0:
320,192,202677,1,0,0:0:0:0:
192,192,202844,1,0,0:0:0:0:
64,192,202927,1,0,0:0:0:0:
448,192,203011,1,0,0:0:0:0:
320,192,203094,1,0,0:0:0:0:
64,192,203261,1,0,0:0:0:0:
192,192,203344,1,0,0:0:0:0:
320,192,203511,1,0,0:0:0:0:
448,192,203594,1,0,0:0:0:0:
64,192,203677,1,0,0:0:0:0:
192,192,203761,1,0,0:0:0:0:
448,192,203927,1,0,0:0:0:0:
320,192,204011,1,0,0:0:0:0:
192,192,204177,1,0,0:0:0:0:
448,192,204261,1,0,0:0:0:0:
64,192,204344,1,0,0:0:0:0:
320,192,204427,1,0,0:0:0:0:
192,192,204594,1,0,0:0:0:0:
448,192,204677,1,0,0:0:0:0:
320,192,204844,1,0,0:0:0:0:
64,192,204927,1,0,0:0:0:0:
448,192,205011,1,0,0:0:0:0:
192,192,205094,1,0,0:0:0:0:
320,192,205261,1,0,0:0:0:0:
64,192,205344,1,0,0:0:0:0:
448,192,205511,1,0,0:0:0:0:
320,192,205594,1,0,0:0:0:0:
192,192,205677,1,0,0:0:0:0:
64,192,205761,1,0,0:0:0:0:
320,192,205927,1,0,0:0:0:0:
192,192,206011,1,0,0:0:0:0:
64,192,206177,1,0,0:0:0:0:
320,192,206344,1,0,0:0:0:0:
448,192,206427,1,0,0:0:0:0:
192,192,206594,1,0,0:0:0:0:
320,192,206677,1,0,0:0:0:0:
64,192,206844,1,0,0:0:0:0:
448,192,207011,1,0,0:0:0:0:
320,192,207094,1,0,0:0:0:0:
64,192,207261,1,0,0:0:0:0:
448,192,207344,1,0,0:0:0:0:
320,192,207427,1,0,0:0:0:0:
192,192,207511,1,0,0:0:0:0:
64,192,207677,1,0,0:0:0:0:
320,192,207761,1,0,0:0:0:0:
448,192,207927,1,0,0:0:0:0:
192,192,208011,1,0,0:0:0:0:
448,192,208177,1,0,0:0:0:0:
320,192,208261,1,0,0:0:0:0:
192,192,208344,1,0,0:0:0:0:
64,192,208427,1,0,0:0:0:0:
192,192,208594,1,0,0:0:0:0:
448,192,208677,1,0,0:0:0:0:
64,192,208844,1,0,0:0:0:0:
192,192,208927,1,0,0:0:0:0:
320,192,209011,1,0,0:0:0:0:
448,192,209094,1,0,0:0:0:0:
320,192,209261,1,0,0:0:0:0:
64,192,209344,1,0,0:0:0:0:
192,192,209511,1,0,0:0:0:0:
448,192,209594,1,0,0:0:0:0:
320,192,209677,1,0,0:0:0:0:
64,192,209761,1,0,0:0:0:0:
192,192,209927,1,0,0:0:0:0:
448,192,210011,1,0,0:0:0:0:
320,192,210177,1,0,0:0:0:0:
64,192,210261,1,0,0:0:0:0:
192,192,210344,1,0,0:0:0:0:
448,192,210427,1,0,0:0:0:0:
320,192,210594,1,0,0:0:0:0:
64,192,210677,1,0,0:0:0:0:
192,192,210844,1,0,0:0:0:0:
64,192,210927,1,0,0:0:0:0:
448,192,211011,1,0,0:0:0:0:
320,192,211094,1,0,0:0:0:0:
64,192,211261,1,0,0:0:0:0:
192,192,211344,1,0,0:0:0:0:
320,192,211511,1,0,0:0:0:0:
192,192,211677,1,0,0:0:0:0:
448,192,211761,1,0,0:0:0:0:
320,192,211927,1,0,0:0:0:0:
64,192,212011,1,0,0:0:0:0:
448,192,212177,1,0,0:0:0:0:
320,192,212344,1,0,0:0:0:0:
192,192,212427,1,0,0:0:0:0:
64,192,212594,1,0,0:0:0:0:
320,192,212677,1,0,0:0:0:0:
448,192,212761,1,0,0:0:0:0:
192,192,212844,1,0,0:0:0:0:
320,192,213011,1,0,0:0:0:0:
64,192,213094,1,0,0:0:0:0:
448,192,213261,1,0,0:0:0:0:
192,192,213344,1,0,0:0:0:0:
64,192,213511,1,0,0:0:0:0:
192,192,213594,1,0,0:0:0:0:
320,192,213677,1,0,0:0:0:0:
448,192,213761,1,0,0:0:0:0:
320,192,213927,1,0,0:0:0:0:
64,192,214011,1,0,0:0:0:0:
448,192,214177,1,0,0:0:0:0:
320,192,214261,1,0,0:0:0:0:
192,192,214344,1,0,0:0:0:0:
64,192,214427,1,0,0:0:0:0:
192,192,214594,1,0,0:0:0:0:
448,192,214677,1,0,0:0:0:0:
64,192,214844,1,0,0:0:0:0:
320,192,214927,1,0,0:0:0:0:
192,192,215011,1,0,0:0:0:0:
448,192,215094,1,0,0:0:0:0:
320,192,215261,1,0,0:0:0:0:
192,192,215344,1,0,0:0:0:0:
64,192,215511,1,4,0:0:0:0:
448,192,215511,1,0,0:0:0:0:
192,192,215594,1,0,0:0:0:0:
320,192,215677,1,0,0:0:0:0:
64,192,215761,1,0,0:0:0:0:
192,192,215927,1,0,0:0:0:0:
320,192,216011,1,0,0:0:0:0:
64,192,216177,1,4,0:0:0:0:
192,192,216177,1,0,0:0:0:70:Tekdung.wav
448,192,216177,1,0,0:0:0:0:
320,192,216261,1,0,0:0:0:0:
64,192,216344,1,0,0:0:0:0:
192,192,216427,1,0,0:0:0:0:
64,192,216594,1,0,0:0:0:0:
192,192,216677,1,0,0:0:0:0:
448,192,216844,1,0,0:0:0:0:
320,192,217011,1,0,0:0:0:0:
448,192,217094,1,0,0:0:0:0:
320,192,217261,1,0,0:0:0:0:
448,192,217344,1,0,0:0:0:0:
192,192,217511,1,0,0:0:0:0:
320,192,217677,1,0,0:0:0:0:
448,192,217761,1,0,0:0:0:0:
320,192,217927,1,0,0:0:0:0:
448,192,218011,1,0,0:0:0:0:
64,192,218094,1,0,0:0:0:0:
192,192,218177,1,0,0:0:0:0:
64,192,218344,1,0,0:0:0:0:
192,192,218427,1,0,0:0:0:0:
64,192,218594,1,0,0:0:0:0:
192,192,218677,1,0,0:0:0:0:
64,192,218844,1,0,0:0:0:0:
320,192,218927,1,0,0:0:0:0:
448,192,219011,1,0,0:0:0:0:
192,192,219094,1,0,0:0:0:0:
448,192,219261,1,0,0:0:0:0:
192,192,219344,1,0,0:0:0:0:
448,192,219511,1,0,0:0:0:0:
192,192,219594,1,0,0:0:0:0:
64,192,219677,1,0,0:0:0:0:
320,192,219761,1,0,0:0:0:0:
64,192,219927,1,0,0:0:0:0:
320,192,220011,1,0,0:0:0:0:
64,192,220177,1,0,0:0:0:0:
448,192,220261,1,0,0:0:0:0:
192,192,220344,1,0,0:0:0:0:
320,192,220427,1,0,0:0:0:0:
192,192,220594,1,0,0:0:0:0:
320,192,220677,1,0,0:0:0:0:
192,192,220844,1,4,0:0:0:0:
448,192,220844,1,0,0:0:0:0:
64,192,220927,1,0,0:0:0:0:
320,192,221011,1,0,0:0:0:0:
192,192,221094,1,0,0:0:0:0:
320,192,221261,1,0,0:0:0:0:
192,192,221344,1,0,0:0:0:0:
64,192,221511,1,4,0:0:0:0:
448,192,221511,1,0,0:0:0:70:Tekdung.wav
320,192,221511,1,0,0:0:0:0:
192,192,221594,1,0,0:0:0:0:
320,192,221677,1,0,0:0:0:0:
448,192,221761,1,0,0:0:0:0:
320,192,221927,1,0,0:0:0:0:
448,192,222011,1,0,0:0:0:0:
64,192,222177,1,0,0:0:0:0:
192,192,222344,1,0,0:0:0:0:
64,192,222427,1,0,0:0:0:0:
192,192,222594,1,0,0:0:0:0:
64,192,222677,1,0,0:0:0:0:
320,192,222844,1,0,0:0:0:0:
192,192,223011,1,0,0:0:0:0:
448,192,223094,1,0,0:0:0:0:
192,192,223261,1,0,0:0:0:0:
448,192,223344,1,0,0:0:0:0:
320,192,223427,1,0,0:0:0:0:
64,192,223511,1,0,0:0:0:0:
320,192,223677,1,0,0:0:0:0:
64,192,223761,1,0,0:0:0:0:
320,192,223927,1,0,0:0:0:0:
64,192,224011,1,0,0:0:0:0:
448,192,224177,1,0,0:0:0:0:
320,192,224261,1,0,0:0:0:0:
192,192,224344,1,0,0:0:0:0:
64,192,224427,1,0,0:0:0:0:
192,192,224594,1,0,0:0:0:0:
64,192,224677,1,0,0:0:0:0:
192,192,224844,1,0,0:0:0:0:
64,192,224927,1,0,0:0:0:0:
320,192,225011,1,0,0:0:0:0:
448,192,225094,1,0,0:0:0:0:
320,192,225261,1,0,0:0:0:0:
448,192,225344,1,0,0:0:0:0:
192,192,225511,1,0,0:0:0:0:
448,192,225594,1,0,0:0:0:0:
64,192,225677,1,0,0:0:0:0:
320,192,225761,1,0,0:0:0:0:
64,192,225927,1,0,0:0:0:0:
320,192,226011,1,0,0:0:0:0:
448,192,226177,1,0,0:0:0:0:
64,192,226177,1,4,0:0:0:0:
320,192,226261,1,0,0:0:0:0:
192,192,226344,1,0,0:0:0:0:
448,192,226427,1,0,0:0:0:0:
192,192,226594,1,0,0:0:0:0:
448,192,226677,1,0,0:0:0:0:
64,192,226844,1,4,0:0:0:0:
320,192,226844,1,0,0:0:0:70:Tekdung.wav
192,192,226844,1,0,0:0:0:0:
448,192,226927,1,0,0:0:0:0:
64,192,227011,1,0,0:0:0:0:
320,192,227094,1,0,0:0:0:0:
64,192,227261,1,0,0:0:0:0:
320,192,227344,1,0,0:0:0:0:
192,192,227511,1,0,0:0:0:0:
448,192,227677,1,0,0:0:0:0:
192,192,227761,1,0,0:0:0:0:
448,192,227927,1,0,0:0:0:0:
192,192,228011,1,0,0:0:0:0:
320,192,228177,1,0,0:0:0:0:
64,192,228344,1,0,0:0:0:0:
192,192,228427,1,0,0:0:0:0:
64,192,228594,1,0,0:0:0:0:
192,192,228677,1,0,0:0:0:0:
320,192,228761,1,0,0:0:0:0:
448,192,228844,1,0,0:0:0:0:
320,192,229011,1,0,0:0:0:0:
448,192,229094,1,0,0:0:0:0:
64,192,229177,1,4,0:0:0:0:
192,192,229177,1,0,0:0:0:0:
320,192,229344,1,0,0:0:0:0:
64,192,229511,1,4,0:0:0:0:
192,192,229511,1,0,0:0:0:0:
448,192,229594,1,0,0:0:0:0:
320,192,229677,1,0,0:0:0:0:
192,192,229761,1,0,0:0:0:0:
320,192,229927,1,0,0:0:0:0:
192,192,230011,1,0,0:0:0:0:
448,192,230177,1,0,0:0:0:0:
64,192,230261,1,0,0:0:0:0:
192,192,230344,1,0,0:0:0:0:
320,192,230427,1,0,0:0:0:0:
64,192,230511,1,4,0:0:0:0:
448,192,230511,1,0,0:0:0:0:
192,192,230594,1,0,0:0:0:0:
320,192,230677,1,0,0:0:0:0:
64,192,230844,1,4,0:0:0:0:
448,192,230844,1,0,0:0:0:0:
320,192,230927,1,0,0:0:0:0:
192,192,231011,1,0,0:0:0:0:
448,192,231094,1,0,0:0:0:0:
64,192,231261,1,4,0:0:0:0:
192,192,231261,1,0,0:0:0:0:
448,192,231344,1,0,0:0:0:0:
64,192,231511,1,4,0:0:0:0:
320,192,231511,1,0,0:0:0:0:
192,192,231594,1,0,0:0:0:0:
448,192,231677,1,0,0:0:0:0:
64,192,231761,1,0,0:0:0:0:
192,192,231844,1,4,0:0:0:0:
320,192,231844,1,0,0:0:0:0:
448,192,231927,1,0,0:0:0:0:
64,192,232011,1,0,0:0:0:0:
320,192,232177,1,4,0:0:0:0:
448,192,232177,1,0,0:0:0:0:
192,192,232261,1,0,0:0:0:0:
64,192,232344,1,0,0:0:0:0:
448,192,232427,1,0,0:0:0:0:
64,192,232594,1,0,0:0:0:0:
448,192,232677,1,0,0:0:0:0:
192,192,232844,1,0,0:0:0:0:
320,192,233011,1,0,0:0:0:0:
192,192,233094,1,0,0:0:0:0:
448,192,233177,1,4,0:0:0:0:
64,192,233177,1,0,0:0:0:0:
320,192,233261,1,0,0:0:0:0:
192,192,233344,1,0,0:0:0:0:
64,192,233511,1,4,0:0:0:0:
320,192,233511,1,0,0:0:0:0:
192,192,233677,1,0,0:0:0:0:
448,192,233761,1,0,0:0:0:0:
192,192,233927,1,0,0:0:0:0:
448,192,234011,1,0,0:0:0:0:
64,192,234094,1,0,0:0:0:0:
320,192,234177,1,0,0:0:0:0:
64,192,234344,1,0,0:0:0:0:
320,192,234427,1,0,0:0:0:0:
448,192,234511,1,4,0:0:0:0:
192,192,234511,1,0,0:0:0:0:
64,192,234677,1,0,0:0:0:0:
192,192,234844,1,4,0:0:0:0:
448,192,234844,1,2,0:0:0:0:
320,192,234927,1,2,0:0:0:0:
192,192,235011,1,2,0:0:0:0:
448,192,235094,1,2,0:0:0:0:
64,192,235177,1,2,0:0:0:0:
192,192,235261,1,2,0:0:0:0:
320,192,235344,1,2,0:0:0:0:
64,192,235427,1,2,0:0:0:0:
192,192,235511,1,4,0:0:0:0:
448,192,235511,1,2,0:0:0:0:
320,192,235594,1,2,0:0:0:0:
192,192,235677,1,2,0:0:0:0:
448,192,235761,1,2,0:0:0:0:
64,192,235844,1,2,0:0:0:0:
192,192,235927,1,2,0:0:0:0:
320,192,236011,1,2,0:0:0:0:
64,192,236094,1,2,0:0:0:0:
192,192,236177,1,4,0:0:0:0:
448,192,236177,1,2,0:0:0:0:
320,192,236261,1,2,0:0:0:0:
64,192,236344,1,2,0:0:0:0:
192,192,236386,1,2,0:0:0:0:
320,192,236427,1,2,0:0:0:0:
448,192,236469,1,2,0:0:0:0:
192,192,236511,1,4,0:0:0:0:
64,192,236511,1,2,0:0:0:0:
320,192,236594,1,2,0:0:0:0:
192,192,236677,1,2,0:0:0:0:
64,192,236719,1,2,0:0:0:0:
448,192,236761,1,2,0:0:0:0:
320,192,236802,1,2,0:0:0:0:
64,192,236844,1,4,0:0:0:0:
192,192,236844,1,2,0:0:0:0:
448,192,236927,1,2,0:0:0:0:
320,192,237011,1,2,0:0:0:0:
192,192,237094,1,2,0:0:0:0:
320,192,237177,1,4,0:0:0:0:
448,192,237177,1,2,0:0:0:0:
64,192,237261,1,2,0:0:0:0:
448,192,237344,1,2,0:0:0:0:
320,192,237386,1,2,0:0:0:0:
192,192,237427,1,2,0:0:0:0:
64,192,237469,1,2,0:0:0:0:
448,192,237511,1,6,0:0:0:0:
320,192,237511,1,0,0:0:0:70:Tekdung.wav
192,192,237594,1,0,0:0:0:0:
64,192,237677,1,0,0:0:0:0:
448,192,237761,1,0,0:0:0:0:
64,192,237927,1,0,0:0:0:0:
448,192,238011,1,0,0:0:0:0:
320,192,238177,1,0,0:0:0:0:
192,192,238344,1,0,0:0:0:0:
320,192,238427,1,0,0:0:0:0:
192,192,238594,1,0,0:0:0:0:
320,192,238677,1,0,0:0:0:0:
448,192,238844,1,0,0:0:0:0:
192,192,238927,1,0,0:0:0:0:
320,192,239011,1,0,0:0:0:0:
64,192,239094,1,0,0:0:0:0:
320,192,239261,1,0,0:0:0:0:
64,192,239344,1,0,0:0:0:0:
320,192,239511,1,4,0:0:0:0:
448,192,239511,1,0,0:0:0:0:
448,192,239677,1,0,0:0:0:0:
192,192,239761,1,0,0:0:0:0:
448,192,239927,1,0,0:0:0:0:
192,192,240011,1,0,0:0:0:0:
64,192,240177,1,4,0:0:0:0:
448,192,240177,1,0,0:0:0:70:Tekdung.wav
320,192,240177,1,0,0:0:0:0:
192,192,240261,1,0,0:0:0:0:
64,192,240344,1,0,0:0:0:0:
448,192,240427,1,0,0:0:0:0:
64,192,240594,1,0,0:0:0:0:
448,192,240677,1,0,0:0:0:0:
320,192,240844,1,0,0:0:0:0:
192,192,241011,1,0,0:0:0:0:
320,192,241094,1,0,0:0:0:0:
192,192,241261,1,0,0:0:0:0:
320,192,241344,1,0,0:0:0:0:
448,192,241511,1,0,0:0:0:0:
192,192,241594,1,0,0:0:0:0:
320,192,241677,1,0,0:0:0:0:
64,192,241761,1,0,0:0:0:0:
320,192,241927,1,0,0:0:0:0:
64,192,242011,1,0,0:0:0:0:
320,192,242177,1,4,0:0:0:0:
448,192,242177,1,0,0:0:0:0:
448,192,242344,1,0,0:0:0:0:
192,192,242427,1,0,0:0:0:0:
448,192,242594,1,0,0:0:0:0:
192,192,242677,1,0,0:0:0:0:
320,192,242844,1,4,0:0:0:0:
448,192,242844,1,0,0:0:0:60:Tekdung.wav
64,192,242844,1,0,0:0:0:0:
192,192,242927,1,0,0:0:0:0:
64,192,243011,1,0,0:0:0:0:
448,192,243094,1,0,0:0:0:0:
64,192,243261,1,0,0:0:0:0:
448,192,243344,1,0,0:0:0:0:
320,192,243511,1,0,0:0:0:0:
192,192,243677,1,0,0:0:0:0:
320,192,243761,1,0,0:0:0:0:
192,192,243927,1,0,0:0:0:0:
320,192,244011,1,0,0:0:0:0:
320,192,244177,1,4,0:0:0:0:
64,192,244177,1,0,0:0:0:60:Tekdung.wav
448,192,244177,1,0,0:0:0:0:
192,192,244261,1,0,0:0:0:0:
64,192,244344,1,0,0:0:0:0:
448,192,244427,1,0,0:0:0:0:
64,192,244594,1,0,0:0:0:0:
448,192,244677,1,0,0:0:0:0:
320,192,244844,1,0,0:0:0:0:
192,192,245011,1,0,0:0:0:0:
320,192,245094,1,0,0:0:0:0:
192,192,245261,1,0,0:0:0:0:
320,192,245344,1,0,0:0:0:0:
320,192,245511,1,4,0:0:0:0:
448,192,245511,1,0,0:0:0:50:Tekdung.wav
64,192,245511,1,0,0:0:0:0:
192,192,245594,1,0,0:0:0:0:
64,192,245677,1,0,0:0:0:0:
448,192,245761,1,0,0:0:0:0:
64,192,245927,1,0,0:0:0:0:
448,192,246011,1,0,0:0:0:0:
64,192,246177,1,4,0:0:0:0:
320,192,246177,1,0,0:0:0:50:Tekdung.wav
448,192,246177,1,0,0:0:0:0:
192,192,246344,1,0,0:0:0:0:
320,192,246427,1,0,0:0:0:0:
192,192,246594,1,0,0:0:0:0:
320,192,246677,1,0,0:0:0:0:
320,192,246844,1,4,0:0:0:0:
448,192,246844,1,0,0:0:0:40:Tekdung.wav
64,192,246844,1,0,0:0:0:0:
192,192,246927,1,0,0:0:0:0:
320,192,247011,1,0,0:0:0:0:
192,192,247094,1,0,0:0:0:0:
64,192,247177,1,4,0:0:0:0:
448,192,247177,1,0,0:0:0:0:
320,192,247261,1,0,0:0:0:0:
192,192,247344,1,0,0:0:0:0:
64,192,247511,1,4,0:0:0:0:
448,192,247511,1,0,0:0:0:40:Tekdung.wav
320,192,247677,1,0,0:0:0:0:
192,192,247761,1,0,0:0:0:0:
64,192,247844,1,4,0:0:0:0:
448,192,247844,1,0,0:0:0:0:
320,192,248011,1,0,0:0:0:0:
448,192,248094,1,0,0:0:0:0:
64,192,248177,1,4,0:0:0:0:
192,192,248177,1,2,0:0:0:0:
320,192,248261,1,0,0:0:0:0:
64,192,248344,1,0,0:0:0:0:
192,192,248344,1,2,0:0:0:0:
320,192,248427,1,0,0:0:0:0:
64,192,248511,1,0,0:0:0:0:
192,192,248511,1,2,0:0:0:0:
320,192,248594,1,0,0:0:0:0:
192,192,248677,1,2,0:0:0:0:
448,192,248677,1,0,0:0:0:0:
320,192,248844,1,4,0:0:0:0:
448,192,248844,1,2,0:0:0:0:
192,192,248927,1,0,0:0:0:0:
320,192,249011,1,0,0:0:0:0:
448,192,249011,1,2,0:0:0:0:
192,192,249094,1,0,0:0:0:0:
448,192,249177,1,2,0:0:0:0:
320,192,249177,1,0,0:0:0:0:
192,192,249261,1,0,0:0:0:0:
64,192,249344,1,0,0:0:0:0:
320,192,249344,1,2,0:0:0:0:
64,192,249511,1,4,0:0:0:0:
192,192,249511,1,2,0:0:0:0:
320,192,249594,1,0,0:0:0:0:
64,192,249677,1,0,0:0:0:0:
192,192,249677,1,2,0:0:0:0:
320,192,249761,1,0,0:0:0:0:
64,192,249844,1,0,0:0:0:0:
192,192,249844,1,2,0:0:0:0:
320,192,249927,1,0,0:0:0:0:
448,192,250011,1,2,0:0:0:0:
64,192,250011,1,0,0:0:0:0:
320,192,250177,1,4,0:0:0:0:
448,192,250177,1,2,0:0:0:0:
192,192,250261,1,0,0:0:0:0:
448,192,250344,1,2,0:0:0:0:
320,192,250344,1,0,0:0:0:0:
192,192,250427,1,0,0:0:0:0:
320,192,250511,1,0,0:0:0:0:
448,192,250511,1,2,0:0:0:0:
192,192,250594,1,0,0:0:0:0:
448,192,250677,1,2,0:0:0:0:
320,192,250677,1,0,0:0:0:0:
64,192,250761,1,2,0:0:0:0:
192,192,250761,1,0,0:0:0:0:
448,192,250844,1,4,0:0:0:0:
320,192,250844,1,2,0:0:0:0:
64,192,250927,1,0,0:0:0:0:
320,192,251011,1,2,0:0:0:0:
448,192,251011,1,0,0:0:0:0:
64,192,251094,1,0,0:0:0:0:
448,192,251177,1,0,0:0:0:0:
320,192,251177,1,2,0:0:0:0:
64,192,251261,1,0,0:0:0:0:
320,192,251344,1,2,0:0:0:0:
192,192,251344,1,0,0:0:0:0:
64,192,251511,1,4,0:0:0:0:
192,192,251511,1,2,0:0:0:0:
448,192,251594,1,0,0:0:0:0:
192,192,251677,1,2,0:0:0:0:
64,192,251677,1,0,0:0:0:0:
448,192,251761,1,0,0:0:0:0:
64,192,251844,1,0,0:0:0:0:
192,192,251844,1,2,0:0:0:0:
448,192,251927,1,0,0:0:0:0:
320,192,252011,1,0,0:0:0:0:
192,192,252011,1,2,0:0:0:0:
320,192,252177,1,4,0:0:0:0:
448,192,252177,1,2,0:0:0:0:
64,192,252261,1,0,0:0:0:0:
448,192,252344,1,2,0:0:0:0:
320,192,252344,1,0,0:0:0:0:
64,192,252427,1,0,0:0:0:0:
320,192,252511,1,0,0:0:0:0:
448,192,252511,1,2,0:0:0:0:
64,192,252594,1,0,0:0:0:0:
448,192,252677,1,2,0:0:0:0:
192,192,252677,1,0,0:0:0:0:
192,192,252844,1,4,0:0:0:0:
64,192,252844,1,2,0:0:0:0:
448,192,252927,1,0,0:0:0:0:
192,192,253011,1,0,0:0:0:0:
64,192,253011,1,2,0:0:0:0:
448,192,253094,1,0,0:0:0:0:
64,192,253177,1,2,0:0:0:0:
192,192,253177,1,0,0:0:0:0:
448,192,253261,1,0,0:0:0:0:
64,192,253344,1,2,0:0:0:0:
192,192,253344,1,0,0:0:0:0:
320,192,253427,1,2,0:0:0:0:
448,192,253427,1,0,0:0:0:0:
64,192,253511,1,4,0:0:0:0:
192,192,253511,1,2,0:0:0:0:
448,192,253677,1,0,0:0:0:0:
64,192,253677,1,2,0:0:0:0:
320,192,253761,1,0,0:0:0:0:
192,192,253761,1,2,0:0:0:0:
64,192,253844,1,4,0:0:0:0:
448,192,253844,1,2,0:0:0:0:
320,192,254011,1,0,0:0:0:0:
448,192,254011,1,2,0:0:0:0:
64,192,254094,1,0,0:0:0:0:
192,192,254094,1,2,0:0:0:0:
320,192,254177,1,4,0:0:0:0:
448,192,254177,1,2,0:0:0:0:
192,192,254344,1,2,0:0:0:0:
320,192,254344,1,0,0:0:0:0:
448,192,254427,1,0,0:0:0:0:
64,192,254427,1,2,0:0:0:0:
192,192,254511,1,4,0:0:0:0:
320,192,254511,1,2,0:0:0:0:
64,192,254677,1,0,0:0:0:0:
192,192,254677,1,2,0:0:0:0:
320,192,254761,1,0,0:0:0:0:
448,192,254761,1,2,0:0:0:0:
64,192,254844,1,4,0:0:0:0:
192,192,254844,1,2,0:0:0:0:
64,192,255011,1,2,0:0:0:0:
320,192,255011,1,0,0:0:0:0:
448,192,255094,1,0,0:0:0:0:
192,192,255094,1,2,0:0:0:0:
64,192,255177,1,4,0:0:0:0:
320,192,255177,1,2,0:0:0:0:
448,192,255344,1,0,0:0:0:0:
320,192,255344,1,2,0:0:0:0:
64,192,255427,1,0,0:0:0:0:
192,192,255427,1,2,0:0:0:0:
448,192,255511,1,4,0:0:0:0:
320,192,255511,1,2,0:0:0:0:
448,192,255677,1,0,0:0:0:0:
192,192,255677,1,2,0:0:0:0:
320,192,255761,1,0,0:0:0:0:
64,192,255761,1,2,0:0:0:0:
192,192,255844,1,4,0:0:0:0:
448,192,255844,1,2,0:0:0:0:
64,192,256011,1,0,0:0:0:0:
320,192,256011,1,2,0:0:0:0:
448,192,256094,1,2,0:0:0:0:
64,192,256177,1,4,0:0:0:0:
192,192,256177,1,2,0:0:0:0:
320,192,256261,1,2,0:0:0:0:
448,192,256261,1,0,0:0:0:0:
64,192,256344,1,4,0:0:0:0:
192,192,256344,1,2,0:0:0:0:
320,192,256427,1,2,0:0:0:0:
448,192,256427,1,0,0:0:0:0:
64,192,256511,1,4,0:0:0:0:
192,192,256511,1,2,0:0:0:0:
320,192,256594,1,2,0:0:0:0:
448,192,256594,1,0,0:0:0:0:
64,192,256677,1,4,0:0:0:0:
192,192,256677,1,2,0:0:0:0:
320,192,256761,1,2,0:0:0:0:
448,192,256761,1,0,0:0:0:0:
64,192,256844,1,4,0:0:0:0:
192,192,256844,1,2,0:0:0:0:
320,192,256927,1,2,0:0:0:0:
448,192,256927,1,0,0:0:0:0:
64,192,257011,1,4,0:0:0:0:
192,192,257011,1,2,0:0:0:0:
320,192,257094,1,2,0:0:0:0:
448,192,257094,1,0,0:0:0:0:
64,192,257177,1,4,0:0:0:0:
192,192,257177,1,2,0:0:0:0:
320,192,257261,1,2,0:0:0:0:
448,192,257261,1,0,0:0:0:0:
64,192,257344,1,4,0:0:0:0:
192,192,257344,1,2,0:0:0:0:
320,192,257427,1,2,0:0:0:0:
448,192,257427,1,0,0:0:0:0:
64,192,257511,1,6,0:0:0:0:
192,192,257552,1,2,0:0:0:40:
320,192,257594,1,2,0:0:0:40:
448,192,257636,1,2,0:0:0:40:
64,192,257677,1,2,0:0:0:40:
192,192,257719,1,2,0:0:0:40:
320,192,257761,1,2,0:0:0:40:
448,192,257802,1,2,0:0:0:40:
64,192,257844,1,2,0:0:0:40:
192,192,257886,1,2,0:0:0:40:
320,192,257927,1,2,0:0:0:40:
448,192,257969,1,2,0:0:0:40:
64,192,258011,1,2,0:0:0:40:
192,192,258052,1,2,0:0:0:40:
320,192,258094,1,2,0:0:0:40:
448,192,258136,1,2,0:0:0:40:
64,192,258177,1,2,0:0:0:40:
192,192,258219,1,2,0:0:0:40:
448,192,258261,1,2,0:0:0:40:
320,192,258302,1,2,0:0:0:40:
64,192,258344,1,2,0:0:0:40:
192,192,258386,1,2,0:0:0:40:
448,192,258427,1,2,0:0:0:40:
320,192,258469,1,2,0:0:0:40:
64,192,258511,1,2,0:0:0:40:
192,192,258552,1,2,0:0:0:40:
448,192,258594,1,2,0:0:0:40:
320,192,258636,1,2,0:0:0:40:
64,192,258677,1,2,0:0:0:40:
192,192,258719,1,2,0:0:0:40:
448,192,258761,1,2,0:0:0:40:
320,192,258802,1,2,0:0:0:40:
64,192,258844,1,0,0:0:0:70:Tekdung.wav
192,192,258844,1,0,0:0:0:0:
64,192,260177,1,0,0:0:0:0:
192,192,260261,1,0,0:0:0:0:
320,192,260344,1,0,0:0:0:0:
448,192,260427,1,0,0:0:0:0:
192,192,260594,1,0,0:0:0:0:
320,192,260677,1,0,0:0:0:0:
64,192,260844,1,4,0:0:0:0:
448,192,260844,1,2,0:0:0:0:
320,192,261011,1,0,0:0:0:0:
192,192,261094,1,0,0:0:0:0:
448,192,261177,1,2,0:0:0:40:
64,192,261177,1,4,0:0:0:0:
320,192,261219,1,2,0:0:0:40:
192,192,261261,1,2,0:0:0:40:
64,192,261302,1,2,0:0:0:40:
448,192,261344,1,2,0:0:0:40:
320,192,261386,1,2,0:0:0:40:
192,192,261427,1,2,0:0:0:40:
64,192,261469,1,2,0:0:0:40:
320,192,261511,1,6,0:0:0:0:
448,192,261511,1,0,0:0:0:60:Sorak!.wav
192,192,261594,1,0,0:0:0:0:
64,192,261594,1,0,0:0:0:0:
320,192,261677,1,0,0:0:0:100:hithat.wav
64,192,261761,1,0,0:0:0:0:
192,192,261761,1,0,0:0:0:0:
320,192,261844,1,2,0:0:0:0:
448,192,261844,1,0,0:0:0:0:
192,192,261927,1,0,0:0:0:0:
64,192,262011,1,0,0:0:0:100:hithat.wav
448,192,262011,1,0,0:0:0:0:
320,192,262094,1,0,0:0:0:0:
192,192,262177,1,2,0:0:0:0:
64,192,262177,1,0,0:0:0:0:
320,192,262261,1,0,0:0:0:0:
448,192,262344,1,0,0:0:0:100:hithat.wav
64,192,262427,1,0,0:0:0:0:
192,192,262427,1,0,0:0:0:0:
448,192,262511,1,2,0:0:0:0:
320,192,262511,1,0,0:0:0:0:
192,192,262594,1,0,0:0:0:0:
64,192,262677,1,0,0:0:0:100:hithat.wav
448,192,262677,1,0,0:0:0:0:
320,192,262761,1,0,0:0:0:0:
64,192,262844,1,2,0:0:0:0:
192,192,262844,1,0,0:0:0:0:
448,192,262927,1,0,0:0:0:0:
320,192,263011,1,0,0:0:0:100:hithat.wav
64,192,263094,1,0,0:0:0:0:
192,192,263094,1,0,0:0:0:0:
448,192,263177,1,2,0:0:0:0:
320,192,263177,1,0,0:0:0:0:
192,192,263261,1,0,0:0:0:0:
64,192,263344,1,0,0:0:0:100:hithat.wav
448,192,263344,1,0,0:0:0:0:
320,192,263427,1,0,0:0:0:0:
192,192,263511,1,2,0:0:0:0:
64,192,263511,1,0,0:0:0:0:
320,192,263594,1,0,0:0:0:0:
448,192,263677,1,0,0:0:0:100:hithat.wav
64,192,263761,1,0,0:0:0:0:
192,192,263761,1,0,0:0:0:0:
448,192,263844,1,2,0:0:0:0:
320,192,263844,1,0,0:0:0:0:
64,192,263927,1,0,0:0:0:0:
320,192,264011,1,2,0:0:0:0:
192,192,264011,1,0,0:0:0:100:hithat.wav
448,192,264094,1,0,0:0:0:0:
192,192,264177,1,2,0:0:0:0:
64,192,264177,1,0,0:0:0:0:
448,192,264261,1,0,0:0:0:0:
320,192,264261,1,0,0:0:0:0:
192,192,264344,1,0,0:0:0:100:hithat.wav
448,192,264427,1,0,0:0:0:0:
320,192,264427,1,0,0:0:0:0:
192,192,264511,1,2,0:0:0:0:
64,192,264511,1,0,0:0:0:0:
320,192,264594,1,0,0:0:0:0:
448,192,264677,1,0,0:0:0:100:hithat.wav
64,192,264677,1,0,0:0:0:0:
192,192,264761,1,0,0:0:0:0:
448,192,264844,1,2,0:0:0:0:
320,192,264844,1,0,0:0:0:0:
64,192,264927,1,0,0:0:0:0:
192,192,264927,1,0,0:0:0:0:
320,192,265011,1,0,0:0:0:100:hithat.wav
192,192,265094,1,0,0:0:0:0:
64,192,265094,1,0,0:0:0:0:
320,192,265177,1,2,0:0:0:0:
448,192,265177,1,0,0:0:0:0:
192,192,265261,1,0,0:0:0:0:
448,192,265344,1,0,0:0:0:100:hithat.wav
64,192,265344,1,0,0:0:0:0:
320,192,265427,1,0,0:0:0:0:
192,192,265511,1,2,0:0:0:0:
64,192,265511,1,0,0:0:0:0:
320,192,265594,1,0,0:0:0:0:
448,192,265594,1,0,0:0:0:0:
192,192,265677,1,0,0:0:0:100:hithat.wav
320,192,265761,1,0,0:0:0:0:
448,192,265761,1,0,0:0:0:0:
192,192,265844,1,2,0:0:0:0:
64,192,265844,1,0,0:0:0:0:
320,192,265927,1,0,0:0:0:0:
448,192,266011,1,0,0:0:0:100:hithat.wav
64,192,266011,1,0,0:0:0:0:
192,192,266094,1,0,0:0:0:0:
448,192,266177,1,2,0:0:0:0:
320,192,266177,1,0,0:0:0:0:
192,192,266261,1,2,0:0:0:0:
64,192,266261,1,0,0:0:0:0:
448,192,266344,1,2,0:0:0:0:
320,192,266344,1,0,0:0:0:100:hithat.wav
192,192,266427,1,0,0:0:0:0:
64,192,266427,1,0,0:0:0:0:
448,192,266511,1,2,0:0:0:0:
320,192,266511,1,0,0:0:0:0:
192,192,266594,1,0,0:0:0:0:
448,192,266677,1,2,0:0:0:0:
64,192,266677,1,0,0:0:0:100:hithat.wav
320,192,266761,1,0,0:0:0:0:
64,192,266844,1,2,0:0:0:0:
192,192,266844,1,0,0:0:0:0:
448,192,266927,1,0,0:0:0:0:
320,192,266927,1,0,0:0:0:0:
192,192,267011,1,0,0:0:0:100:hithat.wav
448,192,267094,1,0,0:0:0:0:
320,192,267094,1,0,0:0:0:0:
192,192,267177,1,2,0:0:0:0:
64,192,267177,1,0,0:0:0:0:
320,192,267261,1,0,0:0:0:0:
64,192,267344,1,0,0:0:0:100:hithat.wav
448,192,267344,1,0,0:0:0:0:
192,192,267427,1,0,0:0:0:0:
448,192,267511,1,2,0:0:0:0:
320,192,267511,1,0,0:0:0:0:
192,192,267594,1,0,0:0:0:0:
64,192,267677,1,0,0:0:0:100:hithat.wav
320,192,267761,1,0,0:0:0:0:
448,192,267761,1,0,0:0:0:0:
192,192,267844,1,2,0:0:0:0:
64,192,267844,1,0,0:0:0:0:
320,192,267927,1,0,0:0:0:0:
448,192,268011,1,0,0:0:0:100:hithat.wav
64,192,268011,1,0,0:0:0:0:
192,192,268094,1,0,0:0:0:0:
320,192,268177,1,2,0:0:0:0:
448,192,268177,1,0,0:0:0:0:
64,192,268261,1,0,0:0:0:0:
192,192,268344,1,0,0:0:0:100:hithat.wav
448,192,268427,1,0,0:0:0:0:
320,192,268427,1,0,0:0:0:0:
64,192,268511,1,2,0:0:0:0:
192,192,268511,1,0,0:0:0:0:
320,192,268594,1,0,0:0:0:0:
64,192,268677,1,0,0:0:0:100:hithat.wav
448,192,268677,1,0,0:0:0:0:
192,192,268761,1,0,0:0:0:0:
320,192,268844,1,2,0:0:0:0:
448,192,268844,1,0,0:0:0:0:
192,192,268927,1,0,0:0:0:0:
64,192,269011,1,0,0:0:0:100:hithat.wav
320,192,269094,1,0,0:0:0:0:
448,192,269094,1,0,0:0:0:0:
192,192,269177,1,2,0:0:0:0:
64,192,269177,1,0,0:0:0:0:
448,192,269261,1,0,0:0:0:0:
320,192,269344,1,2,0:0:0:0:
192,192,269344,1,0,0:0:0:100:hithat.wav
64,192,269427,1,0,0:0:0:0:
448,192,269511,1,2,0:0:0:0:
320,192,269511,1,0,0:0:0:0:
64,192,269594,1,0,0:0:0:0:
192,192,269594,1,0,0:0:0:0:
448,192,269677,1,0,0:0:0:100:hithat.wav
64,192,269761,1,0,0:0:0:0:
192,192,269761,1,0,0:0:0:0:
320,192,269844,1,2,0:0:0:0:
448,192,269844,1,0,0:0:0:0:
64,192,269927,1,0,0:0:0:0:
192,192,270011,1,0,0:0:0:100:hithat.wav
320,192,270011,1,0,0:0:0:0:
448,192,270094,1,0,0:0:0:0:
64,192,270177,1,2,0:0:0:0:
192,192,270177,1,0,0:0:0:0:
320,192,270261,1,0,0:0:0:0:
448,192,270261,1,0,0:0:0:0:
64,192,270344,1,0,0:0:0:100:hithat.wav
448,192,270427,1,0,0:0:0:0:
320,192,270427,1,0,0:0:0:0:
64,192,270511,1,2,0:0:0:0:
192,192,270511,1,0,0:0:0:0:
448,192,270594,1,0,0:0:0:0:
192,192,270677,1,0,0:0:0:100:hithat.wav
320,192,270677,1,0,0:0:0:0:
64,192,270761,1,0,0:0:0:0:
320,192,270844,1,2,0:0:0:0:
448,192,270844,1,0,0:0:0:0:
192,192,270927,1,0,0:0:0:0:
64,192,270927,1,0,0:0:0:0:
448,192,271011,1,0,0:0:0:100:hithat.wav
192,192,271094,1,0,0:0:0:0:
64,192,271094,1,0,0:0:0:0:
320,192,271177,1,2,0:0:0:0:
448,192,271177,1,0,0:0:0:0:
64,192,271261,1,0,0:0:0:0:
192,192,271344,1,0,0:0:0:100:hithat.wav
320,192,271344,1,0,0:0:0:0:
448,192,271427,1,0,0:0:0:0:
64,192,271511,1,6,0:0:0:0:
192,192,271552,1,2,0:0:0:0:
320,192,271594,1,2,0:0:0:0:
448,192,271636,1,2,0:0:0:0:
64,192,271677,1,2,0:0:0:0:
192,192,271677,1,0,0:0:0:100:hithat.wav
320,192,271761,1,0,0:0:0:0:
448,192,271761,1,0,0:0:0:0:
192,192,271844,1,4,0:0:0:0:
64,192,271844,1,2,0:0:0:0:
448,192,271927,1,0,0:0:0:0:
192,192,272011,1,2,0:0:0:0:
320,192,272011,1,0,0:0:0:100:hithat.wav
64,192,272094,1,0,0:0:0:0:
448,192,272177,1,2,0:0:0:0:
320,192,272177,1,4,0:0:0:0:
192,192,272261,1,0,0:0:0:0:
64,192,272261,1,0,0:0:0:0:
448,192,272344,1,0,0:0:0:100:hithat.wav
64,192,272427,1,0,0:0:0:0:
192,192,272427,1,0,0:0:0:0:
320,192,272511,1,2,0:0:0:0:
448,192,272511,1,0,0:0:0:0:
192,192,272594,1,0,0:0:0:0:
64,192,272677,1,0,0:0:0:100:hithat.wav
320,192,272677,1,0,0:0:0:0:
448,192,272761,1,0,0:0:0:0:
64,192,272844,1,2,0:0:0:0:
192,192,272844,1,0,0:0:0:0:
448,192,272927,1,0,0:0:0:0:
320,192,273011,1,0,0:0:0:100:hithat.wav
64,192,273094,1,0,0:0:0:0:
192,192,273094,1,0,0:0:0:0:
448,192,273177,1,2,0:0:0:0:
320,192,273177,1,0,0:0:0:0:
192,192,273261,1,0,0:0:0:0:
64,192,273344,1,0,0:0:0:100:hithat.wav
320,192,273344,1,0,0:0:0:0:
448,192,273427,1,0,0:0:0:0:
192,192,273511,1,2,0:0:0:0:
64,192,273511,1,0,0:0:0:0:
320,192,273594,1,0,0:0:0:0:
448,192,273677,1,0,0:0:0:100:hithat.wav
192,192,273761,1,0,0:0:0:0:
64,192,273761,1,0,0:0:0:0:
320,192,273844,1,2,0:0:0:0:
448,192,273844,1,0,0:0:0:0:
192,192,273927,1,0,0:0:0:0:
320,192,274011,1,0,0:0:0:100:hithat.wav
64,192,274011,1,0,0:0:0:0:
448,192,274094,1,0,0:0:0:0:
64,192,274177,1,2,0:0:0:0:
192,192,274177,1,0,0:0:0:0:
448,192,274261,1,0,0:0:0:0:
320,192,274344,1,0,0:0:0:100:hithat.wav
192,192,274427,1,0,0:0:0:0:
64,192,274427,1,0,0:0:0:0:
448,192,274511,1,2,0:0:0:0:
320,192,274511,1,0,0:0:0:0:
64,192,274594,1,0,0:0:0:0:
320,192,274677,1,2,0:0:0:0:
192,192,274677,1,0,0:0:0:100:hithat.wav
448,192,274761,1,0,0:0:0:0:
64,192,274844,1,2,0:0:0:0:
192,192,274844,1,0,0:0:0:0:
320,192,274927,1,0,0:0:0:0:
448,192,274927,1,0,0:0:0:0:
64,192,275011,1,0,0:0:0:100:hithat.wav
320,192,275094,1,0,0:0:0:0:
448,192,275094,1,0,0:0:0:0:
64,192,275177,1,2,0:0:0:0:
192,192,275177,1,0,0:0:0:0:
320,192,275261,1,0,0:0:0:0:
192,192,275344,1,0,0:0:0:100:hithat.wav
448,192,275344,1,0,0:0:0:0:
64,192,275427,1,0,0:0:0:0:
448,192,275511,1,2,0:0:0:0:
320,192,275511,1,0,0:0:0:0:
192,192,275594,1,0,0:0:0:0:
64,192,275594,1,0,0:0:0:0:
448,192,275677,1,0,0:0:0:100:hithat.wav
192,192,275761,1,0,0:0:0:0:
64,192,275761,1,0,0:0:0:0:
448,192,275844,1,2,0:0:0:0:
320,192,275844,1,0,0:0:0:0:
192,192,275927,1,0,0:0:0:0:
64,192,276011,1,0,0:0:0:100:hithat.wav
320,192,276011,1,0,0:0:0:0:
448,192,276094,1,0,0:0:0:0:
64,192,276177,1,2,0:0:0:0:
192,192,276177,1,0,0:0:0:0:
448,192,276261,1,0,0:0:0:0:
320,192,276261,1,0,0:0:0:0:
64,192,276344,1,0,0:0:0:100:hithat.wav
448,192,276427,1,0,0:0:0:0:
320,192,276427,1,0,0:0:0:0:
64,192,276511,1,2,0:0:0:0:
192,192,276511,1,0,0:0:0:0:
320,192,276594,1,0,0:0:0:0:
448,192,276677,1,0,0:0:0:100:hithat.wav
192,192,276677,1,0,0:0:0:0:
64,192,276761,1,0,0:0:0:0:
448,192,276844,1,2,0:0:0:0:
320,192,276844,1,0,0:0:0:0:
192,192,276927,1,2,0:0:0:0:
64,192,276927,1,0,0:0:0:0:
448,192,277011,1,2,0:0:0:0:
320,192,277011,1,0,0:0:0:100:hithat.wav
64,192,277094,1,0,0:0:0:0:
192,192,277094,1,0,0:0:0:0:
448,192,277177,1,2,0:0:0:0:
320,192,277177,1,0,0:0:0:0:
192,192,277261,1,0,0:0:0:0:
64,192,277344,1,2,0:0:0:0:
320,192,277344,1,0,0:0:0:100:hithat.wav
448,192,277427,1,0,0:0:0:0:
192,192,277511,1,2,0:0:0:0:
64,192,277511,1,0,0:0:0:0:
320,192,277594,1,0,0:0:0:0:
448,192,277594,1,0,0:0:0:0:
192,192,277677,1,0,0:0:0:100:hithat.wav
448,192,277761,1,0,0:0:0:0:
320,192,277761,1,0,0:0:0:0:
64,192,277844,1,2,0:0:0:0:
192,192,277844,1,0,0:0:0:0:
320,192,277927,1,0,0:0:0:0:
64,192,278011,1,0,0:0:0:100:hithat.wav
448,192,278011,1,0,0:0:0:0:
192,192,278094,1,0,0:0:0:0:
320,192,278177,1,2,0:0:0:0:
448,192,278177,1,0,0:0:0:0:
192,192,278261,1,0,0:0:0:0:
64,192,278344,1,0,0:0:0:100:hithat.wav
320,192,278427,1,0,0:0:0:0:
448,192,278427,1,0,0:0:0:0:
64,192,278511,1,2,0:0:0:0:
192,192,278511,1,0,0:0:0:0:
448,192,278594,1,0,0:0:0:0:
320,192,278677,1,0,0:0:0:100:hithat.wav
64,192,278677,1,0,0:0:0:0:
192,192,278761,1,0,0:0:0:0:
448,192,278844,1,2,0:0:0:0:
320,192,278844,1,0,0:0:0:0:
64,192,278927,1,0,0:0:0:0:
192,192,279011,1,0,0:0:0:100:hithat.wav
320,192,279094,1,0,0:0:0:0:
448,192,279094,1,0,0:0:0:0:
192,192,279177,1,2,0:0:0:0:
64,192,279177,1,0,0:0:0:0:
448,192,279261,1,0,0:0:0:0:
320,192,279344,1,0,0:0:0:100:hithat.wav
64,192,279344,1,0,0:0:0:0:
192,192,279427,1,0,0:0:0:0:
320,192,279511,1,2,0:0:0:0:
448,192,279511,1,0,0:0:0:0:
192,192,279594,1,0,0:0:0:0:
64,192,279677,1,0,0:0:0:100:hithat.wav
320,192,279761,1,0,0:0:0:0:
448,192,279761,1,0,0:0:0:0:
64,192,279844,1,2,0:0:0:0:
192,192,279844,1,0,0:0:0:0:
320,192,279927,1,0,0:0:0:0:
192,192,280011,1,2,0:0:0:0:
448,192,280011,1,0,0:0:0:100:hithat.wav
64,192,280094,1,0,0:0:0:0:
320,192,280177,1,2,0:0:0:0:
448,192,280177,1,0,0:0:0:0:
192,192,280261,1,0,0:0:0:0:
448,192,280344,1,2,0:0:0:0:
64,192,280344,1,0,0:0:0:100:hithat.wav
320,192,280427,1,0,0:0:0:0:
192,192,280511,1,2,0:0:0:0:
64,192,280511,1,0,0:0:0:0:
320,192,280594,1,0,0:0:0:0:
64,192,280677,1,2,0:0:0:0:
448,192,280677,1,0,0:0:0:100:hithat.wav
192,192,280761,1,0,0:0:0:0:
320,192,280844,1,2,0:0:0:0:
448,192,280844,1,0,0:0:0:0:
64,192,280927,1,0,0:0:0:0:
192,192,281011,1,2,0:0:0:0:
320,192,281011,1,0,0:0:0:100:hithat.wav
448,192,281094,1,0,0:0:0:0:
64,192,281177,1,2,0:0:0:0:
192,192,281177,1,0,0:0:0:0:
448,192,281261,1,0,0:0:0:0:
192,192,281344,1,2,0:0:0:0:
320,192,281344,1,0,0:0:0:100:hithat.wav
64,192,281427,1,0,0:0:0:0:
320,192,281511,1,2,0:0:0:0:
448,192,281511,1,0,0:0:0:0:
64,192,281594,1,2,0:0:0:0:
192,192,281594,1,0,0:0:0:0:
320,192,281677,1,2,0:0:0:0:
448,192,281677,1,0,0:0:0:100:hithat.wav
64,192,281761,1,2,0:0:0:0:
192,192,281761,1,0,0:0:0:0:
320,192,281844,1,2,0:0:0:0:
448,192,281844,1,0,0:0:0:0:
64,192,281927,1,2,0:0:0:0:
192,192,281927,1,0,0:0:0:0:
320,192,282011,1,2,0:0:0:0:
448,192,282011,1,0,0:0:0:100:hithat.wav
64,192,282094,1,2,0:0:0:0:
192,192,282094,1,0,0:0:0:0:
448,192,282177,1,0,0:0:0:0:
320,192,282261,1,0,0:0:0:0:
192,192,282344,1,0,0:0:0:0:
64,192,282427,1,0,0:0:0:0:
448,192,282511,1,2,0:0:0:40:
320,192,282552,1,2,0:0:0:40:
192,192,282594,1,2,0:0:0:40:
64,192,282636,1,2,0:0:0:40:
448,192,282677,1,2,0:0:0:40:
320,192,282719,1,2,0:0:0:40:
192,192,282761,1,2,0:0:0:40:
64,192,282802,1,2,0:0:0:40:
448,192,282844,1,6,0:0:0:0:
320,192,282844,1,0,0:0:0:60:Sorak!.wav
192,192,282927,1,0,0:0:0:0:
64,192,282927,1,0,0:0:0:0:
448,192,283011,1,0,0:0:0:100:hithat.wav
64,192,283094,1,0,0:0:0:0:
192,192,283094,1,0,0:0:0:0:
320,192,283177,1,2,0:0:0:0:
448,192,283177,1,0,0:0:0:0:
192,192,283261,1,0,0:0:0:0:
64,192,283344,1,0,0:0:0:100:hithat.wav
320,192,283344,1,0,0:0:0:0:
448,192,283427,1,0,0:0:0:0:
64,192,283511,1,2,0:0:0:0:
192,192,283511,1,0,0:0:0:0:
320,192,283594,1,0,0:0:0:0:
448,192,283677,1,0,0:0:0:100:hithat.wav
192,192,283761,1,0,0:0:0:0:
64,192,283761,1,0,0:0:0:0:
320,192,283844,1,2,0:0:0:0:
448,192,283844,1,0,0:0:0:0:
64,192,283927,1,0,0:0:0:0:
192,192,284011,1,0,0:0:0:100:hithat.wav
320,192,284011,1,0,0:0:0:0:
448,192,284094,1,0,0:0:0:0:
64,192,284177,1,2,0:0:0:0:
192,192,284177,1,0,0:0:0:0:
448,192,284261,1,0,0:0:0:0:
320,192,284344,1,0,0:0:0:100:hithat.wav
64,192,284427,1,0,0:0:0:0:
192,192,284427,1,0,0:0:0:0:
320,192,284511,1,2,0:0:0:0:
448,192,284511,1,0,0:0:0:0:
192,192,284594,1,0,0:0:0:0:
448,192,284677,1,0,0:0:0:100:hithat.wav
64,192,284677,1,0,0:0:0:0:
320,192,284761,1,0,0:0:0:0:
192,192,284844,1,2,0:0:0:0:
64,192,284844,1,0,0:0:0:0:
448,192,284927,1,0,0:0:0:0:
320,192,285011,1,0,0:0:0:100:hithat.wav
64,192,285094,1,0,0:0:0:0:
192,192,285094,1,0,0:0:0:0:
320,192,285177,1,2,0:0:0:0:
448,192,285177,1,0,0:0:0:0:
192,192,285261,1,0,0:0:0:0:
448,192,285344,1,2,0:0:0:0:
64,192,285344,1,0,0:0:0:100:hithat.wav
192,192,285427,1,0,0:0:0:0:
448,192,285511,1,2,0:0:0:0:
320,192,285511,1,0,0:0:0:0:
64,192,285594,1,0,0:0:0:0:
192,192,285594,1,0,0:0:0:0:
320,192,285677,1,0,0:0:0:100:hithat.wav
64,192,285761,1,0,0:0:0:0:
192,192,285761,1,0,0:0:0:0:
448,192,285844,1,2,0:0:0:0:
320,192,285844,1,0,0:0:0:0:
64,192,285927,1,0,0:0:0:0:
192,192,286011,1,0,0:0:0:100:hithat.wav
448,192,286011,1,0,0:0:0:0:
320,192,286094,1,0,0:0:0:0:
192,192,286177,1,0,0:0:0:0:
64,192,286177,1,2,0:0:0:0:
448,192,286261,1,0,0:0:0:0:
320,192,286261,1,0,0:0:0:0:
192,192,286344,1,0,0:0:0:100:hithat.wav
320,192,286427,1,0,0:0:0:0:
448,192,286427,1,0,0:0:0:0:
64,192,286511,1,2,0:0:0:0:
192,192,286511,1,0,0:0:0:0:
448,192,286594,1,0,0:0:0:0:
64,192,286677,1,0,0:0:0:100:hithat.wav
320,192,286677,1,0,0:0:0:0:
192,192,286761,1,0,0:0:0:0:
320,192,286844,1,2,0:0:0:0:
448,192,286844,1,0,0:0:0:0:
64,192,286927,1,0,0:0:0:0:
192,192,286927,1,0,0:0:0:0:
320,192,287011,1,0,0:0:0:100:hithat.wav
192,192,287094,1,0,0:0:0:0:
64,192,287094,1,0,0:0:0:0:
320,192,287177,1,2,0:0:0:0:
448,192,287177,1,0,0:0:0:0:
64,192,287261,1,0,0:0:0:0:
448,192,287344,1,0,0:0:0:100:hithat.wav
192,192,287344,1,0,0:0:0:0:
320,192,287427,1,0,0:0:0:0:
192,192,287511,1,2,0:0:0:0:
64,192,287511,1,0,0:0:0:0:
448,192,287594,1,2,0:0:0:0:
320,192,287594,1,0,0:0:0:0:
192,192,287677,1,2,0:0:0:0:
64,192,287677,1,0,0:0:0:100:hithat.wav
320,192,287761,1,0,0:0:0:0:
448,192,287761,1,0,0:0:0:0:
192,192,287844,1,2,0:0:0:0:
64,192,287844,1,0,0:0:0:0:
448,192,287927,1,0,0:0:0:0:
64,192,288011,1,2,0:0:0:0:
320,192,288011,1,0,0:0:0:100:hithat.wav
192,192,288094,1,0,0:0:0:0:
320,192,288177,1,2,0:0:0:0:
448,192,288177,1,0,0:0:0:0:
192,192,288261,1,0,0:0:0:0:
64,192,288261,1,0,0:0:0:0:
448,192,288344,1,0,0:0:0:100:hithat.wav
192,192,288427,1,0,0:0:0:0:
64,192,288427,1,0,0:0:0:0:
320,192,288511,1,2,0:0:0:0:
448,192,288511,1,0,0:0:0:0:
64,192,288594,1,0,0:0:0:0:
192,192,288677,1,0,0:0:0:100:hithat.wav
448,192,288677,1,0,0:0:0:0:
320,192,288761,1,0,0:0:0:0:
64,192,288844,1,2,0:0:0:0:
192,192,288844,1,0,0:0:0:0:
448,192,288927,1,0,0:0:0:0:
320,192,289011,1,0,0:0:0:100:hithat.wav
192,192,289094,1,0,0:0:0:0:
64,192,289094,1,0,0:0:0:0:
320,192,289177,1,2,0:0:0:0:
448,192,289177,1,0,0:0:0:0:
192,192,289261,1,0,0:0:0:0:
64,192,289344,1,0,0:0:0:100:hithat.wav
448,192,289344,1,0,0:0:0:0:
320,192,289427,1,0,0:0:0:0:
192,192,289511,1,2,0:0:0:0:
64,192,289511,1,0,0:0:0:0:
448,192,289594,1,0,0:0:0:0:
320,192,289677,1,0,0:0:0:100:hithat.wav
192,192,289761,1,0,0:0:0:0:
64,192,289761,1,0,0:0:0:0:
320,192,289844,1,2,0:0:0:0:
448,192,289844,1,0,0:0:0:0:
192,192,289927,1,0,0:0:0:0:
448,192,290011,1,0,0:0:0:100:hithat.wav
64,192,290011,1,0,0:0:0:0:
320,192,290094,1,0,0:0:0:0:
192,192,290177,1,2,0:0:0:0:
64,192,290177,1,0,0:0:0:0:
320,192,290261,1,0,0:0:0:0:
448,192,290344,1,0,0:0:0:100:hithat.wav
64,192,290427,1,0,0:0:0:0:
192,192,290427,1,0,0:0:0:0:
320,192,290511,1,2,0:0:0:0:
448,192,290511,1,0,0:0:0:0:
192,192,290594,1,0,0:0:0:0:
64,192,290677,1,2,0:0:0:0:
320,192,290677,1,0,0:0:0:100:hithat.wav
192,192,290761,1,0,0:0:0:0:
448,192,290844,1,2,0:0:0:0:
320,192,290844,1,0,0:0:0:0:
64,192,290927,1,0,0:0:0:0:
192,192,290927,1,0,0:0:0:0:
448,192,291011,1,0,0:0:0:100:hithat.wav
64,192,291094,1,0,0:0:0:0:
192,192,291094,1,0,0:0:0:0:
448,192,291177,1,2,0:0:0:0:
320,192,291177,1,0,0:0:0:0:
64,192,291261,1,0,0:0:0:0:
192,192,291344,1,0,0:0:0:100:hithat.wav
320,192,291344,1,0,0:0:0:0:
448,192,291427,1,0,0:0:0:0:
64,192,291511,1,2,0:0:0:0:
192,192,291511,1,0,0:0:0:0:
320,192,291594,1,0,0:0:0:0:
448,192,291594,1,0,0:0:0:0:
64,192,291677,1,0,0:0:0:100:hithat.wav
448,192,291761,1,0,0:0:0:0:
320,192,291761,1,0,0:0:0:0:
64,192,291844,1,2,0:0:0:0:
192,192,291844,1,0,0:0:0:0:
448,192,291927,1,0,0:0:0:0:
192,192,292011,1,0,0:0:0:100:hithat.wav
320,192,292011,1,0,0:0:0:0:
64,192,292094,1,0,0:0:0:0:
448,192,292177,1,2,0:0:0:0:
320,192,292177,1,0,0:0:0:0:
192,192,292261,1,0,0:0:0:0:
64,192,292261,1,0,0:0:0:0:
448,192,292344,1,0,0:0:0:100:hithat.wav
192,192,292427,1,0,0:0:0:0:
64,192,292427,1,0,0:0:0:0:
448,192,292511,1,2,0:0:0:0:
320,192,292511,1,0,0:0:0:0:
64,192,292594,1,0,0:0:0:0:
192,192,292677,1,0,0:0:0:100:hithat.wav
320,192,292677,1,0,0:0:0:0:
448,192,292761,1,0,0:0:0:0:
64,192,292844,1,6,0:0:0:0:
192,192,292886,1,2,0:0:0:0:
448,192,292927,1,2,0:0:0:0:
320,192,292969,1,2,0:0:0:0:
192,192,293011,1,2,0:0:0:0:
64,192,293011,1,0,0:0:0:100:hithat.wav
320,192,293094,1,0,0:0:0:0:
448,192,293094,1,0,0:0:0:0:
192,192,293177,1,2,0:0:0:0:
64,192,293177,1,4,0:0:0:0:
448,192,293261,1,0,0:0:0:0:
192,192,293344,1,2,0:0:0:0:
320,192,293344,1,0,0:0:0:100:hithat.wav
64,192,293427,1,0,0:0:0:0:
320,192,293511,1,6,0:0:0:0:
448,192,293511,1,0,0:0:0:0:
192,192,293594,1,0,0:0:0:0:
64,192,293594,1,0,0:0:0:0:
448,192,293677,1,0,0:0:0:100:hithat.wav
192,192,293761,1,0,0:0:0:0:
64,192,293761,1,0,0:0:0:0:
448,192,293844,1,2,0:0:0:0:
320,192,293844,1,0,0:0:0:0:
64,192,293927,1,0,0:0:0:0:
320,192,294011,1,0,0:0:0:100:hithat.wav
192,192,294011,1,0,0:0:0:0:
448,192,294094,1,0,0:0:0:0:
192,192,294177,1,2,0:0:0:0:
64,192,294177,1,0,0:0:0:0:
320,192,294261,1,0,0:0:0:0:
448,192,294344,1,0,0:0:0:100:hithat.wav
192,192,294427,1,0,0:0:0:0:
64,192,294427,1,0,0:0:0:0:
448,192,294511,1,2,0:0:0:0:
320,192,294511,1,0,0:0:0:0:
192,192,294594,1,0,0:0:0:0:
64,192,294677,1,0,0:0:0:100:hithat.wav
320,192,294677,1,0,0:0:0:0:
448,192,294761,1,0,0:0:0:0:
192,192,294844,1,2,0:0:0:0:
64,192,294844,1,0,0:0:0:0:
448,192,294927,1,0,0:0:0:0:
320,192,295011,1,0,0:0:0:100:hithat.wav
192,192,295094,1,0,0:0:0:0:
64,192,295094,1,0,0:0:0:0:
448,192,295177,1,2,0:0:0:0:
320,192,295177,1,0,0:0:0:0:
64,192,295261,1,0,0:0:0:0:
192,192,295344,1,0,0:0:0:100:hithat.wav
448,192,295344,1,0,0:0:0:0:
320,192,295427,1,0,0:0:0:0:
64,192,295511,1,2,0:0:0:0:
192,192,295511,1,0,0:0:0:0:
320,192,295594,1,0,0:0:0:0:
448,192,295677,1,0,0:0:0:100:hithat.wav
64,192,295761,1,0,0:0:0:0:
192,192,295761,1,0,0:0:0:0:
320,192,295844,1,2,0:0:0:0:
448,192,295844,1,0,0:0:0:0:
64,192,295927,1,0,0:0:0:0:
320,192,296011,1,2,0:0:0:0:
192,192,296011,1,0,0:0:0:100:hithat.wav
64,192,296094,1,0,0:0:0:0:
320,192,296177,1,2,0:0:0:0:
448,192,296177,1,0,0:0:0:0:
64,192,296261,1,0,0:0:0:0:
192,192,296261,1,0,0:0:0:0:
448,192,296344,1,0,0:0:0:100:hithat.wav
192,192,296427,1,0,0:0:0:0:
64,192,296427,1,0,0:0:0:0:
320,192,296511,1,2,0:0:0:0:
448,192,296511,1,0,0:0:0:0:
192,192,296594,1,0,0:0:0:0:
320,192,296677,1,0,0:0:0:100:hithat.wav
64,192,296677,1,0,0:0:0:0:
448,192,296761,1,0,0:0:0:0:
64,192,296844,1,2,0:0:0:0:
192,192,296844,1,0,0:0:0:0:
448,192,296927,1,0,0:0:0:0:
320,192,296927,1,0,0:0:0:0:
64,192,297011,1,0,0:0:0:100:hithat.wav
448,192,297094,1,0,0:0:0:0:
320,192,297094,1,0,0:0:0:0:
64,192,297177,1,2,0:0:0:0:
192,192,297177,1,0,0:0:0:0:
320,192,297261,1,0,0:0:0:0:
192,192,297344,1,0,0:0:0:100:hithat.wav
448,192,297344,1,0,0:0:0:0:
64,192,297427,1,0,0:0:0:0:
320,192,297511,1,2,0:0:0:0:
448,192,297511,1,0,0:0:0:0:
64,192,297594,1,0,0:0:0:0:
192,192,297594,1,0,0:0:0:0:
448,192,297677,1,0,0:0:0:100:hithat.wav
64,192,297761,1,0,0:0:0:0:
192,192,297761,1,0,0:0:0:0:
448,192,297844,1,2,0:0:0:0:
320,192,297844,1,0,0:0:0:0:
192,192,297927,1,0,0:0:0:0:
64,192,298011,1,0,0:0:0:100:hithat.wav
320,192,298011,1,0,0:0:0:0:
448,192,298094,1,0,0:0:0:0:
64,192,298177,1,2,0:0:0:0:
192,192,298177,1,0,0:0:0:0:
320,192,298261,1,2,0:0:0:0:
448,192,298261,1,0,0:0:0:0:
64,192,298344,1,2,0:0:0:0:
192,192,298344,1,0,0:0:0:100:hithat.wav
320,192,298427,1,0,0:0:0:0:
448,192,298427,1,0,0:0:0:0:
64,192,298511,1,2,0:0:0:0:
192,192,298511,1,0,0:0:0:0:
320,192,298594,1,0,0:0:0:0:
192,192,298677,1,2,0:0:0:0:
448,192,298677,1,0,0:0:0:100:hithat.wav
64,192,298761,1,0,0:0:0:0:
448,192,298844,1,2,0:0:0:0:
320,192,298844,1,4,0:0:0:0:
192,192,298844,1,0,0:0:0:0:
64,192,298927,1,0,0:0:0:0:
320,192,299011,1,2,0:0:0:0:
448,192,299011,1,0,0:0:0:100:hithat.wav
192,192,299094,1,0,0:0:0:0:
64,192,299177,1,2,0:0:0:0:
448,192,299177,1,0,0:0:0:0:
320,192,299261,1,0,0:0:0:0:
64,192,299344,1,2,0:0:0:0:
192,192,299344,1,0,0:0:0:100:hithat.wav
320,192,299427,1,0,0:0:0:0:
64,192,299511,1,2,0:0:0:0:
448,192,299511,1,0,0:0:0:0:
192,192,299594,1,0,0:0:0:0:
320,192,299677,1,2,0:0:0:0:
448,192,299677,1,0,0:0:0:100:hithat.wav
64,192,299761,1,0,0:0:0:0:
192,192,299844,1,2,0:0:0:0:
320,192,299844,1,0,0:0:0:0:
448,192,299927,1,0,0:0:0:0:
64,192,300011,1,2,0:0:0:0:
192,192,300011,1,0,0:0:0:100:hithat.wav
320,192,300094,1,0,0:0:0:0:
448,192,300177,1,2,0:0:0:0:
192,192,300177,1,4,0:0:0:0:
64,192,300177,1,0,0:0:0:0:
320,192,300261,1,0,0:0:0:0:
192,192,300344,1,2,0:0:0:0:
64,192,300344,1,0,0:0:0:100:hithat.wav
320,192,300427,1,0,0:0:0:0:
448,192,300511,1,2,0:0:0:0:
64,192,300511,1,0,0:0:0:0:
192,192,300594,1,0,0:0:0:0:
320,192,300677,1,2,0:0:0:0:
448,192,300677,1,0,0:0:0:100:hithat.wav
192,192,300761,1,0,0:0:0:0:
448,192,300844,1,2,0:0:0:0:
64,192,300844,1,0,0:0:0:0:
320,192,300927,1,0,0:0:0:0:
64,192,301011,1,2,0:0:0:0:
192,192,301011,1,0,0:0:0:100:hithat.wav
448,192,301094,1,0,0:0:0:0:
320,192,301177,1,2,0:0:0:0:
192,192,301177,1,0,0:0:0:0:
64,192,301261,1,0,0:0:0:0:
448,192,301344,1,2,0:0:0:0:
320,192,301344,1,0,0:0:0:100:hithat.wav
64,192,301427,1,0,0:0:0:0:
448,192,301511,1,2,0:0:0:0:
192,192,301511,1,4,0:0:0:0:
320,192,301594,1,2,0:0:0:0:
64,192,301677,1,2,0:0:0:0:
192,192,301761,1,2,0:0:0:0:
448,192,301844,1,2,0:0:0:0:
320,192,301927,1,2,0:0:0:0:
192,192,302011,1,2,0:0:0:0:
64,192,302094,1,2,0:0:0:0:
320,192,302177,1,2,0:0:0:0:
448,192,302177,1,4,0:0:0:0:
192,192,302261,1,2,0:0:0:0:
64,192,302344,1,2,0:0:0:0:
448,192,302427,1,2,0:0:0:0:
192,192,302511,1,2,0:0:0:0:
64,192,302594,1,2,0:0:0:0:
320,192,302677,1,2,0:0:0:0:
448,192,302761,1,2,0:0:0:0:
64,192,302844,1,2,0:0:0:0:
192,192,302844,1,4,0:0:0:0:
320,192,302927,1,2,0:0:0:0:
448,192,302927,1,0,0:0:0:0:
64,192,303011,1,2,0:0:0:0:
192,192,303011,1,0,0:0:0:100:hithat.wav
320,192,303094,1,2,0:0:0:0:
448,192,303094,1,0,0:0:0:0:
64,192,303177,1,2,0:0:0:0:
192,192,303177,1,4,0:0:0:0:
320,192,303261,1,2,0:0:0:0:
448,192,303261,1,0,0:0:0:0:
64,192,303344,1,2,0:0:0:0:
192,192,303344,1,0,0:0:0:100:hithat.wav
320,192,303427,1,2,0:0:0:0:
448,192,303427,1,0,0:0:0:0:
192,192,303511,1,4,0:0:0:0:
64,192,303511,1,2,0:0:0:0:
448,192,303594,1,0,0:0:0:0:
320,192,303677,1,0,0:0:0:0:
192,192,303761,1,0,0:0:0:0:
64,192,303844,1,2,0:0:0:40:
448,192,303844,1,4,0:0:0:0:
320,192,303886,1,2,0:0:0:40:
192,192,303927,1,2,0:0:0:40:
64,192,303969,1,2,0:0:0:40:
448,192,304011,1,2,0:0:0:40:
320,192,304052,1,2,0:0:0:40:
192,192,304094,1,2,0:0:0:40:
64,192,304136,1,2,0:0:0:40:
320,192,304177,1,6,0:0:0:0:
448,192,304177,1,0,0:0:0:60:Sorak!.wav
192,192,304261,1,0,0:0:0:0:
64,192,304261,1,0,0:0:0:0:
448,192,304344,1,0,0:0:0:100:hithat.wav
192,192,304427,1,0,0:0:0:0:
320,192,304427,1,0,0:0:0:0:
64,192,304511,1,2,0:0:0:0:
448,192,304511,1,0,0:0:0:0:
192,192,304594,1,0,0:0:0:0:
448,192,304677,1,0,0:0:0:100:hithat.wav
320,192,304677,1,0,0:0:0:0:
64,192,304761,1,0,0:0:0:0:
320,192,304844,1,2,0:0:0:0:
192,192,304844,1,0,0:0:0:0:
448,192,304927,1,0,0:0:0:0:
320,192,305011,1,0,0:0:0:100:hithat.wav
192,192,305094,1,0,0:0:0:0:
64,192,305094,1,0,0:0:0:0:
448,192,305177,1,2,0:0:0:0:
320,192,305177,1,0,0:0:0:0:
192,192,305261,1,0,0:0:0:0:
448,192,305344,1,0,0:0:0:100:hithat.wav
64,192,305344,1,0,0:0:0:0:
192,192,305427,1,0,0:0:0:0:
320,192,305511,1,2,0:0:0:0:
448,192,305511,1,0,0:0:0:0:
64,192,305594,1,0,0:0:0:0:
192,192,305677,1,0,0:0:0:100:hithat.wav
320,192,305761,1,0,0:0:0:0:
448,192,305761,1,0,0:0:0:0:
64,192,305844,1,2,0:0:0:0:
192,192,305844,1,0,0:0:0:0:
448,192,305927,1,0,0:0:0:0:
64,192,306011,1,0,0:0:0:100:hithat.wav
320,192,306011,1,0,0:0:0:0:
448,192,306094,1,0,0:0:0:0:
192,192,306177,1,2,0:0:0:0:
64,192,306177,1,0,0:0:0:0:
320,192,306261,1,0,0:0:0:0:
448,192,306344,1,0,0:0:0:100:hithat.wav
192,192,306427,1,0,0:0:0:0:
64,192,306427,1,0,0:0:0:0:
320,192,306511,1,2,0:0:0:0:
448,192,306511,1,0,0:0:0:0:
64,192,306594,1,0,0:0:0:0:
192,192,306677,1,2,0:0:0:0:
448,192,306677,1,0,0:0:0:100:hithat.wav
64,192,306761,1,0,0:0:0:0:
320,192,306844,1,2,0:0:0:0:
448,192,306844,1,0,0:0:0:0:
192,192,306927,1,0,0:0:0:0:
64,192,306927,1,0,0:0:0:0:
320,192,307011,1,0,0:0:0:100:hithat.wav
192,192,307094,1,0,0:0:0:0:
448,192,307094,1,0,0:0:0:0:
320,192,307177,1,2,0:0:0:0:
64,192,307177,1,0,0:0:0:0:
448,192,307261,1,0,0:0:0:0:
64,192,307344,1,0,0:0:0:100:hithat.wav
192,192,307344,1,0,0:0:0:0:
320,192,307427,1,0,0:0:0:0:
64,192,307511,1,2,0:0:0:0:
192,192,307511,1,0,0:0:0:0:
448,192,307594,1,0,0:0:0:0:
320,192,307594,1,0,0:0:0:0:
192,192,307677,1,0,0:0:0:100:hithat.wav
64,192,307761,1,0,0:0:0:0:
448,192,307761,1,0,0:0:0:0:
320,192,307844,1,2,0:0:0:0:
192,192,307844,1,0,0:0:0:0:
64,192,307927,1,0,0:0:0:0:
320,192,308011,1,0,0:0:0:100:hithat.wav
448,192,308011,1,0,0:0:0:0:
192,192,308094,1,0,0:0:0:0:
320,192,308177,1,2,0:0:0:0:
448,192,308177,1,0,0:0:0:0:
192,192,308261,1,0,0:0:0:0:
64,192,308261,1,0,0:0:0:0:
448,192,308344,1,0,0:0:0:100:hithat.wav
320,192,308427,1,0,0:0:0:0:
64,192,308427,1,0,0:0:0:0:
448,192,308511,1,2,0:0:0:0:
192,192,308511,1,0,0:0:0:0:
320,192,308594,1,0,0:0:0:0:
192,192,308677,1,0,0:0:0:100:hithat.wav
64,192,308677,1,0,0:0:0:0:
448,192,308761,1,0,0:0:0:0:
192,192,308844,1,2,0:0:0:0:
64,192,308844,1,0,0:0:0:0:
448,192,308927,1,2,0:0:0:0:
320,192,308927,1,0,0:0:0:0:
192,192,309011,1,2,0:0:0:0:
64,192,309011,1,0,0:0:0:100:hithat.wav
320,192,309094,1,0,0:0:0:0:
448,192,309094,1,0,0:0:0:0:
192,192,309177,1,2,0:0:0:0:
64,192,309177,1,0,0:0:0:0:
320,192,309261,1,0,0:0:0:0:
448,192,309344,1,2,0:0:0:0:
64,192,309344,1,0,0:0:0:100:hithat.wav
192,192,309427,1,0,0:0:0:0:
320,192,309511,1,2,0:0:0:0:
448,192,309511,1,0,0:0:0:0:
192,192,309594,1,0,0:0:0:0:
64,192,309594,1,0,0:0:0:0:
320,192,309677,1,0,0:0:0:100:hithat.wav
448,192,309761,1,0,0:0:0:0:
192,192,309761,1,0,0:0:0:0:
64,192,309844,1,2,0:0:0:0:
320,192,309844,1,0,0:0:0:0:
192,192,309927,1,0,0:0:0:0:
448,192,310011,1,0,0:0:0:100:hithat.wav
320,192,310011,1,0,0:0:0:0:
64,192,310094,1,0,0:0:0:0:
448,192,310177,1,2,0:0:0:0:
192,192,310177,1,0,0:0:0:0:
320,192,310261,1,0,0:0:0:0:
64,192,310344,1,0,0:0:0:100:hithat.wav
320,192,310427,1,0,0:0:0:0:
448,192,310427,1,0,0:0:0:0:
64,192,310511,1,2,0:0:0:0:
192,192,310511,1,0,0:0:0:0:
448,192,310594,1,0,0:0:0:0:
320,192,310677,1,0,0:0:0:100:hithat.wav
192,192,310677,1,0,0:0:0:0:
448,192,310761,1,0,0:0:0:0:
64,192,310844,1,2,0:0:0:0:
192,192,310844,1,0,0:0:0:0:
320,192,310927,1,0,0:0:0:0:
448,192,311011,1,0,0:0:0:100:hithat.wav
64,192,311094,1,0,0:0:0:0:
192,192,311094,1,0,0:0:0:0:
320,192,311177,1,2,0:0:0:0:
448,192,311177,1,0,0:0:0:0:
64,192,311261,1,0,0:0:0:0:
320,192,311344,1,0,0:0:0:100:hithat.wav
192,192,311344,1,0,0:0:0:0:
64,192,311427,1,0,0:0:0:0:
320,192,311511,1,2,0:0:0:0:
448,192,311511,1,0,0:0:0:0:
192,192,311594,1,0,0:0:0:0:
64,192,311677,1,0,0:0:0:100:hithat.wav
448,192,311761,1,0,0:0:0:0:
320,192,311761,1,0,0:0:0:0:
192,192,311844,1,2,0:0:0:0:
64,192,311844,1,0,0:0:0:0:
320,192,311927,1,0,0:0:0:0:
192,192,312011,1,2,0:0:0:0:
448,192,312011,1,0,0:0:0:100:hithat.wav
320,192,312094,1,0,0:0:0:0:
64,192,312177,1,2,0:0:0:0:
192,192,312177,1,0,0:0:0:0:
448,192,312261,1,0,0:0:0:0:
320,192,312261,1,0,0:0:0:0:
64,192,312344,1,0,0:0:0:100:hithat.wav
192,192,312427,1,0,0:0:0:0:
448,192,312427,1,0,0:0:0:0:
320,192,312511,1,2,0:0:0:0:
64,192,312511,1,0,0:0:0:0:
192,192,312594,1,0,0:0:0:0:
448,192,312677,1,0,0:0:0:100:hithat.wav
320,192,312677,1,0,0:0:0:0:
64,192,312761,1,0,0:0:0:0:
448,192,312844,1,2,0:0:0:0:
320,192,312844,1,0,0:0:0:0:
64,192,312927,1,0,0:0:0:0:
192,192,312927,1,0,0:0:0:0:
448,192,313011,1,0,0:0:0:100:hithat.wav
320,192,313094,1,0,0:0:0:0:
192,192,313094,1,0,0:0:0:0:
448,192,313177,1,2,0:0:0:0:
64,192,313177,1,0,0:0:0:0:
320,192,313261,1,0,0:0:0:0:
192,192,313344,1,0,0:0:0:100:hithat.wav
64,192,313344,1,0,0:0:0:0:
448,192,313427,1,0,0:0:0:0:
64,192,313511,1,2,0:0:0:0:
192,192,313511,1,0,0:0:0:0:
320,192,313594,1,0,0:0:0:0:
448,192,313594,1,0,0:0:0:0:
192,192,313677,1,0,0:0:0:100:hithat.wav
64,192,313761,1,0,0:0:0:0:
320,192,313761,1,0,0:0:0:0:
448,192,313844,1,2,0:0:0:0:
192,192,313844,1,0,0:0:0:0:
320,192,313927,1,0,0:0:0:0:
64,192,314011,1,0,0:0:0:100:hithat.wav
448,192,314011,1,0,0:0:0:0:
192,192,314094,1,0,0:0:0:0:
320,192,314177,1,2,0:0:0:0:
448,192,314219,1,2,0:0:0:0:
64,192,314261,1,2,0:0:0:0:
192,192,314302,1,2,0:0:0:0:
320,192,314344,1,2,0:0:0:0:
448,192,314344,1,0,0:0:0:100:hithat.wav
192,192,314427,1,0,0:0:0:0:
64,192,314427,1,0,0:0:0:0:
320,192,314511,1,2,0:0:0:0:
448,192,314511,1,0,0:0:0:0:
64,192,314594,1,0,0:0:0:0:
192,192,314677,1,2,0:0:0:0:
448,192,314677,1,0,0:0:0:100:hithat.wav
320,192,314761,1,0,0:0:0:0:
192,192,314844,1,6,0:0:0:0:
64,192,314844,1,0,0:0:0:0:
320,192,314927,1,0,0:0:0:0:
448,192,314927,1,0,0:0:0:0:
64,192,315011,1,0,0:0:0:100:hithat.wav
448,192,315094,1,0,0:0:0:0:
192,192,315094,1,0,0:0:0:0:
64,192,315177,1,2,0:0:0:0:
320,192,315177,1,0,0:0:0:0:
448,192,315261,1,0,0:0:0:0:
64,192,315344,1,0,0:0:0:100:hithat.wav
192,192,315344,1,0,0:0:0:0:
320,192,315427,1,0,0:0:0:0:
192,192,315511,1,2,0:0:0:0:
448,192,315511,1,0,0:0:0:0:
64,192,315594,1,0,0:0:0:0:
320,192,315677,1,0,0:0:0:100:hithat.wav
192,192,315761,1,0,0:0:0:0:
64,192,315761,1,0,0:0:0:0:
448,192,315844,1,2,0:0:0:0:
320,192,315844,1,0,0:0:0:0:
192,192,315927,1,0,0:0:0:0:
448,192,316011,1,0,0:0:0:100:hithat.wav
64,192,316011,1,0,0:0:0:0:
192,192,316094,1,0,0:0:0:0:
320,192,316177,1,2,0:0:0:0:
448,192,316177,1,0,0:0:0:0:
64,192,316261,1,0,0:0:0:0:
192,192,316344,1,0,0:0:0:100:hithat.wav
448,192,316427,1,0,0:0:0:0:
320,192,316427,1,0,0:0:0:0:
64,192,316511,1,2,0:0:0:0:
192,192,316511,1,0,0:0:0:0:
448,192,316594,1,0,0:0:0:0:
320,192,316677,1,0,0:0:0:100:hithat.wav
64,192,316677,1,0,0:0:0:0:
448,192,316761,1,0,0:0:0:0:
192,192,316844,1,2,0:0:0:0:
64,192,316844,1,0,0:0:0:0:
320,192,316927,1,0,0:0:0:0:
448,192,317011,1,0,0:0:0:100:hithat.wav
192,192,317094,1,0,0:0:0:0:
64,192,317094,1,0,0:0:0:0:
448,192,317177,1,2,0:0:0:0:
320,192,317177,1,0,0:0:0:0:
64,192,317261,1,0,0:0:0:0:
192,192,317344,1,2,0:0:0:0:
320,192,317344,1,0,0:0:0:100:hithat.wav
64,192,317427,1,0,0:0:0:0:
448,192,317511,1,2,0:0:0:0:
320,192,317511,1,0,0:0:0:0:
64,192,317594,1,0,0:0:0:0:
192,192,317594,1,0,0:0:0:0:
448,192,317677,1,0,0:0:0:100:hithat.wav
320,192,317761,1,0,0:0:0:0:
192,192,317761,1,0,0:0:0:0:
64,192,317844,1,2,0:0:0:0:
448,192,317844,1,0,0:0:0:0:
320,192,317927,1,0,0:0:0:0:
64,192,318011,1,0,0:0:0:100:hithat.wav
192,192,318011,1,0,0:0:0:0:
448,192,318094,1,0,0:0:0:0:
192,192,318177,1,2,0:0:0:0:
64,192,318177,1,0,0:0:0:0:
448,192,318261,1,0,0:0:0:0:
320,192,318261,1,0,0:0:0:0:
192,192,318344,1,0,0:0:0:100:hithat.wav
320,192,318427,1,0,0:0:0:0:
64,192,318427,1,0,0:0:0:0:
448,192,318511,1,2,0:0:0:0:
192,192,318511,1,0,0:0:0:0:
64,192,318594,1,0,0:0:0:0:
320,192,318677,1,0,0:0:0:100:hithat.wav
448,192,318677,1,0,0:0:0:0:
192,192,318761,1,0,0:0:0:0:
320,192,318844,1,2,0:0:0:0:
448,192,318844,1,0,0:0:0:0:
64,192,318927,1,0,0:0:0:0:
192,192,318927,1,0,0:0:0:0:
448,192,319011,1,0,0:0:0:100:hithat.wav
64,192,319094,1,0,0:0:0:0:
320,192,319094,1,0,0:0:0:0:
448,192,319177,1,2,0:0:0:0:
192,192,319177,1,0,0:0:0:0:
320,192,319261,1,0,0:0:0:0:
64,192,319344,1,0,0:0:0:100:hithat.wav
192,192,319344,1,0,0:0:0:0:
448,192,319427,1,0,0:0:0:0:
64,192,319511,1,2,0:0:0:0:
192,192,319511,1,0,0:0:0:0:
320,192,319594,1,2,0:0:0:0:
448,192,319594,1,0,0:0:0:0:
64,192,319677,1,2,0:0:0:0:
192,192,319677,1,0,0:0:0:100:hithat.wav
320,192,319761,1,0,0:0:0:0:
448,192,319761,1,0,0:0:0:0:
64,192,319844,1,2,0:0:0:0:
192,192,319844,1,0,0:0:0:0:
320,192,319927,1,0,0:0:0:0:
64,192,320011,1,2,0:0:0:0:
448,192,320011,1,0,0:0:0:100:hithat.wav
192,192,320094,1,0,0:0:0:0:
64,192,320177,1,2,0:0:0:0:
320,192,320177,1,4,0:0:0:0:
448,192,320177,1,0,0:0:0:0:
192,192,320261,1,0,0:0:0:0:
448,192,320344,1,2,0:0:0:0:
320,192,320344,1,0,0:0:0:100:hithat.wav
64,192,320427,1,0,0:0:0:0:
448,192,320511,1,2,0:0:0:0:
192,192,320511,1,0,0:0:0:0:
320,192,320594,1,0,0:0:0:0:
192,192,320677,1,2,0:0:0:0:
64,192,320677,1,0,0:0:0:100:hithat.wav
448,192,320761,1,0,0:0:0:0:
320,192,320844,1,2,0:0:0:0:
64,192,320844,1,0,0:0:0:0:
192,192,320927,1,0,0:0:0:0:
320,192,321011,1,2,0:0:0:0:
448,192,321011,1,0,0:0:0:100:hithat.wav
192,192,321094,1,0,0:0:0:0:
448,192,321177,1,2,0:0:0:0:
64,192,321177,1,0,0:0:0:0:
320,192,321261,1,0,0:0:0:0:
64,192,321344,1,2,0:0:0:0:
192,192,321344,1,0,0:0:0:100:hithat.wav
320,192,321427,1,0,0:0:0:0:
448,192,321511,1,2,0:0:0:0:
192,192,321511,1,4,0:0:0:0:
64,192,321511,1,0,0:0:0:0:
320,192,321594,1,0,0:0:0:0:
192,192,321677,1,2,0:0:0:0:
64,192,321677,1,0,0:0:0:100:hithat.wav
448,192,321761,1,0,0:0:0:0:
320,192,321844,1,2,0:0:0:0:
64,192,321844,1,0,0:0:0:0:
192,192,321927,1,0,0:0:0:0:
448,192,322011,1,2,0:0:0:0:
320,192,322011,1,0,0:0:0:100:hithat.wav
192,192,322094,1,0,0:0:0:0:
320,192,322177,1,2,0:0:0:0:
64,192,322177,1,0,0:0:0:0:
448,192,322261,1,0,0:0:0:0:
192,192,322344,1,2,0:0:0:0:
64,192,322344,1,0,0:0:0:100:hithat.wav
320,192,322427,1,0,0:0:0:0:
448,192,322511,1,2,0:0:0:0:
192,192,322511,1,0,0:0:0:0:
64,192,322594,1,0,0:0:0:0:
448,192,322677,1,2,0:0:0:0:
320,192,322677,1,0,0:0:0:100:hithat.wav
192,192,322761,1,0,0:0:0:0:
320,192,322844,1,2,0:0:0:0:
64,192,322844,1,4,0:0:0:0:
448,192,322927,1,2,0:0:0:0:
192,192,323011,1,2,0:0:0:0:
320,192,323094,1,2,0:0:0:0:
64,192,323177,1,2,0:0:0:0:
192,192,323261,1,2,0:0:0:0:
448,192,323344,1,2,0:0:0:0:
320,192,323427,1,2,0:0:0:0:
64,192,323511,1,2,0:0:0:0:
192,192,323511,1,4,0:0:0:0:
448,192,323594,1,2,0:0:0:0:
320,192,323677,1,2,0:0:0:0:
192,192,323761,1,2,0:0:0:0:
448,192,323844,1,2,0:0:0:0:
64,192,323927,1,2,0:0:0:0:
192,192,324011,1,2,0:0:0:0:
320,192,324094,1,2,0:0:0:0:
64,192,324177,1,2,0:0:0:0:
192,192,324177,1,4,0:0:0:0:
320,192,324261,1,2,0:0:0:0:
448,192,324261,1,0,0:0:0:0:
64,192,324344,1,2,0:0:0:0:
192,192,324344,1,0,0:0:0:100:hithat.wav
320,192,324427,1,2,0:0:0:0:
448,192,324427,1,0,0:0:0:0:
64,192,324511,1,2,0:0:0:0:
192,192,324511,1,4,0:0:0:0:
320,192,324594,1,2,0:0:0:0:
448,192,324594,1,0,0:0:0:0:
64,192,324677,1,2,0:0:0:0:
192,192,324677,1,0,0:0:0:100:hithat.wav
320,192,324761,1,2,0:0:0:0:
448,192,324761,1,0,0:0:0:0:
64,192,324844,1,4,0:0:0:0:
192,192,324844,1,0,0:0:0:0:
320,192,324927,1,0,0:0:0:0:
448,192,325011,1,0,0:0:0:0:
64,192,325094,1,0,0:0:0:0:
192,192,325177,1,2,0:0:0:40:
448,192,325177,1,4,0:0:0:0:
320,192,325219,1,2,0:0:0:40:
64,192,325261,1,2,0:0:0:40:
192,192,325302,1,2,0:0:0:40:
448,192,325344,1,2,0:0:0:40:
320,192,325386,1,2,0:0:0:40:
64,192,325427,1,2,0:0:0:40:
192,192,325469,1,2,0:0:0:40:
320,192,325511,1,2,0:0:0:0:
448,192,325511,1,4,0:0:0:0:
192,192,325677,1,0,0:0:0:100:hithat.wav
64,192,325844,1,2,0:0:0:0:
448,192,325844,1,0,0:0:0:0:
320,192,326011,1,0,0:0:0:100:hithat.wav
64,192,326177,128,2,326344:0:0:0:0:
448,192,326177,1,0,0:0:0:0:
192,192,326344,128,0,326511:0:0:0:100:hithat.wav
64,192,326511,1,2,0:0:0:0:
448,192,326511,128,0,326677:0:0:0:0:
320,192,326677,128,0,326844:0:0:0:100:hithat.wav
64,192,326844,1,2,0:0:0:0:
448,192,326844,1,0,0:0:0:0:
192,192,327011,128,0,327177:0:0:0:100:hithat.wav
64,192,327177,1,2,0:0:0:0:
320,192,327177,1,0,0:0:0:0:
448,192,327344,128,0,327511:0:0:0:100:hithat.wav
320,192,327511,1,2,0:0:0:0:
192,192,327511,1,0,0:0:0:0:
64,192,327677,128,0,327844:0:0:0:100:hithat.wav
320,192,327844,1,2,0:0:0:0:
448,192,327844,1,0,0:0:0:0:
192,192,328011,128,2,328177:0:0:0:0:
320,192,328011,1,0,0:0:0:100:hithat.wav
64,192,328177,1,2,0:0:0:0:
448,192,328177,1,0,0:0:0:0:
320,192,328344,1,0,0:0:0:100:hithat.wav
192,192,328511,1,2,0:0:0:0:
448,192,328511,1,0,0:0:0:0:
64,192,328677,1,0,0:0:0:100:hithat.wav
320,192,328844,1,2,0:0:0:0:
448,192,328844,1,0,0:0:0:0:
64,192,329011,128,0,329177:0:0:0:100:hithat.wav
448,192,329177,1,2,0:0:0:0:
192,192,329177,128,0,329344:0:0:0:0:
320,192,329344,128,0,329511:0:0:0:100:hithat.wav
64,192,329511,1,2,0:0:0:0:
448,192,329511,1,0,0:0:0:0:
192,192,329677,1,0,0:0:0:100:hithat.wav
64,192,329844,1,2,0:0:0:0:
320,192,329844,1,0,0:0:0:0:
448,192,330011,1,0,0:0:0:100:hithat.wav
64,192,330177,1,2,0:0:0:0:
192,192,330177,1,0,0:0:0:0:
320,192,330261,1,2,0:0:0:0:
448,192,330261,1,0,0:0:0:0:
64,192,330344,1,2,0:0:0:0:
192,192,330344,1,0,0:0:0:100:hithat.wav
320,192,330511,1,2,0:0:0:0:
448,192,330511,1,0,0:0:0:0:
192,192,330677,1,2,0:0:0:0:
320,192,330677,1,0,0:0:0:100:hithat.wav
448,192,330844,1,0,0:0:0:0:
64,192,330844,1,2,0:0:0:0:
192,192,331011,1,0,0:0:0:100:hithat.wav
320,192,331177,1,2,0:0:0:0:
448,192,331177,1,0,0:0:0:0:
192,192,331344,1,0,0:0:0:100:hithat.wav
64,192,331511,128,2,331677:0:0:0:0:
320,192,331511,1,0,0:0:0:0:
192,192,331677,128,0,331844:0:0:0:100:hithat.wav
64,192,331844,1,2,0:0:0:0:
448,192,331844,128,0,332011:0:0:0:0:
320,192,332011,128,0,332177:0:0:0:100:hithat.wav
64,192,332177,1,2,0:0:0:0:
448,192,332177,1,0,0:0:0:0:
192,192,332344,1,0,0:0:0:100:hithat.wav
320,192,332511,1,2,0:0:0:0:
448,192,332511,1,0,0:0:0:0:
192,192,332677,128,0,332844:0:0:0:100:hithat.wav
64,192,332844,1,2,0:0:0:0:
448,192,332844,1,0,0:0:0:0:
320,192,333011,128,0,333177:0:0:0:100:hithat.wav
64,192,333177,1,2,0:0:0:0:
192,192,333177,1,0,0:0:0:0:
192,192,333344,1,2,0:0:0:0:
320,192,333344,128,0,333511:0:0:0:100:hithat.wav
64,192,333511,1,2,0:0:0:0:
448,192,333511,1,0,0:0:0:0:
192,192,333677,1,0,0:0:0:100:hithat.wav
320,192,333844,1,2,0:0:0:0:
448,192,333844,1,0,0:0:0:0:
192,192,334011,1,0,0:0:0:100:hithat.wav
64,192,334177,1,2,0:0:0:0:
448,192,334177,1,0,0:0:0:0:
192,192,334344,128,0,334511:0:0:0:100:hithat.wav
64,192,334511,1,2,0:0:0:0:
448,192,334511,1,0,0:0:0:0:
448,192,334677,128,0,334844:0:0:0:100:hithat.wav
64,192,334844,1,2,0:0:0:0:
192,192,334844,1,0,0:0:0:0:
448,192,335011,1,0,0:0:0:100:hithat.wav
64,192,335177,1,2,0:0:0:0:
320,192,335177,1,0,0:0:0:0:
192,192,335344,1,0,0:0:0:100:hithat.wav
448,192,335511,1,6,0:0:0:0:
320,192,335552,1,2,0:0:0:0:
64,192,335594,1,2,0:0:0:0:
192,192,335636,1,2,0:0:0:0:
320,192,335677,1,2,0:0:0:0:
448,192,335677,1,0,0:0:0:100:hithat.wav
64,192,335844,1,2,0:0:0:0:
320,192,335844,1,4,0:0:0:0:
192,192,336011,1,2,0:0:0:0:
448,192,336011,1,0,0:0:0:100:hithat.wav
320,192,336177,1,4,0:0:0:0:
192,192,336177,1,2,0:0:0:0:
64,192,336177,1,0,0:0:0:0:
448,192,336344,1,0,0:0:0:100:hithat.wav
64,192,336511,1,2,0:0:0:0:
192,192,336511,1,0,0:0:0:0:
320,192,336677,1,0,0:0:0:100:hithat.wav
448,192,336844,1,2,0:0:0:0:
64,192,336844,128,0,337011:0:0:0:0:
192,192,337011,128,0,337177:0:0:0:100:hithat.wav
64,192,337177,1,2,0:0:0:0:
448,192,337177,128,0,337344:0:0:0:0:
320,192,337344,128,0,337511:0:0:0:100:hithat.wav
64,192,337511,1,2,0:0:0:0:
448,192,337511,1,0,0:0:0:0:
192,192,337677,128,0,337844:0:0:0:100:hithat.wav
64,192,337844,1,2,0:0:0:0:
320,192,337844,1,0,0:0:0:0:
448,192,338011,128,0,338177:0:0:0:100:hithat.wav
320,192,338177,1,2,0:0:0:0:
192,192,338177,1,0,0:0:0:0:
64,192,338344,128,0,338511:0:0:0:100:hithat.wav
320,192,338511,1,2,0:0:0:0:
448,192,338511,1,0,0:0:0:0:
192,192,338677,128,2,338844:0:0:0:0:
320,192,338677,1,0,0:0:0:100:hithat.wav
448,192,338844,1,2,0:0:0:0:
64,192,338844,1,0,0:0:0:0:
320,192,339011,1,0,0:0:0:100:hithat.wav
64,192,339177,1,2,0:0:0:0:
192,192,339177,1,0,0:0:0:0:
320,192,339344,1,0,0:0:0:100:hithat.wav
64,192,339511,1,2,0:0:0:0:
448,192,339511,1,0,0:0:0:0:
192,192,339677,128,0,339844:0:0:0:100:hithat.wav
320,192,339844,128,2,340011:0:0:0:0:
64,192,339844,1,0,0:0:0:0:
448,192,340011,128,0,340177:0:0:0:100:hithat.wav
64,192,340177,1,2,0:0:0:0:
192,192,340177,1,0,0:0:0:0:
320,192,340344,1,0,0:0:0:100:hithat.wav
64,192,340511,1,2,0:0:0:0:
448,192,340511,1,0,0:0:0:0:
192,192,340677,1,0,0:0:0:100:hithat.wav
320,192,340844,1,2,0:0:0:0:
448,192,340844,1,0,0:0:0:0:
64,192,340927,1,2,0:0:0:0:
192,192,340927,1,0,0:0:0:0:
320,192,341011,1,2,0:0:0:0:
448,192,341011,1,0,0:0:0:100:hithat.wav
64,192,341177,1,2,0:0:0:0:
192,192,341177,1,0,0:0:0:0:
192,192,341344,1,2,0:0:0:0:
448,192,341344,1,0,0:0:0:100:hithat.wav
448,192,341511,1,0,0:0:0:0:
320,192,341511,1,2,0:0:0:0:
64,192,341677,1,0,0:0:0:100:hithat.wav
192,192,341844,1,2,0:0:0:0:
448,192,341844,1,0,0:0:0:0:
320,192,342011,1,0,0:0:0:100:hithat.wav
448,192,342177,1,2,0:0:0:0:
64,192,342177,128,0,342344:0:0:0:0:
192,192,342344,128,0,342511:0:0:0:100:hithat.wav
64,192,342511,1,2,0:0:0:0:
448,192,342511,128,0,342677:0:0:0:0:
320,192,342677,128,0,342844:0:0:0:100:hithat.wav
192,192,342844,1,2,0:0:0:0:
448,192,342844,1,0,0:0:0:0:
64,192,343011,1,0,0:0:0:100:hithat.wav
448,192,343177,1,2,0:0:0:0:
320,192,343177,1,0,0:0:0:0:
192,192,343344,128,0,343511:0:0:0:100:hithat.wav
64,192,343511,1,2,0:0:0:0:
448,192,343511,1,0,0:0:0:0:
320,192,343677,128,0,343844:0:0:0:100:hithat.wav
64,192,343844,1,2,0:0:0:0:
192,192,343844,1,0,0:0:0:0:
320,192,344011,128,2,344177:0:0:0:0:
448,192,344011,1,0,0:0:0:100:hithat.wav
192,192,344177,1,2,0:0:0:0:
64,192,344177,1,0,0:0:0:0:
448,192,344344,1,2,0:0:0:0:
320,192,344344,1,0,0:0:0:100:hithat.wav
192,192,344511,1,2,0:0:0:0:
320,192,344511,1,0,0:0:0:0:
64,192,344677,1,2,0:0:0:0:
448,192,344677,1,0,0:0:0:100:hithat.wav
448,192,344844,128,2,345011:0:0:0:0:
320,192,344844,1,0,0:0:0:0:
64,192,345011,1,2,0:0:0:0:
192,192,345011,1,0,0:0:0:100:hithat.wav
448,192,345177,1,2,0:0:0:0:
192,192,345177,1,0,0:0:0:0:
64,192,345344,1,2,0:0:0:0:
320,192,345344,1,0,0:0:0:100:hithat.wav
320,192,345511,1,2,0:0:0:0:
448,192,345511,1,0,0:0:0:0:
64,192,345594,1,2,0:0:0:0:
192,192,345594,1,0,0:0:0:0:
320,192,345677,1,2,0:0:0:0:
448,192,345677,1,0,0:0:0:100:hithat.wav
64,192,345761,1,2,0:0:0:0:
192,192,345761,1,0,0:0:0:0:
320,192,345844,1,2,0:0:0:0:
448,192,345844,1,0,0:0:0:0:
64,192,345927,1,2,0:0:0:0:
192,192,345927,1,0,0:0:0:0:
320,192,346011,1,2,0:0:0:0:
448,192,346011,1,0,0:0:0:100:hithat.wav
64,192,346094,1,2,0:0:0:0:
192,192,346094,1,0,0:0:0:0:
320,192,346177,1,0,0:0:0:0:
448,192,346261,1,0,0:0:0:0:
192,192,346344,1,0,0:0:0:100:hithat.wav
64,192,346427,1,0,0:0:0:0:
448,192,346511,1,2,0:0:0:40:
320,192,346552,1,2,0:0:0:40:
192,192,346594,1,2,0:0:0:40:
64,192,346636,1,2,0:0:0:40:
448,192,346677,1,2,0:0:0:40:
320,192,346719,1,2,0:0:0:40:
192,192,346761,1,2,0:0:0:40:
64,192,346802,1,2,0:0:0:40:
320,192,346844,1,2,0:0:0:0:
448,192,346844,1,4,0:0:0:0:
192,192,347011,1,0,0:0:0:100:hithat.wav
64,192,347177,1,2,0:0:0:0:
448,192,347177,1,0,0:0:0:0:
320,192,347344,1,0,0:0:0:100:hithat.wav
64,192,347511,128,2,347677:0:0:0:0:
448,192,347511,1,0,0:0:0:0:
192,192,347677,128,0,347844:0:0:0:100:hithat.wav
64,192,347844,1,2,0:0:0:0:
448,192,347844,128,0,348011:0:0:0:0:
320,192,348011,128,0,348177:0:0:0:100:hithat.wav
64,192,348177,1,2,0:0:0:0:
192,192,348177,1,0,0:0:0:0:
192,192,348344,128,0,348511:0:0:0:100:hithat.wav
64,192,348511,1,2,0:0:0:0:
320,192,348511,1,0,0:0:0:0:
448,192,348677,128,0,348844:0:0:0:100:hithat.wav
320,192,348844,1,2,0:0:0:0:
192,192,348844,1,0,0:0:0:0:
64,192,349011,128,0,349177:0:0:0:100:hithat.wav
320,192,349177,1,2,0:0:0:0:
448,192,349177,1,0,0:0:0:0:
192,192,349344,128,2,349511:0:0:0:0:
320,192,349344,1,0,0:0:0:100:hithat.wav
64,192,349511,1,2,0:0:0:0:
448,192,349511,1,0,0:0:0:0:
320,192,349677,1,0,0:0:0:100:hithat.wav
192,192,349844,1,2,0:0:0:0:
448,192,349844,1,0,0:0:0:0:
64,192,350011,1,0,0:0:0:100:hithat.wav
320,192,350177,1,2,0:0:0:0:
448,192,350177,1,0,0:0:0:0:
64,192,350344,128,0,350511:0:0:0:100:hithat.wav
448,192,350511,1,2,0:0:0:0:
192,192,350511,128,0,350677:0:0:0:0:
320,192,350677,128,0,350844:0:0:0:100:hithat.wav
64,192,350844,1,2,0:0:0:0:
448,192,350844,1,0,0:0:0:0:
192,192,351011,1,0,0:0:0:100:hithat.wav
64,192,351177,1,2,0:0:0:0:
320,192,351177,1,0,0:0:0:0:
448,192,351344,1,0,0:0:0:100:hithat.wav
64,192,351511,1,2,0:0:0:0:
192,192,351511,1,0,0:0:0:0:
320,192,351594,1,2,0:0:0:0:
448,192,351594,1,0,0:0:0:0:
64,192,351677,1,2,0:0:0:0:
192,192,351677,1,0,0:0:0:100:hithat.wav
320,192,351844,1,2,0:0:0:0:
448,192,351844,1,0,0:0:0:0:
192,192,352011,1,2,0:0:0:0:
320,192,352011,1,0,0:0:0:100:hithat.wav
448,192,352177,1,0,0:0:0:0:
64,192,352177,1,2,0:0:0:0:
192,192,352344,1,0,0:0:0:100:hithat.wav
320,192,352511,1,2,0:0:0:0:
448,192,352511,1,0,0:0:0:0:
192,192,352677,1,0,0:0:0:100:hithat.wav
64,192,352844,128,2,353011:0:0:0:0:
320,192,352844,1,0,0:0:0:0:
192,192,353011,128,0,353177:0:0:0:100:hithat.wav
64,192,353177,1,2,0:0:0:0:
448,192,353177,128,0,353344:0:0:0:0:
320,192,353344,128,0,353511:0:0:0:100:hithat.wav
64,192,353511,1,2,0:0:0:0:
448,192,353511,1,0,0:0:0:0:
192,192,353677,1,0,0:0:0:100:hithat.wav
320,192,353844,1,2,0:0:0:0:
448,192,353844,1,0,0:0:0:0:
192,192,354011,128,0,354177:0:0:0:100:hithat.wav
64,192,354177,1,2,0:0:0:0:
448,192,354177,1,0,0:0:0:0:
320,192,354344,128,0,354511:0:0:0:100:hithat.wav
64,192,354511,1,2,0:0:0:0:
192,192,354511,1,0,0:0:0:0:
192,192,354677,1,2,0:0:0:0:
320,192,354677,128,0,354844:0:0:0:100:hithat.wav
64,192,354844,1,2,0:0:0:0:
448,192,354844,1,0,0:0:0:0:
192,192,355011,1,0,0:0:0:100:hithat.wav
320,192,355177,1,2,0:0:0:0:
448,192,355177,1,0,0:0:0:0:
192,192,355344,1,0,0:0:0:100:hithat.wav
64,192,355511,1,2,0:0:0:0:
448,192,355511,1,0,0:0:0:0:
192,192,355677,128,0,355844:0:0:0:100:hithat.wav
64,192,355844,1,2,0:0:0:0:
448,192,355844,1,0,0:0:0:0:
448,192,356011,128,0,356177:0:0:0:100:hithat.wav
64,192,356177,1,2,0:0:0:0:
192,192,356177,1,0,0:0:0:0:
320,192,356344,1,0,0:0:0:100:hithat.wav
64,192,356511,1,2,0:0:0:0:
448,192,356511,1,0,0:0:0:0:
192,192,356677,1,0,0:0:0:100:hithat.wav
448,192,356844,1,6,0:0:0:0:
320,192,356886,1,2,0:0:0:0:
64,192,356927,1,2,0:0:0:0:
192,192,356969,1,2,0:0:0:0:
320,192,357011,1,2,0:0:0:0:
448,192,357011,1,0,0:0:0:100:hithat.wav
64,192,357177,1,2,0:0:0:0:
320,192,357177,1,4,0:0:0:0:
192,192,357344,1,2,0:0:0:0:
448,192,357344,1,0,0:0:0:100:hithat.wav
320,192,357511,1,4,0:0:0:0:
192,192,357511,1,2,0:0:0:0:
64,192,357511,1,0,0:0:0:0:
448,192,357677,1,0,0:0:0:100:hithat.wav
64,192,357844,1,2,0:0:0:0:
192,192,357844,1,0,0:0:0:0:
320,192,358011,1,0,0:0:0:100:hithat.wav
448,192,358177,1,2,0:0:0:0:
64,192,358177,128,0,358344:0:0:0:0:
192,192,358344,128,0,358511:0:0:0:100:hithat.wav
64,192,358511,1,2,0:0:0:0:
448,192,358511,128,0,358677:0:0:0:0:
320,192,358677,128,0,358844:0:0:0:100:hithat.wav
64,192,358844,1,2,0:0:0:0:
448,192,358844,1,0,0:0:0:0:
192,192,359011,128,0,359177:0:0:0:100:hithat.wav
64,192,359177,1,2,0:0:0:0:
320,192,359177,1,0,0:0:0:0:
448,192,359344,128,0,359511:0:0:0:100:hithat.wav
192,192,359511,1,2,0:0:0:0:
320,192,359511,1,0,0:0:0:0:
64,192,359677,128,0,359844:0:0:0:100:hithat.wav
320,192,359844,1,2,0:0:0:0:
448,192,359844,1,0,0:0:0:0:
192,192,360011,128,2,360177:0:0:0:0:
320,192,360011,1,0,0:0:0:100:hithat.wav
448,192,360177,1,2,0:0:0:0:
64,192,360177,1,0,0:0:0:0:
320,192,360344,1,0,0:0:0:100:hithat.wav
64,192,360511,1,2,0:0:0:0:
192,192,360511,1,0,0:0:0:0:
320,192,360677,1,0,0:0:0:100:hithat.wav
64,192,360844,1,2,0:0:0:0:
448,192,360844,1,0,0:0:0:0:
192,192,361011,128,0,361177:0:0:0:100:hithat.wav
320,192,361177,128,2,361344:0:0:0:0:
64,192,361177,1,0,0:0:0:0:
448,192,361344,128,0,361511:0:0:0:100:hithat.wav
64,192,361511,1,2,0:0:0:0:
192,192,361511,1,0,0:0:0:0:
320,192,361677,1,0,0:0:0:100:hithat.wav
64,192,361844,1,2,0:0:0:0:
448,192,361844,1,0,0:0:0:0:
192,192,362011,1,0,0:0:0:100:hithat.wav
320,192,362177,1,2,0:0:0:0:
448,192,362177,1,0,0:0:0:0:
64,192,362261,1,2,0:0:0:0:
192,192,362261,1,0,0:0:0:0:
320,192,362344,1,2,0:0:0:0:
448,192,362344,1,0,0:0:0:100:hithat.wav
64,192,362511,1,2,0:0:0:0:
192,192,362511,1,0,0:0:0:0:
192,192,362677,1,2,0:0:0:0:
448,192,362677,1,0,0:0:0:100:hithat.wav
64,192,362844,1,2,0:0:0:0:
448,192,362844,1,0,0:0:0:0:
192,192,362844,1,4,0:0:0:0:
64,192,363011,1,2,0:0:0:0:
320,192,363011,1,0,0:0:0:100:hithat.wav
192,192,363177,1,2,0:0:0:0:
448,192,363177,1,0,0:0:0:0:
320,192,363344,1,2,0:0:0:0:
448,192,363344,1,0,0:0:0:100:hithat.wav
192,192,363511,1,2,0:0:0:0:
64,192,363511,128,0,363677:0:0:0:0:
192,192,363677,128,2,363844:0:0:0:0:
448,192,363677,1,0,0:0:0:100:hithat.wav
320,192,363844,1,2,0:0:0:0:
448,192,363844,128,0,364011:0:0:0:0:
64,192,364011,1,2,0:0:0:0:
320,192,364011,128,0,364177:0:0:0:100:hithat.wav
64,192,364177,1,2,0:0:0:0:
192,192,364177,1,4,0:0:0:0:
448,192,364177,1,0,0:0:0:0:
192,192,364344,1,2,0:0:0:0:
448,192,364344,1,0,0:0:0:100:hithat.wav
64,192,364511,1,2,0:0:0:0:
320,192,364511,1,0,0:0:0:0:
192,192,364677,128,2,364844:0:0:0:0:
320,192,364677,1,0,0:0:0:100:hithat.wav
64,192,364844,1,2,0:0:0:0:
448,192,364844,1,0,0:0:0:0:
448,192,365011,1,2,0:0:0:0:
320,192,365011,128,0,365177:0:0:0:100:hithat.wav
192,192,365177,1,2,0:0:0:0:
64,192,365177,1,0,0:0:0:0:
192,192,365344,1,2,0:0:0:0:
320,192,365344,128,0,365511:0:0:0:100:hithat.wav
64,192,365511,1,2,0:0:0:0:
448,192,365511,1,4,0:0:0:0:
192,192,365594,1,2,0:0:0:0:
448,192,365677,1,2,0:0:0:0:
320,192,365761,1,2,0:0:0:0:
64,192,365844,1,2,0:0:0:0:
448,192,365927,1,2,0:0:0:0:
320,192,366011,1,2,0:0:0:0:
192,192,366094,1,2,0:0:0:0:
64,192,366177,1,2,0:0:0:0:
448,192,366177,1,4,0:0:0:0:
320,192,366261,1,2,0:0:0:0:
192,192,366344,1,2,0:0:0:0:
448,192,366427,1,2,0:0:0:0:
64,192,366511,1,2,0:0:0:0:
192,192,366594,1,2,0:0:0:0:
320,192,366677,1,2,0:0:0:0:
448,192,366761,1,2,0:0:0:0:
64,192,366844,1,2,0:0:0:0:
192,192,366844,1,4,0:0:0:0:
320,192,366927,1,2,0:0:0:0:
448,192,366927,1,0,0:0:0:0:
64,192,367011,1,2,0:0:0:0:
192,192,367011,1,0,0:0:0:100:hithat.wav
320,192,367094,1,2,0:0:0:0:
448,192,367094,1,0,0:0:0:0:
64,192,367177,1,2,0:0:0:0:
192,192,367177,1,4,0:0:0:0:
320,192,367261,1,2,0:0:0:0:
448,192,367261,1,0,0:0:0:0:
64,192,367344,1,2,0:0:0:0:
192,192,367344,1,0,0:0:0:100:hithat.wav
320,192,367427,1,2,0:0:0:0:
448,192,367427,1,0,0:0:0:0:
64,192,367511,1,4,0:0:0:0:
192,192,367511,1,0,0:0:0:0:
320,192,367594,1,0,0:0:0:0:
448,192,367677,1,0,0:0:0:100:hithat.wav
192,192,367761,1,0,0:0:0:0:
64,192,367844,1,2,0:0:0:40:
320,192,367844,1,4,0:0:0:0:
448,192,367886,1,2,0:0:0:40:
192,192,367927,1,2,0:0:0:40:
64,192,367969,1,2,0:0:0:40:
320,192,368011,1,2,0:0:0:40:
448,192,368052,1,2,0:0:0:40:
192,192,368094,1,2,0:0:0:40:
64,192,368136,1,2,0:0:0:40:
320,192,368177,1,2,0:0:0:0:
448,192,368177,1,4,0:0:0:0:
192,192,368344,1,0,0:0:0:100:hithat.wav
64,192,368511,1,2,0:0:0:0:
448,192,368511,1,0,0:0:0:0:
320,192,368677,1,0,0:0:0:100:hithat.wav
192,192,368844,1,2,0:0:0:0:
64,192,368844,1,0,0:0:0:0:
320,192,369011,1,0,0:0:0:100:hithat.wav
64,192,369177,1,2,0:0:0:0:
448,192,369177,1,0,0:0:0:0:
192,192,369344,1,0,0:0:0:100:hithat.wav
448,192,369511,1,2,0:0:0:0:
320,192,369511,1,0,0:0:0:0:
64,192,369677,1,0,0:0:0:100:hithat.wav
192,192,369844,1,2,0:0:0:0:
320,192,369844,1,0,0:0:0:0:
448,192,370011,1,0,0:0:0:100:hithat.wav
192,192,370177,1,2,0:0:0:0:
64,192,370177,1,0,0:0:0:0:
320,192,370344,1,0,0:0:0:100:hithat.wav
64,192,370511,1,2,0:0:0:0:
448,192,370511,1,0,0:0:0:0:
192,192,370677,1,2,0:0:0:0:
320,192,370677,1,0,0:0:0:100:hithat.wav
64,192,370844,1,2,0:0:0:0:
192,192,370844,1,0,0:0:0:0:
448,192,371011,1,0,0:0:0:100:hithat.wav
64,192,371177,1,2,0:0:0:0:
320,192,371177,1,0,0:0:0:0:
192,192,371344,1,0,0:0:0:100:hithat.wav
320,192,371511,1,2,0:0:0:0:
448,192,371511,1,0,0:0:0:0:
64,192,371677,1,0,0:0:0:100:hithat.wav
192,192,371844,1,2,0:0:0:0:
448,192,371844,1,0,0:0:0:0:
320,192,372011,1,0,0:0:0:100:hithat.wav
64,192,372177,1,2,0:0:0:0:
192,192,372177,1,0,0:0:0:0:
448,192,372344,1,0,0:0:0:100:hithat.wav
192,192,372511,1,2,0:0:0:0:
320,192,372511,1,0,0:0:0:0:
64,192,372677,1,0,0:0:0:100:hithat.wav
320,192,372844,1,2,0:0:0:0:
448,192,372844,1,0,0:0:0:0:
64,192,372927,1,2,0:0:0:0:
192,192,372927,1,0,0:0:0:0:
320,192,373011,1,2,0:0:0:0:
448,192,373011,1,0,0:0:0:100:hithat.wav
64,192,373177,1,2,0:0:0:0:
192,192,373177,1,0,0:0:0:0:
192,192,373344,1,2,0:0:0:0:
320,192,373344,1,0,0:0:0:100:hithat.wav
320,192,373511,1,2,0:0:0:0:
448,192,373511,1,0,0:0:0:0:
64,192,373677,1,0,0:0:0:100:hithat.wav
192,192,373844,1,2,0:0:0:0:
448,192,373844,1,0,0:0:0:0:
64,192,374011,1,0,0:0:0:100:hithat.wav
320,192,374177,1,2,0:0:0:0:
192,192,374177,1,0,0:0:0:0:
448,192,374344,1,0,0:0:0:100:hithat.wav
64,192,374511,1,2,0:0:0:0:
320,192,374511,1,0,0:0:0:0:
448,192,374677,1,0,0:0:0:100:hithat.wav
64,192,374844,1,2,0:0:0:0:
192,192,374844,1,0,0:0:0:0:
448,192,375011,1,0,0:0:0:100:hithat.wav
64,192,375177,1,2,0:0:0:0:
320,192,375177,1,0,0:0:0:0:
448,192,375344,1,0,0:0:0:100:hithat.wav
192,192,375511,1,2,0:0:0:0:
320,192,375511,1,0,0:0:0:0:
64,192,375677,1,0,0:0:0:100:hithat.wav
192,192,375844,1,2,0:0:0:0:
448,192,375844,1,0,0:0:0:0:
64,192,376011,1,2,0:0:0:0:
192,192,376011,1,0,0:0:0:100:hithat.wav
448,192,376177,1,2,0:0:0:0:
320,192,376177,1,0,0:0:0:0:
64,192,376344,1,0,0:0:0:100:hithat.wav
192,192,376511,1,2,0:0:0:0:
320,192,376511,1,0,0:0:0:0:
64,192,376677,1,0,0:0:0:100:hithat.wav
192,192,376844,1,2,0:0:0:0:
448,192,376844,1,0,0:0:0:0:
320,192,377011,1,0,0:0:0:100:hithat.wav
64,192,377177,1,2,0:0:0:0:
448,192,377177,1,0,0:0:0:0:
320,192,377344,1,0,0:0:0:100:hithat.wav
64,192,377511,1,2,0:0:0:0:
192,192,377511,1,0,0:0:0:0:
320,192,377677,1,0,0:0:0:100:hithat.wav
64,192,377844,1,2,0:0:0:0:
448,192,377844,1,0,0:0:0:0:
192,192,378011,1,0,0:0:0:100:hithat.wav
448,192,378177,1,6,0:0:0:0:
320,192,378219,1,2,0:0:0:0:
192,192,378261,1,2,0:0:0:0:
64,192,378302,1,2,0:0:0:0:
320,192,378344,1,2,0:0:0:0:
448,192,378344,1,0,0:0:0:100:hithat.wav
192,192,378511,1,2,0:0:0:0:
320,192,378511,1,4,0:0:0:0:
64,192,378677,1,2,0:0:0:0:
448,192,378677,1,0,0:0:0:100:hithat.wav
64,192,378844,1,2,0:0:0:0:
192,192,378844,1,4,0:0:0:0:
320,192,378844,1,0,0:0:0:0:
448,192,379011,1,0,0:0:0:100:hithat.wav
64,192,379177,1,2,0:0:0:0:
320,192,379177,1,0,0:0:0:0:
192,192,379344,1,0,0:0:0:100:hithat.wav
320,192,379511,1,2,0:0:0:0:
448,192,379511,1,0,0:0:0:0:
192,192,379677,1,0,0:0:0:100:hithat.wav
64,192,379844,1,2,0:0:0:0:
448,192,379844,1,0,0:0:0:0:
320,192,380011,1,0,0:0:0:100:hithat.wav
64,192,380177,1,2,0:0:0:0:
192,192,380177,1,0,0:0:0:0:
320,192,380344,1,0,0:0:0:100:hithat.wav
192,192,380511,1,2,0:0:0:0:
448,192,380511,1,0,0:0:0:0:
64,192,380677,1,0,0:0:0:100:hithat.wav
320,192,380844,1,2,0:0:0:0:
448,192,380844,1,0,0:0:0:0:
64,192,381011,1,0,0:0:0:100:hithat.wav
192,192,381177,1,2,0:0:0:0:
320,192,381177,1,0,0:0:0:0:
320,192,381344,1,2,0:0:0:0:
448,192,381344,1,0,0:0:0:100:hithat.wav
64,192,381511,1,2,0:0:0:0:
192,192,381511,1,0,0:0:0:0:
320,192,381677,1,0,0:0:0:100:hithat.wav
64,192,381844,1,2,0:0:0:0:
448,192,381844,1,0,0:0:0:0:
192,192,382011,1,0,0:0:0:100:hithat.wav
320,192,382177,1,2,0:0:0:0:
448,192,382177,1,0,0:0:0:0:
192,192,382344,1,0,0:0:0:100:hithat.wav
64,192,382511,1,2,0:0:0:0:
448,192,382511,1,0,0:0:0:0:
320,192,382677,1,0,0:0:0:100:hithat.wav
192,192,382844,1,2,0:0:0:0:
64,192,382844,1,0,0:0:0:0:
448,192,383011,1,0,0:0:0:100:hithat.wav
320,192,383177,1,2,0:0:0:0:
192,192,383177,1,0,0:0:0:0:
64,192,383344,1,0,0:0:0:100:hithat.wav
448,192,383511,1,2,0:0:0:0:
320,192,383511,1,0,0:0:0:0:
192,192,383594,1,2,0:0:0:0:
64,192,383594,1,0,0:0:0:0:
448,192,383677,1,2,0:0:0:0:
320,192,383677,1,0,0:0:0:100:hithat.wav
192,192,383844,1,2,0:0:0:0:
320,192,383844,1,0,0:0:0:0:
64,192,384011,1,2,0:0:0:0:
192,192,384011,1,0,0:0:0:100:hithat.wav
320,192,384177,1,2,0:0:0:0:
448,192,384177,1,0,0:0:0:0:
64,192,384344,1,0,0:0:0:100:hithat.wav
192,192,384511,1,2,0:0:0:0:
320,192,384511,1,0,0:0:0:0:
64,192,384677,1,0,0:0:0:100:hithat.wav
448,192,384844,1,2,0:0:0:0:
192,192,384844,1,0,0:0:0:0:
320,192,385011,1,0,0:0:0:100:hithat.wav
64,192,385177,1,2,0:0:0:0:
448,192,385177,1,0,0:0:0:0:
320,192,385344,1,0,0:0:0:100:hithat.wav
64,192,385511,1,2,0:0:0:0:
192,192,385511,1,0,0:0:0:0:
320,192,385677,1,0,0:0:0:100:hithat.wav
64,192,385844,1,2,0:0:0:0:
448,192,385844,1,0,0:0:0:0:
320,192,386011,1,0,0:0:0:100:hithat.wav
192,192,386177,1,2,0:0:0:0:
448,192,386177,1,0,0:0:0:0:
64,192,386344,1,0,0:0:0:100:hithat.wav
320,192,386511,1,2,0:0:0:0:
192,192,386511,1,0,0:0:0:0:
64,192,386677,1,2,0:0:0:0:
192,192,386677,1,0,0:0:0:100:hithat.wav
320,192,386844,1,2,0:0:0:0:
448,192,386844,1,0,0:0:0:0:
64,192,387011,1,2,0:0:0:0:
320,192,387011,1,0,0:0:0:100:hithat.wav
64,192,387177,1,2,0:0:0:0:
192,192,387177,1,0,0:0:0:0:
192,192,387344,1,2,0:0:0:0:
448,192,387344,1,0,0:0:0:100:hithat.wav
448,192,387511,1,2,0:0:0:0:
320,192,387511,1,0,0:0:0:0:
192,192,387677,1,2,0:0:0:0:
320,192,387677,1,0,0:0:0:100:hithat.wav
64,192,387844,1,2,0:0:0:0:
192,192,387844,1,0,0:0:0:0:
64,192,388011,1,2,0:0:0:0:
448,192,388011,1,0,0:0:0:100:hithat.wav
320,192,388177,1,2,0:0:0:0:
448,192,388177,1,0,0:0:0:0:
64,192,388261,1,2,0:0:0:0:
192,192,388261,1,0,0:0:0:0:
320,192,388344,1,2,0:0:0:0:
448,192,388344,1,0,0:0:0:100:hithat.wav
64,192,388427,1,2,0:0:0:0:
192,192,388427,1,0,0:0:0:0:
320,192,388511,1,2,0:0:0:0:
448,192,388511,1,0,0:0:0:0:
64,192,388594,1,2,0:0:0:0:
192,192,388594,1,0,0:0:0:0:
320,192,388677,1,2,0:0:0:0:
448,192,388677,1,0,0:0:0:100:hithat.wav
64,192,388761,1,2,0:0:0:0:
192,192,388761,1,0,0:0:0:0:
320,192,388844,1,0,0:0:0:0:
448,192,388927,1,0,0:0:0:0:
64,192,389011,1,0,0:0:0:100:hithat.wav
192,192,389094,1,0,0:0:0:0:
448,192,389177,1,2,0:0:0:40:
320,192,389219,1,2,0:0:0:40:
64,192,389261,1,2,0:0:0:40:
192,192,389302,1,2,0:0:0:40:
448,192,389344,1,2,0:0:0:40:
320,192,389386,1,2,0:0:0:40:
64,192,389427,1,2,0:0:0:40:
192,192,389469,1,2,0:0:0:40:
320,192,389511,1,2,0:0:0:0:
448,192,389511,1,4,0:0:0:0:
64,192,389844,1,2,0:0:0:0:
448,192,389844,1,0,0:0:0:0:
192,192,390177,1,2,0:0:0:0:
64,192,390177,1,0,0:0:0:0:
192,192,390511,1,2,0:0:0:0:
320,192,390511,1,0,0:0:0:0:
320,192,390844,1,2,0:0:0:0:
448,192,390844,1,0,0:0:0:0:
64,192,391177,1,2,0:0:0:0:
320,192,391177,1,0,0:0:0:0:
192,192,391511,1,2,0:0:0:0:
64,192,391511,1,0,0:0:0:0:
192,192,391844,1,2,0:0:0:0:
448,192,391844,1,0,0:0:0:0:
448,192,392011,1,2,0:0:0:0:
320,192,392011,1,0,0:0:0:0:
64,192,392177,1,2,0:0:0:0:
192,192,392177,1,0,0:0:0:0:
192,192,392511,1,2,0:0:0:0:
448,192,392511,1,0,0:0:0:0:
448,192,392844,1,2,0:0:0:0:
320,192,392844,1,0,0:0:0:0:
64,192,393177,1,2,0:0:0:0:
320,192,393177,1,0,0:0:0:0:
64,192,393511,1,2,0:0:0:0:
192,192,393511,1,0,0:0:0:0:
192,192,393844,1,2,0:0:0:0:
320,192,393844,1,0,0:0:0:0:
448,192,394177,1,2,0:0:0:0:
320,192,394177,1,0,0:0:0:0:
192,192,394261,1,2,0:0:0:0:
64,192,394261,1,0,0:0:0:0:
448,192,394344,1,2,0:0:0:0:
320,192,394344,1,0,0:0:0:0:
64,192,394511,1,2,0:0:0:0:
448,192,394511,1,0,0:0:0:0:
192,192,394677,1,2,0:0:0:0:
64,192,394677,1,0,0:0:0:0:
448,192,394844,1,2,0:0:0:0:
320,192,394844,1,0,0:0:0:0:
64,192,395177,1,2,0:0:0:0:
320,192,395177,1,0,0:0:0:0:
192,192,395511,1,2,0:0:0:0:
448,192,395511,1,0,0:0:0:0:
64,192,395844,1,2,0:0:0:0:
192,192,395844,1,0,0:0:0:0:
448,192,396177,1,2,0:0:0:0:
320,192,396177,1,0,0:0:0:0:
64,192,396511,1,2,0:0:0:0:
448,192,396511,1,0,0:0:0:0:
192,192,396844,1,2,0:0:0:0:
320,192,396844,1,0,0:0:0:0:
64,192,397177,1,2,0:0:0:0:
192,192,397177,1,0,0:0:0:0:
64,192,397344,1,2,0:0:0:0:
448,192,397344,1,0,0:0:0:0:
320,192,397511,1,2,0:0:0:0:
448,192,397511,1,0,0:0:0:0:
192,192,397844,1,2,0:0:0:0:
448,192,397844,1,0,0:0:0:0:
64,192,398177,1,2,0:0:0:0:
320,192,398177,1,0,0:0:0:0:
64,192,398511,1,2,0:0:0:0:
192,192,398511,1,0,0:0:0:0:
320,192,398844,1,2,0:0:0:0:
448,192,398844,1,0,0:0:0:0:
192,192,399177,1,2,0:0:0:0:
320,192,399177,1,0,0:0:0:0:
192,192,399511,1,2,0:0:0:0:
64,192,399552,1,2,0:0:0:0:
448,192,399594,1,2,0:0:0:0:
320,192,399636,1,2,0:0:0:0:
192,192,399677,1,2,0:0:0:0:
64,192,399677,1,0,0:0:0:0:
448,192,399844,1,2,0:0:0:0:
64,192,399844,1,0,0:0:0:0:
448,192,400011,1,2,0:0:0:0:
320,192,400011,1,0,0:0:0:0:
64,192,400177,1,2,0:0:0:0:
192,192,400177,1,4,0:0:0:0:
320,192,400177,1,0,0:0:0:0:
320,192,400511,1,2,0:0:0:0:
448,192,400511,1,0,0:0:0:0:
192,192,400844,1,2,0:0:0:0:
448,192,400844,1,0,0:0:0:0:
64,192,401177,1,2,0:0:0:0:
320,192,401177,1,0,0:0:0:0:
64,192,401511,1,2,0:0:0:0:
192,192,401511,1,0,0:0:0:0:
320,192,401844,1,2,0:0:0:0:
448,192,401844,1,0,0:0:0:0:
192,192,402177,1,2,0:0:0:0:
320,192,402177,1,0,0:0:0:0:
64,192,402511,1,2,0:0:0:0:
448,192,402511,1,0,0:0:0:0:
64,192,402677,1,2,0:0:0:0:
192,192,402677,1,0,0:0:0:0:
448,192,402844,1,2,0:0:0:0:
320,192,402844,1,0,0:0:0:0:
64,192,403177,1,2,0:0:0:0:
192,192,403177,1,0,0:0:0:0:
192,192,403511,1,2,0:0:0:0:
320,192,403511,1,0,0:0:0:0:
64,192,403844,1,2,0:0:0:0:
448,192,403844,1,0,0:0:0:0:
64,192,404177,1,2,0:0:0:0:
192,192,404177,1,0,0:0:0:0:
448,192,404511,1,2,0:0:0:0:
320,192,404511,1,0,0:0:0:0:
64,192,404844,1,2,0:0:0:0:
192,192,404844,1,0,0:0:0:0:
320,192,404927,1,2,0:0:0:0:
448,192,404927,1,0,0:0:0:0:
64,192,405011,1,2,0:0:0:0:
192,192,405011,1,0,0:0:0:0:
320,192,405177,1,2,0:0:0:0:
448,192,405177,1,0,0:0:0:0:
64,192,405344,1,2,0:0:0:0:
320,192,405344,1,0,0:0:0:0:
64,192,405511,1,2,0:0:0:0:
192,192,405511,1,4,0:0:0:0:
448,192,405511,1,0,0:0:0:0:
192,192,405677,1,2,0:0:0:0:
320,192,405677,1,0,0:0:0:0:
64,192,405844,1,2,0:0:0:0:
448,192,405844,1,0,0:0:0:0:
320,192,406011,1,2,0:0:0:0:
448,192,406011,1,0,0:0:0:0:
64,192,406177,1,2,0:0:0:0:
192,192,406177,1,0,0:0:0:0:
64,192,406344,1,2,0:0:0:0:
320,192,406344,1,0,0:0:0:0:
192,192,406511,1,2,0:0:0:0:
448,192,406511,1,0,0:0:0:0:
320,192,406677,1,2,0:0:0:0:
448,192,406677,1,0,0:0:0:0:
64,192,406844,1,2,0:0:0:0:
192,192,406844,1,4,0:0:0:0:
320,192,406844,1,0,0:0:0:0:
64,192,407011,1,2,0:0:0:0:
448,192,407011,1,0,0:0:0:0:
320,192,407177,1,2,0:0:0:0:
448,192,407177,1,0,0:0:0:0:
192,192,407344,1,2,0:0:0:0:
64,192,407344,1,0,0:0:0:0:
320,192,407511,1,2,0:0:0:0:
192,192,407511,1,0,0:0:0:0:
64,192,407677,1,2,0:0:0:0:
448,192,407677,1,0,0:0:0:0:
192,192,407844,1,2,0:0:0:0:
64,192,407844,1,0,0:0:0:0:
320,192,408011,1,2,0:0:0:0:
448,192,408011,1,0,0:0:0:0:
64,192,408177,1,2,0:0:0:0:
192,192,408177,1,4,0:0:0:0:
320,192,408261,1,2,0:0:0:0:
448,192,408344,1,2,0:0:0:0:
320,192,408427,1,2,0:0:0:0:
192,192,408511,1,2,0:0:0:0:
64,192,408594,1,2,0:0:0:0:
448,192,408677,1,2,0:0:0:0:
320,192,408761,1,2,0:0:0:0:
64,192,408844,1,2,0:0:0:0:
192,192,408844,1,4,0:0:0:0:
320,192,408927,1,2,0:0:0:0:
64,192,409011,1,2,0:0:0:0:
192,192,409094,1,2,0:0:0:0:
320,192,409177,1,2,0:0:0:0:
448,192,409261,1,2,0:0:0:0:
192,192,409344,1,2,0:0:0:0:
320,192,409427,1,2,0:0:0:0:
64,192,409511,1,2,0:0:0:0:
192,192,409511,1,4,0:0:0:0:
320,192,409594,1,2,0:0:0:0:
448,192,409594,1,0,0:0:0:0:
64,192,409677,1,2,0:0:0:0:
192,192,409677,1,0,0:0:0:0:
320,192,409761,1,2,0:0:0:0:
448,192,409761,1,0,0:0:0:0:
64,192,409844,1,2,0:0:0:0:
192,192,409844,1,4,0:0:0:0:
320,192,409927,1,2,0:0:0:0:
448,192,409927,1,0,0:0:0:0:
64,192,410011,1,2,0:0:0:0:
192,192,410011,1,0,0:0:0:0:
320,192,410094,1,2,0:0:0:0:
448,192,410094,1,0,0:0:0:0:
192,192,410177,1,4,0:0:0:0:
64,192,410177,1,2,0:0:0:0:
320,192,410261,1,0,0:0:0:0:
448,192,410344,1,0,0:0:0:0:
192,192,410427,1,0,0:0:0:0:
64,192,410511,1,2,0:0:0:40:
448,192,410511,1,4,0:0:0:0:
320,192,410552,1,2,0:0:0:40:
192,192,410594,1,2,0:0:0:40:
64,192,410636,1,2,0:0:0:40:
448,192,410677,1,2,0:0:0:40:
320,192,410719,1,2,0:0:0:40:
192,192,410761,1,2,0:0:0:40:
64,192,410802,1,2,0:0:0:40:
320,192,410844,1,4,0:0:0:0:
448,192,410844,1,0,0:0:0:100:twinkling.wav
