osu file format v14

[General]
AudioFilename: audio.mp3
AudioLeadIn: 0
PreviewTime: 56927
Countdown: 0
SampleSet: Soft
StackLeniency: 0.7
Mode: 0
LetterboxInBreaks: 0
WidescreenStoryboard: 1

[Editor]
Bookmarks: 699,11670,22641,33613,44584,56927,67899,78870,89841,100813,111784,122756,133727,144699,155670,166641
DistanceSpacing: 1
BeatDivisor: 4
GridSize: 32
TimelineZoom: 1.1

[Metadata]
Title:Burning Star
TitleUnicode:Burning Star
Artist:LV.4
ArtistUnicode:LV.4
Creator:ktgster
Version:Wispy's Normal
Source:osu! World Cup 2023
Tags:electronic instrumental owc2023gfhr3 hr grand finals fa featured artist wispy squirrelpascals ioexception cytusine nytrocide_ nytro ganyumymommy dada Chemo Serenhaide
BeatmapID:4416317
BeatmapSetID:2095154

[Difficulty]
HPDrainRate:3
CircleSize:3
OverallDifficulty:4
ApproachRate:5.5
SliderMultiplier:1
SliderTickRate:1

[Events]
//Background and Video events
0,0,"pink.jpg",0,0
//Break Periods
2,36356,43213
2,107670,110413
//Storyboard Layer 0 (Background)
//Storyboard Layer 1 (Fail)
//Storyboard Layer 2 (Pass)
//Storyboard Layer 3 (Foreground)
//Storyboard Layer 4 (Overlay)
//Storyboard Sound Samples

[TimingPoints]
699,342.857142857143,4,2,1,80,1,0
44584,-117.647058823529,4,2,1,70,0,0
50070,-111.111111111111,4,2,1,70,0,0
52469,-111.111111111111,4,2,1,80,0,0
53841,-105.263157894737,4,2,1,80,0,0
56927,-105.263157894737,4,2,1,90,0,0
57613,-100,4,2,1,90,0,0
78870,-100,4,2,1,80,0,0
100813,-133.333333333333,4,2,1,70,0,0
111784,-111.111111111111,4,2,1,70,0,0
117270,-105.263157894737,4,2,1,60,0,0
118641,-105.263157894737,4,2,1,70,0,0
120013,-105.263157894737,4,2,1,80,0,0
122756,-100,4,2,1,90,0,0
143327,-100,4,2,1,80,0,0
144356,-100,4,2,1,80,0,0
144699,-90.9090909090909,4,2,1,90,0,1
166641,-90.9090909090909,4,2,1,90,0,0
169384,-90.9090909090909,4,2,1,5,0,0

[Colours]
Combo1 : 255,179,255
Combo2 : 255,51,153
Combo3 : 255,89,255
Combo4 : 244,64,91

[HitObjects]
0,384,699,5,14,2:0:0:0:
59,316,1041,6,0,B|164:324|164:324|240:295|240:295|245:285|245:285|300:323|300:323|308:316|308:316|474:372|474:372|438:276|438:276|399:242,1,600,0|10,3:2|2:0,0:0:0:0:
491,198,3441,1,8,2:0:0:0:
437,114,3784,6,0,B|472:3|472:3|498:45|498:45|351:75|351:75|335:67|335:67|202:91|202:91|232:122|232:122|225:170,1,550,0|0,3:2|3:2,0:0:0:0:
255,200,5841,2,0,B|261:220|261:220|271:228|271:228|275:242,2,50,2|2|8,1:2|1:2|2:0,0:0:0:0:
168,250,6527,6,0,B|5:235|5:235|-5:256|-5:256|53:371|53:371|70:382|70:382|153:361|153:361|160:349|160:349|283:323,1,550,0|0,3:2|3:2,0:0:0:0:
320,339,8584,2,0,L|334:276,1,50,10|2,2:0|3:2,0:0:0:0:
341,242,8927,1,8,3:2:0:0:
439,261,9270,6,0,L|464:162,1,100,0|0,3:2|3:2,0:0:0:0:
418,159,9784,1,0,3:2:0:0:
418,159,9956,2,0,B|404:109|404:109|447:64,1,100,0|0,3:2|3:2,0:0:0:0:
128,96,11327,1,0,2:0:0:0:
43,148,11670,6,0,L|56:257,2,100,14|8|8,2:0|2:0|2:0,0:0:0:0:
32,48,12699,1,8,2:0:0:0:
131,36,13041,2,0,L|143:135,1,100,8|8,2:0|2:0,0:0:0:0:
154,235,13727,1,8,2:0:0:0:
352,212,14413,6,0,L|365:321,2,100,8|8|8,2:0|2:0|2:0,0:0:0:0:
341,112,15441,1,8,2:0:0:0:
440,100,15784,2,0,L|452:199,1,100,8|8,2:0|2:0,0:0:0:0:
461,253,16299,1,2,2:0:0:0:
461,253,16470,1,8,2:0:0:0:
264,272,17156,6,0,L|154:258,2,100,8|8|8,2:0|2:0|2:0,0:0:0:0:
364,283,18184,1,8,2:0:0:0:
376,184,18527,2,0,L|276:171,1,100,8|8,2:0|2:0,0:0:0:0:
177,160,19213,2,0,L|164:260,1,100,8|8,2:0|2:0,0:0:0:0:
150,359,19899,6,0,L|40:345,2,100,8|8|8,2:0|2:0|2:0,0:0:0:0:
250,370,20927,1,8,2:0:0:0:
262,271,21270,2,0,L|162:258,1,100,8|8,2:0|2:0,0:0:0:0:
63,248,21956,5,8,2:0:0:0:
63,248,22127,1,10,2:0:0:0:
63,248,22299,2,0,B|49:229|49:229|23:235,1,50,14|10,2:0|2:0,0:0:0:0:
0,192,22641,5,14,2:0:0:0:
31,96,22984,1,8,2:0:0:0:
126,125,23327,1,8,2:0:0:0:
157,29,23670,2,0,L|213:38,1,50,8|2,2:0|2:0,0:0:0:0:
254,51,24013,2,0,L|233:155,1,100,8|8,2:0|2:0,0:0:0:0:
218,248,24699,2,0,L|322:227,1,100,10|10,2:0|2:0,0:0:0:0:
351,134,25384,5,8,2:0:0:0:
446,164,25727,1,8,2:0:0:0:
511,88,26070,1,8,2:0:0:0:
416,58,26413,1,10,2:0:0:0:
321,28,26756,2,0,L|312:88,2,50,8|2|10,2:0|2:0|2:0,0:0:0:0:
221,46,27441,2,0,P|201:14|166:3,2,75,10|2|10,2:0|2:0|2:0,0:0:0:0:
233,94,28127,6,0,L|222:156,2,50,10|2|10,3:2|3:2|3:2,0:0:0:0:
325,54,28813,2,0,B|361:51|361:51|366:46|366:46|409:41,2,75,8|0|0,3:2|3:2|3:2,0:0:0:0:
316,103,29499,2,0,L|332:216,1,100,8|10,3:2|3:2,0:0:0:0:
286,292,30184,1,10,3:2:0:0:
384,343,30527,1,8,3:2:0:0:
384,343,30699,1,10,3:2:0:0:
384,343,30870,6,0,L|443:333,2,50,10|10|10,3:2|3:2|3:2,0:0:0:0:
313,272,31556,2,0,L|254:262,1,50,8|8,3:2|3:2,0:0:0:0:
231,233,31899,1,10,3:2:0:0:
231,233,32070,1,8,3:2:0:0:
231,233,33270,6,0,B|232:221|232:221|222:225|222:225|231:129,1,100,2|4,3:2|2:0,0:0:0:0:
231,133,44584,6,0,B|289:149|289:149|320:109|320:109|296:30|296:30|283:21|283:21|228:48|228:48|213:41|213:41|84:65|84:65|125:317|125:317|40:273|40:273|24:183|24:183|201:227|201:227|210:224|210:224|273:316|273:316|339:218,1,1275.0000243187,4|0,3:2|3:2,0:0:0:0:
406,279,50070,6,0,L|459:288,2,44.999998626709,8|8|8,2:0|2:0|2:0,0:0:0:0:
420,189,50756,2,0,L|473:198,2,44.999998626709,8|8|8,2:0|2:0|2:0,0:0:0:0:
446,108,51441,1,8,2:0:0:0:
446,108,51613,1,8,2:0:0:0:
446,108,51784,1,8,2:0:0:0:
459,18,52127,2,0,L|512:27,2,44.999998626709,8|8|0,2:0|2:0|3:2,0:0:0:0:
366,40,52813,5,8,2:0:0:0:
366,40,52984,1,8,2:0:0:0:
366,40,53156,1,8,2:0:0:0:
334,129,53499,1,8,2:0:0:0:
334,129,53670,1,8,2:0:0:0:
334,129,53841,2,0,L|230:145,1,94.9999974632264,8|8,2:0|2:0,0:0:0:0:
192,152,54356,6,0,B|203:161|203:161|215:228,2,71.2499980974198,0|0|8,2:0|2:0|2:0,0:0:0:0:
217,66,55127,2,0,B|273:55|273:55|282:44,1,71.2499980974198,0|8,2:0|2:0,0:0:0:0:
282,45,56584,1,6,3:2:0:0:
381,11,56927,5,14,2:0:0:0:
381,11,57099,1,2,2:0:0:0:
381,11,57270,1,10,2:0:0:0:
422,101,57613,2,0,B|447:96|447:96|477:118,1,50,8|0,2:0|2:0,0:0:0:0:
494,158,57956,1,10,2:0:0:0:
446,228,58213,6,0,L|372:212,1,75,2|2,2:0|2:0,0:0:0:0:
350,133,58727,1,2,2:0:0:0:
327,53,58984,2,0,L|240:35,2,75,10|2|2,2:0|2:0|2:0,0:0:0:0:
362,17,59670,6,0,L|412:6,1,50,10|2,2:0|2:0,0:0:0:0:
454,30,60013,1,10,2:0:0:0:
437,128,60356,2,0,L|487:138,2,50,8|0|10,2:0|2:0|2:0,0:0:0:0:
403,164,60870,1,0,2:0:0:0:
403,164,61041,1,8,2:0:0:0:
403,164,61213,6,0,P|421:204|427:249,2,75,2|2|10,2:0|2:0|2:0,0:0:0:0:
323,185,61984,2,0,P|330:221|346:255,1,75,2|2,2:0|2:0,0:0:0:0:
312,292,62413,5,10,2:0:0:0:
262,379,62756,1,10,2:0:0:0:
184,335,63099,1,8,2:0:0:0:
184,335,63270,1,0,2:0:0:0:
184,335,63441,1,10,2:0:0:0:
208,250,63699,6,0,L|192:176,1,75,2|2,2:0|2:0,0:0:0:0:
113,154,64213,1,2,2:0:0:0:
33,131,64470,2,0,L|15:44,2,75,10|2|2,2:0|2:0|2:0,0:0:0:0:
11,176,65156,5,10,2:0:0:0:
31,273,65499,1,10,2:0:0:0:
127,248,65841,2,0,L|137:198,2,50,8|0|10,2:0|2:0|2:0,0:0:0:0:
163,282,66356,2,0,L|176:331,1,50,0|8,2:0|2:0,0:0:0:0:
229,348,66699,6,0,P|269:330|314:324,1,75,2|2,2:0|2:0,0:0:0:0:
378,375,67213,1,10,2:0:0:0:
378,375,67384,1,8,2:0:0:0:
378,375,67556,2,0,B|402:377|402:377|420:345,1,50,14|8,2:0|2:0,0:0:0:0:
442,312,67899,5,14,2:0:0:0:
352,267,68241,1,10,2:0:0:0:
435,210,68584,2,0,L|492:225,2,50,8|0|10,2:0|2:0|2:0,0:0:0:0:
387,140,69184,6,0,L|313:156,1,75,2|2,2:0|2:0,0:0:0:0:
292,235,69699,1,2,2:0:0:0:
269,315,69956,2,0,L|182:333,2,75,10|2|2,2:0|2:0|2:0,0:0:0:0:
304,356,70641,6,0,L|363:368,2,50,10|2|10,2:0|2:0|2:0,0:0:0:0:
344,264,71327,2,0,L|354:214,2,50,8|0|10,2:0|2:0|2:0,0:0:0:0:
395,297,71841,1,0,2:0:0:0:
395,297,72013,1,8,2:0:0:0:
395,297,72184,6,0,P|435:279|480:273,2,75,2|2|10,2:0|2:0|2:0,0:0:0:0:
343,361,72956,2,0,P|303:379|258:385,1,75,2|10,2:0|2:0,0:0:0:0:
262,335,73384,6,0,L|273:265,2,50,10|2|10,3:2|3:2|3:2,0:0:0:0:
163,315,74070,2,0,L|174:245,2,50,8|0|10,3:2|3:2|3:2,0:0:0:0:
74,298,74756,1,8,3:2:0:0:
74,298,74927,1,2,3:2:0:0:
74,298,75099,1,10,3:2:0:0:
46,202,75441,2,0,B|23:197|23:197|-2:214,2,50,10|2|8,3:2|3:2|3:2,0:0:0:0:
87,172,75956,1,10,3:2:0:0:
87,172,76127,6,0,L|143:180,1,50,10|10,3:2|3:2,0:0:0:0:
185,188,76470,1,10,3:2:0:0:
274,233,76813,2,0,L|308:188,1,50,8|8,3:2|3:2,0:0:0:0:
338,158,77156,1,10,3:2:0:0:
338,158,77327,1,8,3:2:0:0:
338,158,78527,1,2,3:2:0:0:
243,189,78870,6,0,L|231:256,2,50,14|2|10,2:0|2:0|2:0,0:0:0:0:
205,96,79556,2,0,L|217:29,2,50,8|0|10,2:0|2:0|2:0,0:0:0:0:
123,109,80156,6,0,L|107:195,2,75,2|2|2,2:0|2:0|2:0,0:0:0:0:
48,72,80927,2,0,L|63:-14,1,75,10|2,2:0|2:0,0:0:0:0:
146,16,81441,1,2,2:0:0:0:
146,16,81613,6,0,L|205:24,1,50,10|2,2:0|2:0,0:0:0:0:
250,31,81956,1,10,2:0:0:0:
321,114,82299,2,0,L|388:102,2,50,8|0|10,2:0|2:0|2:0,0:0:0:0:
308,196,82899,6,0,L|221:211,2,75,2|2|2,2:0|2:0|2:0,0:0:0:0:
345,271,83670,2,0,L|431:255,2,75,10|2|2,2:0|2:0|2:0,0:0:0:0:
328,318,84356,6,0,L|277:308,1,50,10|2,2:0|2:0,0:0:0:0:
229,298,84699,1,10,2:0:0:0:
150,359,85041,2,0,L|99:368,2,50,8|0|10,2:0|2:0|2:0,0:0:0:0:
147,276,85641,6,0,L|55:244,2,75,2|2|2,2:0|2:0|2:0,0:0:0:0:
204,215,86413,2,0,L|174:138,1,75,10|2,2:0|2:0,0:0:0:0:
194,67,86927,1,2,2:0:0:0:
194,67,87099,6,0,L|143:58,2,50,10|2|10,2:0|2:0|2:0,0:0:0:0:
291,118,87784,2,0,L|342:108,1,50,8|0,2:0|2:0,0:0:0:0:
390,98,88127,1,10,2:0:0:0:
416,176,88384,6,0,L|492:205,2,75,2|2|2,2:0|2:0|2:0,0:0:0:0:
361,238,89156,1,10,2:0:0:0:
361,238,89327,1,8,2:0:0:0:
361,238,89499,2,0,B|335:235|335:235|315:249,1,50,14|8,2:0|2:0,0:0:0:0:
305,297,89841,6,0,L|290:364,2,50,14|2|10,2:0|2:0|2:0,0:0:0:0:
234,225,90527,2,0,L|167:237,2,50,8|0|10,2:0|2:0|2:0,0:0:0:0:
247,143,91127,6,0,L|333:127,2,75,2|2|2,2:0|2:0|2:0,0:0:0:0:
193,80,91899,2,0,L|107:95,1,75,10|2,2:0|2:0,0:0:0:0:
42,112,92413,1,2,2:0:0:0:
42,112,92584,6,0,L|50:171,1,50,10|2,2:0|2:0,0:0:0:0:
19,208,92927,1,10,2:0:0:0:
86,281,93270,2,0,L|74:348,2,50,8|0|10,2:0|2:0|2:0,0:0:0:0:
166,261,93870,6,0,L|181:174,2,75,2|2|2,2:0|2:0|2:0,0:0:0:0:
183,341,94641,1,10,2:0:0:0:
280,302,94984,1,8,2:0:0:0:
280,302,95156,1,10,2:0:0:0:
280,302,95327,6,0,L|270:251,1,50,10|2,3:2|3:2,0:0:0:0:
260,203,95670,1,10,3:2:0:0:
358,221,96013,2,0,L|409:230,2,50,8|0|10,3:2|3:2|3:2,0:0:0:0:
361,138,96613,6,0,L|453:106,2,75,2|2|2,3:2|3:2|3:2,0:0:0:0:
315,69,97384,1,10,3:2:0:0:
414,34,97727,1,8,3:2:0:0:
414,34,97899,1,10,3:2:0:0:
414,34,98070,6,0,L|465:25,2,50,10|10|10,3:2|3:2|3:2,0:0:0:0:
411,134,98756,2,0,L|401:185,1,50,8|8,3:2|3:2,0:0:0:0:
389,231,99099,1,10,3:2:0:0:
309,209,99356,6,0,P|276:231|233:238,2,75,10|2|2,3:2|3:2|3:2,0:0:0:0:
331,129,100127,2,0,P|309:96|302:53,1,75,2|2,3:2|3:2,0:0:0:0:
242,14,100641,1,2,3:2:0:0:
242,14,100813,6,0,B|306:118|306:118|433:126|433:126|350:223|350:223|386:346|386:346|268:300|268:300|156:366|156:366|165:240|165:240|68:161|68:161|189:128|189:128|220:59,1,1200.00004577637,6|0,2:0|2:0,0:0:0:0:
214,72,111784,6,0,B|241:91|274:92|274:92|277:104|277:104|336:107|378:139,1,179.999994506836,14|8,3:2|3:2,0:0:0:0:
416,57,112813,5,8,3:2:0:0:
481,121,113156,2,0,P|466:162|465:210,1,89.9999972534181,8|8,3:2|3:2,0:0:0:0:
490,294,113841,2,0,P|475:335|474:383,1,89.9999972534181,8|8,3:2|3:2,0:0:0:0:
384,379,114527,5,8,3:2:0:0:
344,298,114870,1,8,3:2:0:0:
256,318,115213,2,0,L|150:295,1,89.9999972534181,8|8,3:2|3:2,0:0:0:0:
77,293,115899,2,0,P|92:252|93:204,1,89.9999972534181,8|8,3:2|3:2,0:0:0:0:
183,201,116584,2,0,P|198:160|199:112,1,89.9999972534181,8|8,3:2|3:2,0:0:0:0:
248,110,117099,1,8,3:2:0:0:
248,110,117270,6,0,L|254:47,2,47.4999987316132,8|8|8,2:0|2:0|2:0,0:0:0:0:
297,192,117956,2,0,L|360:198,2,47.4999987316132,8|8|8,2:0|2:0|2:0,0:0:0:0:
215,241,118641,2,0,L|209:304,2,47.4999987316132,8|8|8,2:0|2:0|2:0,0:0:0:0:
166,159,119327,2,0,L|103:153,2,47.4999987316132,8|8|8,2:0|2:0|2:0,0:0:0:0:
213,142,119841,1,8,2:0:0:0:
213,142,120013,5,8,2:0:0:0:
315,161,120356,1,8,2:0:0:0:
315,161,120527,1,8,2:0:0:0:
315,161,120699,1,8,2:0:0:0:
301,255,121041,2,0,L|414:273,1,94.9999974632264,8|0,2:0|3:2,0:0:0:0:
395,270,122413,1,2,3:2:0:0:
378,170,122756,6,0,L|291:157,2,75,12|2|0,2:0|2:0|2:0,0:0:0:0:
416,138,123441,2,0,B|404:119|404:119|412:93,2,50,10|2|10,2:0|2:0|2:0,0:0:0:0:
435,236,124127,2,0,L|522:223,2,75,8|2|0,2:0|2:0|2:0,0:0:0:0:
401,272,124813,2,0,B|389:291|389:291|397:317,2,50,10|2|10,2:0|2:0|2:0,0:0:0:0:
302,251,125499,6,0,L|289:164,1,75,8|2,2:0|2:0,0:0:0:0:
208,206,126013,1,0,2:0:0:0:
208,206,126184,2,0,B|189:194|189:194|163:202,1,50,10|2,2:0|2:0,0:0:0:0:
121,231,126527,1,10,2:0:0:0:
110,331,126870,2,0,L|23:344,2,75,8|2|0,2:0|2:0|2:0,0:0:0:0:
151,376,127556,5,10,2:0:0:0:
151,376,127727,1,2,2:0:0:0:
151,376,127899,2,0,L|200:368,1,50,10|2,2:0|2:0,0:0:0:0:
248,355,128241,6,0,L|234:275,2,75,8|2|0,2:0|2:0|2:0,0:0:0:0:
297,364,128927,2,0,P|322:379|360:379,2,50,10|2|10,2:0|2:0|2:0,0:0:0:0:
329,269,129613,2,0,L|342:195,1,75,8|2,2:0|2:0,0:0:0:0:
257,182,130127,1,0,2:0:0:0:
257,182,130299,2,0,P|232:167|194:167,2,50,10|2|10,2:0|2:0|2:0,0:0:0:0:
245,82,130984,6,0,B|262:37|265:56|276:14,1,75,8|2,2:0|2:0,0:0:0:0:
362,7,131499,1,0,2:0:0:0:
362,7,131670,2,0,B|357:34|357:34|377:70,1,50,10|2,2:0|2:0,0:0:0:0:
413,76,132013,1,10,2:0:0:0:
489,140,132356,2,0,L|475:228,2,75,8|2|0,2:0|2:0|2:0,0:0:0:0:
459,100,133041,5,10,2:0:0:0:
411,83,133213,1,10,2:0:0:0:
363,67,133384,1,14,2:0:0:0:
263,70,133727,6,0,B|256:34|256:34|273:0,2,75,12|2|0,2:0|2:0|2:0,0:0:0:0:
237,113,134413,2,0,B|213:110|213:110|195:92,1,50,10|2,2:0|2:0,0:0:0:0:
164,51,134756,1,10,2:0:0:0:
133,146,135099,2,0,B|96:141|96:141|69:114,2,75,8|2|0,2:0|2:0|2:0,0:0:0:0:
166,184,135784,2,0,B|155:205|155:205|133:217,1,50,10|2,2:0|2:0,0:0:0:0:
84,234,136127,1,10,2:0:0:0:
165,293,136470,2,0,B|149:326|149:326|115:343,2,75,8|2|0,2:0|2:0|2:0,0:0:0:0:
211,273,137156,2,0,B|228:289|228:289|232:314,1,50,10|2,2:0|2:0,0:0:0:0:
233,366,137499,1,10,2:0:0:0:
314,307,137841,2,0,B|340:332|340:332|347:369,2,75,8|2|0,2:0|2:0|2:0,0:0:0:0:
309,258,138527,5,10,2:0:0:0:
309,258,138699,1,2,2:0:0:0:
309,258,138870,2,0,B|330:246|330:246|355:250,1,50,10|10,2:0|2:0,0:0:0:0:
405,265,139213,5,8,3:2:0:0:
434,169,139556,2,0,B|455:155|455:155|478:160,2,50,8|0|10,3:2|3:2|3:2,0:0:0:0:
356,106,140241,2,0,B|349:81|349:81|361:61,2,50,10|2|8,3:2|3:2|3:2,0:0:0:0:
271,160,140927,2,0,B|245:158|245:158|230:141,2,50,8|0|10,3:2|3:2|3:2,0:0:0:0:
296,257,141613,2,0,B|287:280|287:280|265:290,1,50,10|10,3:2|3:2,0:0:0:0:
225,280,141956,5,8,3:2:0:0:
225,280,142127,1,8,3:2:0:0:
225,280,142299,1,8,3:2:0:0:
133,292,142641,1,10,3:2:0:0:
133,292,142813,1,10,3:2:0:0:
133,292,142984,2,0,L|75:307,1,50,10|10,3:2|3:2,0:0:0:0:
85,305,144356,1,2,3:2:0:0:
36,206,144699,6,0,L|53:142,1,55.0000016784668,14|0,2:0|2:0,0:0:0:0:
22,105,145041,1,10,2:0:0:0:
130,87,145384,2,0,B|136:124|136:124|141:127|141:127|147:167,2,82.5000025177003,10|2|2,2:0|2:0|2:0,0:0:0:0:
121,37,146070,1,8,2:0:0:0:
164,3,146241,2,0,B|201:9|201:9|204:14|204:14|244:20,1,82.5000025177003,2|2,2:0|2:0,0:0:0:0:
324,5,146756,2,0,B|330:42|330:42|335:45|335:45|341:85,1,82.5000025177003,10|2,2:0|2:0,0:0:0:0:
422,71,147270,1,2,2:0:0:0:
467,171,147613,6,0,L|448:278,1,82.5000025177003,0|2,2:0|2:0,0:0:0:0:
374,224,148127,2,0,B|337:230|337:230|334:235|334:235|294:241,2,82.5000025177003,10|2|2,2:0|2:0|2:0,0:0:0:0:
370,279,148813,1,8,2:0:0:0:
365,333,148984,2,0,B|328:339|328:339|325:344|325:344|285:350,1,82.5000025177003,2|2,2:0|2:0,0:0:0:0:
209,381,149499,1,10,2:0:0:0:
156,317,149756,1,2,2:0:0:0:
199,247,150013,1,2,2:0:0:0:
199,247,150184,6,0,P|139:234|77:259,1,110.000003356934,10|10,2:0|2:0,0:0:0:0:
68,140,150870,2,0,B|62:103|62:103|57:100|57:100|51:60,2,82.5000025177003,10|2|2,2:0|2:0|2:0,0:0:0:0:
126,135,151556,1,8,2:0:0:0:
126,135,151727,2,0,B|206:118,1,82.5000025177003,2|2,2:0|2:0,0:0:0:0:
282,150,152241,2,0,B|288:113|288:113|293:110|293:110|299:70,1,82.5000025177003,10|2,2:0|2:0,0:0:0:0:
257,0,152756,1,2,2:0:0:0:
159,50,153099,6,0,L|52:31,1,82.5000025177003,0|2,2:0|2:0,0:0:0:0:
77,120,153613,2,0,B|40:126|40:126|37:131|37:131|-3:137,2,82.5000025177003,10|2|2,2:0|2:0|2:0,0:0:0:0:
118,164,154299,1,8,2:0:0:0:
143,212,154470,2,0,B|137:249|137:249|132:252|132:252|126:292,1,82.5000025177003,2|2,2:0|2:0,0:0:0:0:
45,318,154984,5,10,2:0:0:0:
45,318,155156,1,8,2:0:0:0:
45,318,155327,2,0,B|61:341|61:341|58:367,1,55.0000016784668,12|10,2:0|2:0,0:0:0:0:
118,375,155670,6,0,L|182:358,1,55.0000016784668,14|0,2:0|2:0,0:0:0:0:
205,318,156013,1,10,2:0:0:0:
303,366,156356,2,0,B|340:372|340:372|343:377|343:377|383:383,2,82.5000025177003,10|2|2,2:0|2:0|2:0,0:0:0:0:
292,311,157041,1,8,2:0:0:0:
284,256,157213,2,0,B|278:219|278:219|273:216|273:216|267:176,1,82.5000025177003,2|2,2:0|2:0,0:0:0:0:
346,151,157727,2,0,B|383:157|383:157|386:162|386:162|426:168,1,82.5000025177003,10|2,2:0|2:0,0:0:0:0:
492,215,158241,1,2,2:0:0:0:
479,106,158584,6,0,L|460:-1,1,82.5000025177003,0|2,2:0|2:0,0:0:0:0:
382,34,159099,2,0,B|345:28|345:28|342:23|342:23|302:17,2,82.5000025177003,10|2|2,2:0|2:0|2:0,0:0:0:0:
373,91,159784,1,8,2:0:0:0:
361,145,159956,2,0,B|355:182|355:182|350:185|350:185|344:225,1,82.5000025177003,2|2,2:0|2:0,0:0:0:0:
285,281,160470,1,10,2:0:0:0:
319,356,160727,1,2,2:0:0:0:
404,346,160984,1,10,2:0:0:0:
404,346,161156,6,0,L|469:356,2,55.0000016784668,10|0|10,3:2|3:2|3:2,0:0:0:0:
425,238,161841,2,0,L|490:250,2,55.0000016784668,10|0|8,3:2|3:2|3:2,0:0:0:0:
370,226,162356,1,2,3:2:0:0:
316,215,162527,2,0,L|304:280,2,55.0000016784668,8|2|8,3:2|3:2|3:2,0:0:0:0:
333,105,163213,1,10,3:2:0:0:
230,65,163556,1,8,3:2:0:0:
220,119,163727,1,10,3:2:0:0:
168,138,163899,6,0,L|91:125,1,55.0000016784668,10|8,3:2|3:2,0:0:0:0:
70,95,164241,2,0,L|33:164,1,55.0000016784668,10|8,3:2|3:2,0:0:0:0:
0,173,164584,1,10,3:2:0:0:
87,257,164927,1,8,3:2:0:0:
87,257,165099,1,10,3:2:0:0:
87,257,165270,6,0,L|179:243,2,82.5000025177003,8|8|8,2:0|2:0|2:0,0:0:0:0:
19,304,166041,1,8,2:0:0:0:
98,342,166299,1,8,2:0:0:0:
98,342,166470,2,0,B|124:349|124:349|116:376,1,55.0000016784668,10|14,2:0|2:0,0:0:0:0:
