osu file format v14

[General]
AudioFilename: audio.mp3
AudioLeadIn: 0
PreviewTime:56927
Countdown: 0
SampleSet: Soft
StackLeniency: 0.4
Mode: 0
LetterboxInBreaks: 0
WidescreenStoryboard: 1

[Editor]
Bookmarks:699,11670,22641,33613,44584,56927,67899,78870,89841,100813,111784,122756,133727,144699,155670,166641
DistanceSpacing: 0.75
BeatDivisor: 8
GridSize: 16
TimelineZoom: 2.799999

[Metadata]
Title:Burning Star
TitleUnicode:Burning Star
Artist:LV.4
ArtistUnicode:LV.4
Creator:ktgster
Version:Dada's Extra
Source:osu! World Cup 2023
Tags:electronic instrumental owc2023gfhr3 hr grand finals fa featured artist wispy squirrelpascals ioexception cytusine nytrocide_ nytro ganyumymommy dada Chemo Serenhaide
BeatmapID:4483942
BeatmapSetID:2095154

[Difficulty]
HPDrainRate:5
CircleSize:4
OverallDifficulty:9
ApproachRate:9.5
SliderMultiplier:2
SliderTickRate:1

[Events]
//Background and Video events
0,0,"pink.jpg",0,0
//Break Periods
2,33813,42688
2,101013,108516
//Storyboard Layer 0 (Background)
//Storyboard Layer 1 (Fail)
//Storyboard Layer 2 (Pass)
//Storyboard Layer 3 (Foreground)
//Storyboard Layer 4 (Overlay)
//Storyboard Sound Samples

[TimingPoints]
699,342.857142857143,4,2,1,80,1,0
11670,-83.3333333333333,4,2,1,80,0,0
32241,-100,4,2,1,80,0,0
44584,-100,4,2,1,70,0,0
52470,-100,4,2,1,80,0,0
56927,-76.9230769230769,4,2,1,90,0,0
77670,-111.111111111111,4,2,1,90,0,0
78870,-83.3333333333333,4,2,1,80,0,0
98070,-76.9230769230769,4,2,1,80,0,0
99441,-100,4,2,1,80,0,0
100813,-90.9090909090909,4,2,1,70,0,0
117270,-90.9090909090909,4,2,1,60,0,0
118641,-90.9090909090909,4,2,1,70,0,0
120013,-90.9090909090909,4,2,1,80,0,0
122756,-83.3333333333333,4,2,1,90,0,0
143327,-83.3333333333333,4,2,1,80,0,0
144699,-76.9230769230769,4,2,1,90,0,0
169384,-76.9230769230769,4,2,1,5,0,0

[Colours]
Combo1 : 255,179,255
Combo2 : 255,51,153
Combo3 : 255,89,255
Combo4 : 244,64,91

[HitObjects]
66,172,699,6,0,P|123:162|178:147,1,100,14|0,2:0|2:0,0:0:0:0:
270,2,1041,2,0,L|247:131,1,100,0|0,3:2|3:2,0:0:0:0:
258,110,1299,1,0,3:2:0:0:
263,119,1384,1,0,0:0:0:0:
268,128,1470,1,0,3:2:0:0:
273,137,1556,1,0,3:2:0:0:
460,140,1727,1,2,2:0:0:0:
443,121,1813,1,0,3:2:0:0:
421,110,1899,1,2,2:0:0:0:
396,106,1984,1,0,3:2:0:0:
372,112,2070,6,0,P|344:192|324:310,1,200,0|0,3:2|3:2,0:0:0:0:
248,158,2584,2,0,P|227:240|217:359,1,200,0|0,3:2|3:2,0:0:0:0:
138,184,3099,5,10,2:0:0:0:
338,218,3270,1,2,3:2:0:0:
387,226,3356,1,0,3:2:0:0:
436,235,3441,1,8,2:0:0:0:
443,242,3784,6,0,L|302:217,1,100,0|0,3:2|3:2,0:0:0:0:
335,234,4041,1,0,3:2:0:0:
325,243,4127,1,0,0:0:0:0:
315,252,4213,1,0,3:2:0:0:
305,261,4299,1,0,3:2:0:0:
227,332,4470,1,2,2:0:0:0:
212,311,4556,1,0,3:2:0:0:
203,288,4641,1,2,2:0:0:0:
200,263,4727,1,0,3:2:0:0:
204,238,4813,6,0,B|179:140|179:140|111:65,1,200,0|0,3:2|3:2,0:0:0:0:
252,73,5327,2,0,B|179:140|179:140|81:165,1,200,0|0,3:2|3:2,0:0:0:0:
186,0,5841,5,2,1:2:0:0:
223,34,5927,1,2,1:2:0:0:
259,66,6013,1,2,1:2:0:0:
296,100,6099,1,2,1:2:0:0:
332,132,6184,1,8,2:0:0:0:
325,139,6527,6,0,L|250:71,1,100,0|0,3:2|3:2,0:0:0:0:
259,66,6784,1,0,3:2:0:0:
266,59,6870,1,0,2:0:0:0:
273,52,6956,1,0,3:2:0:0:
280,45,7041,1,0,3:2:0:0:
404,104,7213,1,2,2:0:0:0:
411,127,7299,1,0,3:2:0:0:
410,152,7384,1,2,2:0:0:0:
403,176,7470,1,0,3:2:0:0:
389,197,7556,6,0,P|334:187|179:178,1,200,0|0,3:2|3:2,0:0:0:0:
93,348,8070,2,0,P|184:307|280:278,1,200,0|0,3:2|3:2,0:0:0:0:
403,383,8584,5,10,2:0:0:0:
512,212,8756,1,2,3:2:0:0:
490,166,8841,1,0,3:2:0:0:
469,121,8927,5,8,3:2:0:0:
471,129,9013,1,0,3:2:0:0:
471,142,9099,1,0,3:2:0:0:
464,158,9184,1,0,3:2:0:0:
442,163,9270,1,0,3:2:0:0:
421,145,9356,1,0,3:2:0:0:
385,145,9441,1,0,3:2:0:0:
358,177,9527,1,0,3:2:0:0:
375,224,9613,5,0,3:2:0:0:
389,177,9699,1,0,3:2:0:0:
368,132,9784,1,0,3:2:0:0:
324,112,9870,1,0,3:2:0:0:
277,125,9956,2,0,L|301:147,1,25,0|0,3:2|3:2,0:0:0:0:
237,153,10041,2,0,L|244:187,1,25,0|0,3:2|3:2,0:0:0:0:
188,149,10127,2,0,L|174:178,1,25,0|0,3:2|3:2,0:0:0:0:
154,114,10213,2,0,L|128:130,1,25,0|0,3:2|0:0,0:0:0:0:
151,66,10299,6,0,L|151:4,1,50,0|2,3:2|2:0,0:0:0:0:
45,114,10470,6,0,L|45:217,1,100,0|2,3:2|2:0,0:0:0:0:
135,270,10727,2,0,L|135:370,1,100,0|2,3:2|2:0,0:0:0:0:
242,277,10984,2,0,L|242:177,1,100,0|2,3:2|2:0,0:0:0:0:
344,142,11241,1,0,3:2:0:0:
327,119,11327,5,0,2:0:0:0:
317,152,11413,1,0,2:0:0:0:
344,170,11499,1,2,2:0:0:0:
370,150,11584,1,0,3:2:0:0:
360,119,11670,6,0,P|341:207|342:270,1,119.999996337891,14|2,2:0|2:0,0:0:0:0:
411,384,12013,2,0,P|430:296|430:232,1,119.999996337891,8|2,2:0|2:0,0:0:0:0:
334,244,12270,1,0,2:0:0:0:
327,251,12356,5,8,2:0:0:0:
286,229,12441,1,0,2:0:0:0:
245,207,12527,1,2,2:0:0:0:
85,354,12699,2,0,P|146:335|208:291,1,119.999996337891,8|2,2:0|2:0,0:0:0:0:
75,124,13041,5,8,2:0:0:0:
57,167,13127,1,0,2:0:0:0:
39,210,13213,1,2,2:0:0:0:
114,27,13384,1,8,2:0:0:0:
171,161,13556,1,2,2:0:0:0:
178,168,13641,1,0,2:0:0:0:
30,48,13813,1,0,2:0:0:0:
23,41,13899,1,2,2:0:0:0:
250,86,14070,6,0,L|386:110,1,119.999996337891,8|2,2:0|2:0,0:0:0:0:
361,99,14327,1,0,2:0:0:0:
353,91,14413,1,8,2:0:0:0:
345,83,14499,1,0,2:0:0:0:
337,75,14584,1,2,2:0:0:0:
250,214,14756,2,0,P|193:237|115:247,1,119.999996337891,8|2,2:0|2:0,0:0:0:0:
128,239,15013,1,0,2:0:0:0:
234,336,15184,1,0,2:0:0:0:
241,343,15270,1,2,2:0:0:0:
345,230,15441,2,0,P|402:207|480:197,1,119.999996337891,8|2,2:0|2:0,0:0:0:0:
501,42,15784,6,0,P|444:19|366:9,1,119.999996337891,8|2,2:0|2:0,0:0:0:0:
275,165,16127,2,0,P|218:142|140:132,1,119.999996337891,8|2,2:0|2:0,0:0:0:0:
153,139,16384,1,0,2:0:0:0:
288,60,16556,1,0,2:0:0:0:
295,53,16641,1,2,2:0:0:0:
339,237,16813,6,0,L|315:371,1,119.999996337891,8|2,2:0|2:0,0:0:0:0:
325,348,17070,1,0,2:0:0:0:
331,340,17156,1,8,2:0:0:0:
337,332,17241,1,0,2:0:0:0:
343,324,17327,1,2,2:0:0:0:
168,296,17499,1,8,2:0:0:0:
321,170,17670,2,0,L|331:230,1,59.9999981689454,2|0,2:0|2:0,0:0:0:0:
139,142,17927,2,0,L|149:202,1,59.9999981689454,0|2,2:0|2:0,0:0:0:0:
299,70,18184,6,0,B|359:59|359:59|422:86,1,119.999996337891,8|2,2:0|2:0,0:0:0:0:
420,89,18441,1,0,2:0:0:0:
426,95,18527,1,8,2:0:0:0:
432,101,18613,1,0,2:0:0:0:
438,107,18699,1,2,2:0:0:0:
456,256,18870,2,0,L|337:235,1,119.999996337891,8|2,2:0|2:0,0:0:0:0:
331,229,19127,1,0,2:0:0:0:
255,379,19299,1,0,2:0:0:0:
248,372,19384,1,2,2:0:0:0:
153,221,19556,1,8,2:0:0:0:
339,329,19727,5,2,2:0:0:0:
357,325,19813,1,0,2:0:0:0:
375,321,19899,1,8,2:0:0:0:
393,317,19984,1,0,2:0:0:0:
411,313,20070,1,2,2:0:0:0:
270,204,20241,2,0,P|219:203|140:228,1,119.999996337891,8|2,2:0|2:0,0:0:0:0:
146,228,20499,1,0,2:0:0:0:
67,103,20670,1,0,2:0:0:0:
74,96,20756,1,2,2:0:0:0:
25,276,20927,1,8,2:0:0:0:
158,133,21099,1,2,2:0:0:0:
162,137,21184,1,0,2:0:0:0:
166,141,21270,5,8,2:0:0:0:
179,135,21356,1,0,2:0:0:0:
191,125,21441,1,2,2:0:0:0:
200,114,21527,1,0,2:0:0:0:
206,100,21613,1,8,2:0:0:0:
209,85,21699,1,0,2:0:0:0:
207,70,21784,1,2,2:0:0:0:
202,56,21870,1,0,2:0:0:0:
193,44,21956,5,8,2:0:0:0:
233,63,22041,1,8,2:0:0:0:
274,82,22127,1,10,2:0:0:0:
315,101,22213,1,8,2:0:0:0:
356,120,22299,1,14,2:0:0:0:
425,316,22470,1,10,2:0:0:0:
465,296,22556,1,2,2:0:0:0:
506,277,22641,5,14,2:0:0:0:
478,266,22727,1,0,2:0:0:0:
448,268,22813,1,0,2:0:0:0:
421,281,22899,1,0,2:0:0:0:
402,304,22984,1,8,2:0:0:0:
383,326,23070,1,2,2:0:0:0:
356,340,23156,1,2,2:0:0:0:
326,342,23241,1,2,2:0:0:0:
298,331,23327,5,8,2:0:0:0:
316,307,23413,1,2,2:0:0:0:
333,282,23499,1,0,2:0:0:0:
350,257,23584,1,2,2:0:0:0:
340,220,23670,5,8,2:0:0:0:
357,195,23756,1,2,2:0:0:0:
374,170,23841,1,2,2:0:0:0:
391,145,23927,1,0,2:0:0:0:
381,108,24013,5,8,2:0:0:0:
398,83,24099,1,0,2:0:0:0:
415,58,24184,6,0,L|473:47,2,59.9999981689454,2|0|8,2:0|2:0|2:0,0:0:0:0:
280,31,24441,2,0,L|338:20,2,59.9999981689454,2|0|0,2:0|2:0|2:0,0:0:0:0:
195,125,24699,2,0,L|253:114,2,59.9999981689454,10|0|2,2:0|2:0|2:0,0:0:0:0:
53,111,24956,2,0,L|111:100,2,59.9999981689454,0|10|0,2:0|2:0|2:0,0:0:0:0:
9,197,25213,1,2,2:0:0:0:
9,197,25299,1,0,2:0:0:0:
9,197,25384,5,8,2:0:0:0:
36,209,25470,1,2,2:0:0:0:
63,222,25556,1,2,2:0:0:0:
90,235,25641,1,0,2:0:0:0:
117,247,25727,1,8,2:0:0:0:
140,268,25813,1,2,2:0:0:0:
147,297,25899,1,2,2:0:0:0:
135,324,25984,1,0,2:0:0:0:
108,338,26070,5,8,2:0:0:0:
115,309,26156,1,2,2:0:0:0:
131,283,26241,1,0,2:0:0:0:
154,264,26327,1,0,2:0:0:0:
182,254,26413,1,10,2:0:0:0:
212,253,26499,1,0,2:0:0:0:
240,261,26584,1,0,2:0:0:0:
265,278,26670,1,2,2:0:0:0:
283,302,26756,1,8,2:0:0:0:
308,318,26841,1,2,2:0:0:0:
337,322,26927,6,0,P|369:310|409:313,2,59.9999981689454,2|0|10,2:0|2:0|2:0,0:0:0:0:
464,239,27184,2,0,P|436:219|396:211,2,59.9999981689454,2|0|2,2:0|2:0|2:0,0:0:0:0:
326,161,27441,2,0,P|347:134|383:117,2,59.9999981689454,10|0|2,2:0|2:0|2:0,0:0:0:0:
465,95,27699,2,0,P|450:63|420:37,2,59.9999981689454,2|8|0,2:0|2:0|2:0,0:0:0:0:
325,32,27956,2,0,P|299:47|281:71,1,59.9999981689454,10|0,2:0|2:0,0:0:0:0:
244,221,28127,5,10,3:2:0:0:
221,239,28213,1,2,3:2:0:0:
191,245,28299,1,2,3:2:0:0:
163,235,28384,1,0,3:2:0:0:
144,213,28470,1,10,3:2:0:0:
137,184,28556,1,2,3:2:0:0:
146,156,28641,1,2,3:2:0:0:
167,135,28727,1,0,3:2:0:0:
195,128,28813,5,8,3:2:0:0:
181,167,28899,1,2,3:2:0:0:
149,194,28984,1,0,3:2:0:0:
108,201,29070,1,0,3:2:0:0:
69,187,29156,1,10,3:2:0:0:
42,156,29241,1,0,3:2:0:0:
34,115,29327,1,0,3:2:0:0:
48,76,29413,1,2,3:2:0:0:
79,49,29499,1,8,3:2:0:0:
120,41,29584,1,2,3:2:0:0:
159,54,29670,6,0,B|184:39|184:39|200:12,2,59.9999981689454,2|0|10,3:2|3:2|3:2,0:0:0:0:
242,135,29927,2,0,B|267:120|267:120|283:93,2,59.9999981689454,2|0|2,3:2|3:2|3:2,0:0:0:0:
325,216,30184,2,0,B|350:201|350:201|366:174,2,59.9999981689454,10|0|0,3:2|3:2|3:2,0:0:0:0:
408,297,30441,2,0,B|433:282|433:282|449:255,2,59.9999981689454,2|8|0,3:2|3:2|3:2,0:0:0:0:
269,310,30699,2,0,B|244:295|244:295|228:268,1,59.9999981689454,10|0,3:2|3:2,0:0:0:0:
128,147,30870,6,0,L|205:160,1,59.9999981689454,10|2,3:2|3:2,0:0:0:0:
301,64,31041,2,0,L|287:141,1,59.9999981689454,10|0,3:2|3:2,0:0:0:0:
384,237,31213,2,0,L|306:223,1,59.9999981689454,10|2,3:2|3:2,0:0:0:0:
211,320,31384,2,0,L|224:242,1,59.9999981689454,10|0,3:2|3:2,0:0:0:0:
121,140,31556,6,0,L|109:73,1,59.9999981689454,8|2,3:2|3:2,0:0:0:0:
218,327,31727,2,0,L|231:249,1,59.9999981689454,8|0,3:2|3:2,0:0:0:0:
297,116,31899,5,10,3:2:0:0:
342,78,31984,1,8,3:2:0:0:
401,76,32070,1,8,3:2:0:0:
450,109,32156,1,10,3:2:0:0:
469,165,32241,5,0,2:0:0:0:
455,156,32327,1,0,2:0:0:0:
441,147,32413,2,0,P|397:156|341:185,1,100,2|0,2:0|2:0,0:0:0:0:
348,218,32670,2,0,P|303:215|241:228,1,100,2|0,2:0|2:0,0:0:0:0:
237,255,32927,2,0,P|194:240|131:237,1,100,2|0,2:0|2:0,0:0:0:0:
115,260,33184,1,2,2:0:0:0:
107,269,33270,5,2,3:2:0:0:
105,256,33356,1,2,3:2:0:0:
103,244,33441,1,2,3:2:0:0:
101,231,33527,1,0,2:0:0:0:
99,219,33613,1,4,2:0:0:0:
256,192,43213,12,0,44413,0:0:0:0:
267,42,44584,5,4,3:2:0:0:
268,51,44670,1,0,3:2:0:0:
269,60,44756,1,0,3:2:0:0:
270,70,44841,1,0,3:2:0:0:
270,79,44927,1,0,3:2:0:0:
271,88,45013,1,0,3:2:0:0:
272,98,45099,1,0,3:2:0:0:
273,107,45184,1,0,3:2:0:0:
273,116,45270,1,0,3:2:0:0:
274,126,45356,1,0,3:2:0:0:
275,135,45441,1,0,3:2:0:0:
275,144,45527,1,0,3:2:0:0:
276,154,45613,1,0,3:2:0:0:
277,163,45699,1,0,3:2:0:0:
278,172,45784,1,0,3:2:0:0:
278,182,45870,1,0,3:2:0:0:
279,191,45956,6,0,L|328:199,3,50,0|0|0|0,3:2|3:2|3:2|3:2,0:0:0:0:
313,237,46299,2,0,L|362:245,3,50,0|0|0|0,3:2|3:2|3:2|3:2,0:0:0:0:
347,283,46641,2,0,L|396:291,3,50,0|0|0|0,3:2|3:2|3:2|3:2,0:0:0:0:
381,329,46984,2,0,L|430:337,3,50,0|0|0|0,3:2|3:2|3:2|3:2,0:0:0:0:
481,266,47327,5,0,3:2:0:0:
472,249,47413,1,0,3:2:0:0:
462,233,47499,1,0,3:2:0:0:
451,218,47584,1,0,3:2:0:0:
439,204,47670,1,0,3:2:0:0:
425,191,47756,1,0,3:2:0:0:
411,179,47841,1,0,3:2:0:0:
395,169,47927,1,0,3:2:0:0:
379,160,48013,1,0,3:2:0:0:
361,152,48099,1,0,3:2:0:0:
344,146,48184,1,0,3:2:0:0:
325,141,48270,1,0,3:2:0:0:
307,139,48356,1,0,3:2:0:0:
288,137,48441,1,0,3:2:0:0:
270,138,48527,1,0,3:2:0:0:
251,140,48613,1,0,3:2:0:0:
232,143,48699,6,0,P|199:176|197:183,3,50,0|0|0|0,3:2|3:2|3:2|3:2,0:0:0:0:
286,264,49041,2,0,P|273:219|268:213,3,50,0|0|0|0,3:2|3:2|3:2|3:2,0:0:0:0:
202,266,49384,2,0,P|214:310|219:316,3,50,0|0|0|0,3:2|3:2|3:2|3:2,0:0:0:0:
133,223,49727,2,0,P|108:223|85:233,3,50,0|0|0|0,3:2|3:2|3:2|3:2,0:0:0:0:
67,373,50070,5,8,2:0:0:0:
50,380,50156,1,8,2:0:0:0:
36,366,50241,1,8,2:0:0:0:
37,342,50327,1,8,2:0:0:0:
53,321,50413,1,8,2:0:0:0:
81,313,50499,1,8,2:0:0:0:
113,320,50584,1,8,2:0:0:0:
143,337,50670,1,8,2:0:0:0:
174,359,50756,1,8,2:0:0:0:
210,378,50841,1,8,2:0:0:0:
252,384,50927,1,8,2:0:0:0:
295,369,51013,1,8,2:0:0:0:
331,336,51099,1,8,2:0:0:0:
346,286,51184,1,8,2:0:0:0:
342,230,51270,1,8,2:0:0:0:
315,177,51356,1,8,2:0:0:0:
264,140,51441,5,8,2:0:0:0:
239,81,51527,1,8,2:0:0:0:
262,22,51613,1,8,2:0:0:0:
320,0,51699,1,8,2:0:0:0:
379,21,51784,1,8,2:0:0:0:
406,79,51870,1,8,2:0:0:0:
383,138,51956,1,8,2:0:0:0:
330,170,52041,1,8,2:0:0:0:
271,147,52127,1,8,2:0:0:0:
208,154,52213,1,8,2:0:0:0:
162,199,52299,1,8,2:0:0:0:
146,260,52384,1,8,2:0:0:0:
164,320,52470,6,0,L|190:324,6,25,0|0|0|0|0|0|0,3:2|3:2|3:2|3:2|3:2|3:2|3:2,0:0:0:0:
41,224,52813,5,8,2:0:0:0:
105,235,52899,1,8,2:0:0:0:
169,247,52984,1,8,2:0:0:0:
233,259,53070,1,8,2:0:0:0:
297,269,53156,5,8,2:0:0:0:
274,207,53241,1,8,2:0:0:0:
252,146,53327,1,8,2:0:0:0:
230,85,53413,1,8,2:0:0:0:
208,24,53499,5,8,2:0:0:0:
166,73,53584,1,8,2:0:0:0:
124,123,53670,1,8,2:0:0:0:
82,173,53756,1,8,2:0:0:0:
41,224,53841,6,0,L|51:257,1,25,8|8,2:0|2:0,0:0:0:0:
76,211,53927,2,0,L|86:244,1,25,8|8,2:0|2:0,0:0:0:0:
111,198,54013,2,0,L|121:231,1,25,8|8,2:0|2:0,0:0:0:0:
146,185,54099,2,0,L|156:218,1,25,8|0,2:0|0:0,0:0:0:0:
181,172,54184,5,8,2:0:0:0:
188,179,54270,1,8,2:0:0:0:
353,286,54441,1,8,2:0:0:0:
360,293,54527,1,8,2:0:0:0:
276,50,54699,1,8,2:0:0:0:
283,57,54784,1,8,2:0:0:0:
290,64,54870,1,8,2:0:0:0:
455,171,55041,1,8,2:0:0:0:
195,186,55213,1,8,2:0:0:0:
146,173,55299,1,8,2:0:0:0:
98,160,55384,1,8,2:0:0:0:
48,146,55470,1,8,2:0:0:0:
24,63,56584,5,6,3:2:0:0:
74,77,56670,1,2,3:2:0:0:
122,90,56756,1,2,2:0:0:0:
229,319,56927,5,14,2:0:0:0:
250,275,57013,1,2,2:0:0:0:
293,255,57099,1,2,2:0:0:0:
339,265,57184,1,0,2:0:0:0:
371,302,57270,1,10,2:0:0:0:
401,338,57356,1,2,2:0:0:0:
448,348,57441,1,2,2:0:0:0:
491,327,57527,1,0,2:0:0:0:
512,284,57613,5,8,2:0:0:0:
500,237,57699,2,0,L|424:222,1,64.9999970245363,2|0,2:0|2:0,0:0:0:0:
374,116,57870,1,0,2:0:0:0:
335,87,57956,2,0,L|262:112,1,64.9999970245363,10|0,2:0|2:0,0:0:0:0:
165,45,58127,1,0,2:0:0:0:
117,39,58213,2,0,L|66:97,1,64.9999970245363,2|8,2:0|2:0,0:0:0:0:
56,258,58384,5,2,2:0:0:0:
104,252,58470,2,0,L|118:176,1,64.9999970245363,2|0,2:0|2:0,0:0:0:0:
217,355,58641,5,10,2:0:0:0:
255,325,58727,2,0,L|229:252,1,64.9999970245363,2|0,2:0|2:0,0:0:0:0:
328,94,58899,5,2,2:0:0:0:
376,100,58984,2,0,L|363:163,1,64.9999970245363,10|0,2:0|2:0,0:0:0:0:
456,252,59156,5,2,2:0:0:0:
494,281,59241,2,0,L|451:330,1,64.9999970245363,2|8,2:0|2:0,0:0:0:0:
270,370,59413,5,2,2:0:0:0:
255,325,59499,2,0,L|280:252,1,64.9999970245363,2|2,2:0|2:0,0:0:0:0:
255,80,59670,5,10,2:0:0:0:
214,54,59756,1,2,2:0:0:0:
167,59,59841,1,2,2:0:0:0:
133,92,59927,1,0,2:0:0:0:
128,140,60013,1,10,2:0:0:0:
156,183,60099,1,2,2:0:0:0:
183,225,60184,1,2,2:0:0:0:
210,267,60270,1,0,2:0:0:0:
237,309,60356,5,8,2:0:0:0:
264,351,60441,2,0,P|296:364|350:366,1,64.9999970245363,2|0,2:0|2:0,0:0:0:0:
114,278,60613,1,0,2:0:0:0:
82,317,60699,2,0,P|77:351|89:403,1,64.9999970245363,10|0,2:0|2:0,0:0:0:0:
113,153,60870,1,0,2:0:0:0:
67,132,60956,2,0,P|32:136|-14:162,1,64.9999970245363,2|8,2:0|2:0,0:0:0:0:
233,119,61127,5,2,2:0:0:0:
241,69,61213,2,0,P|227:37|190:-2,1,64.9999970245363,2|0,2:0|2:0,0:0:0:0:
360,205,61384,5,10,2:0:0:0:
368,155,61470,2,0,P|354:123|317:83,1,64.9999970245363,2|0,2:0|2:0,0:0:0:0:
487,291,61641,5,2,2:0:0:0:
495,241,61727,2,0,P|481:209|444:169,1,64.9999970245363,10|0,2:0|2:0,0:0:0:0:
314,384,61899,5,2,2:0:0:0:
322,334,61984,2,0,P|308:302|271:262,1,64.9999970245363,2|8,2:0|2:0,0:0:0:0:
178,183,62156,5,2,2:0:0:0:
146,222,62241,2,0,P|125:249|109:301,1,64.9999970245363,2|2,2:0|2:0,0:0:0:0:
269,118,62413,5,10,2:0:0:0:
241,77,62499,1,2,2:0:0:0:
202,49,62584,1,2,2:0:0:0:
155,37,62670,1,0,2:0:0:0:
107,41,62756,1,10,2:0:0:0:
63,62,62841,1,2,2:0:0:0:
29,97,62927,1,2,2:0:0:0:
10,142,63013,1,0,2:0:0:0:
7,190,63099,5,8,2:0:0:0:
24,238,63184,2,0,B|51:254|51:254|85:246,1,64.9999970245363,2|0,2:0|2:0,0:0:0:0:
168,124,63356,1,0,2:0:0:0:
196,82,63441,2,0,B|226:73|226:73|256:90,1,64.9999970245363,10|0,2:0|2:0,0:0:0:0:
287,240,63613,1,0,2:0:0:0:
315,281,63699,2,0,B|345:289|345:289|375:272,1,64.9999970245363,2|8,2:0|2:0,0:0:0:0:
420,116,63870,5,2,2:0:0:0:
457,82,63956,2,0,B|488:81|488:81|513:105,1,64.9999970245363,2|0,2:0|2:0,0:0:0:0:
469,262,64127,5,10,2:0:0:0:
503,299,64213,2,0,B|503:330|503:330|479:355,1,64.9999970245363,2|0,2:0|2:0,0:0:0:0:
323,311,64384,5,2,2:0:0:0:
286,345,64470,2,0,B|254:345|254:345|229:321,1,64.9999970245363,10|0,2:0|2:0,0:0:0:0:
274,165,64641,5,2,2:0:0:0:
240,128,64727,2,0,B|239:96|239:96|263:71,1,64.9999970245363,2|8,2:0|2:0,0:0:0:0:
388,230,64899,5,2,2:0:0:0:
385,280,64984,2,0,B|363:302|363:302|328:303,1,64.9999970245363,2|2,2:0|2:0,0:0:0:0:
188,216,65156,5,10,2:0:0:0:
155,221,65241,1,2,2:0:0:0:
123,227,65327,1,2,2:0:0:0:
91,232,65413,1,0,2:0:0:0:
59,238,65499,5,10,2:0:0:0:
103,258,65584,1,2,2:0:0:0:
147,279,65670,1,2,2:0:0:0:
191,299,65756,1,0,2:0:0:0:
235,320,65841,5,8,2:0:0:0:
279,299,65927,2,0,L|353:264,1,64.9999970245363,2|0,2:0|2:0,0:0:0:0:
471,214,66099,1,0,2:0:0:0:
427,192,66184,2,0,L|352:157,1,64.9999970245363,10|0,2:0|2:0,0:0:0:0:
235,107,66356,1,0,2:0:0:0:
279,85,66441,2,0,L|353:50,1,64.9999970245363,2|8,2:0|2:0,0:0:0:0:
230,209,66613,5,2,2:0:0:0:
186,187,66699,2,0,L|111:152,1,64.9999970245363,2|0,2:0|2:0,0:0:0:0:
239,334,66870,5,10,2:0:0:0:
195,312,66956,2,0,L|120:277,1,64.9999970245363,2|0,2:0|2:0,0:0:0:0:
428,320,67127,5,2,2:0:0:0:
370,291,67213,1,10,2:0:0:0:
398,233,67299,1,8,2:0:0:0:
427,175,67384,1,8,2:0:0:0:
456,117,67470,1,8,2:0:0:0:
398,88,67556,5,14,2:0:0:0:
512,366,67727,1,8,2:0:0:0:
317,180,67899,5,14,2:0:0:0:
275,155,67984,1,2,2:0:0:0:
227,160,68070,1,2,2:0:0:0:
191,191,68156,1,0,2:0:0:0:
180,238,68241,1,10,2:0:0:0:
158,280,68327,1,2,2:0:0:0:
112,293,68413,1,2,2:0:0:0:
71,270,68499,1,0,2:0:0:0:
58,224,68584,5,8,2:0:0:0:
82,183,68670,2,0,P|117:171|170:174,1,64.9999970245363,2|0,2:0|2:0,0:0:0:0:
191,69,68841,1,0,2:0:0:0:
236,56,68927,2,0,P|269:72|304:111,1,64.9999970245363,10|0,2:0|2:0,0:0:0:0:
394,53,69099,1,0,2:0:0:0:
435,76,69184,2,0,P|447:110|444:163,1,64.9999970245363,2|8,2:0|2:0,0:0:0:0:
506,309,69356,5,2,2:0:0:0:
465,286,69441,2,0,P|448:252|409:217,1,64.9999970245363,2|0,2:0|2:0,0:0:0:0:
333,174,69613,5,10,2:0:0:0:
287,186,69699,2,0,P|252:173|199:176,1,64.9999970245363,2|0,2:0|2:0,0:0:0:0:
116,200,69870,5,2,2:0:0:0:
92,242,69956,2,0,P|58:258|23:297,1,64.9999970245363,10|0,2:0|2:0,0:0:0:0:
235,269,70127,5,2,2:0:0:0:
269,303,70213,2,0,P|305:310|349:339,1,64.9999970245363,2|8,2:0|2:0,0:0:0:0:
108,340,70384,5,2,2:0:0:0:
67,365,70470,2,0,P|30:362|-20:379,1,64.9999970245363,2|2,2:0|2:0,0:0:0:0:
123,193,70641,5,10,2:0:0:0:
165,169,70727,1,2,2:0:0:0:
213,164,70813,1,2,2:0:0:0:
259,179,70899,1,0,2:0:0:0:
295,211,70984,5,10,2:0:0:0:
253,186,71070,1,2,2:0:0:0:
225,146,71156,1,2,2:0:0:0:
215,99,71241,1,0,2:0:0:0:
225,52,71327,5,8,2:0:0:0:
256,11,71413,2,0,B|286:1|286:1|317:7,1,64.9999970245363,2|0,2:0|2:0,0:0:0:0:
135,119,71584,1,0,2:0:0:0:
104,78,71670,2,0,B|73:68|73:68|42:74,1,64.9999970245363,10|0,2:0|2:0,0:0:0:0:
225,186,71841,1,0,2:0:0:0:
256,145,71927,2,0,B|286:135|286:135|317:141,1,64.9999970245363,2|8,2:0|2:0,0:0:0:0:
135,253,72099,5,2,2:0:0:0:
104,212,72184,2,0,B|73:202|73:202|42:208,1,64.9999970245363,2|0,2:0|2:0,0:0:0:0:
250,320,72356,5,10,2:0:0:0:
198,326,72441,2,0,B|174:347|174:347|163:377,1,64.9999970245363,2|0,2:0|2:0,0:0:0:0:
365,253,72613,5,2,2:0:0:0:
344,301,72699,2,0,B|351:332|351:332|371:356,1,64.9999970245363,10|0,2:0|2:0,0:0:0:0:
364,119,72870,5,2,2:0:0:0:
395,162,72956,2,0,B|425:171|425:171|456:165,1,64.9999970245363,2|8,2:0|2:0,0:0:0:0:
312,22,73127,5,2,2:0:0:0:
281,65,73213,2,0,B|250:74|250:74|219:68,1,64.9999970245363,10|2,2:0|2:0,0:0:0:0:
110,0,73384,5,10,3:2:0:0:
65,19,73470,1,2,3:2:0:0:
35,56,73556,1,2,3:2:0:0:
26,104,73641,1,0,3:2:0:0:
40,150,73727,1,10,3:2:0:0:
74,184,73813,1,2,3:2:0:0:
120,198,73899,1,2,3:2:0:0:
168,190,73984,1,0,3:2:0:0:
206,160,74070,5,8,3:2:0:0:
228,120,74156,2,0,L|212:31,1,64.9999970245363,2|0,3:2|3:2,0:0:0:0:
338,248,74327,1,0,3:2:0:0:
316,208,74413,2,0,L|331:119,1,64.9999970245363,10|0,3:2|3:2,0:0:0:0:
189,363,74584,1,0,3:2:0:0:
211,323,74670,2,0,L|195:234,1,64.9999970245363,2|8,3:2|3:2,0:0:0:0:
299,97,74841,5,2,3:2:0:0:
321,137,74927,2,0,L|305:225,1,64.9999970245363,2|0,3:2|3:2,0:0:0:0:
437,346,75099,5,10,3:2:0:0:
459,306,75184,2,0,L|443:217,1,64.9999970245363,2|0,3:2|3:2,0:0:0:0:
292,90,75356,5,2,3:2:0:0:
314,130,75441,2,0,L|298:218,1,64.9999970245363,10|0,3:2|3:2,0:0:0:0:
196,370,75613,5,2,3:2:0:0:
218,330,75699,2,0,L|202:241,1,64.9999970245363,2|8,3:2|3:2,0:0:0:0:
69,230,75870,5,2,3:2:0:0:
47,190,75956,2,0,L|62:101,1,64.9999970245363,10|2,3:2|3:2,0:0:0:0:
199,38,76127,6,0,B|223:64|223:64|222:96,1,64.9999970245363,10|2,3:2|3:2,0:0:0:0:
151,317,76299,2,0,B|161:284|161:284|190:268,1,64.9999970245363,10|0,3:2|3:2,0:0:0:0:
416,219,76470,2,0,B|383:227|383:227|355:210,1,64.9999970245363,10|2,3:2|3:2,0:0:0:0:
95,164,76641,2,0,B|128:156|128:156|156:173,1,64.9999970245363,10|0,3:2|3:2,0:0:0:0:
312,345,76813,2,0,B|288:319|288:319|289:287,1,64.9999970245363,8|2,3:2|3:2,0:0:0:0:
360,66,76984,2,0,B|350:99|350:99|321:115,1,64.9999970245363,8|0,3:2|3:2,0:0:0:0:
262,226,77156,5,10,3:2:0:0:
221,198,77241,1,8,3:2:0:0:
249,157,77327,1,8,3:2:0:0:
290,185,77413,1,10,3:2:0:0:
256,192,77499,5,0,3:2:0:0:
256,192,77584,1,0,3:2:0:0:
256,192,77670,2,0,L|311:201,2,44.999998626709,2|0|0,3:2|3:2|3:2,0:0:0:0:
316,285,77927,2,0,L|378:295,2,44.999998626709,2|0|0,3:2|3:2|3:2,0:0:0:0:
399,219,78184,2,0,L|461:229,2,44.999998626709,2|0|0,3:2|3:2|3:2,0:0:0:0:
339,126,78441,2,0,L|389:134,2,44.999998626709,2|2|2,3:2|3:2|3:2,0:0:0:0:
307,206,78699,2,0,L|245:216,1,44.999998626709,2|0,3:2|2:0,0:0:0:0:
164,231,78870,5,14,2:0:0:0:
123,211,78956,1,2,2:0:0:0:
82,192,79041,1,2,2:0:0:0:
41,173,79127,1,0,2:0:0:0:
0,154,79213,5,10,2:0:0:0:
39,133,79299,1,2,2:0:0:0:
82,138,79384,1,2,2:0:0:0:
115,168,79470,1,0,2:0:0:0:
123,211,79556,5,8,2:0:0:0:
116,218,79641,1,2,2:0:0:0:
109,225,79727,1,0,2:0:0:0:
146,294,79813,5,0,2:0:0:0:
139,301,79899,1,10,2:0:0:0:
132,308,79984,1,0,2:0:0:0:
57,329,80070,5,0,2:0:0:0:
50,336,80156,1,2,2:0:0:0:
43,343,80241,1,8,2:0:0:0:
17,263,80327,5,0,2:0:0:0:
24,256,80413,2,0,L|88:193,1,59.9999981689454,2|0,2:0|2:0,0:0:0:0:
132,308,80584,5,8,2:0:0:0:
139,301,80670,2,0,L|203:238,1,59.9999981689454,2|0,2:0|2:0,0:0:0:0:
247,353,80841,5,0,2:0:0:0:
254,346,80927,2,0,L|318:283,1,59.9999981689454,10|0,2:0|2:0,0:0:0:0:
396,258,81099,5,0,2:0:0:0:
403,251,81184,2,0,L|340:187,1,59.9999981689454,2|8,2:0|2:0,0:0:0:0:
301,109,81356,5,0,2:0:0:0:
308,102,81441,2,0,L|244:165,1,59.9999981689454,2|0,2:0|2:0,0:0:0:0:
255,284,81613,5,10,2:0:0:0:
289,310,81699,1,2,2:0:0:0:
333,305,81784,1,2,2:0:0:0:
361,271,81870,1,0,2:0:0:0:
358,228,81956,1,10,2:0:0:0:
367,184,82041,1,2,2:0:0:0:
400,155,82127,1,2,2:0:0:0:
444,150,82213,1,0,2:0:0:0:
483,171,82299,5,8,2:0:0:0:
490,178,82384,1,2,2:0:0:0:
497,185,82470,1,0,2:0:0:0:
431,229,82556,5,0,2:0:0:0:
437,235,82641,1,10,2:0:0:0:
444,242,82727,1,0,2:0:0:0:
377,286,82813,5,0,2:0:0:0:
383,292,82899,1,2,2:0:0:0:
390,299,82984,1,8,2:0:0:0:
319,339,83070,5,0,2:0:0:0:
326,346,83156,2,0,L|267:335,1,59.9999981689454,2|0,2:0|2:0,0:0:0:0:
158,277,83327,5,8,2:0:0:0:
165,284,83413,2,0,L|225:273,1,59.9999981689454,2|0,2:0|2:0,0:0:0:0:
319,213,83584,5,0,2:0:0:0:
326,220,83670,2,0,L|267:209,1,59.9999981689454,10|0,2:0|2:0,0:0:0:0:
142,163,83841,5,0,2:0:0:0:
149,170,83927,2,0,L|209:159,1,59.9999981689454,2|8,2:0|2:0,0:0:0:0:
316,106,84099,5,0,2:0:0:0:
323,113,84184,2,0,L|264:102,1,59.9999981689454,2|0,2:0|2:0,0:0:0:0:
355,28,84356,5,10,2:0:0:0:
396,12,84441,1,2,2:0:0:0:
440,18,84527,1,2,2:0:0:0:
477,43,84613,1,0,2:0:0:0:
496,83,84699,1,10,2:0:0:0:
495,128,84784,1,2,2:0:0:0:
473,166,84870,1,2,2:0:0:0:
435,190,84956,1,0,2:0:0:0:
391,193,85041,5,8,2:0:0:0:
384,186,85127,1,2,2:0:0:0:
377,179,85213,1,0,2:0:0:0:
316,227,85299,5,0,2:0:0:0:
308,219,85384,1,10,2:0:0:0:
301,212,85470,1,0,2:0:0:0:
241,261,85556,5,0,2:0:0:0:
233,253,85641,1,2,2:0:0:0:
226,246,85727,1,8,2:0:0:0:
151,280,85813,5,0,2:0:0:0:
144,273,85899,2,0,L|85:263,1,59.9999981689454,2|0,2:0|2:0,0:0:0:0:
169,194,86070,5,8,2:0:0:0:
162,187,86156,2,0,L|127:137,1,59.9999981689454,2|0,2:0|2:0,0:0:0:0:
242,147,86327,5,0,2:0:0:0:
235,140,86413,2,0,L|246:81,1,59.9999981689454,10|0,2:0|2:0,0:0:0:0:
326,164,86584,5,0,2:0:0:0:
319,157,86670,2,0,L|369:123,1,59.9999981689454,2|8,2:0|2:0,0:0:0:0:
373,235,86841,5,0,2:0:0:0:
366,228,86927,2,0,L|426:239,1,59.9999981689454,2|0,2:0|2:0,0:0:0:0:
282,273,87099,5,10,2:0:0:0:
241,292,87184,1,2,2:0:0:0:
200,311,87270,1,2,2:0:0:0:
159,330,87356,1,0,2:0:0:0:
118,349,87441,5,10,2:0:0:0:
125,304,87527,1,2,2:0:0:0:
133,260,87613,1,2,2:0:0:0:
141,216,87699,1,0,2:0:0:0:
149,171,87784,5,8,2:0:0:0:
156,178,87870,1,2,2:0:0:0:
163,185,87956,1,0,2:0:0:0:
240,189,88041,5,0,2:0:0:0:
247,196,88127,1,10,2:0:0:0:
254,203,88213,1,0,2:0:0:0:
331,207,88299,5,0,2:0:0:0:
338,214,88384,1,2,2:0:0:0:
345,221,88470,1,8,2:0:0:0:
371,136,88556,5,2,2:0:0:0:
378,143,88641,2,0,L|475:160,1,59.9999981689454,2|0,2:0|2:0,0:0:0:0:
266,51,88813,5,10,2:0:0:0:
273,58,88899,2,0,L|370:75,1,59.9999981689454,2|0,2:0|2:0,0:0:0:0:
233,182,89070,5,2,2:0:0:0:
240,189,89156,1,10,2:0:0:0:
180,199,89241,1,8,2:0:0:0:
121,209,89327,1,8,2:0:0:0:
62,220,89413,1,8,2:0:0:0:
69,227,89499,5,14,2:0:0:0:
301,114,89670,1,8,2:0:0:0:
414,346,89841,5,14,2:0:0:0:
451,367,89927,1,2,2:0:0:0:
491,350,90013,1,2,2:0:0:0:
500,308,90099,1,0,2:0:0:0:
471,276,90184,1,10,2:0:0:0:
434,252,90270,1,2,2:0:0:0:
433,209,90356,1,2,2:0:0:0:
466,182,90441,1,0,2:0:0:0:
508,193,90527,5,8,2:0:0:0:
501,200,90613,1,2,2:0:0:0:
494,207,90699,1,0,2:0:0:0:
419,224,90784,5,0,2:0:0:0:
412,231,90870,1,10,2:0:0:0:
405,238,90956,1,0,2:0:0:0:
329,252,91041,5,0,2:0:0:0:
322,259,91127,1,2,2:0:0:0:
315,266,91213,1,8,2:0:0:0:
275,176,91299,5,0,2:0:0:0:
268,183,91384,2,0,L|322:157,1,59.9999981689454,2|0,2:0|2:0,0:0:0:0:
241,267,91556,5,8,2:0:0:0:
234,274,91641,2,0,L|290:294,1,59.9999981689454,2|0,2:0|2:0,0:0:0:0:
152,307,91813,5,0,2:0:0:0:
145,314,91899,2,0,L|170:368,1,59.9999981689454,10|0,2:0|2:0,0:0:0:0:
248,260,92070,5,0,2:0:0:0:
241,267,92156,2,0,L|297:287,1,59.9999981689454,2|8,2:0|2:0,0:0:0:0:
282,169,92327,5,0,2:0:0:0:
275,176,92413,2,0,L|329:150,1,59.9999981689454,2|0,2:0|2:0,0:0:0:0:
200,55,92584,5,10,2:0:0:0:
192,99,92670,1,2,2:0:0:0:
184,143,92756,1,2,2:0:0:0:
176,187,92841,1,0,2:0:0:0:
168,232,92927,5,10,2:0:0:0:
148,191,93013,1,2,2:0:0:0:
129,150,93099,1,2,2:0:0:0:
110,109,93184,1,0,2:0:0:0:
91,68,93270,5,8,2:0:0:0:
98,75,93356,1,2,2:0:0:0:
105,82,93441,1,0,2:0:0:0:
30,119,93527,5,0,2:0:0:0:
36,125,93613,1,10,2:0:0:0:
43,132,93699,1,0,2:0:0:0:
94,193,93784,5,0,2:0:0:0:
100,199,93870,1,2,2:0:0:0:
107,206,93956,1,8,2:0:0:0:
155,142,94041,5,0,2:0:0:0:
161,148,94127,2,0,L|235:134,1,59.9999981689454,2|0,2:0|2:0,0:0:0:0:
327,198,94299,5,8,2:0:0:0:
334,205,94384,2,0,L|259:191,1,59.9999981689454,2|0,2:0|2:0,0:0:0:0:
264,71,94556,5,0,2:0:0:0:
271,78,94641,2,0,L|345:64,1,59.9999981689454,10|0,2:0|2:0,0:0:0:0:
420,137,94813,5,0,2:0:0:0:
427,144,94899,2,0,L|352:130,1,59.9999981689454,2|8,2:0|2:0,0:0:0:0:
397,254,95070,5,0,2:0:0:0:
404,261,95156,2,0,L|478:247,1,59.9999981689454,10|0,2:0|2:0,0:0:0:0:
289,352,95327,5,10,3:2:0:0:
246,364,95413,1,2,3:2:0:0:
202,358,95499,1,2,3:2:0:0:
164,333,95584,1,0,3:2:0:0:
141,295,95670,1,10,3:2:0:0:
136,251,95756,1,2,3:2:0:0:
150,209,95841,1,2,3:2:0:0:
180,176,95927,1,0,3:2:0:0:
222,160,96013,5,8,3:2:0:0:
215,153,96099,1,2,3:2:0:0:
208,146,96184,1,0,3:2:0:0:
131,149,96270,5,0,3:2:0:0:
124,142,96356,1,10,3:2:0:0:
117,135,96441,1,0,3:2:0:0:
40,140,96527,5,0,3:2:0:0:
33,133,96613,1,2,3:2:0:0:
26,126,96699,1,8,3:2:0:0:
61,225,96784,5,0,3:2:0:0:
54,218,96870,2,0,L|65:278,1,59.9999981689454,2|0,3:2|3:2,0:0:0:0:
158,245,97041,5,8,3:2:0:0:
151,238,97127,2,0,L|162:298,1,59.9999981689454,2|0,3:2|3:2,0:0:0:0:
255,265,97299,5,0,3:2:0:0:
248,258,97384,2,0,L|259:318,1,59.9999981689454,10|0,3:2|3:2,0:0:0:0:
352,285,97556,5,0,3:2:0:0:
345,278,97641,2,0,L|356:338,1,59.9999981689454,2|8,3:2|3:2,0:0:0:0:
449,305,97813,5,0,3:2:0:0:
442,298,97899,2,0,L|453:358,1,59.9999981689454,10|0,3:2|3:2,0:0:0:0:
404,186,98070,6,0,P|372:186|332:202,1,64.9999970245363,10|2,3:2|3:2,0:0:0:0:
187,323,98241,2,0,P|202:295|208:252,1,64.9999970245363,10|0,3:2|3:2,0:0:0:0:
176,66,98413,2,0,P|193:93|226:120,1,64.9999970245363,10|2,3:2|3:2,0:0:0:0:
335,317,98584,2,0,P|318:290|285:263,1,64.9999970245363,10|0,3:2|3:2,0:0:0:0:
324,60,98756,2,0,P|309:88|303:131,1,64.9999970245363,8|2,3:2|3:2,0:0:0:0:
108,198,98927,2,0,P|139:197|179:181,1,64.9999970245363,8|0,3:2|3:2,0:0:0:0:
248,192,99099,5,10,3:2:0:0:
264,192,99184,1,8,3:2:0:0:
256,184,99270,1,8,3:2:0:0:
256,200,99356,1,10,3:2:0:0:
455,192,99527,5,0,3:2:0:0:
455,172,99613,2,0,L|455:106,2,50,2|0|0,3:2|3:2|3:2,0:0:0:0:
374,247,99870,2,0,L|374:192,2,50,2|0|0,3:2|3:2|3:2,0:0:0:0:
293,322,100127,2,0,L|293:267,2,50,2|0|0,3:2|3:2|3:2,0:0:0:0:
212,247,100384,2,0,L|212:192,2,50,2|2|2,3:2|3:2|3:2,0:0:0:0:
131,267,100641,5,2,3:2:0:0:
212,112,100813,1,6,2:0:0:0:
256,192,109041,12,2,110241,2:0:0:0:
256,192,110327,12,2,111613,2:0:0:0:
177,63,111784,5,14,3:2:0:0:
179,76,111870,1,0,3:2:0:0:
181,90,111956,1,0,3:2:0:0:
184,103,112041,1,0,3:2:0:0:
265,86,112127,5,8,3:2:0:0:
267,99,112213,1,0,3:2:0:0:
269,113,112299,1,0,3:2:0:0:
272,126,112384,1,0,3:2:0:0:
353,109,112470,5,8,3:2:0:0:
355,122,112556,1,0,3:2:0:0:
357,136,112641,1,0,3:2:0:0:
360,149,112727,1,0,3:2:0:0:
441,132,112813,5,8,3:2:0:0:
443,145,112899,1,0,3:2:0:0:
445,159,112984,1,0,3:2:0:0:
448,172,113070,1,0,3:2:0:0:
414,261,113156,6,0,L|440:317,3,55.0000016784668,8|0|0|0,3:2|3:2|3:2|3:2,0:0:0:0:
310,271,113499,6,0,L|320:332,3,55.0000016784668,8|0|0|0,3:2|3:2|3:2|3:2,0:0:0:0:
207,254,113841,6,0,L|201:315,3,55.0000016784668,8|0|0|0,3:2|3:2|3:2|3:2,0:0:0:0:
112,211,114184,6,0,L|90:269,3,55.0000016784668,8|0|0|0,3:2|3:2|3:2|3:2,0:0:0:0:
75,116,114527,5,8,3:2:0:0:
88,113,114613,1,0,3:2:0:0:
102,111,114699,1,0,3:2:0:0:
115,108,114784,1,0,3:2:0:0:
178,161,114870,5,8,3:2:0:0:
191,158,114956,1,0,3:2:0:0:
205,156,115041,1,0,3:2:0:0:
218,153,115127,1,0,3:2:0:0:
253,79,115213,5,8,3:2:0:0:
266,76,115299,1,0,3:2:0:0:
280,74,115384,1,0,3:2:0:0:
293,71,115470,1,0,3:2:0:0:
356,124,115556,5,8,3:2:0:0:
369,121,115641,1,0,3:2:0:0:
383,119,115727,1,0,3:2:0:0:
396,116,115813,1,0,3:2:0:0:
315,206,115899,5,8,3:2:0:0:
316,232,115984,1,0,3:2:0:0:
333,252,116070,1,0,3:2:0:0:
361,257,116156,1,0,3:2:0:0:
395,183,116241,5,8,3:2:0:0:
394,156,116327,1,0,3:2:0:0:
376,136,116413,1,0,3:2:0:0:
349,131,116499,1,0,3:2:0:0:
259,151,116584,5,8,3:2:0:0:
260,178,116670,1,0,3:2:0:0:
278,198,116756,1,0,3:2:0:0:
305,203,116841,1,0,3:2:0:0:
223,254,116927,6,0,L|213:309,1,55.0000016784668,8|0,3:2|3:2,0:0:0:0:
402,190,117099,2,0,L|392:135,1,55.0000016784668,8|0,3:2|3:2,0:0:0:0:
322,78,117270,5,8,2:0:0:0:
316,74,117356,1,8,2:0:0:0:
311,65,117441,1,8,2:0:0:0:
313,51,117527,1,8,2:0:0:0:
325,38,117613,1,8,2:0:0:0:
346,35,117699,1,8,2:0:0:0:
369,46,117784,1,8,2:0:0:0:
386,69,117870,1,8,2:0:0:0:
392,102,117956,1,8,2:0:0:0:
381,136,118041,1,8,2:0:0:0:
352,164,118127,1,8,2:0:0:0:
314,187,118213,1,8,2:0:0:0:
282,222,118299,1,8,2:0:0:0:
279,273,118384,1,8,2:0:0:0:
308,319,118470,1,8,2:0:0:0:
362,342,118556,1,8,2:0:0:0:
423,328,118641,1,8,2:0:0:0:
472,286,118727,1,8,2:0:0:0:
503,230,118813,1,8,2:0:0:0:
512,166,118899,1,8,2:0:0:0:
496,103,118984,1,8,2:0:0:0:
459,50,119070,1,8,2:0:0:0:
406,14,119156,1,8,2:0:0:0:
343,0,119241,1,8,2:0:0:0:
279,9,119327,1,8,2:0:0:0:
223,41,119413,1,8,2:0:0:0:
182,91,119499,1,8,2:0:0:0:
161,151,119584,1,8,2:0:0:0:
164,215,119670,1,8,2:0:0:0:
190,273,119756,1,8,2:0:0:0:
234,318,119841,1,8,2:0:0:0:
291,346,119927,1,8,2:0:0:0:
359,350,120013,5,8,2:0:0:0:
341,280,120099,1,8,2:0:0:0:
280,244,120184,1,8,2:0:0:0:
211,263,120270,1,8,2:0:0:0:
177,325,120356,1,8,2:0:0:0:
126,375,120441,1,8,2:0:0:0:
55,374,120527,1,8,2:0:0:0:
6,323,120613,1,8,2:0:0:0:
8,251,120699,1,8,2:0:0:0:
51,192,120784,1,8,2:0:0:0:
112,154,120870,1,8,2:0:0:0:
183,141,120956,1,8,2:0:0:0:
253,153,121041,1,8,2:0:0:0:
318,184,121127,1,8,2:0:0:0:
370,234,121213,1,8,2:0:0:0:
403,298,121299,1,8,2:0:0:0:
409,369,121384,5,0,3:2:0:0:
416,362,121470,1,0,3:2:0:0:
257,314,121641,1,0,3:2:0:0:
264,307,121727,1,0,3:2:0:0:
399,262,121899,1,0,3:2:0:0:
406,255,121984,1,0,3:2:0:0:
413,248,122070,1,0,2:0:0:0:
254,200,122241,1,0,3:2:0:0:
465,69,122413,5,2,3:2:0:0:
474,123,122499,1,2,3:2:0:0:
484,177,122584,1,2,3:2:0:0:
276,86,122756,5,12,2:0:0:0:
312,60,122841,2,0,L|385:46,1,59.9999981689454,2|0,2:0|2:0,0:0:0:0:
190,129,123013,2,0,L|116:115,1,59.9999981689454,2|8,2:0|2:0,0:0:0:0:
312,198,123184,2,0,L|385:184,1,59.9999981689454,2|0,2:0|2:0,0:0:0:0:
190,267,123356,5,2,2:0:0:0:
152,243,123441,1,10,2:0:0:0:
328,293,123613,1,2,2:0:0:0:
183,136,123784,1,10,2:0:0:0:
183,274,123956,1,2,2:0:0:0:
328,155,124127,5,8,2:0:0:0:
364,181,124213,2,0,L|437:194,1,59.9999981689454,2|0,2:0|2:0,0:0:0:0:
190,143,124384,2,0,L|263:156,1,59.9999981689454,2|8,2:0|2:0,0:0:0:0:
16,105,124556,2,0,L|89:118,1,59.9999981689454,2|0,2:0|2:0,0:0:0:0:
212,50,124727,5,2,2:0:0:0:
238,14,124813,1,10,2:0:0:0:
115,203,124984,1,2,2:0:0:0:
309,78,125156,1,10,2:0:0:0:
290,241,125327,1,2,2:0:0:0:
190,143,125499,5,8,2:0:0:0:
150,122,125584,2,0,P|83:121|53:147,1,59.9999981689454,2|0,2:0|2:0,0:0:0:0:
89,259,125756,2,0,P|109:237|121:209,1,59.9999981689454,2|8,2:0|2:0,0:0:0:0:
0,137,125927,2,0,P|8:165|26:189,1,59.9999981689454,2|0,2:0|2:0,0:0:0:0:
86,23,126099,5,2,2:0:0:0:
45,4,126184,1,10,2:0:0:0:
128,216,126356,1,2,2:0:0:0:
211,47,126527,1,10,2:0:0:0:
273,206,126699,1,2,2:0:0:0:
335,79,126870,5,8,2:0:0:0:
313,39,126956,2,0,P|336:21|350:-6,1,59.9999981689454,2|0,2:0|2:0,0:0:0:0:
467,126,127127,2,0,P|443:107|430:81,1,59.9999981689454,2|8,2:0|2:0,0:0:0:0:
303,217,127299,2,0,P|326:198|339:172,1,59.9999981689454,2|0,2:0|2:0,0:0:0:0:
490,295,127470,5,2,2:0:0:0:
512,255,127556,1,10,2:0:0:0:
302,371,127727,1,2,2:0:0:0:
186,161,127899,1,10,2:0:0:0:
360,294,128070,1,2,2:0:0:0:
157,313,128241,5,8,2:0:0:0:
123,343,128327,2,0,L|16:361,1,59.9999981689454,2|0,2:0|2:0,0:0:0:0:
222,229,128499,2,0,L|328:247,1,59.9999981689454,2|8,2:0|2:0,0:0:0:0:
123,115,128670,2,0,L|16:133,1,59.9999981689454,2|0,2:0|2:0,0:0:0:0:
248,38,128841,5,2,2:0:0:0:
222,1,128927,1,10,2:0:0:0:
342,172,129099,1,2,2:0:0:0:
439,0,129270,1,10,2:0:0:0:
320,87,129441,1,2,2:0:0:0:
427,189,129613,5,8,2:0:0:0:
464,163,129699,2,0,P|471:135|467:95,1,59.9999981689454,2|0,2:0|2:0,0:0:0:0:
411,308,129870,2,0,P|437:293|457:271,1,59.9999981689454,2|8,2:0|2:0,0:0:0:0:
270,374,130041,2,0,P|299:381|328:379,1,59.9999981689454,2|0,2:0|2:0,0:0:0:0:
138,276,130213,5,2,2:0:0:0:
123,319,130299,1,10,2:0:0:0:
285,177,130470,1,2,2:0:0:0:
89,204,130641,1,10,2:0:0:0:
221,300,130813,1,2,2:0:0:0:
246,98,130984,5,8,2:0:0:0:
219,61,131070,2,0,B|190:55|190:55|160:61,1,59.9999981689454,2|0,2:0|2:0,0:0:0:0:
96,211,131241,2,0,B|115:188|115:188|125:159,1,59.9999981689454,2|8,2:0|2:0,0:0:0:0:
27,29,131413,2,0,B|36:57|36:57|56:80,1,59.9999981689454,2|0,2:0|2:0,0:0:0:0:
226,54,131584,5,2,2:0:0:0:
246,13,131670,1,10,2:0:0:0:
303,221,131841,1,2,2:0:0:0:
118,153,132013,1,10,2:0:0:0:
293,111,132184,1,2,2:0:0:0:
128,263,132356,5,8,2:0:0:0:
96,294,132441,2,0,L|27:281,1,59.9999981689454,2|0,2:0|2:0,0:0:0:0:
250,324,132613,2,0,L|190:313,1,59.9999981689454,2|8,2:0|2:0,0:0:0:0:
404,354,132784,2,0,L|344:343,1,59.9999981689454,2|0,2:0|2:0,0:0:0:0:
441,176,132956,5,2,2:0:0:0:
462,233,133041,1,10,2:0:0:0:
403,222,133127,1,8,2:0:0:0:
344,211,133213,1,10,2:0:0:0:
285,200,133299,1,8,2:0:0:0:
306,257,133384,5,14,2:0:0:0:
221,32,133556,1,10,2:0:0:0:
69,219,133727,5,12,2:0:0:0:
109,198,133813,2,0,L|173:209,1,59.9999981689454,2|0,2:0|2:0,0:0:0:0:
313,264,133984,2,0,L|248:275,1,59.9999981689454,2|8,2:0|2:0,0:0:0:0:
109,330,134156,2,0,L|173:341,1,59.9999981689454,2|0,2:0|2:0,0:0:0:0:
62,212,134327,5,2,2:0:0:0:
41,172,134413,1,10,2:0:0:0:
3,378,134584,1,2,2:0:0:0:
175,347,134756,1,10,2:0:0:0:
33,296,134927,1,2,2:0:0:0:
194,155,135099,5,8,2:0:0:0:
231,131,135184,2,0,P|251:132|292:149,1,59.9999981689454,2|0,2:0|2:0,0:0:0:0:
332,61,135356,2,0,P|348:71|375:107,1,59.9999981689454,2|8,2:0|2:0,0:0:0:0:
454,50,135527,2,0,P|463:67|468:111,1,59.9999981689454,2|0,2:0|2:0,0:0:0:0:
349,256,135699,5,2,2:0:0:0:
312,230,135784,1,10,2:0:0:0:
502,363,135956,1,2,2:0:0:0:
318,337,136127,1,10,2:0:0:0:
456,288,136299,1,2,2:0:0:0:
275,149,136470,5,8,2:0:0:0:
238,175,136556,2,0,B|209:181|209:181|179:175,1,59.9999981689454,2|0,2:0|2:0,0:0:0:0:
275,67,136727,2,0,B|284:38|284:38|304:15,1,59.9999981689454,2|8,2:0|2:0,0:0:0:0:
350,153,136899,2,0,B|369:175|369:175|379:204,1,59.9999981689454,2|0,2:0|2:0,0:0:0:0:
192,90,137070,5,2,2:0:0:0:
172,49,137156,1,10,2:0:0:0:
157,258,137327,1,2,2:0:0:0:
88,75,137499,1,10,2:0:0:0:
76,231,137670,1,2,2:0:0:0:
273,118,137841,5,8,2:0:0:0:
309,144,137927,2,0,L|370:154,1,59.9999981689454,2|0,2:0|2:0,0:0:0:0:
288,254,138099,2,0,L|349:264,1,59.9999981689454,2|8,2:0|2:0,0:0:0:0:
267,364,138270,2,0,L|328:374,1,59.9999981689454,2|0,2:0|2:0,0:0:0:0:
175,237,138441,5,2,2:0:0:0:
135,259,138527,1,10,2:0:0:0:
180,41,138699,1,2,2:0:0:0:
316,151,138870,1,10,2:0:0:0:
156,126,139041,1,10,2:0:0:0:
340,66,139213,5,8,3:2:0:0:
373,36,139299,2,0,P|401:27|439:29,1,59.9999981689454,2|0,3:2|3:2,0:0:0:0:
367,149,139470,2,0,P|339:158|301:156,1,59.9999981689454,2|8,3:2|3:2,0:0:0:0:
380,29,139641,2,0,P|408:20|446:22,1,59.9999981689454,2|0,3:2|3:2,0:0:0:0:
256,90,139813,5,2,3:2:0:0:
232,51,139899,1,10,3:2:0:0:
443,106,140070,1,2,3:2:0:0:
309,242,140241,1,10,3:2:0:0:
451,279,140413,1,2,3:2:0:0:
252,367,140584,5,8,3:2:0:0:
216,339,140670,2,0,B|186:333|186:333|157:339,1,59.9999981689454,2|0,3:2|3:2,0:0:0:0:
18,291,140841,2,0,B|48:285|48:285|77:291,1,59.9999981689454,2|8,3:2|3:2,0:0:0:0:
216,243,141013,2,0,B|186:237|186:237|157:243,1,59.9999981689454,2|0,3:2|3:2,0:0:0:0:
294,102,141184,5,2,3:2:0:0:
272,62,141270,1,10,3:2:0:0:
290,290,141441,1,2,3:2:0:0:
151,157,141613,6,0,L|91:129,1,59.9999981689454,10|0,3:2|3:2,0:0:0:0:
83,297,141784,2,0,L|23:324,1,59.9999981689454,10|0,3:2|3:2,0:0:0:0:
247,329,141956,6,0,P|284:308|302:290,1,59.9999981689454,8|2,3:2|3:2,0:0:0:0:
265,55,142127,2,0,P|228:76|210:94,1,59.9999981689454,8|2,3:2|3:2,0:0:0:0:
370,268,142299,2,0,P|370:225|363:201,1,59.9999981689454,8|2,3:2|3:2,0:0:0:0:
141,115,142470,2,0,P|141:158|148:182,1,59.9999981689454,8|2,3:2|3:2,0:0:0:0:
379,131,142641,2,0,P|342:109|317:103,1,59.9999981689454,10|0,3:2|3:2,0:0:0:0:
132,252,142813,2,0,P|169:274|194:280,1,59.9999981689454,10|0,3:2|3:2,0:0:0:0:
291,179,142984,5,10,3:2:0:0:
243,156,143070,1,8,3:2:0:0:
220,204,143156,1,10,3:2:0:0:
268,227,143241,1,8,3:2:0:0:
256,192,143327,5,0,3:2:0:0:
334,322,143499,2,0,L|399:322,1,59.9999981689454,0|0,3:2|3:2,0:0:0:0:
472,322,143670,1,0,3:2:0:0:
372,185,143841,2,0,L|437:185,1,59.9999981689454,0|0,3:2|3:2,0:0:0:0:
510,185,144013,1,0,3:2:0:0:
334,48,144184,2,0,L|399:48,1,59.9999981689454,0|0,3:2|3:2,0:0:0:0:
472,48,144356,5,2,3:2:0:0:
465,55,144441,1,2,3:2:0:0:
458,62,144527,1,2,3:2:0:0:
451,69,144613,1,0,2:0:0:0:
444,76,144699,5,14,2:0:0:0:
471,116,144784,2,0,P|449:141|410:161,1,64.9999970245363,2|0,2:0|2:0,0:0:0:0:
263,89,144956,1,0,2:0:0:0:
270,96,145041,1,10,2:0:0:0:
235,131,145127,2,0,P|202:133|159:120,1,64.9999970245363,2|0,2:0|2:0,0:0:0:0:
66,12,145299,5,0,2:0:0:0:
26,40,145384,2,0,P|7:67|-2:110,1,64.9999970245363,10|0,2:0|2:0,0:0:0:0:
96,218,145556,1,0,2:0:0:0:
136,190,145641,2,0,P|154:162|164:119,1,64.9999970245363,2|8,2:0|2:0,0:0:0:0:
69,325,145813,1,0,2:0:0:0:
109,352,145899,2,0,P|141:346|178:322,1,64.9999970245363,2|0,2:0|2:0,0:0:0:0:
345,212,146070,5,8,2:0:0:0:
352,219,146156,1,0,2:0:0:0:
319,254,146241,2,0,L|258:225,1,64.9999970245363,2|0,2:0|2:0,0:0:0:0:
417,153,146413,1,8,2:0:0:0:
450,188,146499,2,0,L|510:159,1,64.9999970245363,2|0,2:0|2:0,0:0:0:0:
393,303,146670,5,0,2:0:0:0:
436,325,146756,2,0,L|464:385,1,64.9999970245363,10|0,2:0|2:0,0:0:0:0:
253,233,146927,1,0,2:0:0:0:
267,278,147013,2,0,L|244:340,1,64.9999970245363,2|8,2:0|2:0,0:0:0:0:
203,84,147184,1,0,2:0:0:0:
181,126,147270,2,0,L|120:154,1,64.9999970245363,2|0,2:0|2:0,0:0:0:0:
349,35,147441,5,10,2:0:0:0:
356,42,147527,1,2,2:0:0:0:
321,77,147613,2,0,B|315:108|315:108|327:141,1,64.9999970245363,0|0,2:0|2:0,0:0:0:0:
437,263,147784,1,10,2:0:0:0:
472,228,147870,2,0,B|477:196|477:196|465:163,1,64.9999970245363,2|0,2:0|2:0,0:0:0:0:
287,308,148041,5,0,2:0:0:0:
322,343,148127,2,0,B|353:348|353:348|386:336,1,64.9999970245363,10|0,2:0|2:0,0:0:0:0:
259,201,148299,1,0,2:0:0:0:
224,166,148384,2,0,B|192:160|192:160|159:172,1,64.9999970245363,2|8,2:0|2:0,0:0:0:0:
19,317,148556,1,0,2:0:0:0:
54,352,148641,2,0,B|85:357|85:357|118:345,1,64.9999970245363,2|0,2:0|2:0,0:0:0:0:
147,158,148813,5,8,2:0:0:0:
154,165,148899,1,0,2:0:0:0:
187,130,148984,2,0,L|200:56,1,64.9999970245363,2|0,2:0|2:0,0:0:0:0:
78,266,149156,1,8,2:0:0:0:
45,231,149241,2,0,L|31:157,1,64.9999970245363,2|0,2:0|2:0,0:0:0:0:
234,363,149413,5,0,2:0:0:0:
271,332,149499,2,0,L|347:345,1,64.9999970245363,10|0,2:0|2:0,0:0:0:0:
512,254,149670,1,0,2:0:0:0:
475,223,149756,2,0,L|398:236,1,64.9999970245363,2|8,2:0|2:0,0:0:0:0:
234,145,149927,1,0,2:0:0:0:
271,114,150013,2,0,L|347:127,1,64.9999970245363,2|0,2:0|2:0,0:0:0:0:
467,7,150184,5,10,2:0:0:0:
474,14,150270,1,2,2:0:0:0:
431,39,150356,2,0,P|396:30|370:8,1,64.9999970245363,0|0,2:0|2:0,0:0:0:0:
338,157,150527,1,10,2:0:0:0:
295,132,150613,2,0,P|260:141|234:163,1,64.9999970245363,2|0,2:0|2:0,0:0:0:0:
221,287,150784,5,0,2:0:0:0:
178,312,150870,2,0,P|143:303|117:281,1,64.9999970245363,10|0,2:0|2:0,0:0:0:0:
95,106,151041,1,0,2:0:0:0:
138,130,151127,2,0,P|147:164|141:198,1,64.9999970245363,2|8,2:0|2:0,0:0:0:0:
2,306,151299,1,0,2:0:0:0:
1,256,151384,2,0,P|26:230|58:218,1,64.9999970245363,2|0,2:0|2:0,0:0:0:0:
228,202,151556,5,8,2:0:0:0:
235,209,151641,1,0,2:0:0:0:
270,175,151727,2,0,P|299:187|321:211,1,64.9999970245363,2|0,2:0|2:0,0:0:0:0:
498,155,151899,1,8,2:0:0:0:
463,121,151984,2,0,P|433:133|411:157,1,64.9999970245363,2|0,2:0|2:0,0:0:0:0:
321,46,152156,5,0,2:0:0:0:
275,29,152241,2,0,L|204:41,1,64.9999970245363,10|0,2:0|2:0,0:0:0:0:
100,60,152413,1,0,2:0:0:0:
62,91,152499,2,0,L|37:158,1,64.9999970245363,2|8,2:0|2:0,0:0:0:0:
1,258,152670,1,0,2:0:0:0:
9,306,152756,2,0,L|55:361,1,64.9999970245363,2|0,2:0|2:0,0:0:0:0:
226,278,152927,5,10,2:0:0:0:
233,285,153013,1,2,2:0:0:0:
191,310,153099,2,0,B|171:287|171:287|165:252,1,64.9999970245363,0|0,2:0|2:0,0:0:0:0:
279,99,153270,1,10,2:0:0:0:
321,74,153356,2,0,B|341:97|341:97|347:132,1,64.9999970245363,2|0,2:0|2:0,0:0:0:0:
163,169,153527,5,0,2:0:0:0:
138,127,153613,2,0,B|161:107|161:107|196:101,1,64.9999970245363,10|0,2:0|2:0,0:0:0:0:
327,186,153784,1,0,2:0:0:0:
339,138,153870,2,0,B|369:140|369:140|398:160,1,64.9999970245363,2|8,2:0|2:0,0:0:0:0:
430,313,154041,1,0,2:0:0:0:
473,288,154127,2,0,B|492:311|492:311|499:346,1,64.9999970245363,2|0,2:0|2:0,0:0:0:0:
276,301,154299,5,8,2:0:0:0:
283,308,154384,1,0,2:0:0:0:
240,332,154470,2,0,L|201:250,1,64.9999970245363,2|0,2:0|2:0,0:0:0:0:
27,188,154641,1,8,2:0:0:0:
70,212,154727,2,0,L|108:130,1,64.9999970245363,2|0,2:0|2:0,0:0:0:0:
285,48,154899,5,0,2:0:0:0:
222,85,154984,1,10,2:0:0:0:
286,122,155070,1,8,2:0:0:0:
350,159,155156,1,8,2:0:0:0:
414,196,155241,1,10,2:0:0:0:
351,233,155327,5,12,2:0:0:0:
221,11,155499,1,10,2:0:0:0:
144,293,155670,5,14,2:0:0:0:
151,300,155756,1,2,2:0:0:0:
105,316,155841,2,0,P|74:299|58:270,1,64.9999970245363,0|0,2:0|2:0,0:0:0:0:
216,164,156013,1,10,2:0:0:0:
252,195,156099,2,0,P|252:230|235:258,1,64.9999970245363,2|0,2:0|2:0,0:0:0:0:
66,176,156270,5,0,2:0:0:0:
75,128,156356,2,0,P|105:109|138:110,1,64.9999970245363,10|0,2:0|2:0,0:0:0:0:
223,26,156527,1,0,2:0:0:0:
269,9,156613,2,0,P|300:26|315:54,1,64.9999970245363,2|8,2:0|2:0,0:0:0:0:
431,86,156784,1,0,2:0:0:0:
469,118,156870,2,0,P|469:153|452:181,1,64.9999970245363,2|0,2:0|2:0,0:0:0:0:
296,309,157041,5,8,2:0:0:0:
303,316,157127,1,0,2:0:0:0:
336,279,157213,2,0,L|411:265,1,64.9999970245363,2|0,2:0|2:0,0:0:0:0:
176,248,157384,1,8,2:0:0:0:
209,211,157470,2,0,L|284:197,1,64.9999970245363,2|0,2:0|2:0,0:0:0:0:
390,51,157641,5,0,2:0:0:0:
357,88,157727,2,0,L|281:101,1,64.9999970245363,10|0,2:0|2:0,0:0:0:0:
201,0,157899,1,0,2:0:0:0:
168,37,157984,2,0,L|92:50,1,64.9999970245363,2|8,2:0|2:0,0:0:0:0:
0,143,158156,1,0,2:0:0:0:
33,180,158241,2,0,L|108:193,1,64.9999970245363,2|0,2:0|2:0,0:0:0:0:
221,275,158413,5,10,2:0:0:0:
228,282,158499,1,2,2:0:0:0:
187,307,158584,2,0,B|156:299|156:299|120:304,1,64.9999970245363,0|0,2:0|2:0,0:0:0:0:
282,200,158756,1,10,2:0:0:0:
280,151,158841,2,0,B|301:128|301:128|315:94,1,64.9999970245363,2|0,2:0|2:0,0:0:0:0:
326,287,159013,5,0,2:0:0:0:
369,310,159099,2,0,B|377:339|377:339|400:368,1,64.9999970245363,10|0,2:0|2:0,0:0:0:0:
512,177,159270,1,0,2:0:0:0:
469,200,159356,2,0,B|460:229|460:229|437:258,1,64.9999970245363,2|8,2:0|2:0,0:0:0:0:
326,67,159527,1,0,2:0:0:0:
369,90,159613,2,0,B|377:119|377:119|400:148,1,64.9999970245363,2|0,2:0|2:0,0:0:0:0:
493,3,159784,5,8,2:0:0:0:
500,10,159870,1,0,2:0:0:0:
456,31,159956,2,0,L|386:-1,1,64.9999970245363,2|0,2:0|2:0,0:0:0:0:
231,106,160127,1,8,2:0:0:0:
275,127,160213,2,0,L|344:94,1,64.9999970245363,2|0,2:0|2:0,0:0:0:0:
172,26,160384,5,0,2:0:0:0:
128,47,160470,2,0,L|58:14,1,64.9999970245363,10|0,2:0|2:0,0:0:0:0:
169,167,160641,1,0,2:0:0:0:
152,212,160727,2,0,L|79:238,1,64.9999970245363,2|8,2:0|2:0,0:0:0:0:
266,268,160899,1,0,2:0:0:0:
286,312,160984,2,0,L|253:381,1,64.9999970245363,10|0,2:0|2:0,0:0:0:0:
391,206,161156,5,10,3:2:0:0:
398,213,161241,1,2,3:2:0:0:
426,173,161327,2,0,P|401:147|374:136,1,64.9999970245363,0|0,3:2|3:2,0:0:0:0:
259,275,161499,1,10,3:2:0:0:
231,235,161584,2,0,P|256:209|283:198,1,64.9999970245363,2|0,3:2|3:2,0:0:0:0:
382,340,161756,5,0,3:2:0:0:
416,373,161841,2,0,L|479:384,1,64.9999970245363,10|0,3:2|3:2,0:0:0:0:
193,312,162013,1,0,3:2:0:0:
227,345,162099,2,0,L|290:356,1,64.9999970245363,2|8,3:2|3:2,0:0:0:0:
4,284,162270,1,0,3:2:0:0:
38,317,162356,2,0,L|101:328,1,64.9999970245363,2|0,3:2|3:2,0:0:0:0:
125,145,162527,5,8,3:2:0:0:
132,152,162613,1,0,3:2:0:0:
95,184,162699,2,0,B|65:194|65:194|26:194,1,64.9999970245363,2|0,3:2|3:2,0:0:0:0:
182,79,162870,1,8,3:2:0:0:
219,47,162956,2,0,B|248:36|248:36|287:36,1,64.9999970245363,2|0,3:2|3:2,0:0:0:0:
353,175,163127,5,0,3:2:0:0:
390,207,163213,2,0,B|419:217|419:217|458:217,1,64.9999970245363,10|0,3:2|3:2,0:0:0:0:
275,223,163384,1,0,3:2:0:0:
282,230,163470,1,2,3:2:0:0:
236,248,163556,2,0,B|212:268|212:268|192:301,1,64.9999970245363,8|0,3:2|3:2,0:0:0:0:
281,125,163727,2,0,B|275:94|275:94|256:60,1,64.9999970245363,10|0,3:2|3:2,0:0:0:0:
108,2,163899,6,0,L|95:74,1,64.9999970245363,10|2,3:2|3:2,0:0:0:0:
80,158,164070,2,0,L|67:230,1,64.9999970245363,8|0,3:2|3:2,0:0:0:0:
52,314,164241,2,0,L|39:386,1,64.9999970245363,10|2,3:2|3:2,0:0:0:0:
276,384,164413,6,0,L|263:311,1,64.9999970245363,8|0,3:2|3:2,0:0:0:0:
248,228,164584,2,0,L|235:155,1,64.9999970245363,10|0,3:2|3:2,0:0:0:0:
220,72,164756,2,0,L|207:0,1,64.9999970245363,8|2,3:2|3:2,0:0:0:0:
158,189,164927,5,8,3:2:0:0:
158,254,165013,1,8,3:2:0:0:
158,319,165099,1,10,3:2:0:0:
158,384,165184,1,8,3:2:0:0:
165,377,165270,6,0,P|214:349|288:335,1,129.999994049073,8|2,2:0|2:0,0:0:0:0:
469,224,165527,6,0,P|405:235|348:265,1,129.999994049073,8|2,2:0|2:0,0:0:0:0:
164,243,165784,6,0,P|213:215|287:201,1,129.999994049073,8|2,2:0|2:0,0:0:0:0:
468,90,166041,6,0,P|404:101|347:131,1,129.999994049073,8|2,2:0|2:0,0:0:0:0:
412,360,166299,5,8,2:0:0:0:
482,331,166384,1,8,2:0:0:0:
432,310,166470,5,10,2:0:0:0:
461,380,166556,1,8,2:0:0:0:
447,345,166641,5,14,2:0:0:0:
256,192,166727,12,0,169384,2:0:0:0:
