osu file format v14

[General]
AudioFilename: audio.mp3
AudioLeadIn: 0
PreviewTime: 56928
Countdown: 0
SampleSet: Soft
StackLeniency: 0.7
Mode: 3
LetterboxInBreaks: 0
SpecialStyle: 0
WidescreenStoryboard: 1

[Editor]
DistanceSpacing: 2
BeatDivisor: 4
GridSize: 8
TimelineZoom: 2.5

[Metadata]
Title:Burning Star
TitleUnicode:Burning Star
Artist:LV.4
ArtistUnicode:LV.4
Creator:Carpihat
Version:Another
Source:osu! World Cup 2023
Tags:electronic instrumental trancecore fa featured artist mappers' guild mg mpg bracket chordstream stamina owc owc2023 grand finals original bkwind NoName -NoName- MWC 2024 osu!mania 7K World Cup 7KMWC2024 qf quarterfinals
BeatmapID:4411952
BeatmapSetID:2102464

[Difficulty]
HPDrainRate:8
CircleSize:7
OverallDifficulty:8
ApproachRate:5
SliderMultiplier:1.4
SliderTickRate:1

[Events]
//Background and Video events
0,0,"lol.jpg",0,0
//Break Periods
//Storyboard Layer 0 (Background)
//Storyboard Layer 1 (Fail)
//Storyboard Layer 2 (Pass)
//Storyboard Layer 3 (Foreground)
//Storyboard Layer 4 (Overlay)
//Storyboard Sound Samples

[TimingPoints]
700,342.857142857143,4,2,1,80,1,0
56928,-100,4,2,1,80,0,1
78871,-100,4,2,1,80,0,0
122757,-100,4,2,1,80,0,1
143328,-100,4,2,1,80,0,0
144700,-100,4,2,1,80,0,1
166642,-100,4,2,1,80,0,0

[HitObjects]
36,192,699,5,0,0:0:0:0:
475,192,699,1,0,0:0:0:0:
256,192,699,1,0,0:0:0:0:
329,192,871,1,0,0:0:0:0:
402,192,1042,1,0,0:0:0:0:
109,192,1042,1,0,0:0:0:0:
182,192,1214,1,0,0:0:0:0:
329,192,1300,1,0,0:0:0:0:
182,192,1385,1,0,0:0:0:0:
329,192,1471,1,0,0:0:0:0:
182,192,1557,1,0,0:0:0:0:
402,192,1728,1,0,0:0:0:0:
109,192,1814,1,0,0:0:0:0:
402,192,1900,1,0,0:0:0:0:
109,192,1985,1,0,0:0:0:0:
329,192,2071,1,0,0:0:0:0:
475,192,2071,1,0,0:0:0:0:
109,192,2242,1,0,0:0:0:0:
182,192,2414,1,0,0:0:0:0:
329,192,2414,1,0,0:0:0:0:
256,192,2585,1,0,0:0:0:0:
402,192,2585,1,0,0:0:0:0:
36,192,2757,1,0,0:0:0:0:
475,192,2842,1,0,0:0:0:0:
109,192,2928,1,0,0:0:0:0:
256,192,2928,1,0,0:0:0:0:
329,192,3100,1,0,0:0:0:0:
402,192,3100,1,0,0:0:0:0:
475,192,3100,1,0,0:0:0:0:
182,192,3271,1,0,0:0:0:0:
329,192,3357,1,0,0:0:0:0:
36,192,3442,1,0,0:0:0:0:
475,192,3442,1,0,0:0:0:0:
256,192,3442,1,0,0:0:0:0:
329,192,3614,1,0,0:0:0:0:
402,192,3785,1,0,0:0:0:0:
109,192,3785,1,0,0:0:0:0:
182,192,3957,1,0,0:0:0:0:
329,192,4042,1,0,0:0:0:0:
182,192,4128,1,0,0:0:0:0:
329,192,4214,1,0,0:0:0:0:
182,192,4300,1,0,0:0:0:0:
402,192,4471,1,0,0:0:0:0:
109,192,4557,1,0,0:0:0:0:
402,192,4642,1,0,0:0:0:0:
109,192,4728,1,0,0:0:0:0:
329,192,4814,1,0,0:0:0:0:
475,192,4814,1,0,0:0:0:0:
109,192,4985,1,0,0:0:0:0:
182,192,5157,1,0,0:0:0:0:
329,192,5157,1,0,0:0:0:0:
256,192,5328,1,0,0:0:0:0:
402,192,5328,1,0,0:0:0:0:
36,192,5500,1,0,0:0:0:0:
475,192,5585,1,0,0:0:0:0:
109,192,5671,1,0,0:0:0:0:
256,192,5671,1,0,0:0:0:0:
402,192,5842,1,0,0:0:0:0:
475,192,5842,1,0,0:0:0:0:
182,192,5928,1,0,0:0:0:0:
109,192,5928,1,0,0:0:0:0:
329,192,6014,1,0,0:0:0:0:
402,192,6014,1,0,0:0:0:0:
36,192,6100,1,0,0:0:0:0:
109,192,6100,1,0,0:0:0:0:
256,192,6185,1,0,0:0:0:0:
475,192,6185,1,0,0:0:0:0:
182,192,6185,1,0,0:0:0:0:
329,192,6357,1,0,0:0:0:0:
109,192,6528,1,0,0:0:0:0:
402,192,6528,1,0,0:0:0:0:
182,192,6700,1,0,0:0:0:0:
329,192,6785,1,0,0:0:0:0:
182,192,6871,1,0,0:0:0:0:
329,192,6957,1,0,0:0:0:0:
182,192,7042,1,0,0:0:0:0:
402,192,7214,1,0,0:0:0:0:
109,192,7300,1,0,0:0:0:0:
402,192,7385,1,0,0:0:0:0:
109,192,7471,1,0,0:0:0:0:
475,192,7557,1,0,0:0:0:0:
329,192,7557,1,0,0:0:0:0:
109,192,7728,1,0,0:0:0:0:
329,192,7900,1,0,0:0:0:0:
182,192,7900,1,0,0:0:0:0:
402,192,8071,1,0,0:0:0:0:
256,192,8071,1,0,0:0:0:0:
36,192,8242,1,0,0:0:0:0:
475,192,8328,1,0,0:0:0:0:
256,192,8414,1,0,0:0:0:0:
109,192,8414,1,0,0:0:0:0:
475,192,8585,1,0,0:0:0:0:
402,192,8585,1,0,0:0:0:0:
329,192,8585,1,0,0:0:0:0:
182,192,8757,1,0,0:0:0:0:
36,192,8757,1,0,0:0:0:0:
329,192,8842,1,0,0:0:0:0:
109,192,8928,1,0,0:0:0:0:
475,192,8928,1,0,0:0:0:0:
256,192,8928,1,0,0:0:0:0:
402,192,9014,1,0,0:0:0:0:
329,192,9100,1,0,0:0:0:0:
182,192,9185,1,0,0:0:0:0:
402,192,9271,1,0,0:0:0:0:
109,192,9271,1,0,0:0:0:0:
329,192,9357,1,0,0:0:0:0:
256,192,9442,1,0,0:0:0:0:
109,192,9528,1,0,0:0:0:0:
36,192,9614,1,0,0:0:0:0:
182,192,9700,1,0,0:0:0:0:
329,192,9785,1,0,0:0:0:0:
475,192,9871,1,0,0:0:0:0:
36,192,9957,1,0,0:0:0:0:
109,192,10000,1,0,0:0:0:0:
182,192,10042,1,0,0:0:0:0:
256,192,10085,1,0,0:0:0:0:
475,192,10128,1,0,0:0:0:0:
402,192,10171,1,0,0:0:0:0:
329,192,10214,1,0,0:0:0:0:
256,192,10257,1,0,0:0:0:0:
109,192,10385,1,0,0:0:0:0:
402,192,10471,1,0,0:0:0:0:
109,192,10642,1,0,0:0:0:0:
402,192,10728,1,0,0:0:0:0:
109,192,10900,1,0,0:0:0:0:
402,192,10985,1,0,0:0:0:0:
109,192,11157,1,0,0:0:0:0:
475,192,11242,1,0,0:0:0:0:
182,192,11328,1,0,0:0:0:0:
329,192,11328,1,0,0:0:0:0:
256,192,11328,1,0,0:0:0:0:
36,192,11414,1,0,0:0:0:0:
475,192,11500,1,0,0:0:0:0:
329,192,11585,1,0,0:0:0:0:
256,192,11671,1,0,0:0:0:0:
36,192,11671,1,0,0:0:0:0:
109,192,11671,1,0,0:0:0:0:
182,192,11842,1,0,0:0:0:0:
329,192,11842,1,0,0:0:0:0:
256,192,12014,1,0,0:0:0:0:
475,192,12014,1,0,0:0:0:0:
402,192,12014,1,0,0:0:0:0:
109,192,12185,1,0,0:0:0:0:
329,192,12185,1,0,0:0:0:0:
256,192,12271,1,0,0:0:0:0:
402,192,12357,1,0,0:0:0:0:
475,192,12357,1,0,0:0:0:0:
182,192,12357,1,0,0:0:0:0:
329,192,12528,1,0,0:0:0:0:
256,192,12528,1,0,0:0:0:0:
36,192,12700,1,0,0:0:0:0:
109,192,12700,1,0,0:0:0:0:
475,192,12700,1,0,0:0:0:0:
182,192,12871,1,0,0:0:0:0:
402,192,12871,1,0,0:0:0:0:
256,192,12957,1,0,0:0:0:0:
329,192,13042,1,0,0:0:0:0:
109,192,13042,1,0,0:0:0:0:
475,192,13042,1,0,0:0:0:0:
182,192,13214,1,0,0:0:0:0:
36,192,13214,1,0,0:0:0:0:
475,192,13385,1,0,0:0:0:0:
256,192,13385,1,0,0:0:0:0:
329,192,13385,1,0,0:0:0:0:
109,192,13557,1,0,0:0:0:0:
402,192,13557,1,0,0:0:0:0:
329,192,13642,1,0,0:0:0:0:
36,192,13728,1,0,0:0:0:0:
182,192,13728,1,0,0:0:0:0:
256,192,13728,1,0,0:0:0:0:
329,192,13900,1,0,0:0:0:0:
475,192,13900,1,0,0:0:0:0:
256,192,14071,1,0,0:0:0:0:
182,192,14071,1,0,0:0:0:0:
36,192,14071,1,0,0:0:0:0:
402,192,14242,1,0,0:0:0:0:
109,192,14242,1,0,0:0:0:0:
182,192,14328,1,0,0:0:0:0:
475,192,14414,1,0,0:0:0:0:
329,192,14414,1,0,0:0:0:0:
256,192,14414,1,0,0:0:0:0:
36,192,14585,1,0,0:0:0:0:
109,192,14585,1,0,0:0:0:0:
182,192,14757,1,0,0:0:0:0:
329,192,14757,1,0,0:0:0:0:
475,192,14757,1,0,0:0:0:0:
402,192,14928,1,0,0:0:0:0:
109,192,14928,1,0,0:0:0:0:
329,192,15014,1,0,0:0:0:0:
182,192,15100,1,0,0:0:0:0:
256,192,15100,1,0,0:0:0:0:
36,192,15100,1,0,0:0:0:0:
475,192,15271,1,0,0:0:0:0:
402,192,15271,1,0,0:0:0:0:
36,192,15442,1,0,0:0:0:0:
329,192,15442,1,0,0:0:0:0:
109,192,15442,1,0,0:0:0:0:
182,192,15614,1,0,0:0:0:0:
402,192,15614,1,0,0:0:0:0:
256,192,15700,1,0,0:0:0:0:
36,192,15785,1,0,0:0:0:0:
329,192,15785,1,0,0:0:0:0:
475,192,15785,1,0,0:0:0:0:
109,192,15957,1,0,0:0:0:0:
182,192,15957,1,0,0:0:0:0:
256,192,16128,1,0,0:0:0:0:
402,192,16128,1,0,0:0:0:0:
475,192,16128,1,0,0:0:0:0:
329,192,16300,1,0,0:0:0:0:
109,192,16300,1,0,0:0:0:0:
256,192,16385,1,0,0:0:0:0:
475,192,16471,1,0,0:0:0:0:
36,192,16471,1,0,0:0:0:0:
182,192,16471,1,0,0:0:0:0:
329,192,16642,1,0,0:0:0:0:
402,192,16642,1,0,0:0:0:0:
36,192,16814,1,0,0:0:0:0:
256,192,16814,1,0,0:0:0:0:
182,192,16814,1,0,0:0:0:0:
109,192,16985,1,0,0:0:0:0:
402,192,16985,1,0,0:0:0:0:
182,192,17071,1,0,0:0:0:0:
475,192,17157,1,0,0:0:0:0:
256,192,17157,1,0,0:0:0:0:
36,192,17157,1,0,0:0:0:0:
329,192,17328,1,0,0:0:0:0:
109,192,17328,1,0,0:0:0:0:
256,192,17500,1,0,0:0:0:0:
402,192,17500,1,0,0:0:0:0:
182,192,17500,1,0,0:0:0:0:
475,192,17671,1,0,0:0:0:0:
109,192,17671,1,0,0:0:0:0:
402,192,17757,1,0,0:0:0:0:
256,192,17842,1,0,0:0:0:0:
182,192,17842,1,0,0:0:0:0:
329,192,17842,1,0,0:0:0:0:
36,192,18014,1,0,0:0:0:0:
475,192,18014,1,0,0:0:0:0:
256,192,18185,1,0,0:0:0:0:
109,192,18185,1,0,0:0:0:0:
329,192,18185,1,0,0:0:0:0:
36,192,18357,1,0,0:0:0:0:
402,192,18357,1,0,0:0:0:0:
109,192,18442,1,0,0:0:0:0:
182,192,18528,1,0,0:0:0:0:
329,192,18528,1,0,0:0:0:0:
475,192,18528,1,0,0:0:0:0:
256,192,18700,1,0,0:0:0:0:
402,192,18700,1,0,0:0:0:0:
36,192,18871,1,0,0:0:0:0:
182,192,18871,1,0,0:0:0:0:
329,192,18871,1,0,0:0:0:0:
475,192,19042,1,0,0:0:0:0:
256,192,19042,1,0,0:0:0:0:
402,192,19128,1,0,0:0:0:0:
329,192,19214,1,0,0:0:0:0:
182,192,19214,1,0,0:0:0:0:
36,192,19214,1,0,0:0:0:0:
109,192,19385,1,0,0:0:0:0:
256,192,19385,1,0,0:0:0:0:
182,192,19557,1,0,0:0:0:0:
329,192,19557,1,0,0:0:0:0:
475,192,19557,1,0,0:0:0:0:
36,192,19728,1,0,0:0:0:0:
256,192,19728,1,0,0:0:0:0:
109,192,19814,1,0,0:0:0:0:
475,192,19900,1,0,0:0:0:0:
402,192,19900,1,0,0:0:0:0:
182,192,19900,1,0,0:0:0:0:
256,192,20071,1,0,0:0:0:0:
329,192,20071,1,0,0:0:0:0:
36,192,20242,1,0,0:0:0:0:
109,192,20242,1,0,0:0:0:0:
182,192,20242,1,0,0:0:0:0:
256,192,20414,1,0,0:0:0:0:
329,192,20414,1,0,0:0:0:0:
182,192,20500,1,0,0:0:0:0:
109,192,20585,1,0,0:0:0:0:
402,192,20585,1,0,0:0:0:0:
36,192,20585,1,0,0:0:0:0:
256,192,20757,1,0,0:0:0:0:
182,192,20757,1,0,0:0:0:0:
329,192,20928,1,0,0:0:0:0:
475,192,20928,1,0,0:0:0:0:
402,192,20928,1,0,0:0:0:0:
182,192,21100,1,0,0:0:0:0:
256,192,21100,1,0,0:0:0:0:
329,192,21185,1,0,0:0:0:0:
402,192,21271,1,0,0:0:0:0:
109,192,21271,1,0,0:0:0:0:
475,192,21271,1,0,0:0:0:0:
36,192,21442,1,0,0:0:0:0:
329,192,21442,1,0,0:0:0:0:
256,192,21614,1,0,0:0:0:0:
182,192,21614,1,0,0:0:0:0:
402,192,21614,1,0,0:0:0:0:
109,192,21785,1,0,0:0:0:0:
182,192,21871,1,0,0:0:0:0:
256,192,21957,1,0,0:0:0:0:
329,192,21957,1,0,0:0:0:0:
109,192,22042,1,0,0:0:0:0:
36,192,22042,1,0,0:0:0:0:
329,192,22128,1,0,0:0:0:0:
402,192,22128,1,0,0:0:0:0:
182,192,22214,1,0,0:0:0:0:
109,192,22214,1,0,0:0:0:0:
402,192,22300,1,0,0:0:0:0:
475,192,22300,1,0,0:0:0:0:
256,192,22300,1,0,0:0:0:0:
109,192,22471,1,0,0:0:0:0:
329,192,22471,1,0,0:0:0:0:
182,192,22471,1,0,0:0:0:0:
475,192,22642,1,0,0:0:0:0:
256,192,22642,1,0,0:0:0:0:
36,192,22642,1,0,0:0:0:0:
402,192,22728,1,0,0:0:0:0:
329,192,22814,1,0,0:0:0:0:
182,192,22814,1,0,0:0:0:0:
256,192,22900,1,0,0:0:0:0:
36,192,22985,1,0,0:0:0:0:
475,192,22985,1,0,0:0:0:0:
402,192,22985,1,0,0:0:0:0:
109,192,23071,1,0,0:0:0:0:
182,192,23157,1,0,0:0:0:0:
329,192,23157,1,0,0:0:0:0:
256,192,23242,1,0,0:0:0:0:
109,192,23328,1,0,0:0:0:0:
36,192,23328,1,0,0:0:0:0:
475,192,23328,1,0,0:0:0:0:
402,192,23414,1,0,0:0:0:0:
329,192,23500,1,0,0:0:0:0:
182,192,23500,1,0,0:0:0:0:
256,192,23585,1,0,0:0:0:0:
402,192,23671,1,0,0:0:0:0:
475,192,23671,1,0,0:0:0:0:
36,192,23671,1,0,0:0:0:0:
109,192,23757,1,0,0:0:0:0:
182,192,23842,1,0,0:0:0:0:
329,192,23842,1,0,0:0:0:0:
256,192,23928,1,0,0:0:0:0:
109,192,24014,1,0,0:0:0:0:
36,192,24014,1,0,0:0:0:0:
475,192,24014,1,0,0:0:0:0:
402,192,24185,1,0,0:0:0:0:
329,192,24185,1,0,0:0:0:0:
109,192,24357,1,0,0:0:0:0:
182,192,24357,1,0,0:0:0:0:
36,192,24357,1,0,0:0:0:0:
402,192,24442,1,0,0:0:0:0:
329,192,24442,1,0,0:0:0:0:
329,192,24700,1,0,0:0:0:0:
182,192,24700,1,0,0:0:0:0:
256,192,24700,1,0,0:0:0:0:
182,192,24957,1,0,0:0:0:0:
109,192,24957,1,0,0:0:0:0:
329,192,25042,1,0,0:0:0:0:
402,192,25042,1,0,0:0:0:0:
475,192,25042,1,0,0:0:0:0:
109,192,25214,1,0,0:0:0:0:
36,192,25214,1,0,0:0:0:0:
475,192,25385,1,0,0:0:0:0:
329,192,25385,1,0,0:0:0:0:
402,192,25385,1,0,0:0:0:0:
256,192,25471,1,0,0:0:0:0:
182,192,25557,1,0,0:0:0:0:
329,192,25557,1,0,0:0:0:0:
109,192,25642,1,0,0:0:0:0:
36,192,25728,1,0,0:0:0:0:
402,192,25728,1,0,0:0:0:0:
475,192,25728,1,0,0:0:0:0:
182,192,25814,1,0,0:0:0:0:
256,192,25900,1,0,0:0:0:0:
402,192,25900,1,0,0:0:0:0:
329,192,25985,1,0,0:0:0:0:
36,192,26071,1,0,0:0:0:0:
109,192,26071,1,0,0:0:0:0:
182,192,26071,1,0,0:0:0:0:
256,192,26157,1,0,0:0:0:0:
329,192,26242,1,0,0:0:0:0:
182,192,26242,1,0,0:0:0:0:
402,192,26328,1,0,0:0:0:0:
475,192,26414,1,0,0:0:0:0:
109,192,26414,1,0,0:0:0:0:
36,192,26414,1,0,0:0:0:0:
329,192,26500,1,0,0:0:0:0:
256,192,26585,1,0,0:0:0:0:
109,192,26585,1,0,0:0:0:0:
182,192,26671,1,0,0:0:0:0:
402,192,26757,1,0,0:0:0:0:
475,192,26757,1,0,0:0:0:0:
36,192,26757,1,0,0:0:0:0:
109,192,26928,1,0,0:0:0:0:
182,192,26928,1,0,0:0:0:0:
402,192,27100,1,0,0:0:0:0:
329,192,27100,1,0,0:0:0:0:
475,192,27100,1,0,0:0:0:0:
109,192,27185,1,0,0:0:0:0:
182,192,27185,1,0,0:0:0:0:
182,192,27442,1,0,0:0:0:0:
109,192,27442,1,0,0:0:0:0:
256,192,27442,1,0,0:0:0:0:
475,192,27700,1,0,0:0:0:0:
402,192,27700,1,0,0:0:0:0:
182,192,27785,1,0,0:0:0:0:
109,192,27785,1,0,0:0:0:0:
36,192,27785,1,0,0:0:0:0:
329,192,27957,1,0,0:0:0:0:
402,192,27957,1,0,0:0:0:0:
256,192,27957,1,0,0:0:0:0:
182,192,28128,1,0,0:0:0:0:
475,192,28128,1,0,0:0:0:0:
36,192,28128,1,0,0:0:0:0:
329,192,28214,1,0,0:0:0:0:
109,192,28300,1,0,0:0:0:0:
256,192,28300,1,0,0:0:0:0:
182,192,28385,1,0,0:0:0:0:
475,192,28471,1,0,0:0:0:0:
329,192,28471,1,0,0:0:0:0:
36,192,28471,1,0,0:0:0:0:
182,192,28557,1,0,0:0:0:0:
256,192,28642,1,0,0:0:0:0:
402,192,28642,1,0,0:0:0:0:
329,192,28728,1,0,0:0:0:0:
109,192,28814,1,0,0:0:0:0:
36,192,28814,1,0,0:0:0:0:
182,192,28814,1,0,0:0:0:0:
475,192,28900,1,0,0:0:0:0:
402,192,28985,1,0,0:0:0:0:
256,192,28985,1,0,0:0:0:0:
182,192,29071,1,0,0:0:0:0:
329,192,29157,1,0,0:0:0:0:
402,192,29157,1,0,0:0:0:0:
475,192,29157,1,0,0:0:0:0:
36,192,29242,1,0,0:0:0:0:
109,192,29328,1,0,0:0:0:0:
256,192,29328,1,0,0:0:0:0:
402,192,29414,1,0,0:0:0:0:
36,192,29500,1,0,0:0:0:0:
109,192,29500,1,0,0:0:0:0:
475,192,29500,1,0,0:0:0:0:
182,192,29585,1,0,0:0:0:0:
402,192,29671,1,0,0:0:0:0:
329,192,29671,1,0,0:0:0:0:
256,192,29757,1,0,0:0:0:0:
182,192,29842,1,0,0:0:0:0:
109,192,29842,1,0,0:0:0:0:
475,192,29842,1,0,0:0:0:0:
402,192,29928,1,0,0:0:0:0:
329,192,29928,1,0,0:0:0:0:
36,192,30014,1,0,0:0:0:0:
109,192,30100,1,0,0:0:0:0:
182,192,30185,1,0,0:0:0:0:
475,192,30185,1,0,0:0:0:0:
256,192,30185,1,0,0:0:0:0:
402,192,30271,1,0,0:0:0:0:
329,192,30357,1,0,0:0:0:0:
182,192,30442,1,0,0:0:0:0:
109,192,30442,1,0,0:0:0:0:
402,192,30528,1,0,0:0:0:0:
475,192,30528,1,0,0:0:0:0:
256,192,30528,1,0,0:0:0:0:
109,192,30700,1,0,0:0:0:0:
36,192,30700,1,0,0:0:0:0:
475,192,30700,1,0,0:0:0:0:
402,192,30871,1,0,0:0:0:0:
36,192,30871,1,0,0:0:0:0:
329,192,30871,1,0,0:0:0:0:
402,192,31042,1,0,0:0:0:0:
109,192,31042,1,0,0:0:0:0:
182,192,31042,1,0,0:0:0:0:
36,192,31214,1,0,0:0:0:0:
109,192,31214,1,0,0:0:0:0:
329,192,31214,1,0,0:0:0:0:
329,192,31385,1,0,0:0:0:0:
402,192,31385,1,0,0:0:0:0:
182,192,31385,1,0,0:0:0:0:
182,192,31557,1,0,0:0:0:0:
109,192,31557,1,0,0:0:0:0:
475,192,31557,1,0,0:0:0:0:
475,192,31728,1,0,0:0:0:0:
402,192,31728,1,0,0:0:0:0:
36,192,31728,1,0,0:0:0:0:
36,192,31900,1,0,0:0:0:0:
109,192,31900,1,0,0:0:0:0:
402,192,31985,1,0,0:0:0:0:
475,192,31985,1,0,0:0:0:0:
109,192,32071,1,0,0:0:0:0:
182,192,32071,1,0,0:0:0:0:
329,192,32157,1,0,0:0:0:0:
402,192,32157,1,0,0:0:0:0:
182,192,32328,1,0,0:0:0:0:
329,192,32414,1,0,0:0:0:0:
182,192,32585,1,0,0:0:0:0:
329,192,32671,1,0,0:0:0:0:
182,192,32842,1,0,0:0:0:0:
329,192,32928,1,0,0:0:0:0:
182,192,33100,1,0,0:0:0:0:
402,192,33185,1,0,0:0:0:0:
475,192,33271,1,0,0:0:0:0:
36,192,33271,1,0,0:0:0:0:
256,192,33271,1,0,0:0:0:0:
182,192,33357,1,0,0:0:0:0:
329,192,33442,1,0,0:0:0:0:
475,192,33528,1,0,0:0:0:0:
402,192,33614,1,0,0:0:0:0:
329,192,33700,1,0,0:0:0:0:
182,192,33785,1,0,0:0:0:0:
109,192,33871,1,0,0:0:0:0:
36,192,34042,1,0,0:0:0:0:
182,192,34128,1,0,0:0:0:0:
36,192,34300,1,0,0:0:0:0:
256,192,34385,1,0,0:0:0:0:
36,192,34557,1,0,0:0:0:0:
329,192,34642,1,0,0:0:0:0:
36,192,34814,1,0,0:0:0:0:
402,192,34900,1,0,0:0:0:0:
36,192,35071,1,0,0:0:0:0:
475,192,35157,1,0,0:0:0:0:
36,192,35328,1,0,0:0:0:0:
475,192,35414,1,0,0:0:0:0:
36,192,35585,1,0,0:0:0:0:
402,192,35671,1,0,0:0:0:0:
36,192,35842,1,0,0:0:0:0:
329,192,35928,1,0,0:0:0:0:
36,192,36100,1,0,0:0:0:0:
256,192,36185,1,0,0:0:0:0:
475,192,36357,1,0,0:0:0:0:
329,192,36442,1,0,0:0:0:0:
182,192,36528,1,0,0:0:0:0:
36,192,36614,1,0,0:0:0:0:
475,192,36785,1,0,0:0:0:0:
329,192,36871,1,0,0:0:0:0:
475,192,37042,1,0,0:0:0:0:
256,192,37128,1,0,0:0:0:0:
475,192,37300,1,0,0:0:0:0:
182,192,37385,1,0,0:0:0:0:
475,192,37557,1,0,0:0:0:0:
109,192,37642,1,0,0:0:0:0:
475,192,37814,1,0,0:0:0:0:
36,192,37900,1,0,0:0:0:0:
475,192,38071,1,0,0:0:0:0:
36,192,38157,1,0,0:0:0:0:
475,192,38328,1,0,0:0:0:0:
36,192,38414,1,0,0:0:0:0:
475,192,38585,1,0,0:0:0:0:
109,192,38671,1,0,0:0:0:0:
329,192,38842,1,0,0:0:0:0:
36,192,38928,1,0,0:0:0:0:
402,192,39100,1,0,0:0:0:0:
329,192,39185,1,0,0:0:0:0:
182,192,39271,1,0,0:0:0:0:
109,192,39357,1,0,0:0:0:0:
36,192,39528,1,0,0:0:0:0:
182,192,39614,1,0,0:0:0:0:
36,192,39785,1,0,0:0:0:0:
256,192,39871,1,0,0:0:0:0:
36,192,40042,1,0,0:0:0:0:
329,192,40128,1,0,0:0:0:0:
36,192,40300,1,0,0:0:0:0:
402,192,40385,1,0,0:0:0:0:
36,192,40557,1,0,0:0:0:0:
475,192,40642,1,0,0:0:0:0:
36,192,40814,1,0,0:0:0:0:
475,192,40900,1,0,0:0:0:0:
36,192,41071,1,0,0:0:0:0:
402,192,41157,1,0,0:0:0:0:
36,192,41328,1,0,0:0:0:0:
329,192,41414,1,0,0:0:0:0:
36,192,41585,1,0,0:0:0:0:
256,192,41671,1,0,0:0:0:0:
475,192,41842,1,0,0:0:0:0:
329,192,41928,1,0,0:0:0:0:
182,192,42014,1,0,0:0:0:0:
36,192,42100,1,0,0:0:0:0:
475,192,42271,1,0,0:0:0:0:
329,192,42357,1,0,0:0:0:0:
475,192,42528,1,0,0:0:0:0:
256,192,42614,1,0,0:0:0:0:
475,192,42785,1,0,0:0:0:0:
182,192,42871,1,0,0:0:0:0:
475,192,43042,1,0,0:0:0:0:
109,192,43128,1,0,0:0:0:0:
475,192,43300,1,0,0:0:0:0:
36,192,43385,1,0,0:0:0:0:
475,192,43557,1,0,0:0:0:0:
36,192,43642,1,0,0:0:0:0:
475,192,43814,1,0,0:0:0:0:
36,192,43900,1,0,0:0:0:0:
475,192,44071,1,0,0:0:0:0:
109,192,44157,1,0,0:0:0:0:
256,192,44242,1,0,0:0:0:0:
475,192,44328,1,0,0:0:0:0:
36,192,44414,1,0,0:0:0:0:
402,192,44585,1,0,0:0:0:0:
329,192,44671,1,0,0:0:0:0:
182,192,44757,1,0,0:0:0:0:
109,192,44842,1,0,0:0:0:0:
329,192,44928,1,0,0:0:0:0:
36,192,45014,1,0,0:0:0:0:
182,192,45100,1,0,0:0:0:0:
475,192,45185,1,0,0:0:0:0:
36,192,45271,1,0,0:0:0:0:
256,192,45357,1,0,0:0:0:0:
182,192,45442,1,0,0:0:0:0:
36,192,45528,1,0,0:0:0:0:
329,192,45614,1,0,0:0:0:0:
256,192,45700,1,0,0:0:0:0:
36,192,45785,1,0,0:0:0:0:
402,192,45871,1,0,0:0:0:0:
329,192,45957,1,0,0:0:0:0:
36,192,46042,1,0,0:0:0:0:
475,192,46128,1,0,0:0:0:0:
402,192,46214,1,0,0:0:0:0:
329,192,46300,1,0,0:0:0:0:
182,192,46385,1,0,0:0:0:0:
109,192,46471,1,0,0:0:0:0:
36,192,46557,1,0,0:0:0:0:
402,192,46642,1,0,0:0:0:0:
182,192,46728,1,0,0:0:0:0:
36,192,46814,1,0,0:0:0:0:
329,192,46900,1,0,0:0:0:0:
475,192,46985,1,0,0:0:0:0:
36,192,47071,1,0,0:0:0:0:
256,192,47157,1,0,0:0:0:0:
182,192,47242,1,0,0:0:0:0:
475,192,47328,1,0,0:0:0:0:
329,192,47414,1,0,0:0:0:0:
182,192,47500,1,0,0:0:0:0:
36,192,47585,1,0,0:0:0:0:
109,192,47671,1,0,0:0:0:0:
475,192,47757,1,0,0:0:0:0:
329,192,47842,1,0,0:0:0:0:
182,192,47928,1,0,0:0:0:0:
475,192,48014,1,0,0:0:0:0:
256,192,48100,1,0,0:0:0:0:
109,192,48185,1,0,0:0:0:0:
475,192,48271,1,0,0:0:0:0:
182,192,48357,1,0,0:0:0:0:
36,192,48442,1,0,0:0:0:0:
475,192,48528,1,0,0:0:0:0:
329,192,48614,1,0,0:0:0:0:
182,192,48700,1,0,0:0:0:0:
256,192,48785,1,0,0:0:0:0:
36,192,48871,1,0,0:0:0:0:
109,192,48957,1,0,0:0:0:0:
182,192,49042,1,0,0:0:0:0:
329,192,49128,1,0,0:0:0:0:
402,192,49214,1,0,0:0:0:0:
475,192,49300,1,0,0:0:0:0:
36,192,49385,1,0,0:0:0:0:
256,192,49471,1,0,0:0:0:0:
402,192,49557,1,0,0:0:0:0:
109,192,49642,1,0,0:0:0:0:
256,192,49728,1,0,0:0:0:0:
402,192,49814,1,0,0:0:0:0:
36,192,49900,1,0,0:0:0:0:
182,192,49985,1,0,0:0:0:0:
329,192,50071,1,0,0:0:0:0:
475,192,50071,1,0,0:0:0:0:
109,192,50157,1,0,0:0:0:0:
256,192,50242,1,0,0:0:0:0:
402,192,50242,1,0,0:0:0:0:
36,192,50328,1,0,0:0:0:0:
182,192,50414,1,0,0:0:0:0:
329,192,50414,1,0,0:0:0:0:
475,192,50500,1,0,0:0:0:0:
256,192,50585,1,0,0:0:0:0:
109,192,50585,1,0,0:0:0:0:
402,192,50671,1,0,0:0:0:0:
182,192,50757,1,0,0:0:0:0:
36,192,50757,1,0,0:0:0:0:
329,192,50842,1,0,0:0:0:0:
475,192,50928,1,0,0:0:0:0:
256,192,50928,1,0,0:0:0:0:
109,192,51014,1,0,0:0:0:0:
182,192,51100,1,0,0:0:0:0:
402,192,51100,1,0,0:0:0:0:
36,192,51185,1,0,0:0:0:0:
329,192,51271,1,0,0:0:0:0:
109,192,51271,1,0,0:0:0:0:
475,192,51357,1,0,0:0:0:0:
182,192,51442,1,0,0:0:0:0:
256,192,51442,1,0,0:0:0:0:
402,192,51528,1,0,0:0:0:0:
182,192,51614,1,0,0:0:0:0:
109,192,51614,1,0,0:0:0:0:
329,192,51700,1,0,0:0:0:0:
109,192,51785,1,0,0:0:0:0:
36,192,51785,1,0,0:0:0:0:
256,192,51871,1,0,0:0:0:0:
402,192,51957,1,0,0:0:0:0:
475,192,51957,1,0,0:0:0:0:
182,192,52042,1,0,0:0:0:0:
329,192,52128,1,0,0:0:0:0:
402,192,52128,1,0,0:0:0:0:
109,192,52214,1,0,0:0:0:0:
256,192,52300,1,0,0:0:0:0:
329,192,52300,1,0,0:0:0:0:
36,192,52385,1,0,0:0:0:0:
182,192,52471,1,0,0:0:0:0:
256,192,52514,1,0,0:0:0:0:
329,192,52557,1,0,0:0:0:0:
402,192,52600,1,0,0:0:0:0:
36,192,52642,1,0,0:0:0:0:
109,192,52685,1,0,0:0:0:0:
182,192,52728,1,0,0:0:0:0:
256,192,52771,1,0,0:0:0:0:
329,192,52814,1,0,0:0:0:0:
475,192,52814,1,0,0:0:0:0:
109,192,52900,1,0,0:0:0:0:
36,192,52900,1,0,0:0:0:0:
402,192,52985,1,0,0:0:0:0:
475,192,52985,1,0,0:0:0:0:
182,192,53071,1,0,0:0:0:0:
36,192,53071,1,0,0:0:0:0:
329,192,53157,1,0,0:0:0:0:
402,192,53157,1,0,0:0:0:0:
182,192,53242,1,0,0:0:0:0:
109,192,53242,1,0,0:0:0:0:
475,192,53328,1,0,0:0:0:0:
329,192,53328,1,0,0:0:0:0:
109,192,53414,1,0,0:0:0:0:
36,192,53414,1,0,0:0:0:0:
402,192,53500,1,0,0:0:0:0:
475,192,53500,1,0,0:0:0:0:
109,192,53585,1,0,0:0:0:0:
182,192,53585,1,0,0:0:0:0:
329,192,53671,1,0,0:0:0:0:
402,192,53671,1,0,0:0:0:0:
182,192,53757,1,0,0:0:0:0:
36,192,53757,1,0,0:0:0:0:
402,192,53842,1,0,0:0:0:0:
329,192,53885,1,0,0:0:0:0:
256,192,53928,1,0,0:0:0:0:
182,192,53971,1,0,0:0:0:0:
109,192,54014,1,0,0:0:0:0:
402,192,54057,1,0,0:0:0:0:
329,192,54100,1,0,0:0:0:0:
256,192,54142,1,0,0:0:0:0:
36,192,54185,1,0,0:0:0:0:
109,192,54185,1,0,0:0:0:0:
402,192,54271,1,0,0:0:0:0:
475,192,54271,1,0,0:0:0:0:
109,192,54442,1,0,0:0:0:0:
182,192,54442,1,0,0:0:0:0:
402,192,54528,1,0,0:0:0:0:
329,192,54528,1,0,0:0:0:0:
109,192,54700,1,0,0:0:0:0:
36,192,54700,1,0,0:0:0:0:
475,192,54785,1,0,0:0:0:0:
329,192,54785,1,0,0:0:0:0:
182,192,54871,1,0,0:0:0:0:
109,192,54871,1,0,0:0:0:0:
329,192,55042,1,0,0:0:0:0:
402,192,55042,1,0,0:0:0:0:
109,192,55214,1,0,0:0:0:0:
36,192,55214,1,0,0:0:0:0:
329,192,55300,1,0,0:0:0:0:
402,192,55300,1,0,0:0:0:0:
109,192,55385,1,0,0:0:0:0:
182,192,55385,1,0,0:0:0:0:
402,192,55471,1,0,0:0:0:0:
475,192,55471,1,0,0:0:0:0:
182,192,55642,1,0,0:0:0:0:
329,192,55728,1,0,0:0:0:0:
182,192,55900,1,0,0:0:0:0:
402,192,55985,1,0,0:0:0:0:
109,192,56157,1,0,0:0:0:0:
402,192,56242,1,0,0:0:0:0:
109,192,56414,1,0,0:0:0:0:
475,192,56500,1,0,0:0:0:0:
36,192,56585,1,0,0:0:0:0:
182,192,56585,1,0,0:0:0:0:
256,192,56585,1,0,0:0:0:0:
329,192,56671,1,0,0:0:0:0:
402,192,56671,1,0,0:0:0:0:
182,192,56757,1,0,0:0:0:0:
36,192,56757,1,0,0:0:0:0:
109,192,56842,1,0,0:0:0:0:
475,192,56928,1,0,0:0:0:0:
256,192,56928,1,0,0:0:0:0:
402,192,56928,1,0,0:0:0:0:
329,192,57014,1,0,0:0:0:0:
36,192,57100,1,0,0:0:0:0:
109,192,57100,1,0,0:0:0:0:
182,192,57185,1,0,0:0:0:0:
329,192,57271,1,0,0:0:0:0:
475,192,57271,1,0,0:0:0:0:
402,192,57271,1,0,0:0:0:0:
256,192,57357,1,0,0:0:0:0:
182,192,57442,1,0,0:0:0:0:
36,192,57442,1,0,0:0:0:0:
475,192,57614,1,0,0:0:0:0:
329,192,57614,1,0,0:0:0:0:
256,192,57614,1,0,0:0:0:0:
109,192,57700,1,0,0:0:0:0:
36,192,57700,1,0,0:0:0:0:
329,192,57871,1,0,0:0:0:0:
256,192,57957,1,0,0:0:0:0:
182,192,57957,1,0,0:0:0:0:
36,192,57957,1,0,0:0:0:0:
329,192,58128,1,0,0:0:0:0:
402,192,58214,1,0,0:0:0:0:
475,192,58214,1,0,0:0:0:0:
109,192,58300,1,0,0:0:0:0:
182,192,58300,1,0,0:0:0:0:
36,192,58300,1,0,0:0:0:0:
256,192,58385,1,0,0:0:0:0:
329,192,58471,1,0,0:0:0:0:
402,192,58471,1,0,0:0:0:0:
182,192,58642,1,0,0:0:0:0:
475,192,58642,1,0,0:0:0:0:
256,192,58642,1,0,0:0:0:0:
109,192,58728,1,0,0:0:0:0:
36,192,58728,1,0,0:0:0:0:
402,192,58900,1,0,0:0:0:0:
329,192,58985,1,0,0:0:0:0:
182,192,58985,1,0,0:0:0:0:
109,192,58985,1,0,0:0:0:0:
256,192,59157,1,0,0:0:0:0:
329,192,59242,1,0,0:0:0:0:
475,192,59242,1,0,0:0:0:0:
182,192,59328,1,0,0:0:0:0:
109,192,59328,1,0,0:0:0:0:
36,192,59328,1,0,0:0:0:0:
402,192,59500,1,0,0:0:0:0:
329,192,59500,1,0,0:0:0:0:
36,192,59671,1,0,0:0:0:0:
256,192,59671,1,0,0:0:0:0:
109,192,59671,1,0,0:0:0:0:
182,192,59757,1,0,0:0:0:0:
475,192,59842,1,0,0:0:0:0:
402,192,59842,1,0,0:0:0:0:
329,192,59928,1,0,0:0:0:0:
182,192,60014,1,0,0:0:0:0:
36,192,60014,1,0,0:0:0:0:
109,192,60014,1,0,0:0:0:0:
256,192,60100,1,0,0:0:0:0:
329,192,60185,1,0,0:0:0:0:
475,192,60185,1,0,0:0:0:0:
36,192,60357,1,0,0:0:0:0:
182,192,60357,1,0,0:0:0:0:
256,192,60357,1,0,0:0:0:0:
402,192,60442,1,0,0:0:0:0:
475,192,60442,1,0,0:0:0:0:
182,192,60614,1,0,0:0:0:0:
256,192,60700,1,0,0:0:0:0:
329,192,60700,1,0,0:0:0:0:
475,192,60700,1,0,0:0:0:0:
182,192,60871,1,0,0:0:0:0:
109,192,60957,1,0,0:0:0:0:
36,192,60957,1,0,0:0:0:0:
402,192,61042,1,0,0:0:0:0:
329,192,61042,1,0,0:0:0:0:
475,192,61042,1,0,0:0:0:0:
256,192,61128,1,0,0:0:0:0:
182,192,61214,1,0,0:0:0:0:
109,192,61214,1,0,0:0:0:0:
329,192,61385,1,0,0:0:0:0:
36,192,61385,1,0,0:0:0:0:
256,192,61385,1,0,0:0:0:0:
402,192,61471,1,0,0:0:0:0:
475,192,61471,1,0,0:0:0:0:
109,192,61642,1,0,0:0:0:0:
182,192,61728,1,0,0:0:0:0:
329,192,61728,1,0,0:0:0:0:
402,192,61728,1,0,0:0:0:0:
256,192,61900,1,0,0:0:0:0:
182,192,61985,1,0,0:0:0:0:
36,192,61985,1,0,0:0:0:0:
329,192,62071,1,0,0:0:0:0:
402,192,62071,1,0,0:0:0:0:
475,192,62071,1,0,0:0:0:0:
109,192,62242,1,0,0:0:0:0:
182,192,62242,1,0,0:0:0:0:
402,192,62414,1,0,0:0:0:0:
256,192,62414,1,0,0:0:0:0:
475,192,62414,1,0,0:0:0:0:
329,192,62500,1,0,0:0:0:0:
109,192,62585,1,0,0:0:0:0:
36,192,62585,1,0,0:0:0:0:
182,192,62671,1,0,0:0:0:0:
402,192,62757,1,0,0:0:0:0:
475,192,62757,1,0,0:0:0:0:
329,192,62757,1,0,0:0:0:0:
256,192,62842,1,0,0:0:0:0:
36,192,62928,1,0,0:0:0:0:
182,192,62928,1,0,0:0:0:0:
256,192,63100,1,0,0:0:0:0:
329,192,63100,1,0,0:0:0:0:
475,192,63100,1,0,0:0:0:0:
36,192,63185,1,0,0:0:0:0:
109,192,63185,1,0,0:0:0:0:
329,192,63357,1,0,0:0:0:0:
36,192,63442,1,0,0:0:0:0:
182,192,63442,1,0,0:0:0:0:
256,192,63442,1,0,0:0:0:0:
329,192,63614,1,0,0:0:0:0:
475,192,63700,1,0,0:0:0:0:
402,192,63700,1,0,0:0:0:0:
36,192,63785,1,0,0:0:0:0:
182,192,63785,1,0,0:0:0:0:
109,192,63785,1,0,0:0:0:0:
256,192,63871,1,0,0:0:0:0:
402,192,63957,1,0,0:0:0:0:
329,192,63957,1,0,0:0:0:0:
256,192,64128,1,0,0:0:0:0:
475,192,64128,1,0,0:0:0:0:
182,192,64128,1,0,0:0:0:0:
36,192,64214,1,0,0:0:0:0:
109,192,64214,1,0,0:0:0:0:
402,192,64385,1,0,0:0:0:0:
109,192,64471,1,0,0:0:0:0:
182,192,64471,1,0,0:0:0:0:
329,192,64471,1,0,0:0:0:0:
256,192,64642,1,0,0:0:0:0:
475,192,64728,1,0,0:0:0:0:
329,192,64728,1,0,0:0:0:0:
36,192,64814,1,0,0:0:0:0:
109,192,64814,1,0,0:0:0:0:
182,192,64814,1,0,0:0:0:0:
329,192,64985,1,0,0:0:0:0:
402,192,64985,1,0,0:0:0:0:
36,192,65157,1,0,0:0:0:0:
256,192,65157,1,0,0:0:0:0:
109,192,65157,1,0,0:0:0:0:
182,192,65242,1,0,0:0:0:0:
475,192,65328,1,0,0:0:0:0:
402,192,65328,1,0,0:0:0:0:
329,192,65414,1,0,0:0:0:0:
182,192,65500,1,0,0:0:0:0:
36,192,65500,1,0,0:0:0:0:
109,192,65500,1,0,0:0:0:0:
256,192,65585,1,0,0:0:0:0:
329,192,65671,1,0,0:0:0:0:
475,192,65671,1,0,0:0:0:0:
36,192,65842,1,0,0:0:0:0:
182,192,65842,1,0,0:0:0:0:
256,192,65842,1,0,0:0:0:0:
402,192,65928,1,0,0:0:0:0:
475,192,65928,1,0,0:0:0:0:
182,192,66100,1,0,0:0:0:0:
256,192,66185,1,0,0:0:0:0:
329,192,66185,1,0,0:0:0:0:
475,192,66185,1,0,0:0:0:0:
182,192,66357,1,0,0:0:0:0:
109,192,66442,1,0,0:0:0:0:
36,192,66442,1,0,0:0:0:0:
402,192,66528,1,0,0:0:0:0:
329,192,66528,1,0,0:0:0:0:
475,192,66528,1,0,0:0:0:0:
256,192,66614,1,0,0:0:0:0:
182,192,66700,1,0,0:0:0:0:
109,192,66700,1,0,0:0:0:0:
329,192,66871,1,0,0:0:0:0:
36,192,66871,1,0,0:0:0:0:
256,192,66871,1,0,0:0:0:0:
402,192,66957,1,0,0:0:0:0:
475,192,66957,1,0,0:0:0:0:
182,192,67128,1,0,0:0:0:0:
329,192,67214,1,0,0:0:0:0:
402,192,67214,1,0,0:0:0:0:
109,192,67300,1,0,0:0:0:0:
36,192,67300,1,0,0:0:0:0:
402,192,67385,1,0,0:0:0:0:
475,192,67385,1,0,0:0:0:0:
182,192,67471,1,0,0:0:0:0:
109,192,67471,1,0,0:0:0:0:
329,192,67557,1,0,0:0:0:0:
402,192,67557,1,0,0:0:0:0:
475,192,67557,1,0,0:0:0:0:
109,192,67728,1,0,0:0:0:0:
182,192,67728,1,0,0:0:0:0:
36,192,67728,1,0,0:0:0:0:
402,192,67900,1,0,0:0:0:0:
256,192,67900,1,0,0:0:0:0:
475,192,67900,1,0,0:0:0:0:
182,192,67985,1,0,0:0:0:0:
109,192,68071,1,0,0:0:0:0:
329,192,68071,1,0,0:0:0:0:
402,192,68157,1,0,0:0:0:0:
36,192,68242,1,0,0:0:0:0:
256,192,68242,1,0,0:0:0:0:
182,192,68242,1,0,0:0:0:0:
329,192,68328,1,0,0:0:0:0:
402,192,68414,1,0,0:0:0:0:
475,192,68414,1,0,0:0:0:0:
256,192,68585,1,0,0:0:0:0:
329,192,68585,1,0,0:0:0:0:
182,192,68585,1,0,0:0:0:0:
36,192,68671,1,0,0:0:0:0:
109,192,68671,1,0,0:0:0:0:
475,192,68842,1,0,0:0:0:0:
109,192,68928,1,0,0:0:0:0:
256,192,68928,1,0,0:0:0:0:
402,192,68928,1,0,0:0:0:0:
36,192,69100,1,0,0:0:0:0:
329,192,69185,1,0,0:0:0:0:
402,192,69185,1,0,0:0:0:0:
109,192,69271,1,0,0:0:0:0:
182,192,69271,1,0,0:0:0:0:
256,192,69271,1,0,0:0:0:0:
475,192,69357,1,0,0:0:0:0:
402,192,69442,1,0,0:0:0:0:
36,192,69442,1,0,0:0:0:0:
256,192,69614,1,0,0:0:0:0:
329,192,69614,1,0,0:0:0:0:
182,192,69614,1,0,0:0:0:0:
36,192,69700,1,0,0:0:0:0:
109,192,69700,1,0,0:0:0:0:
402,192,69871,1,0,0:0:0:0:
109,192,69957,1,0,0:0:0:0:
182,192,69957,1,0,0:0:0:0:
329,192,69957,1,0,0:0:0:0:
256,192,70128,1,0,0:0:0:0:
475,192,70214,1,0,0:0:0:0:
329,192,70214,1,0,0:0:0:0:
36,192,70300,1,0,0:0:0:0:
109,192,70300,1,0,0:0:0:0:
182,192,70300,1,0,0:0:0:0:
329,192,70471,1,0,0:0:0:0:
402,192,70471,1,0,0:0:0:0:
109,192,70642,1,0,0:0:0:0:
256,192,70642,1,0,0:0:0:0:
36,192,70642,1,0,0:0:0:0:
329,192,70728,1,0,0:0:0:0:
402,192,70814,1,0,0:0:0:0:
182,192,70814,1,0,0:0:0:0:
109,192,70900,1,0,0:0:0:0:
475,192,70985,1,0,0:0:0:0:
256,192,70985,1,0,0:0:0:0:
329,192,70985,1,0,0:0:0:0:
182,192,71071,1,0,0:0:0:0:
109,192,71157,1,0,0:0:0:0:
36,192,71157,1,0,0:0:0:0:
256,192,71328,1,0,0:0:0:0:
182,192,71328,1,0,0:0:0:0:
329,192,71328,1,0,0:0:0:0:
475,192,71414,1,0,0:0:0:0:
402,192,71414,1,0,0:0:0:0:
36,192,71585,1,0,0:0:0:0:
402,192,71671,1,0,0:0:0:0:
256,192,71671,1,0,0:0:0:0:
109,192,71671,1,0,0:0:0:0:
475,192,71842,1,0,0:0:0:0:
182,192,71928,1,0,0:0:0:0:
109,192,71928,1,0,0:0:0:0:
402,192,72014,1,0,0:0:0:0:
329,192,72014,1,0,0:0:0:0:
256,192,72014,1,0,0:0:0:0:
36,192,72100,1,0,0:0:0:0:
109,192,72185,1,0,0:0:0:0:
475,192,72185,1,0,0:0:0:0:
256,192,72357,1,0,0:0:0:0:
182,192,72357,1,0,0:0:0:0:
329,192,72357,1,0,0:0:0:0:
475,192,72442,1,0,0:0:0:0:
402,192,72442,1,0,0:0:0:0:
109,192,72614,1,0,0:0:0:0:
402,192,72700,1,0,0:0:0:0:
329,192,72700,1,0,0:0:0:0:
182,192,72700,1,0,0:0:0:0:
256,192,72871,1,0,0:0:0:0:
36,192,72957,1,0,0:0:0:0:
182,192,72957,1,0,0:0:0:0:
475,192,73042,1,0,0:0:0:0:
402,192,73042,1,0,0:0:0:0:
329,192,73042,1,0,0:0:0:0:
182,192,73214,1,0,0:0:0:0:
109,192,73214,1,0,0:0:0:0:
36,192,73214,1,0,0:0:0:0:
475,192,73385,1,0,0:0:0:0:
256,192,73385,1,0,0:0:0:0:
402,192,73385,1,0,0:0:0:0:
182,192,73471,1,0,0:0:0:0:
109,192,73557,1,0,0:0:0:0:
402,192,73557,1,0,0:0:0:0:
329,192,73642,1,0,0:0:0:0:
182,192,73728,1,0,0:0:0:0:
256,192,73728,1,0,0:0:0:0:
36,192,73728,1,0,0:0:0:0:
402,192,73814,1,0,0:0:0:0:
475,192,73900,1,0,0:0:0:0:
182,192,73900,1,0,0:0:0:0:
36,192,73985,1,0,0:0:0:0:
109,192,74071,1,0,0:0:0:0:
256,192,74071,1,0,0:0:0:0:
402,192,74071,1,0,0:0:0:0:
329,192,74157,1,0,0:0:0:0:
475,192,74242,1,0,0:0:0:0:
109,192,74242,1,0,0:0:0:0:
402,192,74328,1,0,0:0:0:0:
329,192,74414,1,0,0:0:0:0:
182,192,74414,1,0,0:0:0:0:
36,192,74414,1,0,0:0:0:0:
109,192,74500,1,0,0:0:0:0:
329,192,74585,1,0,0:0:0:0:
475,192,74585,1,0,0:0:0:0:
402,192,74671,1,0,0:0:0:0:
36,192,74757,1,0,0:0:0:0:
256,192,74757,1,0,0:0:0:0:
182,192,74757,1,0,0:0:0:0:
329,192,74842,1,0,0:0:0:0:
36,192,74928,1,0,0:0:0:0:
402,192,74928,1,0,0:0:0:0:
109,192,75014,1,0,0:0:0:0:
256,192,75100,1,0,0:0:0:0:
329,192,75100,1,0,0:0:0:0:
475,192,75100,1,0,0:0:0:0:
182,192,75185,1,0,0:0:0:0:
475,192,75271,1,0,0:0:0:0:
109,192,75271,1,0,0:0:0:0:
402,192,75357,1,0,0:0:0:0:
256,192,75442,1,0,0:0:0:0:
182,192,75442,1,0,0:0:0:0:
36,192,75442,1,0,0:0:0:0:
329,192,75528,1,0,0:0:0:0:
182,192,75614,1,0,0:0:0:0:
402,192,75614,1,0,0:0:0:0:
109,192,75700,1,0,0:0:0:0:
475,192,75785,1,0,0:0:0:0:
329,192,75785,1,0,0:0:0:0:
256,192,75785,1,0,0:0:0:0:
182,192,75957,1,0,0:0:0:0:
256,192,75957,1,0,0:0:0:0:
36,192,75957,1,0,0:0:0:0:
475,192,76128,1,0,0:0:0:0:
36,192,76128,1,0,0:0:0:0:
402,192,76128,1,0,0:0:0:0:
475,192,76300,1,0,0:0:0:0:
109,192,76300,1,0,0:0:0:0:
182,192,76300,1,0,0:0:0:0:
36,192,76471,1,0,0:0:0:0:
109,192,76471,1,0,0:0:0:0:
329,192,76471,1,0,0:0:0:0:
329,192,76642,1,0,0:0:0:0:
402,192,76642,1,0,0:0:0:0:
182,192,76642,1,0,0:0:0:0:
182,192,76814,1,0,0:0:0:0:
109,192,76814,1,0,0:0:0:0:
475,192,76814,1,0,0:0:0:0:
475,192,76985,1,0,0:0:0:0:
402,192,76985,1,0,0:0:0:0:
36,192,76985,1,0,0:0:0:0:
36,192,77157,1,0,0:0:0:0:
109,192,77157,1,0,0:0:0:0:
402,192,77242,1,0,0:0:0:0:
475,192,77242,1,0,0:0:0:0:
109,192,77328,1,0,0:0:0:0:
182,192,77328,1,0,0:0:0:0:
329,192,77414,1,0,0:0:0:0:
402,192,77414,1,0,0:0:0:0:
109,192,77585,1,0,0:0:0:0:
329,192,77671,1,0,0:0:0:0:
109,192,77842,1,0,0:0:0:0:
329,192,77928,1,0,0:0:0:0:
109,192,78100,1,0,0:0:0:0:
329,192,78185,1,0,0:0:0:0:
109,192,78357,1,0,0:0:0:0:
402,192,78442,1,0,0:0:0:0:
36,192,78528,1,0,0:0:0:0:
182,192,78528,1,0,0:0:0:0:
109,192,78528,1,0,0:0:0:0:
475,192,78614,1,0,0:0:0:0:
329,192,78700,1,0,0:0:0:0:
182,192,78785,1,0,0:0:0:0:
36,192,78871,1,0,0:0:0:0:
256,192,78871,1,0,0:0:0:0:
475,192,78871,1,0,0:0:0:0:
402,192,78957,1,0,0:0:0:0:
182,192,79042,1,0,0:0:0:0:
256,192,79128,1,0,0:0:0:0:
402,192,79214,1,0,0:0:0:0:
475,192,79214,1,0,0:0:0:0:
36,192,79214,1,0,0:0:0:0:
109,192,79300,1,0,0:0:0:0:
182,192,79385,1,0,0:0:0:0:
329,192,79385,1,0,0:0:0:0:
402,192,79557,1,0,0:0:0:0:
109,192,79557,1,0,0:0:0:0:
36,192,79557,1,0,0:0:0:0:
182,192,79642,1,0,0:0:0:0:
256,192,79814,1,0,0:0:0:0:
182,192,79900,1,0,0:0:0:0:
402,192,79900,1,0,0:0:0:0:
36,192,79900,1,0,0:0:0:0:
329,192,80071,1,0,0:0:0:0:
109,192,80071,1,0,0:0:0:0:
402,192,80157,1,0,0:0:0:0:
256,192,80242,1,0,0:0:0:0:
475,192,80242,1,0,0:0:0:0:
36,192,80242,1,0,0:0:0:0:
109,192,80328,1,0,0:0:0:0:
182,192,80414,1,0,0:0:0:0:
329,192,80414,1,0,0:0:0:0:
109,192,80585,1,0,0:0:0:0:
475,192,80585,1,0,0:0:0:0:
402,192,80585,1,0,0:0:0:0:
182,192,80671,1,0,0:0:0:0:
402,192,80842,1,0,0:0:0:0:
36,192,80928,1,0,0:0:0:0:
109,192,80928,1,0,0:0:0:0:
182,192,80928,1,0,0:0:0:0:
329,192,81100,1,0,0:0:0:0:
402,192,81100,1,0,0:0:0:0:
256,192,81185,1,0,0:0:0:0:
36,192,81271,1,0,0:0:0:0:
109,192,81271,1,0,0:0:0:0:
475,192,81271,1,0,0:0:0:0:
402,192,81357,1,0,0:0:0:0:
182,192,81442,1,0,0:0:0:0:
329,192,81442,1,0,0:0:0:0:
36,192,81614,1,0,0:0:0:0:
475,192,81614,1,0,0:0:0:0:
256,192,81614,1,0,0:0:0:0:
402,192,81700,1,0,0:0:0:0:
182,192,81785,1,0,0:0:0:0:
256,192,81871,1,0,0:0:0:0:
402,192,81957,1,0,0:0:0:0:
475,192,81957,1,0,0:0:0:0:
36,192,81957,1,0,0:0:0:0:
109,192,82042,1,0,0:0:0:0:
182,192,82128,1,0,0:0:0:0:
329,192,82128,1,0,0:0:0:0:
109,192,82300,1,0,0:0:0:0:
402,192,82300,1,0,0:0:0:0:
475,192,82300,1,0,0:0:0:0:
329,192,82385,1,0,0:0:0:0:
256,192,82557,1,0,0:0:0:0:
109,192,82642,1,0,0:0:0:0:
475,192,82642,1,0,0:0:0:0:
36,192,82642,1,0,0:0:0:0:
329,192,82814,1,0,0:0:0:0:
182,192,82814,1,0,0:0:0:0:
256,192,82900,1,0,0:0:0:0:
36,192,82985,1,0,0:0:0:0:
475,192,82985,1,0,0:0:0:0:
109,192,82985,1,0,0:0:0:0:
402,192,83071,1,0,0:0:0:0:
329,192,83157,1,0,0:0:0:0:
256,192,83157,1,0,0:0:0:0:
402,192,83328,1,0,0:0:0:0:
475,192,83328,1,0,0:0:0:0:
36,192,83328,1,0,0:0:0:0:
109,192,83414,1,0,0:0:0:0:
329,192,83585,1,0,0:0:0:0:
182,192,83671,1,0,0:0:0:0:
402,192,83671,1,0,0:0:0:0:
256,192,83671,1,0,0:0:0:0:
36,192,83842,1,0,0:0:0:0:
329,192,83842,1,0,0:0:0:0:
109,192,83928,1,0,0:0:0:0:
475,192,84014,1,0,0:0:0:0:
182,192,84014,1,0,0:0:0:0:
256,192,84014,1,0,0:0:0:0:
402,192,84100,1,0,0:0:0:0:
329,192,84185,1,0,0:0:0:0:
36,192,84185,1,0,0:0:0:0:
475,192,84357,1,0,0:0:0:0:
182,192,84357,1,0,0:0:0:0:
109,192,84357,1,0,0:0:0:0:
402,192,84442,1,0,0:0:0:0:
36,192,84528,1,0,0:0:0:0:
109,192,84614,1,0,0:0:0:0:
402,192,84700,1,0,0:0:0:0:
475,192,84700,1,0,0:0:0:0:
329,192,84700,1,0,0:0:0:0:
256,192,84785,1,0,0:0:0:0:
182,192,84871,1,0,0:0:0:0:
109,192,84871,1,0,0:0:0:0:
36,192,85042,1,0,0:0:0:0:
329,192,85042,1,0,0:0:0:0:
475,192,85042,1,0,0:0:0:0:
182,192,85128,1,0,0:0:0:0:
329,192,85300,1,0,0:0:0:0:
256,192,85385,1,0,0:0:0:0:
36,192,85385,1,0,0:0:0:0:
475,192,85385,1,0,0:0:0:0:
182,192,85557,1,0,0:0:0:0:
329,192,85557,1,0,0:0:0:0:
256,192,85642,1,0,0:0:0:0:
475,192,85728,1,0,0:0:0:0:
36,192,85728,1,0,0:0:0:0:
402,192,85728,1,0,0:0:0:0:
109,192,85814,1,0,0:0:0:0:
182,192,85900,1,0,0:0:0:0:
329,192,85900,1,0,0:0:0:0:
109,192,86071,1,0,0:0:0:0:
475,192,86071,1,0,0:0:0:0:
402,192,86071,1,0,0:0:0:0:
182,192,86157,1,0,0:0:0:0:
475,192,86328,1,0,0:0:0:0:
36,192,86414,1,0,0:0:0:0:
109,192,86414,1,0,0:0:0:0:
402,192,86414,1,0,0:0:0:0:
329,192,86585,1,0,0:0:0:0:
182,192,86585,1,0,0:0:0:0:
256,192,86671,1,0,0:0:0:0:
36,192,86757,1,0,0:0:0:0:
109,192,86757,1,0,0:0:0:0:
475,192,86757,1,0,0:0:0:0:
402,192,86842,1,0,0:0:0:0:
182,192,86928,1,0,0:0:0:0:
256,192,86928,1,0,0:0:0:0:
36,192,87100,1,0,0:0:0:0:
329,192,87100,1,0,0:0:0:0:
109,192,87100,1,0,0:0:0:0:
402,192,87185,1,0,0:0:0:0:
182,192,87271,1,0,0:0:0:0:
256,192,87357,1,0,0:0:0:0:
402,192,87442,1,0,0:0:0:0:
475,192,87442,1,0,0:0:0:0:
36,192,87442,1,0,0:0:0:0:
109,192,87528,1,0,0:0:0:0:
182,192,87614,1,0,0:0:0:0:
329,192,87614,1,0,0:0:0:0:
109,192,87785,1,0,0:0:0:0:
402,192,87785,1,0,0:0:0:0:
475,192,87785,1,0,0:0:0:0:
329,192,87871,1,0,0:0:0:0:
402,192,88042,1,0,0:0:0:0:
256,192,88128,1,0,0:0:0:0:
109,192,88128,1,0,0:0:0:0:
475,192,88128,1,0,0:0:0:0:
182,192,88300,1,0,0:0:0:0:
329,192,88300,1,0,0:0:0:0:
109,192,88385,1,0,0:0:0:0:
256,192,88471,1,0,0:0:0:0:
36,192,88471,1,0,0:0:0:0:
475,192,88471,1,0,0:0:0:0:
402,192,88557,1,0,0:0:0:0:
329,192,88642,1,0,0:0:0:0:
109,192,88642,1,0,0:0:0:0:
402,192,88814,1,0,0:0:0:0:
475,192,88814,1,0,0:0:0:0:
182,192,88814,1,0,0:0:0:0:
109,192,88900,1,0,0:0:0:0:
402,192,89071,1,0,0:0:0:0:
182,192,89157,1,0,0:0:0:0:
36,192,89157,1,0,0:0:0:0:
329,192,89242,1,0,0:0:0:0:
475,192,89242,1,0,0:0:0:0:
182,192,89328,1,0,0:0:0:0:
36,192,89328,1,0,0:0:0:0:
329,192,89414,1,0,0:0:0:0:
475,192,89414,1,0,0:0:0:0:
182,192,89500,1,0,0:0:0:0:
36,192,89500,1,0,0:0:0:0:
256,192,89500,1,0,0:0:0:0:
402,192,89671,1,0,0:0:0:0:
329,192,89671,1,0,0:0:0:0:
475,192,89671,1,0,0:0:0:0:
36,192,89842,1,0,0:0:0:0:
256,192,89842,1,0,0:0:0:0:
475,192,89842,1,0,0:0:0:0:
402,192,89928,1,0,0:0:0:0:
182,192,90014,1,0,0:0:0:0:
256,192,90100,1,0,0:0:0:0:
402,192,90185,1,0,0:0:0:0:
475,192,90185,1,0,0:0:0:0:
36,192,90185,1,0,0:0:0:0:
109,192,90271,1,0,0:0:0:0:
182,192,90357,1,0,0:0:0:0:
329,192,90357,1,0,0:0:0:0:
402,192,90528,1,0,0:0:0:0:
109,192,90528,1,0,0:0:0:0:
36,192,90528,1,0,0:0:0:0:
182,192,90614,1,0,0:0:0:0:
256,192,90785,1,0,0:0:0:0:
475,192,90871,1,0,0:0:0:0:
402,192,90871,1,0,0:0:0:0:
36,192,90871,1,0,0:0:0:0:
329,192,91042,1,0,0:0:0:0:
109,192,91042,1,0,0:0:0:0:
402,192,91128,1,0,0:0:0:0:
256,192,91214,1,0,0:0:0:0:
475,192,91214,1,0,0:0:0:0:
36,192,91214,1,0,0:0:0:0:
109,192,91300,1,0,0:0:0:0:
182,192,91385,1,0,0:0:0:0:
329,192,91385,1,0,0:0:0:0:
109,192,91557,1,0,0:0:0:0:
475,192,91557,1,0,0:0:0:0:
402,192,91557,1,0,0:0:0:0:
182,192,91642,1,0,0:0:0:0:
402,192,91814,1,0,0:0:0:0:
36,192,91900,1,0,0:0:0:0:
109,192,91900,1,0,0:0:0:0:
475,192,91900,1,0,0:0:0:0:
329,192,92071,1,0,0:0:0:0:
402,192,92071,1,0,0:0:0:0:
256,192,92157,1,0,0:0:0:0:
36,192,92242,1,0,0:0:0:0:
109,192,92242,1,0,0:0:0:0:
475,192,92242,1,0,0:0:0:0:
402,192,92328,1,0,0:0:0:0:
182,192,92414,1,0,0:0:0:0:
329,192,92414,1,0,0:0:0:0:
36,192,92585,1,0,0:0:0:0:
256,192,92585,1,0,0:0:0:0:
475,192,92585,1,0,0:0:0:0:
402,192,92671,1,0,0:0:0:0:
182,192,92757,1,0,0:0:0:0:
256,192,92842,1,0,0:0:0:0:
402,192,92928,1,0,0:0:0:0:
475,192,92928,1,0,0:0:0:0:
36,192,92928,1,0,0:0:0:0:
109,192,93014,1,0,0:0:0:0:
182,192,93100,1,0,0:0:0:0:
329,192,93100,1,0,0:0:0:0:
109,192,93271,1,0,0:0:0:0:
402,192,93271,1,0,0:0:0:0:
475,192,93271,1,0,0:0:0:0:
329,192,93357,1,0,0:0:0:0:
182,192,93528,1,0,0:0:0:0:
109,192,93614,1,0,0:0:0:0:
475,192,93614,1,0,0:0:0:0:
36,192,93614,1,0,0:0:0:0:
329,192,93785,1,0,0:0:0:0:
182,192,93785,1,0,0:0:0:0:
256,192,93871,1,0,0:0:0:0:
36,192,93957,1,0,0:0:0:0:
475,192,93957,1,0,0:0:0:0:
109,192,93957,1,0,0:0:0:0:
402,192,94042,1,0,0:0:0:0:
329,192,94128,1,0,0:0:0:0:
256,192,94128,1,0,0:0:0:0:
402,192,94300,1,0,0:0:0:0:
475,192,94300,1,0,0:0:0:0:
36,192,94300,1,0,0:0:0:0:
109,192,94385,1,0,0:0:0:0:
256,192,94557,1,0,0:0:0:0:
329,192,94642,1,0,0:0:0:0:
402,192,94642,1,0,0:0:0:0:
475,192,94642,1,0,0:0:0:0:
109,192,94814,1,0,0:0:0:0:
182,192,94900,1,0,0:0:0:0:
256,192,94985,1,0,0:0:0:0:
36,192,94985,1,0,0:0:0:0:
329,192,94985,1,0,0:0:0:0:
329,192,95157,1,0,0:0:0:0:
109,192,95157,1,0,0:0:0:0:
402,192,95157,1,0,0:0:0:0:
182,192,95328,1,0,0:0:0:0:
475,192,95328,1,0,0:0:0:0:
402,192,95328,1,0,0:0:0:0:
329,192,95414,1,0,0:0:0:0:
475,192,95500,1,0,0:0:0:0:
256,192,95500,1,0,0:0:0:0:
182,192,95585,1,0,0:0:0:0:
109,192,95671,1,0,0:0:0:0:
36,192,95671,1,0,0:0:0:0:
402,192,95671,1,0,0:0:0:0:
329,192,95757,1,0,0:0:0:0:
36,192,95842,1,0,0:0:0:0:
256,192,95842,1,0,0:0:0:0:
182,192,95928,1,0,0:0:0:0:
109,192,96014,1,0,0:0:0:0:
402,192,96014,1,0,0:0:0:0:
475,192,96014,1,0,0:0:0:0:
256,192,96100,1,0,0:0:0:0:
182,192,96185,1,0,0:0:0:0:
402,192,96185,1,0,0:0:0:0:
36,192,96271,1,0,0:0:0:0:
256,192,96357,1,0,0:0:0:0:
109,192,96357,1,0,0:0:0:0:
329,192,96357,1,0,0:0:0:0:
402,192,96442,1,0,0:0:0:0:
475,192,96528,1,0,0:0:0:0:
109,192,96528,1,0,0:0:0:0:
182,192,96614,1,0,0:0:0:0:
329,192,96700,1,0,0:0:0:0:
256,192,96700,1,0,0:0:0:0:
402,192,96700,1,0,0:0:0:0:
36,192,96785,1,0,0:0:0:0:
329,192,96871,1,0,0:0:0:0:
109,192,96871,1,0,0:0:0:0:
256,192,96957,1,0,0:0:0:0:
402,192,97042,1,0,0:0:0:0:
475,192,97042,1,0,0:0:0:0:
182,192,97042,1,0,0:0:0:0:
109,192,97128,1,0,0:0:0:0:
182,192,97214,1,0,0:0:0:0:
329,192,97214,1,0,0:0:0:0:
402,192,97300,1,0,0:0:0:0:
475,192,97385,1,0,0:0:0:0:
36,192,97385,1,0,0:0:0:0:
256,192,97385,1,0,0:0:0:0:
182,192,97471,1,0,0:0:0:0:
256,192,97557,1,0,0:0:0:0:
329,192,97557,1,0,0:0:0:0:
109,192,97642,1,0,0:0:0:0:
475,192,97728,1,0,0:0:0:0:
402,192,97728,1,0,0:0:0:0:
182,192,97728,1,0,0:0:0:0:
329,192,97900,1,0,0:0:0:0:
402,192,97900,1,0,0:0:0:0:
109,192,97900,1,0,0:0:0:0:
256,192,98071,1,0,0:0:0:0:
329,192,98071,1,0,0:0:0:0:
36,192,98071,1,0,0:0:0:0:
182,192,98242,1,0,0:0:0:0:
256,192,98242,1,0,0:0:0:0:
475,192,98242,1,0,0:0:0:0:
109,192,98414,1,0,0:0:0:0:
182,192,98414,1,0,0:0:0:0:
402,192,98414,1,0,0:0:0:0:
329,192,98585,1,0,0:0:0:0:
36,192,98585,1,0,0:0:0:0:
109,192,98585,1,0,0:0:0:0:
329,192,98757,1,0,0:0:0:0:
402,192,98757,1,0,0:0:0:0:
36,192,98757,1,0,0:0:0:0:
475,192,98928,1,0,0:0:0:0:
402,192,98928,1,0,0:0:0:0:
109,192,98928,1,0,0:0:0:0:
182,192,99100,1,0,0:0:0:0:
36,192,99100,1,0,0:0:0:0:
329,192,99185,1,0,0:0:0:0:
475,192,99185,1,0,0:0:0:0:
182,192,99271,1,0,0:0:0:0:
36,192,99271,1,0,0:0:0:0:
329,192,99357,1,0,0:0:0:0:
475,192,99357,1,0,0:0:0:0:
109,192,99442,1,0,0:0:0:0:
256,192,99528,1,0,0:0:0:0:
402,192,99614,1,0,0:0:0:0:
109,192,99785,1,0,0:0:0:0:
402,192,99871,1,0,0:0:0:0:
109,192,100042,1,0,0:0:0:0:
402,192,100128,1,0,0:0:0:0:
109,192,100300,1,0,0:0:0:0:
475,192,100385,1,0,0:0:0:0:
36,192,100471,1,0,0:0:0:0:
182,192,100471,1,0,0:0:0:0:
256,192,100471,1,0,0:0:0:0:
329,192,100557,1,0,0:0:0:0:
109,192,100642,1,0,0:0:0:0:
402,192,100642,1,0,0:0:0:0:
329,192,100814,1,0,0:0:0:0:
475,192,100814,1,0,0:0:0:0:
109,192,100900,1,0,0:0:0:0:
182,192,101071,1,0,0:0:0:0:
182,192,101242,1,0,0:0:0:0:
182,192,101414,1,0,0:0:0:0:
475,192,101500,1,0,0:0:0:0:
329,192,101671,1,0,0:0:0:0:
182,192,101842,1,0,0:0:0:0:
36,192,102014,1,0,0:0:0:0:
109,192,102271,1,0,0:0:0:0:
182,192,102442,1,0,0:0:0:0:
182,192,102614,1,0,0:0:0:0:
182,192,102785,1,0,0:0:0:0:
475,192,102871,1,0,0:0:0:0:
329,192,103042,1,0,0:0:0:0:
182,192,103214,1,0,0:0:0:0:
36,192,103385,1,0,0:0:0:0:
109,192,103642,1,0,0:0:0:0:
182,192,103814,1,0,0:0:0:0:
182,192,103985,1,0,0:0:0:0:
182,192,104157,1,0,0:0:0:0:
475,192,104242,1,0,0:0:0:0:
329,192,104414,1,0,0:0:0:0:
182,192,104585,1,0,0:0:0:0:
36,192,104757,1,0,0:0:0:0:
109,192,105014,1,0,0:0:0:0:
182,192,105185,1,0,0:0:0:0:
182,192,105357,1,0,0:0:0:0:
182,192,105528,1,0,0:0:0:0:
475,192,105614,1,0,0:0:0:0:
402,192,105785,1,0,0:0:0:0:
329,192,105957,1,0,0:0:0:0:
256,192,106128,1,0,0:0:0:0:
109,192,106385,1,0,0:0:0:0:
182,192,106557,1,0,0:0:0:0:
182,192,106728,1,0,0:0:0:0:
182,192,106900,1,0,0:0:0:0:
475,192,106985,1,0,0:0:0:0:
329,192,107157,1,0,0:0:0:0:
182,192,107328,1,0,0:0:0:0:
36,192,107500,1,0,0:0:0:0:
109,192,107757,1,0,0:0:0:0:
182,192,107928,1,0,0:0:0:0:
182,192,108100,1,0,0:0:0:0:
182,192,108271,1,0,0:0:0:0:
475,192,108357,1,0,0:0:0:0:
329,192,108528,1,0,0:0:0:0:
182,192,108700,1,0,0:0:0:0:
36,192,108871,1,0,0:0:0:0:
109,192,109128,1,0,0:0:0:0:
182,192,109300,1,0,0:0:0:0:
182,192,109471,1,0,0:0:0:0:
182,192,109642,1,0,0:0:0:0:
475,192,109728,1,0,0:0:0:0:
329,192,109900,1,0,0:0:0:0:
182,192,110071,1,0,0:0:0:0:
36,192,110242,1,0,0:0:0:0:
109,192,110500,1,0,0:0:0:0:
182,192,110671,1,0,0:0:0:0:
182,192,110842,1,0,0:0:0:0:
182,192,111014,1,0,0:0:0:0:
475,192,111100,1,0,0:0:0:0:
402,192,111271,1,0,0:0:0:0:
329,192,111442,1,0,0:0:0:0:
109,192,111442,1,0,0:0:0:0:
256,192,111614,1,0,0:0:0:0:
36,192,111785,1,0,0:0:0:0:
109,192,111785,1,0,0:0:0:0:
475,192,111785,1,0,0:0:0:0:
402,192,111871,1,0,0:0:0:0:
329,192,111957,1,0,0:0:0:0:
256,192,112042,1,0,0:0:0:0:
182,192,112128,1,0,0:0:0:0:
109,192,112128,1,0,0:0:0:0:
402,192,112128,1,0,0:0:0:0:
329,192,112214,1,0,0:0:0:0:
256,192,112300,1,0,0:0:0:0:
182,192,112385,1,0,0:0:0:0:
475,192,112471,1,0,0:0:0:0:
402,192,112471,1,0,0:0:0:0:
109,192,112471,1,0,0:0:0:0:
182,192,112557,1,0,0:0:0:0:
256,192,112642,1,0,0:0:0:0:
329,192,112728,1,0,0:0:0:0:
36,192,112814,1,0,0:0:0:0:
402,192,112814,1,0,0:0:0:0:
182,192,112814,1,0,0:0:0:0:
256,192,112900,1,0,0:0:0:0:
329,192,112985,1,0,0:0:0:0:
402,192,113071,1,0,0:0:0:0:
475,192,113157,1,0,0:0:0:0:
256,192,113157,1,0,0:0:0:0:
36,192,113157,1,0,0:0:0:0:
109,192,113242,1,0,0:0:0:0:
182,192,113328,1,0,0:0:0:0:
256,192,113414,1,0,0:0:0:0:
329,192,113500,1,0,0:0:0:0:
402,192,113500,1,0,0:0:0:0:
109,192,113500,1,0,0:0:0:0:
182,192,113585,1,0,0:0:0:0:
256,192,113671,1,0,0:0:0:0:
329,192,113757,1,0,0:0:0:0:
36,192,113842,1,0,0:0:0:0:
109,192,113842,1,0,0:0:0:0:
402,192,113842,1,0,0:0:0:0:
329,192,113928,1,0,0:0:0:0:
256,192,114014,1,0,0:0:0:0:
182,192,114100,1,0,0:0:0:0:
475,192,114185,1,0,0:0:0:0:
109,192,114185,1,0,0:0:0:0:
329,192,114185,1,0,0:0:0:0:
256,192,114271,1,0,0:0:0:0:
182,192,114357,1,0,0:0:0:0:
109,192,114442,1,0,0:0:0:0:
475,192,114528,1,0,0:0:0:0:
256,192,114528,1,0,0:0:0:0:
36,192,114528,1,0,0:0:0:0:
402,192,114614,1,0,0:0:0:0:
329,192,114700,1,0,0:0:0:0:
256,192,114785,1,0,0:0:0:0:
402,192,114871,1,0,0:0:0:0:
109,192,114871,1,0,0:0:0:0:
182,192,114871,1,0,0:0:0:0:
329,192,114957,1,0,0:0:0:0:
256,192,115042,1,0,0:0:0:0:
182,192,115128,1,0,0:0:0:0:
109,192,115214,1,0,0:0:0:0:
402,192,115214,1,0,0:0:0:0:
475,192,115214,1,0,0:0:0:0:
182,192,115300,1,0,0:0:0:0:
256,192,115385,1,0,0:0:0:0:
329,192,115471,1,0,0:0:0:0:
182,192,115557,1,0,0:0:0:0:
402,192,115557,1,0,0:0:0:0:
36,192,115557,1,0,0:0:0:0:
256,192,115642,1,0,0:0:0:0:
329,192,115728,1,0,0:0:0:0:
402,192,115814,1,0,0:0:0:0:
475,192,115900,1,0,0:0:0:0:
256,192,115900,1,0,0:0:0:0:
36,192,115900,1,0,0:0:0:0:
109,192,115985,1,0,0:0:0:0:
182,192,116071,1,0,0:0:0:0:
256,192,116157,1,0,0:0:0:0:
329,192,116242,1,0,0:0:0:0:
402,192,116242,1,0,0:0:0:0:
109,192,116242,1,0,0:0:0:0:
182,192,116328,1,0,0:0:0:0:
256,192,116414,1,0,0:0:0:0:
329,192,116500,1,0,0:0:0:0:
36,192,116585,1,0,0:0:0:0:
109,192,116585,1,0,0:0:0:0:
402,192,116585,1,0,0:0:0:0:
329,192,116671,1,0,0:0:0:0:
256,192,116757,1,0,0:0:0:0:
182,192,116842,1,0,0:0:0:0:
475,192,116928,1,0,0:0:0:0:
109,192,116928,1,0,0:0:0:0:
329,192,116928,1,0,0:0:0:0:
256,192,117014,1,0,0:0:0:0:
182,192,117100,1,0,0:0:0:0:
329,192,117100,1,0,0:0:0:0:
109,192,117185,1,0,0:0:0:0:
475,192,117271,1,0,0:0:0:0:
402,192,117357,1,0,0:0:0:0:
329,192,117442,1,0,0:0:0:0:
256,192,117528,1,0,0:0:0:0:
402,192,117614,1,0,0:0:0:0:
329,192,117700,1,0,0:0:0:0:
256,192,117785,1,0,0:0:0:0:
182,192,117871,1,0,0:0:0:0:
329,192,117957,1,0,0:0:0:0:
256,192,118042,1,0,0:0:0:0:
182,192,118128,1,0,0:0:0:0:
109,192,118214,1,0,0:0:0:0:
256,192,118300,1,0,0:0:0:0:
329,192,118385,1,0,0:0:0:0:
402,192,118471,1,0,0:0:0:0:
475,192,118557,1,0,0:0:0:0:
36,192,118642,1,0,0:0:0:0:
109,192,118642,1,0,0:0:0:0:
329,192,118728,1,0,0:0:0:0:
109,192,118814,1,0,0:0:0:0:
182,192,118814,1,0,0:0:0:0:
402,192,118900,1,0,0:0:0:0:
182,192,118985,1,0,0:0:0:0:
256,192,118985,1,0,0:0:0:0:
475,192,119071,1,0,0:0:0:0:
256,192,119157,1,0,0:0:0:0:
329,192,119157,1,0,0:0:0:0:
36,192,119242,1,0,0:0:0:0:
329,192,119328,1,0,0:0:0:0:
402,192,119328,1,0,0:0:0:0:
109,192,119414,1,0,0:0:0:0:
402,192,119500,1,0,0:0:0:0:
475,192,119500,1,0,0:0:0:0:
182,192,119585,1,0,0:0:0:0:
329,192,119671,1,0,0:0:0:0:
475,192,119671,1,0,0:0:0:0:
109,192,119757,1,0,0:0:0:0:
329,192,119842,1,0,0:0:0:0:
475,192,119842,1,0,0:0:0:0:
109,192,119928,1,0,0:0:0:0:
402,192,120014,1,0,0:0:0:0:
329,192,120014,1,0,0:0:0:0:
182,192,120100,1,0,0:0:0:0:
36,192,120100,1,0,0:0:0:0:
329,192,120185,1,0,0:0:0:0:
402,192,120185,1,0,0:0:0:0:
182,192,120271,1,0,0:0:0:0:
36,192,120271,1,0,0:0:0:0:
329,192,120357,1,0,0:0:0:0:
475,192,120357,1,0,0:0:0:0:
109,192,120442,1,0,0:0:0:0:
182,192,120442,1,0,0:0:0:0:
329,192,120528,1,0,0:0:0:0:
475,192,120528,1,0,0:0:0:0:
109,192,120614,1,0,0:0:0:0:
182,192,120614,1,0,0:0:0:0:
402,192,120700,1,0,0:0:0:0:
475,192,120700,1,0,0:0:0:0:
109,192,120785,1,0,0:0:0:0:
36,192,120785,1,0,0:0:0:0:
402,192,120871,1,0,0:0:0:0:
475,192,120871,1,0,0:0:0:0:
109,192,120957,1,0,0:0:0:0:
36,192,120957,1,0,0:0:0:0:
402,192,121042,1,0,0:0:0:0:
329,192,121042,1,0,0:0:0:0:
109,192,121128,1,0,0:0:0:0:
182,192,121128,1,0,0:0:0:0:
329,192,121214,1,0,0:0:0:0:
402,192,121214,1,0,0:0:0:0:
182,192,121300,1,0,0:0:0:0:
109,192,121300,1,0,0:0:0:0:
475,192,121385,1,0,0:0:0:0:
329,192,121471,1,0,0:0:0:0:
36,192,121642,1,0,0:0:0:0:
182,192,121728,1,0,0:0:0:0:
402,192,121900,1,0,0:0:0:0:
256,192,121985,1,0,0:0:0:0:
109,192,122071,1,0,0:0:0:0:
329,192,122242,1,0,0:0:0:0:
182,192,122242,1,0,0:0:0:0:
256,192,122414,1,0,0:0:0:0:
36,192,122414,1,0,0:0:0:0:
475,192,122414,1,0,0:0:0:0:
182,192,122500,1,0,0:0:0:0:
329,192,122585,1,0,0:0:0:0:
256,192,122671,1,0,0:0:0:0:
182,192,122757,1,0,0:0:0:0:
475,192,122757,1,0,0:0:0:0:
36,192,122757,1,0,0:0:0:0:
329,192,122842,1,0,0:0:0:0:
402,192,122842,1,0,0:0:0:0:
182,192,123014,1,0,0:0:0:0:
109,192,123014,1,0,0:0:0:0:
329,192,123100,1,0,0:0:0:0:
402,192,123100,1,0,0:0:0:0:
475,192,123100,1,0,0:0:0:0:
182,192,123185,1,0,0:0:0:0:
109,192,123185,1,0,0:0:0:0:
182,192,123357,1,0,0:0:0:0:
109,192,123357,1,0,0:0:0:0:
36,192,123442,1,0,0:0:0:0:
475,192,123442,1,0,0:0:0:0:
402,192,123442,1,0,0:0:0:0:
329,192,123528,1,0,0:0:0:0:
256,192,123614,1,0,0:0:0:0:
402,192,123614,1,0,0:0:0:0:
182,192,123700,1,0,0:0:0:0:
109,192,123785,1,0,0:0:0:0:
329,192,123785,1,0,0:0:0:0:
475,192,123785,1,0,0:0:0:0:
256,192,123871,1,0,0:0:0:0:
182,192,123957,1,0,0:0:0:0:
329,192,123957,1,0,0:0:0:0:
36,192,124128,1,0,0:0:0:0:
475,192,124128,1,0,0:0:0:0:
256,192,124128,1,0,0:0:0:0:
329,192,124214,1,0,0:0:0:0:
402,192,124214,1,0,0:0:0:0:
182,192,124385,1,0,0:0:0:0:
109,192,124385,1,0,0:0:0:0:
402,192,124471,1,0,0:0:0:0:
329,192,124471,1,0,0:0:0:0:
475,192,124471,1,0,0:0:0:0:
182,192,124557,1,0,0:0:0:0:
109,192,124557,1,0,0:0:0:0:
182,192,124728,1,0,0:0:0:0:
109,192,124728,1,0,0:0:0:0:
402,192,124814,1,0,0:0:0:0:
475,192,124814,1,0,0:0:0:0:
36,192,124814,1,0,0:0:0:0:
329,192,124900,1,0,0:0:0:0:
256,192,124985,1,0,0:0:0:0:
402,192,124985,1,0,0:0:0:0:
182,192,125071,1,0,0:0:0:0:
109,192,125157,1,0,0:0:0:0:
329,192,125157,1,0,0:0:0:0:
475,192,125157,1,0,0:0:0:0:
256,192,125242,1,0,0:0:0:0:
182,192,125328,1,0,0:0:0:0:
329,192,125328,1,0,0:0:0:0:
36,192,125500,1,0,0:0:0:0:
475,192,125500,1,0,0:0:0:0:
256,192,125500,1,0,0:0:0:0:
329,192,125585,1,0,0:0:0:0:
402,192,125585,1,0,0:0:0:0:
182,192,125757,1,0,0:0:0:0:
109,192,125757,1,0,0:0:0:0:
402,192,125842,1,0,0:0:0:0:
329,192,125842,1,0,0:0:0:0:
475,192,125842,1,0,0:0:0:0:
182,192,125928,1,0,0:0:0:0:
109,192,125928,1,0,0:0:0:0:
182,192,126100,1,0,0:0:0:0:
109,192,126100,1,0,0:0:0:0:
402,192,126185,1,0,0:0:0:0:
475,192,126185,1,0,0:0:0:0:
36,192,126185,1,0,0:0:0:0:
329,192,126271,1,0,0:0:0:0:
256,192,126357,1,0,0:0:0:0:
402,192,126357,1,0,0:0:0:0:
182,192,126442,1,0,0:0:0:0:
109,192,126528,1,0,0:0:0:0:
329,192,126528,1,0,0:0:0:0:
475,192,126528,1,0,0:0:0:0:
256,192,126614,1,0,0:0:0:0:
182,192,126700,1,0,0:0:0:0:
329,192,126700,1,0,0:0:0:0:
402,192,126871,1,0,0:0:0:0:
475,192,126871,1,0,0:0:0:0:
36,192,126871,1,0,0:0:0:0:
182,192,126957,1,0,0:0:0:0:
256,192,126957,1,0,0:0:0:0:
402,192,127128,1,0,0:0:0:0:
329,192,127128,1,0,0:0:0:0:
36,192,127214,1,0,0:0:0:0:
182,192,127214,1,0,0:0:0:0:
109,192,127214,1,0,0:0:0:0:
402,192,127300,1,0,0:0:0:0:
329,192,127300,1,0,0:0:0:0:
402,192,127471,1,0,0:0:0:0:
329,192,127471,1,0,0:0:0:0:
475,192,127557,1,0,0:0:0:0:
36,192,127557,1,0,0:0:0:0:
109,192,127557,1,0,0:0:0:0:
182,192,127642,1,0,0:0:0:0:
109,192,127728,1,0,0:0:0:0:
256,192,127728,1,0,0:0:0:0:
329,192,127814,1,0,0:0:0:0:
36,192,127900,1,0,0:0:0:0:
182,192,127900,1,0,0:0:0:0:
402,192,127900,1,0,0:0:0:0:
256,192,127985,1,0,0:0:0:0:
182,192,128071,1,0,0:0:0:0:
329,192,128071,1,0,0:0:0:0:
475,192,128242,1,0,0:0:0:0:
36,192,128242,1,0,0:0:0:0:
256,192,128242,1,0,0:0:0:0:
182,192,128328,1,0,0:0:0:0:
109,192,128328,1,0,0:0:0:0:
329,192,128500,1,0,0:0:0:0:
402,192,128500,1,0,0:0:0:0:
109,192,128585,1,0,0:0:0:0:
182,192,128585,1,0,0:0:0:0:
36,192,128585,1,0,0:0:0:0:
329,192,128671,1,0,0:0:0:0:
402,192,128671,1,0,0:0:0:0:
329,192,128842,1,0,0:0:0:0:
402,192,128842,1,0,0:0:0:0:
109,192,128928,1,0,0:0:0:0:
36,192,128928,1,0,0:0:0:0:
475,192,128928,1,0,0:0:0:0:
182,192,129014,1,0,0:0:0:0:
256,192,129100,1,0,0:0:0:0:
109,192,129100,1,0,0:0:0:0:
329,192,129185,1,0,0:0:0:0:
182,192,129271,1,0,0:0:0:0:
402,192,129271,1,0,0:0:0:0:
475,192,129271,1,0,0:0:0:0:
256,192,129357,1,0,0:0:0:0:
329,192,129442,1,0,0:0:0:0:
182,192,129442,1,0,0:0:0:0:
475,192,129614,1,0,0:0:0:0:
402,192,129614,1,0,0:0:0:0:
109,192,129614,1,0,0:0:0:0:
182,192,129700,1,0,0:0:0:0:
256,192,129700,1,0,0:0:0:0:
329,192,129871,1,0,0:0:0:0:
402,192,129871,1,0,0:0:0:0:
109,192,129957,1,0,0:0:0:0:
182,192,129957,1,0,0:0:0:0:
36,192,129957,1,0,0:0:0:0:
329,192,130042,1,0,0:0:0:0:
402,192,130042,1,0,0:0:0:0:
329,192,130214,1,0,0:0:0:0:
402,192,130214,1,0,0:0:0:0:
109,192,130300,1,0,0:0:0:0:
36,192,130300,1,0,0:0:0:0:
475,192,130300,1,0,0:0:0:0:
182,192,130385,1,0,0:0:0:0:
256,192,130471,1,0,0:0:0:0:
109,192,130471,1,0,0:0:0:0:
329,192,130557,1,0,0:0:0:0:
182,192,130642,1,0,0:0:0:0:
402,192,130642,1,0,0:0:0:0:
475,192,130642,1,0,0:0:0:0:
256,192,130728,1,0,0:0:0:0:
329,192,130814,1,0,0:0:0:0:
182,192,130814,1,0,0:0:0:0:
109,192,130985,1,0,0:0:0:0:
402,192,130985,1,0,0:0:0:0:
475,192,130985,1,0,0:0:0:0:
256,192,131071,1,0,0:0:0:0:
182,192,131071,1,0,0:0:0:0:
402,192,131242,1,0,0:0:0:0:
329,192,131242,1,0,0:0:0:0:
36,192,131328,1,0,0:0:0:0:
182,192,131328,1,0,0:0:0:0:
109,192,131328,1,0,0:0:0:0:
402,192,131414,1,0,0:0:0:0:
329,192,131414,1,0,0:0:0:0:
402,192,131585,1,0,0:0:0:0:
329,192,131585,1,0,0:0:0:0:
475,192,131671,1,0,0:0:0:0:
36,192,131671,1,0,0:0:0:0:
109,192,131671,1,0,0:0:0:0:
182,192,131757,1,0,0:0:0:0:
109,192,131842,1,0,0:0:0:0:
256,192,131842,1,0,0:0:0:0:
329,192,131928,1,0,0:0:0:0:
475,192,132014,1,0,0:0:0:0:
402,192,132014,1,0,0:0:0:0:
182,192,132014,1,0,0:0:0:0:
256,192,132100,1,0,0:0:0:0:
182,192,132185,1,0,0:0:0:0:
329,192,132185,1,0,0:0:0:0:
475,192,132357,1,0,0:0:0:0:
109,192,132357,1,0,0:0:0:0:
402,192,132357,1,0,0:0:0:0:
256,192,132442,1,0,0:0:0:0:
182,192,132442,1,0,0:0:0:0:
402,192,132614,1,0,0:0:0:0:
329,192,132614,1,0,0:0:0:0:
109,192,132700,1,0,0:0:0:0:
182,192,132700,1,0,0:0:0:0:
36,192,132700,1,0,0:0:0:0:
402,192,132785,1,0,0:0:0:0:
329,192,132785,1,0,0:0:0:0:
402,192,132957,1,0,0:0:0:0:
329,192,132957,1,0,0:0:0:0:
109,192,133042,1,0,0:0:0:0:
36,192,133042,1,0,0:0:0:0:
182,192,133128,1,0,0:0:0:0:
329,192,133128,1,0,0:0:0:0:
475,192,133214,1,0,0:0:0:0:
402,192,133214,1,0,0:0:0:0:
256,192,133300,1,0,0:0:0:0:
109,192,133300,1,0,0:0:0:0:
475,192,133385,1,0,0:0:0:0:
402,192,133385,1,0,0:0:0:0:
329,192,133385,1,0,0:0:0:0:
109,192,133557,1,0,0:0:0:0:
36,192,133557,1,0,0:0:0:0:
182,192,133557,1,0,0:0:0:0:
256,192,133728,1,0,0:0:0:0:
109,192,133728,1,0,0:0:0:0:
402,192,133728,1,0,0:0:0:0:
182,192,133814,1,0,0:0:0:0:
329,192,133814,1,0,0:0:0:0:
182,192,133985,1,0,0:0:0:0:
36,192,133985,1,0,0:0:0:0:
329,192,134071,1,0,0:0:0:0:
402,192,134071,1,0,0:0:0:0:
475,192,134071,1,0,0:0:0:0:
182,192,134157,1,0,0:0:0:0:
36,192,134157,1,0,0:0:0:0:
182,192,134328,1,0,0:0:0:0:
36,192,134328,1,0,0:0:0:0:
256,192,134414,1,0,0:0:0:0:
475,192,134414,1,0,0:0:0:0:
402,192,134414,1,0,0:0:0:0:
182,192,134500,1,0,0:0:0:0:
109,192,134585,1,0,0:0:0:0:
402,192,134585,1,0,0:0:0:0:
36,192,134671,1,0,0:0:0:0:
182,192,134757,1,0,0:0:0:0:
256,192,134757,1,0,0:0:0:0:
475,192,134757,1,0,0:0:0:0:
329,192,134842,1,0,0:0:0:0:
182,192,134928,1,0,0:0:0:0:
402,192,134928,1,0,0:0:0:0:
329,192,135100,1,0,0:0:0:0:
109,192,135100,1,0,0:0:0:0:
36,192,135100,1,0,0:0:0:0:
475,192,135185,1,0,0:0:0:0:
256,192,135185,1,0,0:0:0:0:
182,192,135357,1,0,0:0:0:0:
36,192,135357,1,0,0:0:0:0:
329,192,135442,1,0,0:0:0:0:
402,192,135442,1,0,0:0:0:0:
475,192,135442,1,0,0:0:0:0:
182,192,135528,1,0,0:0:0:0:
36,192,135528,1,0,0:0:0:0:
182,192,135700,1,0,0:0:0:0:
36,192,135700,1,0,0:0:0:0:
256,192,135785,1,0,0:0:0:0:
475,192,135785,1,0,0:0:0:0:
402,192,135785,1,0,0:0:0:0:
182,192,135871,1,0,0:0:0:0:
109,192,135957,1,0,0:0:0:0:
402,192,135957,1,0,0:0:0:0:
36,192,136042,1,0,0:0:0:0:
182,192,136128,1,0,0:0:0:0:
256,192,136128,1,0,0:0:0:0:
475,192,136128,1,0,0:0:0:0:
329,192,136214,1,0,0:0:0:0:
182,192,136300,1,0,0:0:0:0:
402,192,136300,1,0,0:0:0:0:
36,192,136471,1,0,0:0:0:0:
109,192,136471,1,0,0:0:0:0:
256,192,136471,1,0,0:0:0:0:
329,192,136557,1,0,0:0:0:0:
475,192,136557,1,0,0:0:0:0:
36,192,136728,1,0,0:0:0:0:
182,192,136728,1,0,0:0:0:0:
475,192,136814,1,0,0:0:0:0:
402,192,136814,1,0,0:0:0:0:
329,192,136814,1,0,0:0:0:0:
36,192,136900,1,0,0:0:0:0:
182,192,136900,1,0,0:0:0:0:
36,192,137071,1,0,0:0:0:0:
182,192,137071,1,0,0:0:0:0:
402,192,137157,1,0,0:0:0:0:
475,192,137157,1,0,0:0:0:0:
256,192,137157,1,0,0:0:0:0:
182,192,137242,1,0,0:0:0:0:
402,192,137328,1,0,0:0:0:0:
109,192,137328,1,0,0:0:0:0:
36,192,137414,1,0,0:0:0:0:
475,192,137500,1,0,0:0:0:0:
256,192,137500,1,0,0:0:0:0:
182,192,137500,1,0,0:0:0:0:
329,192,137585,1,0,0:0:0:0:
402,192,137671,1,0,0:0:0:0:
182,192,137671,1,0,0:0:0:0:
329,192,137842,1,0,0:0:0:0:
109,192,137842,1,0,0:0:0:0:
36,192,137842,1,0,0:0:0:0:
182,192,137928,1,0,0:0:0:0:
402,192,137928,1,0,0:0:0:0:
329,192,138100,1,0,0:0:0:0:
475,192,138100,1,0,0:0:0:0:
182,192,138185,1,0,0:0:0:0:
109,192,138185,1,0,0:0:0:0:
36,192,138185,1,0,0:0:0:0:
329,192,138271,1,0,0:0:0:0:
475,192,138271,1,0,0:0:0:0:
329,192,138442,1,0,0:0:0:0:
475,192,138442,1,0,0:0:0:0:
256,192,138528,1,0,0:0:0:0:
36,192,138528,1,0,0:0:0:0:
109,192,138528,1,0,0:0:0:0:
329,192,138614,1,0,0:0:0:0:
402,192,138700,1,0,0:0:0:0:
109,192,138700,1,0,0:0:0:0:
475,192,138785,1,0,0:0:0:0:
329,192,138871,1,0,0:0:0:0:
256,192,138871,1,0,0:0:0:0:
182,192,138871,1,0,0:0:0:0:
256,192,139042,1,0,0:0:0:0:
182,192,139042,1,0,0:0:0:0:
109,192,139042,1,0,0:0:0:0:
182,192,139214,1,0,0:0:0:0:
109,192,139214,1,0,0:0:0:0:
36,192,139214,1,0,0:0:0:0:
256,192,139300,1,0,0:0:0:0:
329,192,139385,1,0,0:0:0:0:
475,192,139385,1,0,0:0:0:0:
36,192,139471,1,0,0:0:0:0:
109,192,139557,1,0,0:0:0:0:
256,192,139557,1,0,0:0:0:0:
402,192,139557,1,0,0:0:0:0:
475,192,139642,1,0,0:0:0:0:
36,192,139728,1,0,0:0:0:0:
182,192,139728,1,0,0:0:0:0:
256,192,139814,1,0,0:0:0:0:
109,192,139900,1,0,0:0:0:0:
475,192,139900,1,0,0:0:0:0:
329,192,139900,1,0,0:0:0:0:
182,192,139985,1,0,0:0:0:0:
402,192,140071,1,0,0:0:0:0:
256,192,140071,1,0,0:0:0:0:
36,192,140157,1,0,0:0:0:0:
182,192,140242,1,0,0:0:0:0:
475,192,140242,1,0,0:0:0:0:
109,192,140242,1,0,0:0:0:0:
402,192,140328,1,0,0:0:0:0:
256,192,140414,1,0,0:0:0:0:
329,192,140414,1,0,0:0:0:0:
329,192,140585,1,0,0:0:0:0:
402,192,140585,1,0,0:0:0:0:
475,192,140585,1,0,0:0:0:0:
256,192,140671,1,0,0:0:0:0:
182,192,140757,1,0,0:0:0:0:
36,192,140757,1,0,0:0:0:0:
475,192,140842,1,0,0:0:0:0:
402,192,140928,1,0,0:0:0:0:
256,192,140928,1,0,0:0:0:0:
109,192,140928,1,0,0:0:0:0:
36,192,141014,1,0,0:0:0:0:
475,192,141100,1,0,0:0:0:0:
329,192,141100,1,0,0:0:0:0:
109,192,141185,1,0,0:0:0:0:
402,192,141271,1,0,0:0:0:0:
36,192,141271,1,0,0:0:0:0:
256,192,141271,1,0,0:0:0:0:
475,192,141357,1,0,0:0:0:0:
109,192,141442,1,0,0:0:0:0:
182,192,141442,1,0,0:0:0:0:
329,192,141528,1,0,0:0:0:0:
256,192,141614,1,0,0:0:0:0:
36,192,141614,1,0,0:0:0:0:
402,192,141614,1,0,0:0:0:0:
182,192,141785,1,0,0:0:0:0:
109,192,141785,1,0,0:0:0:0:
402,192,141785,1,0,0:0:0:0:
36,192,141957,1,0,0:0:0:0:
256,192,141957,1,0,0:0:0:0:
182,192,141957,1,0,0:0:0:0:
329,192,142128,1,0,0:0:0:0:
109,192,142128,1,0,0:0:0:0:
256,192,142128,1,0,0:0:0:0:
329,192,142300,1,0,0:0:0:0:
182,192,142300,1,0,0:0:0:0:
402,192,142300,1,0,0:0:0:0:
402,192,142471,1,0,0:0:0:0:
475,192,142471,1,0,0:0:0:0:
256,192,142471,1,0,0:0:0:0:
475,192,142642,1,0,0:0:0:0:
36,192,142642,1,0,0:0:0:0:
329,192,142642,1,0,0:0:0:0:
36,192,142814,1,0,0:0:0:0:
109,192,142814,1,0,0:0:0:0:
402,192,142814,1,0,0:0:0:0:
109,192,142985,1,0,0:0:0:0:
182,192,142985,1,0,0:0:0:0:
329,192,143071,1,0,0:0:0:0:
402,192,143071,1,0,0:0:0:0:
109,192,143157,1,0,0:0:0:0:
182,192,143157,1,0,0:0:0:0:
329,192,143242,1,0,0:0:0:0:
402,192,143242,1,0,0:0:0:0:
256,192,143328,1,0,0:0:0:0:
182,192,143414,1,0,0:0:0:0:
329,192,143500,1,0,0:0:0:0:
182,192,143585,1,0,0:0:0:0:
256,192,143671,1,0,0:0:0:0:
402,192,143757,1,0,0:0:0:0:
109,192,143842,1,0,0:0:0:0:
402,192,143928,1,0,0:0:0:0:
475,192,144014,1,0,0:0:0:0:
329,192,144014,1,0,0:0:0:0:
182,192,144185,1,0,0:0:0:0:
36,192,144185,1,0,0:0:0:0:
329,192,144357,1,0,0:0:0:0:
402,192,144357,1,0,0:0:0:0:
475,192,144357,1,0,0:0:0:0:
256,192,144442,1,0,0:0:0:0:
182,192,144528,1,0,0:0:0:0:
329,192,144614,1,0,0:0:0:0:
256,192,144700,1,0,0:0:0:0:
36,192,144700,1,0,0:0:0:0:
475,192,144700,1,0,0:0:0:0:
109,192,144785,1,0,0:0:0:0:
182,192,144871,1,0,0:0:0:0:
402,192,144871,1,0,0:0:0:0:
329,192,144957,1,0,0:0:0:0:
109,192,145042,1,0,0:0:0:0:
36,192,145042,1,0,0:0:0:0:
475,192,145042,1,0,0:0:0:0:
182,192,145128,1,0,0:0:0:0:
256,192,145214,1,0,0:0:0:0:
475,192,145214,1,0,0:0:0:0:
402,192,145300,1,0,0:0:0:0:
182,192,145385,1,0,0:0:0:0:
109,192,145385,1,0,0:0:0:0:
36,192,145385,1,0,0:0:0:0:
256,192,145471,1,0,0:0:0:0:
329,192,145557,1,0,0:0:0:0:
36,192,145557,1,0,0:0:0:0:
475,192,145642,1,0,0:0:0:0:
109,192,145728,1,0,0:0:0:0:
182,192,145728,1,0,0:0:0:0:
256,192,145728,1,0,0:0:0:0:
402,192,145814,1,0,0:0:0:0:
109,192,145900,1,0,0:0:0:0:
329,192,145900,1,0,0:0:0:0:
36,192,146071,1,0,0:0:0:0:
475,192,146071,1,0,0:0:0:0:
182,192,146071,1,0,0:0:0:0:
402,192,146157,1,0,0:0:0:0:
329,192,146242,1,0,0:0:0:0:
109,192,146242,1,0,0:0:0:0:
182,192,146328,1,0,0:0:0:0:
402,192,146414,1,0,0:0:0:0:
475,192,146414,1,0,0:0:0:0:
36,192,146414,1,0,0:0:0:0:
329,192,146500,1,0,0:0:0:0:
256,192,146585,1,0,0:0:0:0:
36,192,146585,1,0,0:0:0:0:
109,192,146671,1,0,0:0:0:0:
329,192,146757,1,0,0:0:0:0:
402,192,146757,1,0,0:0:0:0:
475,192,146757,1,0,0:0:0:0:
256,192,146842,1,0,0:0:0:0:
182,192,146928,1,0,0:0:0:0:
475,192,146928,1,0,0:0:0:0:
36,192,147014,1,0,0:0:0:0:
402,192,147100,1,0,0:0:0:0:
329,192,147100,1,0,0:0:0:0:
256,192,147100,1,0,0:0:0:0:
109,192,147185,1,0,0:0:0:0:
182,192,147271,1,0,0:0:0:0:
402,192,147271,1,0,0:0:0:0:
36,192,147442,1,0,0:0:0:0:
475,192,147442,1,0,0:0:0:0:
329,192,147442,1,0,0:0:0:0:
109,192,147528,1,0,0:0:0:0:
402,192,147614,1,0,0:0:0:0:
182,192,147614,1,0,0:0:0:0:
329,192,147700,1,0,0:0:0:0:
475,192,147785,1,0,0:0:0:0:
36,192,147785,1,0,0:0:0:0:
109,192,147785,1,0,0:0:0:0:
182,192,147871,1,0,0:0:0:0:
475,192,147957,1,0,0:0:0:0:
256,192,147957,1,0,0:0:0:0:
402,192,148042,1,0,0:0:0:0:
36,192,148128,1,0,0:0:0:0:
109,192,148128,1,0,0:0:0:0:
182,192,148128,1,0,0:0:0:0:
256,192,148214,1,0,0:0:0:0:
36,192,148300,1,0,0:0:0:0:
329,192,148300,1,0,0:0:0:0:
475,192,148385,1,0,0:0:0:0:
402,192,148471,1,0,0:0:0:0:
182,192,148471,1,0,0:0:0:0:
109,192,148471,1,0,0:0:0:0:
329,192,148557,1,0,0:0:0:0:
256,192,148642,1,0,0:0:0:0:
109,192,148642,1,0,0:0:0:0:
256,192,148814,1,0,0:0:0:0:
475,192,148814,1,0,0:0:0:0:
36,192,148814,1,0,0:0:0:0:
402,192,148900,1,0,0:0:0:0:
329,192,148985,1,0,0:0:0:0:
109,192,148985,1,0,0:0:0:0:
182,192,149071,1,0,0:0:0:0:
402,192,149157,1,0,0:0:0:0:
475,192,149157,1,0,0:0:0:0:
36,192,149157,1,0,0:0:0:0:
329,192,149242,1,0,0:0:0:0:
256,192,149328,1,0,0:0:0:0:
36,192,149328,1,0,0:0:0:0:
109,192,149414,1,0,0:0:0:0:
329,192,149500,1,0,0:0:0:0:
402,192,149500,1,0,0:0:0:0:
475,192,149500,1,0,0:0:0:0:
256,192,149585,1,0,0:0:0:0:
182,192,149671,1,0,0:0:0:0:
475,192,149671,1,0,0:0:0:0:
36,192,149757,1,0,0:0:0:0:
402,192,149842,1,0,0:0:0:0:
329,192,149842,1,0,0:0:0:0:
109,192,149842,1,0,0:0:0:0:
182,192,149928,1,0,0:0:0:0:
402,192,150014,1,0,0:0:0:0:
256,192,150014,1,0,0:0:0:0:
256,192,150185,1,0,0:0:0:0:
36,192,150185,1,0,0:0:0:0:
475,192,150185,1,0,0:0:0:0:
109,192,150271,1,0,0:0:0:0:
182,192,150357,1,0,0:0:0:0:
402,192,150357,1,0,0:0:0:0:
329,192,150442,1,0,0:0:0:0:
109,192,150528,1,0,0:0:0:0:
36,192,150528,1,0,0:0:0:0:
475,192,150528,1,0,0:0:0:0:
182,192,150614,1,0,0:0:0:0:
256,192,150700,1,0,0:0:0:0:
475,192,150700,1,0,0:0:0:0:
402,192,150785,1,0,0:0:0:0:
182,192,150871,1,0,0:0:0:0:
109,192,150871,1,0,0:0:0:0:
36,192,150871,1,0,0:0:0:0:
256,192,150957,1,0,0:0:0:0:
329,192,151042,1,0,0:0:0:0:
36,192,151042,1,0,0:0:0:0:
475,192,151128,1,0,0:0:0:0:
109,192,151214,1,0,0:0:0:0:
182,192,151214,1,0,0:0:0:0:
256,192,151214,1,0,0:0:0:0:
402,192,151300,1,0,0:0:0:0:
109,192,151385,1,0,0:0:0:0:
329,192,151385,1,0,0:0:0:0:
36,192,151557,1,0,0:0:0:0:
475,192,151557,1,0,0:0:0:0:
182,192,151557,1,0,0:0:0:0:
402,192,151642,1,0,0:0:0:0:
329,192,151728,1,0,0:0:0:0:
109,192,151728,1,0,0:0:0:0:
182,192,151814,1,0,0:0:0:0:
402,192,151900,1,0,0:0:0:0:
475,192,151900,1,0,0:0:0:0:
36,192,151900,1,0,0:0:0:0:
329,192,151985,1,0,0:0:0:0:
256,192,152071,1,0,0:0:0:0:
36,192,152071,1,0,0:0:0:0:
109,192,152157,1,0,0:0:0:0:
329,192,152242,1,0,0:0:0:0:
402,192,152242,1,0,0:0:0:0:
475,192,152242,1,0,0:0:0:0:
256,192,152328,1,0,0:0:0:0:
182,192,152414,1,0,0:0:0:0:
475,192,152414,1,0,0:0:0:0:
36,192,152500,1,0,0:0:0:0:
402,192,152585,1,0,0:0:0:0:
329,192,152585,1,0,0:0:0:0:
256,192,152585,1,0,0:0:0:0:
109,192,152671,1,0,0:0:0:0:
182,192,152757,1,0,0:0:0:0:
402,192,152757,1,0,0:0:0:0:
36,192,152928,1,0,0:0:0:0:
475,192,152928,1,0,0:0:0:0:
329,192,152928,1,0,0:0:0:0:
109,192,153014,1,0,0:0:0:0:
402,192,153100,1,0,0:0:0:0:
182,192,153100,1,0,0:0:0:0:
329,192,153185,1,0,0:0:0:0:
475,192,153271,1,0,0:0:0:0:
36,192,153271,1,0,0:0:0:0:
109,192,153271,1,0,0:0:0:0:
182,192,153357,1,0,0:0:0:0:
475,192,153442,1,0,0:0:0:0:
256,192,153442,1,0,0:0:0:0:
402,192,153528,1,0,0:0:0:0:
36,192,153614,1,0,0:0:0:0:
109,192,153614,1,0,0:0:0:0:
182,192,153614,1,0,0:0:0:0:
256,192,153700,1,0,0:0:0:0:
36,192,153785,1,0,0:0:0:0:
329,192,153785,1,0,0:0:0:0:
475,192,153871,1,0,0:0:0:0:
402,192,153957,1,0,0:0:0:0:
182,192,153957,1,0,0:0:0:0:
109,192,153957,1,0,0:0:0:0:
329,192,154042,1,0,0:0:0:0:
256,192,154128,1,0,0:0:0:0:
109,192,154128,1,0,0:0:0:0:
256,192,154300,1,0,0:0:0:0:
475,192,154300,1,0,0:0:0:0:
182,192,154300,1,0,0:0:0:0:
402,192,154385,1,0,0:0:0:0:
329,192,154471,1,0,0:0:0:0:
36,192,154471,1,0,0:0:0:0:
109,192,154557,1,0,0:0:0:0:
402,192,154642,1,0,0:0:0:0:
475,192,154642,1,0,0:0:0:0:
182,192,154642,1,0,0:0:0:0:
329,192,154728,1,0,0:0:0:0:
256,192,154814,1,0,0:0:0:0:
182,192,154814,1,0,0:0:0:0:
36,192,154900,1,0,0:0:0:0:
402,192,154985,1,0,0:0:0:0:
475,192,154985,1,0,0:0:0:0:
182,192,155071,1,0,0:0:0:0:
109,192,155071,1,0,0:0:0:0:
402,192,155157,1,0,0:0:0:0:
329,192,155157,1,0,0:0:0:0:
36,192,155242,1,0,0:0:0:0:
109,192,155242,1,0,0:0:0:0:
329,192,155328,1,0,0:0:0:0:
256,192,155328,1,0,0:0:0:0:
182,192,155328,1,0,0:0:0:0:
402,192,155500,1,0,0:0:0:0:
256,192,155500,1,0,0:0:0:0:
109,192,155500,1,0,0:0:0:0:
475,192,155671,1,0,0:0:0:0:
36,192,155671,1,0,0:0:0:0:
256,192,155671,1,0,0:0:0:0:
109,192,155757,1,0,0:0:0:0:
402,192,155842,1,0,0:0:0:0:
182,192,155842,1,0,0:0:0:0:
329,192,155928,1,0,0:0:0:0:
475,192,156014,1,0,0:0:0:0:
36,192,156014,1,0,0:0:0:0:
109,192,156014,1,0,0:0:0:0:
182,192,156100,1,0,0:0:0:0:
475,192,156185,1,0,0:0:0:0:
256,192,156185,1,0,0:0:0:0:
402,192,156271,1,0,0:0:0:0:
36,192,156357,1,0,0:0:0:0:
109,192,156357,1,0,0:0:0:0:
182,192,156357,1,0,0:0:0:0:
256,192,156442,1,0,0:0:0:0:
36,192,156528,1,0,0:0:0:0:
329,192,156528,1,0,0:0:0:0:
475,192,156614,1,0,0:0:0:0:
256,192,156700,1,0,0:0:0:0:
182,192,156700,1,0,0:0:0:0:
109,192,156700,1,0,0:0:0:0:
402,192,156785,1,0,0:0:0:0:
329,192,156871,1,0,0:0:0:0:
109,192,156871,1,0,0:0:0:0:
182,192,157042,1,0,0:0:0:0:
475,192,157042,1,0,0:0:0:0:
36,192,157042,1,0,0:0:0:0:
402,192,157128,1,0,0:0:0:0:
109,192,157214,1,0,0:0:0:0:
329,192,157214,1,0,0:0:0:0:
182,192,157300,1,0,0:0:0:0:
36,192,157385,1,0,0:0:0:0:
475,192,157385,1,0,0:0:0:0:
402,192,157385,1,0,0:0:0:0:
329,192,157471,1,0,0:0:0:0:
36,192,157557,1,0,0:0:0:0:
256,192,157557,1,0,0:0:0:0:
109,192,157642,1,0,0:0:0:0:
475,192,157728,1,0,0:0:0:0:
402,192,157728,1,0,0:0:0:0:
329,192,157728,1,0,0:0:0:0:
256,192,157814,1,0,0:0:0:0:
475,192,157900,1,0,0:0:0:0:
182,192,157900,1,0,0:0:0:0:
36,192,157985,1,0,0:0:0:0:
256,192,158071,1,0,0:0:0:0:
329,192,158071,1,0,0:0:0:0:
402,192,158071,1,0,0:0:0:0:
109,192,158157,1,0,0:0:0:0:
402,192,158242,1,0,0:0:0:0:
182,192,158242,1,0,0:0:0:0:
329,192,158414,1,0,0:0:0:0:
475,192,158414,1,0,0:0:0:0:
36,192,158414,1,0,0:0:0:0:
109,192,158500,1,0,0:0:0:0:
182,192,158585,1,0,0:0:0:0:
402,192,158585,1,0,0:0:0:0:
329,192,158671,1,0,0:0:0:0:
109,192,158757,1,0,0:0:0:0:
36,192,158757,1,0,0:0:0:0:
475,192,158757,1,0,0:0:0:0:
182,192,158842,1,0,0:0:0:0:
256,192,158928,1,0,0:0:0:0:
475,192,158928,1,0,0:0:0:0:
402,192,159014,1,0,0:0:0:0:
182,192,159100,1,0,0:0:0:0:
109,192,159100,1,0,0:0:0:0:
36,192,159100,1,0,0:0:0:0:
256,192,159185,1,0,0:0:0:0:
329,192,159271,1,0,0:0:0:0:
36,192,159271,1,0,0:0:0:0:
475,192,159357,1,0,0:0:0:0:
109,192,159442,1,0,0:0:0:0:
182,192,159442,1,0,0:0:0:0:
402,192,159442,1,0,0:0:0:0:
329,192,159528,1,0,0:0:0:0:
109,192,159614,1,0,0:0:0:0:
256,192,159614,1,0,0:0:0:0:
36,192,159785,1,0,0:0:0:0:
475,192,159785,1,0,0:0:0:0:
256,192,159785,1,0,0:0:0:0:
402,192,159871,1,0,0:0:0:0:
109,192,159957,1,0,0:0:0:0:
329,192,159957,1,0,0:0:0:0:
182,192,160042,1,0,0:0:0:0:
36,192,160128,1,0,0:0:0:0:
475,192,160128,1,0,0:0:0:0:
402,192,160128,1,0,0:0:0:0:
329,192,160214,1,0,0:0:0:0:
36,192,160300,1,0,0:0:0:0:
256,192,160300,1,0,0:0:0:0:
109,192,160385,1,0,0:0:0:0:
475,192,160471,1,0,0:0:0:0:
402,192,160471,1,0,0:0:0:0:
329,192,160471,1,0,0:0:0:0:
256,192,160557,1,0,0:0:0:0:
475,192,160642,1,0,0:0:0:0:
182,192,160642,1,0,0:0:0:0:
36,192,160728,1,0,0:0:0:0:
109,192,160814,1,0,0:0:0:0:
402,192,160814,1,0,0:0:0:0:
256,192,160814,1,0,0:0:0:0:
256,192,160985,1,0,0:0:0:0:
182,192,160985,1,0,0:0:0:0:
329,192,160985,1,0,0:0:0:0:
256,192,161157,1,0,0:0:0:0:
36,192,161157,1,0,0:0:0:0:
475,192,161157,1,0,0:0:0:0:
109,192,161242,1,0,0:0:0:0:
182,192,161328,1,0,0:0:0:0:
402,192,161328,1,0,0:0:0:0:
329,192,161414,1,0,0:0:0:0:
109,192,161500,1,0,0:0:0:0:
36,192,161500,1,0,0:0:0:0:
475,192,161500,1,0,0:0:0:0:
182,192,161585,1,0,0:0:0:0:
256,192,161671,1,0,0:0:0:0:
475,192,161671,1,0,0:0:0:0:
402,192,161757,1,0,0:0:0:0:
182,192,161842,1,0,0:0:0:0:
109,192,161842,1,0,0:0:0:0:
36,192,161842,1,0,0:0:0:0:
256,192,161928,1,0,0:0:0:0:
329,192,162014,1,0,0:0:0:0:
36,192,162014,1,0,0:0:0:0:
475,192,162100,1,0,0:0:0:0:
109,192,162185,1,0,0:0:0:0:
182,192,162185,1,0,0:0:0:0:
256,192,162185,1,0,0:0:0:0:
402,192,162271,1,0,0:0:0:0:
109,192,162357,1,0,0:0:0:0:
329,192,162357,1,0,0:0:0:0:
256,192,162442,1,0,0:0:0:0:
36,192,162528,1,0,0:0:0:0:
475,192,162528,1,0,0:0:0:0:
182,192,162528,1,0,0:0:0:0:
402,192,162614,1,0,0:0:0:0:
329,192,162700,1,0,0:0:0:0:
109,192,162700,1,0,0:0:0:0:
182,192,162785,1,0,0:0:0:0:
402,192,162871,1,0,0:0:0:0:
475,192,162871,1,0,0:0:0:0:
36,192,162871,1,0,0:0:0:0:
329,192,162957,1,0,0:0:0:0:
256,192,163042,1,0,0:0:0:0:
36,192,163042,1,0,0:0:0:0:
109,192,163128,1,0,0:0:0:0:
329,192,163214,1,0,0:0:0:0:
402,192,163214,1,0,0:0:0:0:
475,192,163214,1,0,0:0:0:0:
256,192,163300,1,0,0:0:0:0:
182,192,163385,1,0,0:0:0:0:
475,192,163385,1,0,0:0:0:0:
36,192,163471,1,0,0:0:0:0:
256,192,163557,1,0,0:0:0:0:
182,192,163557,1,0,0:0:0:0:
329,192,163557,1,0,0:0:0:0:
402,192,163728,1,0,0:0:0:0:
256,192,163728,1,0,0:0:0:0:
109,192,163728,1,0,0:0:0:0:
36,192,163900,1,0,0:0:0:0:
475,192,163900,1,0,0:0:0:0:
256,192,163900,1,0,0:0:0:0:
182,192,164071,1,0,0:0:0:0:
475,192,164071,1,0,0:0:0:0:
329,192,164071,1,0,0:0:0:0:
36,192,164242,1,0,0:0:0:0:
182,192,164242,1,0,0:0:0:0:
402,192,164242,1,0,0:0:0:0:
402,192,164414,1,0,0:0:0:0:
109,192,164414,1,0,0:0:0:0:
256,192,164414,1,0,0:0:0:0:
109,192,164585,1,0,0:0:0:0:
182,192,164585,1,0,0:0:0:0:
329,192,164585,1,0,0:0:0:0:
36,192,164757,1,0,0:0:0:0:
329,192,164757,1,0,0:0:0:0:
256,192,164757,1,0,0:0:0:0:
36,192,164928,1,0,0:0:0:0:
182,192,164928,1,0,0:0:0:0:
329,192,165014,1,0,0:0:0:0:
475,192,165014,1,0,0:0:0:0:
182,192,165100,1,0,0:0:0:0:
36,192,165100,1,0,0:0:0:0:
329,192,165185,1,0,0:0:0:0:
475,192,165185,1,0,0:0:0:0:
256,192,165271,1,0,0:0:0:0:
36,192,165271,1,0,0:0:0:0:
182,192,165271,1,0,0:0:0:0:
402,192,165357,1,0,0:0:0:0:
109,192,165442,1,0,0:0:0:0:
182,192,165528,5,0,0:0:0:0:
329,192,165528,1,0,0:0:0:0:
475,192,165528,1,0,0:0:0:0:
109,192,165614,1,0,0:0:0:0:
402,192,165700,1,0,0:0:0:0:
36,192,165785,1,0,0:0:0:0:
182,192,165785,1,0,0:0:0:0:
329,192,165785,1,0,0:0:0:0:
402,192,165871,1,0,0:0:0:0:
109,192,165957,1,0,0:0:0:0:
256,192,166042,1,0,0:0:0:0:
182,192,166042,1,0,0:0:0:0:
329,192,166042,1,0,0:0:0:0:
402,192,166128,1,0,0:0:0:0:
36,192,166214,1,0,0:0:0:0:
475,192,166300,1,0,0:0:0:0:
329,192,166300,1,0,0:0:0:0:
402,192,166300,1,0,0:0:0:0:
182,192,166385,1,0,0:0:0:0:
36,192,166385,1,0,0:0:0:0:
109,192,166385,1,0,0:0:0:0:
329,192,166471,1,0,0:0:0:0:
475,192,166471,1,0,0:0:0:0:
182,192,166557,1,0,0:0:0:0:
36,192,166557,1,0,0:0:0:0:
402,192,166642,1,0,0:0:0:0:
475,192,166642,1,0,0:0:0:0:
329,192,166642,1,0,0:0:0:0:
