osu file format v14

[General]
AudioFilename: audio.mp3
AudioLeadIn: 0
PreviewTime: 92044
Countdown: 0
SampleSet: None
StackLeniency: 0.7
Mode: 3
LetterboxInBreaks: 0
SpecialStyle: 0
WidescreenStoryboard: 1

[Editor]
Bookmarks: 24280,92044,114633,131574,137221
DistanceSpacing: 0.8
BeatDivisor: 8
GridSize: 32
TimelineZoom: 1.6

[Metadata]
Title:Angel dust (2016 Radio Mix)
TitleUnicode:Angel dust (2016 Radio Mix)
Artist:LV.4
ArtistUnicode:LV.4
Creator:Kawawa
Version:BMS LV.20 wawather [Stream -Another-]
Source:
Tags:
BeatmapID:1976313
BeatmapSetID:946518

[Difficulty]
HPDrainRate:8
CircleSize:7
OverallDifficulty:8
ApproachRate:5
SliderMultiplier:1.4
SliderTickRate:1

[Events]
//Background and Video events
0,0,"angeldustbg.jpg",0,0
//Break Periods
//Storyboard Layer 0 (Background)
//Storyboard Layer 1 (Fail)
//Storyboard Layer 2 (Pass)
//Storyboard Layer 3 (Foreground)
//Storyboard Sound Samples

[TimingPoints]
1692,352.941176470588,4,2,0,0,1,0

[HitObjects]
36,192,1692,5,0,0:0:0:0:
256,192,1692,1,0,0:0:0:0:
402,192,1692,1,0,0:0:0:0:
475,192,1692,1,0,0:0:0:0:
109,192,1692,1,0,0:0:0:0:
109,192,1868,1,0,0:0:0:0:
402,192,1868,1,0,0:0:0:0:
182,192,1956,1,0,0:0:0:0:
329,192,1956,1,0,0:0:0:0:
36,192,2044,1,0,0:0:0:0:
475,192,2044,1,0,0:0:0:0:
256,192,2044,1,0,0:0:0:0:
36,192,2221,1,0,0:0:0:0:
329,192,2221,1,0,0:0:0:0:
475,192,2309,1,0,0:0:0:0:
182,192,2309,1,0,0:0:0:0:
402,192,2397,1,0,0:0:0:0:
109,192,2397,1,0,0:0:0:0:
256,192,2397,1,0,0:0:0:0:
402,192,2574,1,0,0:0:0:0:
182,192,2574,1,0,0:0:0:0:
109,192,2662,1,0,0:0:0:0:
329,192,2662,1,0,0:0:0:0:
256,192,2750,1,0,0:0:0:0:
475,192,2750,1,0,0:0:0:0:
36,192,2750,1,0,0:0:0:0:
109,192,2927,1,0,0:0:0:0:
402,192,2927,1,0,0:0:0:0:
256,192,3015,1,0,0:0:0:0:
475,192,3015,1,0,0:0:0:0:
36,192,3103,1,0,0:0:0:0:
402,192,3103,1,0,0:0:0:0:
182,192,3103,1,0,0:0:0:0:
109,192,3280,1,0,0:0:0:0:
329,192,3280,1,0,0:0:0:0:
475,192,3368,1,0,0:0:0:0:
182,192,3368,1,0,0:0:0:0:
36,192,3456,1,0,0:0:0:0:
256,192,3456,1,0,0:0:0:0:
402,192,3456,1,0,0:0:0:0:
402,192,3633,1,0,0:0:0:0:
182,192,3633,1,0,0:0:0:0:
36,192,3721,1,0,0:0:0:0:
329,192,3721,1,0,0:0:0:0:
475,192,3809,1,0,0:0:0:0:
256,192,3809,1,0,0:0:0:0:
109,192,3809,1,0,0:0:0:0:
182,192,3986,1,0,0:0:0:0:
329,192,3986,1,0,0:0:0:0:
109,192,4074,1,0,0:0:0:0:
402,192,4074,1,0,0:0:0:0:
475,192,4162,1,0,0:0:0:0:
36,192,4162,1,0,0:0:0:0:
256,192,4162,1,0,0:0:0:0:
475,192,4339,1,0,0:0:0:0:
109,192,4339,1,0,0:0:0:0:
402,192,4427,1,0,0:0:0:0:
256,192,4427,1,0,0:0:0:0:
182,192,4515,1,0,0:0:0:0:
36,192,4515,1,0,0:0:0:0:
329,192,4515,1,0,0:0:0:0:
329,192,4691,1,0,0:0:0:0:
182,192,4691,1,0,0:0:0:0:
109,192,4780,1,0,0:0:0:0:
475,192,4780,1,0,0:0:0:0:
256,192,4868,1,0,0:0:0:0:
36,192,4868,1,0,0:0:0:0:
402,192,4868,1,0,0:0:0:0:
329,192,5044,1,0,0:0:0:0:
36,192,5044,1,0,0:0:0:0:
402,192,5133,1,0,0:0:0:0:
182,192,5133,1,0,0:0:0:0:
475,192,5221,1,0,0:0:0:0:
256,192,5221,1,0,0:0:0:0:
109,192,5221,1,0,0:0:0:0:
109,192,5397,1,0,0:0:0:0:
402,192,5397,1,0,0:0:0:0:
36,192,5486,1,0,0:0:0:0:
256,192,5486,1,0,0:0:0:0:
182,192,5574,1,0,0:0:0:0:
329,192,5574,1,0,0:0:0:0:
475,192,5574,1,0,0:0:0:0:
329,192,5750,1,0,0:0:0:0:
109,192,5750,1,0,0:0:0:0:
402,192,5839,1,0,0:0:0:0:
182,192,5839,1,0,0:0:0:0:
256,192,5927,1,0,0:0:0:0:
36,192,5927,1,0,0:0:0:0:
475,192,5927,1,0,0:0:0:0:
329,192,6103,1,0,0:0:0:0:
182,192,6103,1,0,0:0:0:0:
109,192,6191,1,0,0:0:0:0:
475,192,6191,1,0,0:0:0:0:
182,192,6280,1,0,0:0:0:0:
402,192,6280,1,0,0:0:0:0:
36,192,6280,1,0,0:0:0:0:
109,192,6456,1,0,0:0:0:0:
256,192,6456,1,0,0:0:0:0:
182,192,6544,1,0,0:0:0:0:
402,192,6544,1,0,0:0:0:0:
329,192,6633,1,0,0:0:0:0:
475,192,6633,1,0,0:0:0:0:
36,192,6633,1,0,0:0:0:0:
329,192,6809,1,0,0:0:0:0:
109,192,6809,1,0,0:0:0:0:
402,192,6897,1,0,0:0:0:0:
182,192,6897,1,0,0:0:0:0:
475,192,6986,1,0,0:0:0:0:
256,192,6986,1,0,0:0:0:0:
36,192,6986,1,0,0:0:0:0:
109,192,6986,1,0,0:0:0:0:
109,192,7162,1,0,0:0:0:0:
402,192,7162,1,0,0:0:0:0:
36,192,7162,1,0,0:0:0:0:
256,192,7162,1,0,0:0:0:0:
182,192,7339,1,0,0:0:0:0:
475,192,7339,1,0,0:0:0:0:
36,192,7339,1,0,0:0:0:0:
109,192,7339,1,0,0:0:0:0:
329,192,7339,1,0,0:0:0:0:
109,192,7515,1,0,0:0:0:0:
402,192,7515,1,0,0:0:0:0:
256,192,7515,1,0,0:0:0:0:
475,192,7603,1,0,0:0:0:0:
182,192,7603,1,0,0:0:0:0:
256,192,7691,1,0,0:0:0:0:
36,192,7691,1,0,0:0:0:0:
402,192,7691,1,0,0:0:0:0:
109,192,7691,1,0,0:0:0:0:
36,192,7868,1,0,0:0:0:0:
329,192,7868,1,0,0:0:0:0:
475,192,7868,1,0,0:0:0:0:
109,192,7956,1,0,0:0:0:0:
256,192,7956,1,0,0:0:0:0:
182,192,8044,1,0,0:0:0:0:
329,192,8044,1,0,0:0:0:0:
402,192,8044,1,0,0:0:0:0:
475,192,8044,1,0,0:0:0:0:
256,192,8221,1,0,0:0:0:0:
402,192,8221,1,0,0:0:0:0:
109,192,8221,1,0,0:0:0:0:
36,192,8309,1,0,0:0:0:0:
329,192,8309,1,0,0:0:0:0:
402,192,8397,1,0,0:0:0:0:
475,192,8397,1,0,0:0:0:0:
109,192,8397,1,0,0:0:0:0:
256,192,8397,1,0,0:0:0:0:
182,192,8574,1,0,0:0:0:0:
402,192,8574,1,0,0:0:0:0:
36,192,8574,1,0,0:0:0:0:
109,192,8662,1,0,0:0:0:0:
329,192,8662,1,0,0:0:0:0:
256,192,8750,1,0,0:0:0:0:
475,192,8750,1,0,0:0:0:0:
402,192,8750,1,0,0:0:0:0:
36,192,8750,1,0,0:0:0:0:
109,192,8927,1,0,0:0:0:0:
329,192,8927,1,0,0:0:0:0:
475,192,8927,1,0,0:0:0:0:
182,192,9015,1,0,0:0:0:0:
36,192,9015,1,0,0:0:0:0:
256,192,9103,1,0,0:0:0:0:
402,192,9103,1,0,0:0:0:0:
109,192,9103,1,0,0:0:0:0:
475,192,9103,1,0,0:0:0:0:
402,192,9280,1,0,0:0:0:0:
182,192,9280,1,0,0:0:0:0:
36,192,9280,1,0,0:0:0:0:
256,192,9368,1,0,0:0:0:0:
475,192,9368,1,0,0:0:0:0:
402,192,9456,1,0,0:0:0:0:
109,192,9456,1,0,0:0:0:0:
182,192,9456,1,0,0:0:0:0:
329,192,9456,1,0,0:0:0:0:
256,192,9633,1,0,0:0:0:0:
475,192,9633,1,0,0:0:0:0:
36,192,9633,1,0,0:0:0:0:
182,192,9721,1,0,0:0:0:0:
402,192,9721,1,0,0:0:0:0:
109,192,9809,1,0,0:0:0:0:
329,192,9809,1,0,0:0:0:0:
475,192,9809,1,0,0:0:0:0:
256,192,9809,1,0,0:0:0:0:
256,192,9986,1,0,0:0:0:0:
36,192,9986,1,0,0:0:0:0:
475,192,9986,1,0,0:0:0:0:
329,192,10074,1,0,0:0:0:0:
109,192,10074,1,0,0:0:0:0:
402,192,10162,1,0,0:0:0:0:
182,192,10162,1,0,0:0:0:0:
36,192,10162,1,0,0:0:0:0:
256,192,10162,1,0,0:0:0:0:
329,192,10339,1,0,0:0:0:0:
475,192,10339,1,0,0:0:0:0:
182,192,10339,1,0,0:0:0:0:
109,192,10427,1,0,0:0:0:0:
256,192,10427,1,0,0:0:0:0:
36,192,10515,1,0,0:0:0:0:
182,192,10515,1,0,0:0:0:0:
329,192,10515,1,0,0:0:0:0:
475,192,10515,1,0,0:0:0:0:
256,192,10691,1,0,0:0:0:0:
109,192,10691,1,0,0:0:0:0:
402,192,10691,1,0,0:0:0:0:
182,192,10780,1,0,0:0:0:0:
329,192,10780,1,0,0:0:0:0:
109,192,10868,1,0,0:0:0:0:
475,192,10868,1,0,0:0:0:0:
36,192,10868,1,0,0:0:0:0:
402,192,10868,1,0,0:0:0:0:
182,192,11044,1,0,0:0:0:0:
329,192,11044,1,0,0:0:0:0:
475,192,11044,1,0,0:0:0:0:
109,192,11133,1,0,0:0:0:0:
402,192,11133,1,0,0:0:0:0:
182,192,11221,1,0,0:0:0:0:
329,192,11221,1,0,0:0:0:0:
36,192,11221,1,0,0:0:0:0:
475,192,11221,1,0,0:0:0:0:
402,192,11397,1,0,0:0:0:0:
109,192,11397,1,0,0:0:0:0:
256,192,11397,1,0,0:0:0:0:
329,192,11486,1,0,0:0:0:0:
182,192,11486,1,0,0:0:0:0:
475,192,11574,1,0,0:0:0:0:
256,192,11574,1,0,0:0:0:0:
109,192,11574,1,0,0:0:0:0:
36,192,11574,1,0,0:0:0:0:
36,192,11750,1,0,0:0:0:0:
182,192,11750,1,0,0:0:0:0:
402,192,11750,1,0,0:0:0:0:
329,192,11839,1,0,0:0:0:0:
109,192,11839,1,0,0:0:0:0:
256,192,11927,1,0,0:0:0:0:
475,192,11927,1,0,0:0:0:0:
36,192,11927,1,0,0:0:0:0:
402,192,11927,1,0,0:0:0:0:
109,192,12103,1,0,0:0:0:0:
329,192,12103,1,0,0:0:0:0:
475,192,12103,1,0,0:0:0:0:
182,192,12191,1,0,0:0:0:0:
402,192,12191,1,0,0:0:0:0:
256,192,12280,1,0,0:0:0:0:
475,192,12280,1,0,0:0:0:0:
36,192,12324,1,0,0:0:0:0:
402,192,12324,1,0,0:0:0:0:
329,192,12368,1,0,0:0:0:0:
109,192,12368,1,0,0:0:0:0:
182,192,12412,1,0,0:0:0:0:
256,192,12456,1,0,0:0:0:0:
402,192,12456,1,0,0:0:0:0:
475,192,12456,1,0,0:0:0:0:
36,192,12544,1,0,0:0:0:0:
109,192,12544,1,0,0:0:0:0:
182,192,12544,1,0,0:0:0:0:
329,192,12633,1,0,0:0:0:0:
402,192,12633,1,0,0:0:0:0:
475,192,12633,1,0,0:0:0:0:
256,192,12721,1,0,0:0:0:0:
109,192,12721,1,0,0:0:0:0:
36,192,12721,1,0,0:0:0:0:
329,192,12809,1,0,0:0:0:0:
182,192,12809,1,0,0:0:0:0:
475,192,12809,1,0,0:0:0:0:
256,192,12897,1,0,0:0:0:0:
109,192,12897,1,0,0:0:0:0:
402,192,12897,1,0,0:0:0:0:
182,192,12986,1,0,0:0:0:0:
36,192,12986,1,0,0:0:0:0:
475,192,12986,1,0,0:0:0:0:
329,192,12986,1,0,0:0:0:0:
329,192,13162,1,0,0:0:0:0:
109,192,13162,1,0,0:0:0:0:
475,192,13162,1,0,0:0:0:0:
182,192,13250,1,0,0:0:0:0:
36,192,13339,1,0,0:0:0:0:
402,192,13339,1,0,0:0:0:0:
475,192,13339,1,0,0:0:0:0:
256,192,13339,1,0,0:0:0:0:
109,192,13339,1,0,0:0:0:0:
329,192,13339,1,0,0:0:0:0:
182,192,13515,1,0,0:0:0:0:
402,192,13515,1,0,0:0:0:0:
36,192,13515,1,0,0:0:0:0:
329,192,13603,1,0,0:0:0:0:
109,192,13603,1,0,0:0:0:0:
256,192,13691,1,0,0:0:0:0:
475,192,13691,1,0,0:0:0:0:
36,192,13691,1,0,0:0:0:0:
402,192,13691,1,0,0:0:0:0:
182,192,13868,1,0,0:0:0:0:
36,192,13868,1,0,0:0:0:0:
402,192,13868,1,0,0:0:0:0:
329,192,13956,1,0,0:0:0:0:
475,192,14044,1,0,0:0:0:0:
36,192,14044,1,0,0:0:0:0:
109,192,14044,1,0,0:0:0:0:
256,192,14044,1,0,0:0:0:0:
402,192,14044,1,0,0:0:0:0:
182,192,14044,1,0,0:0:0:0:
256,192,14221,1,0,0:0:0:0:
475,192,14221,1,0,0:0:0:0:
109,192,14221,1,0,0:0:0:0:
402,192,14309,1,0,0:0:0:0:
182,192,14309,1,0,0:0:0:0:
109,192,14397,1,0,0:0:0:0:
329,192,14397,1,0,0:0:0:0:
36,192,14397,1,0,0:0:0:0:
475,192,14397,1,0,0:0:0:0:
256,192,14574,1,0,0:0:0:0:
402,192,14574,1,0,0:0:0:0:
109,192,14574,1,0,0:0:0:0:
329,192,14662,1,0,0:0:0:0:
402,192,14750,1,0,0:0:0:0:
182,192,14750,1,0,0:0:0:0:
36,192,14750,1,0,0:0:0:0:
475,192,14750,1,0,0:0:0:0:
109,192,14750,1,0,0:0:0:0:
256,192,14750,1,0,0:0:0:0:
475,192,14927,1,0,0:0:0:0:
36,192,14927,1,0,0:0:0:0:
256,192,14927,1,0,0:0:0:0:
402,192,15015,1,0,0:0:0:0:
109,192,15015,1,0,0:0:0:0:
182,192,15103,1,0,0:0:0:0:
36,192,15103,1,0,0:0:0:0:
329,192,15103,1,0,0:0:0:0:
475,192,15103,1,0,0:0:0:0:
109,192,15280,1,0,0:0:0:0:
329,192,15280,1,0,0:0:0:0:
475,192,15280,1,0,0:0:0:0:
256,192,15368,1,0,0:0:0:0:
109,192,15456,1,0,0:0:0:0:
182,192,15456,1,0,0:0:0:0:
402,192,15456,1,0,0:0:0:0:
475,192,15456,1,0,0:0:0:0:
36,192,15456,1,0,0:0:0:0:
329,192,15456,1,0,0:0:0:0:
329,192,15633,1,0,0:0:0:0:
182,192,15633,1,0,0:0:0:0:
402,192,15633,1,0,0:0:0:0:
109,192,15721,1,0,0:0:0:0:
256,192,15721,1,0,0:0:0:0:
182,192,15809,1,0,0:0:0:0:
36,192,15809,1,0,0:0:0:0:
475,192,15809,1,0,0:0:0:0:
402,192,15809,1,0,0:0:0:0:
402,192,15986,1,0,0:0:0:0:
256,192,15986,1,0,0:0:0:0:
109,192,15986,1,0,0:0:0:0:
329,192,16074,1,0,0:0:0:0:
475,192,16162,1,0,0:0:0:0:
36,192,16162,1,0,0:0:0:0:
109,192,16162,1,0,0:0:0:0:
402,192,16162,1,0,0:0:0:0:
256,192,16162,1,0,0:0:0:0:
182,192,16162,1,0,0:0:0:0:
329,192,16339,1,0,0:0:0:0:
475,192,16339,1,0,0:0:0:0:
182,192,16339,1,0,0:0:0:0:
256,192,16427,1,0,0:0:0:0:
36,192,16427,1,0,0:0:0:0:
402,192,16515,1,0,0:0:0:0:
109,192,16515,1,0,0:0:0:0:
475,192,16515,1,0,0:0:0:0:
182,192,16515,1,0,0:0:0:0:
36,192,16691,1,0,0:0:0:0:
256,192,16691,1,0,0:0:0:0:
402,192,16691,1,0,0:0:0:0:
182,192,16780,1,0,0:0:0:0:
109,192,16868,1,0,0:0:0:0:
36,192,16868,1,0,0:0:0:0:
256,192,16868,1,0,0:0:0:0:
402,192,16868,1,0,0:0:0:0:
475,192,16868,1,0,0:0:0:0:
329,192,16868,1,0,0:0:0:0:
329,192,17044,1,0,0:0:0:0:
109,192,17044,1,0,0:0:0:0:
475,192,17044,1,0,0:0:0:0:
402,192,17133,1,0,0:0:0:0:
182,192,17133,1,0,0:0:0:0:
109,192,17221,1,0,0:0:0:0:
256,192,17221,1,0,0:0:0:0:
36,192,17221,1,0,0:0:0:0:
475,192,17221,1,0,0:0:0:0:
329,192,17397,1,0,0:0:0:0:
402,192,17397,1,0,0:0:0:0:
109,192,17397,1,0,0:0:0:0:
256,192,17486,1,0,0:0:0:0:
402,192,17574,1,0,0:0:0:0:
182,192,17574,1,0,0:0:0:0:
36,192,17574,1,0,0:0:0:0:
109,192,17574,1,0,0:0:0:0:
475,192,17574,1,0,0:0:0:0:
329,192,17574,1,0,0:0:0:0:
182,192,17750,1,0,0:0:0:0:
475,192,17750,1,0,0:0:0:0:
36,192,17750,1,0,0:0:0:0:
256,192,17839,1,0,0:0:0:0:
402,192,17839,1,0,0:0:0:0:
329,192,17927,1,0,0:0:0:0:
475,192,17927,1,0,0:0:0:0:
109,192,17927,1,0,0:0:0:0:
182,192,17927,1,0,0:0:0:0:
182,192,18103,1,0,0:0:0:0:
402,192,18103,1,0,0:0:0:0:
36,192,18103,1,0,0:0:0:0:
256,192,18191,1,0,0:0:0:0:
329,192,18280,1,0,0:0:0:0:
402,192,18280,1,0,0:0:0:0:
475,192,18280,1,0,0:0:0:0:
182,192,18280,1,0,0:0:0:0:
36,192,18280,1,0,0:0:0:0:
109,192,18280,1,0,0:0:0:0:
109,192,18456,1,0,0:0:0:0:
256,192,18456,1,0,0:0:0:0:
402,192,18456,1,0,0:0:0:0:
475,192,18456,1,0,0:0:0:0:
36,192,18456,1,0,0:0:0:0:
329,192,18633,1,0,0:0:0:0:
182,192,18633,1,0,0:0:0:0:
36,192,18633,1,0,0:0:0:0:
475,192,18633,1,0,0:0:0:0:
109,192,18633,1,0,0:0:0:0:
402,192,18809,1,0,0:0:0:0:
109,192,18809,1,0,0:0:0:0:
256,192,18809,1,0,0:0:0:0:
36,192,18897,1,0,0:0:0:0:
256,192,18986,1,0,0:0:0:0:
109,192,18986,1,0,0:0:0:0:
475,192,18986,1,0,0:0:0:0:
402,192,18986,1,0,0:0:0:0:
329,192,18986,1,0,0:0:0:0:
182,192,18986,1,0,0:0:0:0:
182,192,19162,1,0,0:0:0:0:
402,192,19162,1,0,0:0:0:0:
36,192,19162,1,0,0:0:0:0:
329,192,19250,1,0,0:0:0:0:
475,192,19250,1,0,0:0:0:0:
256,192,19339,1,0,0:0:0:0:
36,192,19339,1,0,0:0:0:0:
402,192,19339,1,0,0:0:0:0:
109,192,19339,1,0,0:0:0:0:
329,192,19515,1,0,0:0:0:0:
109,192,19515,1,0,0:0:0:0:
475,192,19515,1,0,0:0:0:0:
182,192,19603,1,0,0:0:0:0:
256,192,19691,1,0,0:0:0:0:
402,192,19691,1,0,0:0:0:0:
475,192,19691,1,0,0:0:0:0:
36,192,19691,1,0,0:0:0:0:
329,192,19691,1,0,0:0:0:0:
109,192,19691,1,0,0:0:0:0:
182,192,19868,1,0,0:0:0:0:
475,192,19868,1,0,0:0:0:0:
329,192,19868,1,0,0:0:0:0:
109,192,19956,1,0,0:0:0:0:
256,192,19956,1,0,0:0:0:0:
182,192,20044,1,0,0:0:0:0:
402,192,20044,1,0,0:0:0:0:
475,192,20044,1,0,0:0:0:0:
36,192,20044,1,0,0:0:0:0:
402,192,20221,1,0,0:0:0:0:
256,192,20221,1,0,0:0:0:0:
109,192,20221,1,0,0:0:0:0:
329,192,20309,1,0,0:0:0:0:
256,192,20397,1,0,0:0:0:0:
109,192,20397,1,0,0:0:0:0:
36,192,20397,1,0,0:0:0:0:
402,192,20397,1,0,0:0:0:0:
475,192,20397,1,0,0:0:0:0:
182,192,20397,1,0,0:0:0:0:
109,192,20574,1,0,0:0:0:0:
402,192,20574,1,0,0:0:0:0:
329,192,20574,1,0,0:0:0:0:
475,192,20662,1,0,0:0:0:0:
182,192,20662,1,0,0:0:0:0:
256,192,20750,1,0,0:0:0:0:
402,192,20750,1,0,0:0:0:0:
36,192,20750,1,0,0:0:0:0:
109,192,20750,1,0,0:0:0:0:
402,192,20927,1,0,0:0:0:0:
329,192,20927,1,0,0:0:0:0:
182,192,20927,1,0,0:0:0:0:
36,192,21015,1,0,0:0:0:0:
256,192,21103,1,0,0:0:0:0:
182,192,21103,1,0,0:0:0:0:
109,192,21103,1,0,0:0:0:0:
402,192,21103,1,0,0:0:0:0:
475,192,21103,1,0,0:0:0:0:
329,192,21103,1,0,0:0:0:0:
256,192,21280,1,0,0:0:0:0:
36,192,21280,1,0,0:0:0:0:
475,192,21280,1,0,0:0:0:0:
182,192,21368,1,0,0:0:0:0:
402,192,21368,1,0,0:0:0:0:
329,192,21456,1,0,0:0:0:0:
36,192,21456,1,0,0:0:0:0:
475,192,21456,1,0,0:0:0:0:
109,192,21456,1,0,0:0:0:0:
256,192,21544,1,0,0:0:0:0:
402,192,21544,1,0,0:0:0:0:
475,192,21633,1,0,0:0:0:0:
36,192,21633,1,0,0:0:0:0:
182,192,21633,1,0,0:0:0:0:
329,192,21721,1,0,0:0:0:0:
402,192,21721,1,0,0:0:0:0:
109,192,21809,1,0,0:0:0:0:
36,192,21809,1,0,0:0:0:0:
256,192,21809,1,0,0:0:0:0:
475,192,21897,1,0,0:0:0:0:
402,192,21897,1,0,0:0:0:0:
329,192,21986,1,0,0:0:0:0:
182,192,21986,1,0,0:0:0:0:
36,192,21986,1,0,0:0:0:0:
256,192,22074,1,0,0:0:0:0:
402,192,22074,1,0,0:0:0:0:
182,192,22162,1,0,0:0:0:0:
109,192,22162,1,0,0:0:0:0:
475,192,22162,1,0,0:0:0:0:
329,192,22250,1,0,0:0:0:0:
402,192,22250,1,0,0:0:0:0:
182,192,22339,1,0,0:0:0:0:
475,192,22339,1,0,0:0:0:0:
36,192,22339,1,0,0:0:0:0:
402,192,22427,1,0,0:0:0:0:
256,192,22427,1,0,0:0:0:0:
109,192,22515,1,0,0:0:0:0:
329,192,22515,1,0,0:0:0:0:
36,192,22515,1,0,0:0:0:0:
182,192,22603,1,0,0:0:0:0:
402,192,22603,1,0,0:0:0:0:
256,192,22691,1,0,0:0:0:0:
109,192,22691,1,0,0:0:0:0:
475,192,22691,1,0,0:0:0:0:
182,192,22780,1,0,0:0:0:0:
329,192,22780,1,0,0:0:0:0:
402,192,22868,1,0,0:0:0:0:
475,192,22868,1,0,0:0:0:0:
36,192,22868,1,0,0:0:0:0:
109,192,22868,1,0,0:0:0:0:
329,192,22956,1,0,0:0:0:0:
256,192,22956,1,0,0:0:0:0:
182,192,23044,1,0,0:0:0:0:
475,192,23044,1,0,0:0:0:0:
36,192,23044,1,0,0:0:0:0:
109,192,23133,1,0,0:0:0:0:
329,192,23133,1,0,0:0:0:0:
256,192,23221,1,0,0:0:0:0:
402,192,23221,1,0,0:0:0:0:
475,192,23221,1,0,0:0:0:0:
182,192,23309,1,0,0:0:0:0:
36,192,23309,1,0,0:0:0:0:
329,192,23397,1,0,0:0:0:0:
475,192,23397,1,0,0:0:0:0:
402,192,23397,1,0,0:0:0:0:
109,192,23486,1,0,0:0:0:0:
256,192,23486,1,0,0:0:0:0:
475,192,23574,1,0,0:0:0:0:
36,192,23574,1,0,0:0:0:0:
182,192,23574,1,0,0:0:0:0:
402,192,23618,1,0,0:0:0:0:
329,192,23662,1,0,0:0:0:0:
256,192,23706,1,0,0:0:0:0:
109,192,23750,1,0,0:0:0:0:
36,192,23750,1,0,0:0:0:0:
475,192,23750,1,0,0:0:0:0:
329,192,23839,1,0,0:0:0:0:
182,192,23839,1,0,0:0:0:0:
402,192,23839,1,0,0:0:0:0:
475,192,23927,1,0,0:0:0:0:
256,192,23927,1,0,0:0:0:0:
36,192,23927,1,0,0:0:0:0:
182,192,24015,1,0,0:0:0:0:
109,192,24015,1,0,0:0:0:0:
402,192,24015,1,0,0:0:0:0:
36,192,24103,1,0,0:0:0:0:
329,192,24103,1,0,0:0:0:0:
475,192,24103,1,0,0:0:0:0:
109,192,24191,1,0,0:0:0:0:
256,192,24191,1,0,0:0:0:0:
402,192,24191,1,0,0:0:0:0:
36,192,24280,1,0,0:0:0:0:
475,192,24280,1,0,0:0:0:0:
182,192,24280,1,0,0:0:0:0:
329,192,24280,1,0,0:0:0:0:
109,192,24368,1,0,0:0:0:0:
182,192,24456,1,0,0:0:0:0:
475,192,24456,1,0,0:0:0:0:
402,192,24456,1,0,0:0:0:0:
329,192,24544,1,0,0:0:0:0:
402,192,24633,1,0,0:0:0:0:
109,192,24633,1,0,0:0:0:0:
36,192,24633,1,0,0:0:0:0:
475,192,24633,1,0,0:0:0:0:
256,192,24633,1,0,0:0:0:0:
182,192,24721,1,0,0:0:0:0:
475,192,24809,1,0,0:0:0:0:
329,192,24809,1,0,0:0:0:0:
36,192,24809,1,0,0:0:0:0:
182,192,24897,1,0,0:0:0:0:
109,192,24986,1,0,0:0:0:0:
256,192,24986,1,0,0:0:0:0:
475,192,24986,1,0,0:0:0:0:
402,192,24986,1,0,0:0:0:0:
329,192,25074,1,0,0:0:0:0:
182,192,25162,1,0,0:0:0:0:
36,192,25162,1,0,0:0:0:0:
475,192,25162,1,0,0:0:0:0:
256,192,25250,1,0,0:0:0:0:
36,192,25339,1,0,0:0:0:0:
109,192,25339,1,0,0:0:0:0:
402,192,25339,1,0,0:0:0:0:
475,192,25339,1,0,0:0:0:0:
329,192,25339,1,0,0:0:0:0:
256,192,25427,1,0,0:0:0:0:
182,192,25515,1,0,0:0:0:0:
402,192,25515,1,0,0:0:0:0:
475,192,25515,1,0,0:0:0:0:
329,192,25603,1,0,0:0:0:0:
256,192,25691,1,0,0:0:0:0:
36,192,25691,1,0,0:0:0:0:
475,192,25691,1,0,0:0:0:0:
109,192,25691,1,0,0:0:0:0:
402,192,25780,1,0,0:0:0:0:
329,192,25868,1,0,0:0:0:0:
109,192,25868,1,0,0:0:0:0:
182,192,25868,1,0,0:0:0:0:
36,192,25956,1,0,0:0:0:0:
402,192,26044,1,0,0:0:0:0:
329,192,26044,1,0,0:0:0:0:
109,192,26044,1,0,0:0:0:0:
475,192,26044,1,0,0:0:0:0:
256,192,26044,1,0,0:0:0:0:
182,192,26133,1,0,0:0:0:0:
329,192,26221,1,0,0:0:0:0:
36,192,26221,1,0,0:0:0:0:
475,192,26221,1,0,0:0:0:0:
256,192,26309,1,0,0:0:0:0:
36,192,26397,1,0,0:0:0:0:
182,192,26397,1,0,0:0:0:0:
475,192,26397,1,0,0:0:0:0:
402,192,26397,1,0,0:0:0:0:
329,192,26486,1,0,0:0:0:0:
475,192,26574,1,0,0:0:0:0:
109,192,26574,1,0,0:0:0:0:
256,192,26574,1,0,0:0:0:0:
402,192,26662,1,0,0:0:0:0:
36,192,26750,1,0,0:0:0:0:
256,192,26750,1,0,0:0:0:0:
109,192,26750,1,0,0:0:0:0:
475,192,26750,1,0,0:0:0:0:
329,192,26750,1,0,0:0:0:0:
182,192,26839,1,0,0:0:0:0:
109,192,26927,1,0,0:0:0:0:
329,192,26927,1,0,0:0:0:0:
475,192,26927,1,0,0:0:0:0:
402,192,27015,1,0,0:0:0:0:
182,192,27103,1,0,0:0:0:0:
475,192,27103,1,0,0:0:0:0:
36,192,27103,1,0,0:0:0:0:
329,192,27103,1,0,0:0:0:0:
109,192,27191,1,0,0:0:0:0:
182,192,27280,1,0,0:0:0:0:
256,192,27280,1,0,0:0:0:0:
402,192,27280,1,0,0:0:0:0:
329,192,27368,1,0,0:0:0:0:
402,192,27456,1,0,0:0:0:0:
256,192,27456,1,0,0:0:0:0:
109,192,27456,1,0,0:0:0:0:
36,192,27456,1,0,0:0:0:0:
475,192,27456,1,0,0:0:0:0:
182,192,27544,1,0,0:0:0:0:
109,192,27633,1,0,0:0:0:0:
329,192,27633,1,0,0:0:0:0:
475,192,27633,1,0,0:0:0:0:
402,192,27633,1,0,0:0:0:0:
256,192,27721,1,0,0:0:0:0:
182,192,27809,1,0,0:0:0:0:
36,192,27809,1,0,0:0:0:0:
402,192,27809,1,0,0:0:0:0:
475,192,27809,1,0,0:0:0:0:
256,192,27897,1,0,0:0:0:0:
475,192,27986,1,0,0:0:0:0:
109,192,27986,1,0,0:0:0:0:
329,192,27986,1,0,0:0:0:0:
182,192,28074,1,0,0:0:0:0:
109,192,28162,1,0,0:0:0:0:
475,192,28162,1,0,0:0:0:0:
402,192,28162,1,0,0:0:0:0:
36,192,28162,1,0,0:0:0:0:
256,192,28162,1,0,0:0:0:0:
329,192,28250,1,0,0:0:0:0:
36,192,28339,1,0,0:0:0:0:
182,192,28339,1,0,0:0:0:0:
475,192,28339,1,0,0:0:0:0:
329,192,28427,1,0,0:0:0:0:
475,192,28515,1,0,0:0:0:0:
256,192,28515,1,0,0:0:0:0:
109,192,28515,1,0,0:0:0:0:
402,192,28515,1,0,0:0:0:0:
36,192,28603,1,0,0:0:0:0:
182,192,28691,1,0,0:0:0:0:
402,192,28691,1,0,0:0:0:0:
329,192,28691,1,0,0:0:0:0:
256,192,28780,1,0,0:0:0:0:
402,192,28868,1,0,0:0:0:0:
109,192,28868,1,0,0:0:0:0:
475,192,28868,1,0,0:0:0:0:
36,192,28868,1,0,0:0:0:0:
182,192,28868,1,0,0:0:0:0:
329,192,28956,1,0,0:0:0:0:
256,192,29044,1,0,0:0:0:0:
109,192,29044,1,0,0:0:0:0:
475,192,29044,1,0,0:0:0:0:
36,192,29133,1,0,0:0:0:0:
329,192,29221,1,0,0:0:0:0:
402,192,29221,1,0,0:0:0:0:
182,192,29221,1,0,0:0:0:0:
475,192,29221,1,0,0:0:0:0:
36,192,29309,1,0,0:0:0:0:
109,192,29397,1,0,0:0:0:0:
329,192,29397,1,0,0:0:0:0:
475,192,29397,1,0,0:0:0:0:
256,192,29486,1,0,0:0:0:0:
402,192,29574,1,0,0:0:0:0:
182,192,29574,1,0,0:0:0:0:
109,192,29574,1,0,0:0:0:0:
36,192,29574,1,0,0:0:0:0:
475,192,29574,1,0,0:0:0:0:
329,192,29662,1,0,0:0:0:0:
475,192,29750,1,0,0:0:0:0:
182,192,29750,1,0,0:0:0:0:
109,192,29750,1,0,0:0:0:0:
36,192,29750,1,0,0:0:0:0:
256,192,29750,1,0,0:0:0:0:
402,192,29839,1,0,0:0:0:0:
475,192,29927,1,0,0:0:0:0:
256,192,29927,1,0,0:0:0:0:
109,192,29927,1,0,0:0:0:0:
36,192,29927,1,0,0:0:0:0:
329,192,29927,1,0,0:0:0:0:
182,192,30015,1,0,0:0:0:0:
109,192,30103,1,0,0:0:0:0:
475,192,30103,1,0,0:0:0:0:
329,192,30103,1,0,0:0:0:0:
256,192,30191,1,0,0:0:0:0:
329,192,30280,1,0,0:0:0:0:
36,192,30280,1,0,0:0:0:0:
182,192,30280,1,0,0:0:0:0:
475,192,30280,1,0,0:0:0:0:
109,192,30280,1,0,0:0:0:0:
402,192,30368,1,0,0:0:0:0:
256,192,30456,1,0,0:0:0:0:
36,192,30456,1,0,0:0:0:0:
329,192,30456,1,0,0:0:0:0:
182,192,30544,1,0,0:0:0:0:
109,192,30633,1,0,0:0:0:0:
329,192,30633,1,0,0:0:0:0:
475,192,30633,1,0,0:0:0:0:
402,192,30633,1,0,0:0:0:0:
256,192,30721,1,0,0:0:0:0:
329,192,30809,1,0,0:0:0:0:
182,192,30809,1,0,0:0:0:0:
36,192,30809,1,0,0:0:0:0:
402,192,30897,1,0,0:0:0:0:
182,192,30986,1,0,0:0:0:0:
329,192,30986,1,0,0:0:0:0:
36,192,30986,1,0,0:0:0:0:
475,192,30986,1,0,0:0:0:0:
109,192,30986,1,0,0:0:0:0:
256,192,31074,1,0,0:0:0:0:
109,192,31162,1,0,0:0:0:0:
475,192,31162,1,0,0:0:0:0:
329,192,31162,1,0,0:0:0:0:
182,192,31250,1,0,0:0:0:0:
475,192,31339,1,0,0:0:0:0:
256,192,31339,1,0,0:0:0:0:
36,192,31339,1,0,0:0:0:0:
402,192,31339,1,0,0:0:0:0:
329,192,31427,1,0,0:0:0:0:
36,192,31515,1,0,0:0:0:0:
402,192,31515,1,0,0:0:0:0:
182,192,31515,1,0,0:0:0:0:
109,192,31603,1,0,0:0:0:0:
402,192,31691,1,0,0:0:0:0:
256,192,31691,1,0,0:0:0:0:
36,192,31691,1,0,0:0:0:0:
475,192,31691,1,0,0:0:0:0:
329,192,31691,1,0,0:0:0:0:
182,192,31780,1,0,0:0:0:0:
329,192,31868,1,0,0:0:0:0:
109,192,31868,1,0,0:0:0:0:
475,192,31868,1,0,0:0:0:0:
256,192,31956,1,0,0:0:0:0:
36,192,32044,1,0,0:0:0:0:
402,192,32044,1,0,0:0:0:0:
475,192,32044,1,0,0:0:0:0:
182,192,32044,1,0,0:0:0:0:
109,192,32133,1,0,0:0:0:0:
36,192,32221,1,0,0:0:0:0:
256,192,32221,1,0,0:0:0:0:
402,192,32221,1,0,0:0:0:0:
329,192,32309,1,0,0:0:0:0:
475,192,32397,1,0,0:0:0:0:
109,192,32397,1,0,0:0:0:0:
36,192,32397,1,0,0:0:0:0:
402,192,32397,1,0,0:0:0:0:
256,192,32397,1,0,0:0:0:0:
182,192,32486,1,0,0:0:0:0:
329,192,32574,1,0,0:0:0:0:
475,192,32574,1,0,0:0:0:0:
109,192,32574,1,0,0:0:0:0:
402,192,32662,1,0,0:0:0:0:
475,192,32750,1,0,0:0:0:0:
182,192,32750,1,0,0:0:0:0:
36,192,32750,1,0,0:0:0:0:
329,192,32750,1,0,0:0:0:0:
256,192,32839,1,0,0:0:0:0:
475,192,32927,1,0,0:0:0:0:
109,192,32927,1,0,0:0:0:0:
402,192,32927,1,0,0:0:0:0:
182,192,33015,1,0,0:0:0:0:
256,192,33103,1,0,0:0:0:0:
36,192,33103,1,0,0:0:0:0:
329,192,33103,1,0,0:0:0:0:
475,192,33103,1,0,0:0:0:0:
109,192,33103,1,0,0:0:0:0:
402,192,33191,1,0,0:0:0:0:
182,192,33280,1,0,0:0:0:0:
329,192,33280,1,0,0:0:0:0:
475,192,33280,1,0,0:0:0:0:
109,192,33368,1,0,0:0:0:0:
256,192,33456,1,0,0:0:0:0:
36,192,33456,1,0,0:0:0:0:
475,192,33456,1,0,0:0:0:0:
402,192,33456,1,0,0:0:0:0:
182,192,33544,1,0,0:0:0:0:
329,192,33633,1,0,0:0:0:0:
36,192,33633,1,0,0:0:0:0:
402,192,33633,1,0,0:0:0:0:
182,192,33721,1,0,0:0:0:0:
109,192,33809,1,0,0:0:0:0:
329,192,33809,1,0,0:0:0:0:
475,192,33809,1,0,0:0:0:0:
36,192,33809,1,0,0:0:0:0:
256,192,33809,1,0,0:0:0:0:
402,192,33897,1,0,0:0:0:0:
475,192,33986,1,0,0:0:0:0:
36,192,33986,1,0,0:0:0:0:
182,192,33986,1,0,0:0:0:0:
256,192,34074,1,0,0:0:0:0:
182,192,34162,1,0,0:0:0:0:
36,192,34162,1,0,0:0:0:0:
475,192,34162,1,0,0:0:0:0:
402,192,34162,1,0,0:0:0:0:
329,192,34250,1,0,0:0:0:0:
256,192,34339,1,0,0:0:0:0:
109,192,34339,1,0,0:0:0:0:
402,192,34339,1,0,0:0:0:0:
182,192,34427,1,0,0:0:0:0:
329,192,34515,1,0,0:0:0:0:
109,192,34515,1,0,0:0:0:0:
36,192,34515,1,0,0:0:0:0:
475,192,34515,1,0,0:0:0:0:
402,192,34515,1,0,0:0:0:0:
256,192,34603,1,0,0:0:0:0:
329,192,34691,1,0,0:0:0:0:
109,192,34691,1,0,0:0:0:0:
475,192,34691,1,0,0:0:0:0:
182,192,34780,1,0,0:0:0:0:
256,192,34868,1,0,0:0:0:0:
402,192,34868,1,0,0:0:0:0:
475,192,34868,1,0,0:0:0:0:
36,192,34912,1,0,0:0:0:0:
109,192,34956,1,0,0:0:0:0:
182,192,35000,1,0,0:0:0:0:
256,192,35044,1,0,0:0:0:0:
402,192,35044,1,0,0:0:0:0:
475,192,35044,1,0,0:0:0:0:
36,192,35133,1,0,0:0:0:0:
329,192,35133,1,0,0:0:0:0:
109,192,35133,1,0,0:0:0:0:
182,192,35221,1,0,0:0:0:0:
402,192,35221,1,0,0:0:0:0:
475,192,35221,1,0,0:0:0:0:
109,192,35309,1,0,0:0:0:0:
256,192,35309,1,0,0:0:0:0:
36,192,35309,1,0,0:0:0:0:
329,192,35397,1,0,0:0:0:0:
475,192,35397,1,0,0:0:0:0:
182,192,35397,1,0,0:0:0:0:
109,192,35486,1,0,0:0:0:0:
256,192,35486,1,0,0:0:0:0:
402,192,35486,1,0,0:0:0:0:
329,192,35574,1,0,0:0:0:0:
36,192,35574,1,0,0:0:0:0:
182,192,35574,1,0,0:0:0:0:
475,192,35574,1,0,0:0:0:0:
109,192,35662,1,0,0:0:0:0:
256,192,35750,1,0,0:0:0:0:
36,192,35750,1,0,0:0:0:0:
475,192,35750,1,0,0:0:0:0:
402,192,35839,1,0,0:0:0:0:
182,192,35927,1,0,0:0:0:0:
109,192,35927,1,0,0:0:0:0:
475,192,35927,1,0,0:0:0:0:
36,192,35927,1,0,0:0:0:0:
329,192,35927,1,0,0:0:0:0:
256,192,36015,1,0,0:0:0:0:
36,192,36103,1,0,0:0:0:0:
402,192,36103,1,0,0:0:0:0:
182,192,36103,1,0,0:0:0:0:
329,192,36191,1,0,0:0:0:0:
36,192,36280,1,0,0:0:0:0:
256,192,36280,1,0,0:0:0:0:
475,192,36280,1,0,0:0:0:0:
109,192,36280,1,0,0:0:0:0:
329,192,36368,1,0,0:0:0:0:
402,192,36456,1,0,0:0:0:0:
182,192,36456,1,0,0:0:0:0:
475,192,36456,1,0,0:0:0:0:
109,192,36544,1,0,0:0:0:0:
256,192,36633,1,0,0:0:0:0:
36,192,36633,1,0,0:0:0:0:
402,192,36633,1,0,0:0:0:0:
475,192,36633,1,0,0:0:0:0:
329,192,36633,1,0,0:0:0:0:
182,192,36721,1,0,0:0:0:0:
329,192,36809,1,0,0:0:0:0:
109,192,36809,1,0,0:0:0:0:
475,192,36809,1,0,0:0:0:0:
402,192,36897,1,0,0:0:0:0:
36,192,36986,1,0,0:0:0:0:
182,192,36986,1,0,0:0:0:0:
475,192,36986,1,0,0:0:0:0:
329,192,36986,1,0,0:0:0:0:
109,192,37074,1,0,0:0:0:0:
329,192,37162,1,0,0:0:0:0:
36,192,37162,1,0,0:0:0:0:
256,192,37162,1,0,0:0:0:0:
402,192,37250,1,0,0:0:0:0:
182,192,37339,1,0,0:0:0:0:
109,192,37339,1,0,0:0:0:0:
475,192,37339,1,0,0:0:0:0:
36,192,37339,1,0,0:0:0:0:
329,192,37339,1,0,0:0:0:0:
256,192,37427,1,0,0:0:0:0:
402,192,37515,1,0,0:0:0:0:
475,192,37515,1,0,0:0:0:0:
109,192,37515,1,0,0:0:0:0:
182,192,37603,1,0,0:0:0:0:
329,192,37691,1,0,0:0:0:0:
256,192,37691,1,0,0:0:0:0:
36,192,37691,1,0,0:0:0:0:
475,192,37691,1,0,0:0:0:0:
402,192,37780,1,0,0:0:0:0:
182,192,37868,1,0,0:0:0:0:
329,192,37868,1,0,0:0:0:0:
36,192,37868,1,0,0:0:0:0:
109,192,37956,1,0,0:0:0:0:
402,192,38044,1,0,0:0:0:0:
475,192,38044,1,0,0:0:0:0:
182,192,38044,1,0,0:0:0:0:
36,192,38044,1,0,0:0:0:0:
329,192,38044,1,0,0:0:0:0:
256,192,38133,1,0,0:0:0:0:
109,192,38221,1,0,0:0:0:0:
402,192,38221,1,0,0:0:0:0:
329,192,38221,1,0,0:0:0:0:
182,192,38309,1,0,0:0:0:0:
256,192,38397,1,0,0:0:0:0:
36,192,38397,1,0,0:0:0:0:
402,192,38397,1,0,0:0:0:0:
475,192,38397,1,0,0:0:0:0:
182,192,38486,1,0,0:0:0:0:
109,192,38574,1,0,0:0:0:0:
475,192,38574,1,0,0:0:0:0:
329,192,38574,1,0,0:0:0:0:
402,192,38662,1,0,0:0:0:0:
475,192,38750,1,0,0:0:0:0:
256,192,38750,1,0,0:0:0:0:
109,192,38750,1,0,0:0:0:0:
36,192,38750,1,0,0:0:0:0:
182,192,38750,1,0,0:0:0:0:
329,192,38839,1,0,0:0:0:0:
36,192,38927,1,0,0:0:0:0:
256,192,38927,1,0,0:0:0:0:
402,192,38927,1,0,0:0:0:0:
109,192,39015,1,0,0:0:0:0:
475,192,39103,1,0,0:0:0:0:
256,192,39103,1,0,0:0:0:0:
182,192,39103,1,0,0:0:0:0:
329,192,39103,1,0,0:0:0:0:
36,192,39191,1,0,0:0:0:0:
182,192,39280,1,0,0:0:0:0:
402,192,39280,1,0,0:0:0:0:
329,192,39280,1,0,0:0:0:0:
256,192,39368,1,0,0:0:0:0:
402,192,39456,1,0,0:0:0:0:
109,192,39456,1,0,0:0:0:0:
36,192,39456,1,0,0:0:0:0:
475,192,39456,1,0,0:0:0:0:
182,192,39456,1,0,0:0:0:0:
329,192,39544,1,0,0:0:0:0:
256,192,39633,1,0,0:0:0:0:
109,192,39633,1,0,0:0:0:0:
475,192,39633,1,0,0:0:0:0:
36,192,39721,1,0,0:0:0:0:
182,192,39809,1,0,0:0:0:0:
109,192,39809,1,0,0:0:0:0:
475,192,39809,1,0,0:0:0:0:
402,192,39809,1,0,0:0:0:0:
329,192,39897,1,0,0:0:0:0:
36,192,39986,1,0,0:0:0:0:
402,192,39986,1,0,0:0:0:0:
256,192,39986,1,0,0:0:0:0:
109,192,40074,1,0,0:0:0:0:
402,192,40162,1,0,0:0:0:0:
182,192,40162,1,0,0:0:0:0:
36,192,40162,1,0,0:0:0:0:
475,192,40162,1,0,0:0:0:0:
329,192,40162,1,0,0:0:0:0:
256,192,40250,1,0,0:0:0:0:
109,192,40339,1,0,0:0:0:0:
475,192,40339,1,0,0:0:0:0:
182,192,40339,1,0,0:0:0:0:
402,192,40427,1,0,0:0:0:0:
475,192,40515,1,0,0:0:0:0:
182,192,40515,1,0,0:0:0:0:
36,192,40515,1,0,0:0:0:0:
329,192,40515,1,0,0:0:0:0:
109,192,40603,1,0,0:0:0:0:
182,192,40691,1,0,0:0:0:0:
329,192,40691,1,0,0:0:0:0:
402,192,40691,1,0,0:0:0:0:
256,192,40780,1,0,0:0:0:0:
475,192,40868,1,0,0:0:0:0:
402,192,40868,1,0,0:0:0:0:
109,192,40868,1,0,0:0:0:0:
36,192,40868,1,0,0:0:0:0:
182,192,40868,1,0,0:0:0:0:
329,192,40956,1,0,0:0:0:0:
402,192,41044,1,0,0:0:0:0:
475,192,41044,1,0,0:0:0:0:
109,192,41044,1,0,0:0:0:0:
36,192,41044,1,0,0:0:0:0:
256,192,41044,1,0,0:0:0:0:
182,192,41133,1,0,0:0:0:0:
109,192,41221,1,0,0:0:0:0:
402,192,41221,1,0,0:0:0:0:
36,192,41221,1,0,0:0:0:0:
475,192,41221,1,0,0:0:0:0:
329,192,41221,1,0,0:0:0:0:
256,192,41309,1,0,0:0:0:0:
182,192,41397,1,0,0:0:0:0:
36,192,41397,1,0,0:0:0:0:
402,192,41397,1,0,0:0:0:0:
475,192,41486,1,0,0:0:0:0:
402,192,41574,1,0,0:0:0:0:
256,192,41574,1,0,0:0:0:0:
36,192,41574,1,0,0:0:0:0:
109,192,41574,1,0,0:0:0:0:
182,192,41574,1,0,0:0:0:0:
329,192,41662,1,0,0:0:0:0:
36,192,41750,1,0,0:0:0:0:
402,192,41750,1,0,0:0:0:0:
256,192,41750,1,0,0:0:0:0:
109,192,41839,1,0,0:0:0:0:
182,192,41927,1,0,0:0:0:0:
36,192,41927,1,0,0:0:0:0:
329,192,41927,1,0,0:0:0:0:
475,192,41927,1,0,0:0:0:0:
402,192,42015,1,0,0:0:0:0:
329,192,42103,1,0,0:0:0:0:
182,192,42103,1,0,0:0:0:0:
109,192,42103,1,0,0:0:0:0:
256,192,42191,1,0,0:0:0:0:
182,192,42280,1,0,0:0:0:0:
475,192,42280,1,0,0:0:0:0:
36,192,42280,1,0,0:0:0:0:
329,192,42280,1,0,0:0:0:0:
402,192,42368,1,0,0:0:0:0:
109,192,42456,1,0,0:0:0:0:
475,192,42456,1,0,0:0:0:0:
256,192,42456,1,0,0:0:0:0:
182,192,42544,1,0,0:0:0:0:
256,192,42633,1,0,0:0:0:0:
402,192,42633,1,0,0:0:0:0:
36,192,42633,1,0,0:0:0:0:
329,192,42633,1,0,0:0:0:0:
475,192,42721,1,0,0:0:0:0:
329,192,42809,1,0,0:0:0:0:
182,192,42809,1,0,0:0:0:0:
36,192,42809,1,0,0:0:0:0:
109,192,42897,1,0,0:0:0:0:
36,192,42986,1,0,0:0:0:0:
329,192,42986,1,0,0:0:0:0:
402,192,42986,1,0,0:0:0:0:
475,192,42986,1,0,0:0:0:0:
182,192,42986,1,0,0:0:0:0:
256,192,43074,1,0,0:0:0:0:
402,192,43162,1,0,0:0:0:0:
109,192,43162,1,0,0:0:0:0:
36,192,43162,1,0,0:0:0:0:
329,192,43250,1,0,0:0:0:0:
256,192,43339,1,0,0:0:0:0:
402,192,43339,1,0,0:0:0:0:
475,192,43339,1,0,0:0:0:0:
109,192,43339,1,0,0:0:0:0:
36,192,43427,1,0,0:0:0:0:
109,192,43515,1,0,0:0:0:0:
256,192,43515,1,0,0:0:0:0:
402,192,43515,1,0,0:0:0:0:
475,192,43603,1,0,0:0:0:0:
329,192,43691,1,0,0:0:0:0:
182,192,43691,1,0,0:0:0:0:
36,192,43691,1,0,0:0:0:0:
402,192,43691,1,0,0:0:0:0:
109,192,43691,1,0,0:0:0:0:
256,192,43780,1,0,0:0:0:0:
109,192,43868,1,0,0:0:0:0:
475,192,43868,1,0,0:0:0:0:
402,192,43868,1,0,0:0:0:0:
256,192,43956,1,0,0:0:0:0:
329,192,44044,1,0,0:0:0:0:
475,192,44044,1,0,0:0:0:0:
36,192,44044,1,0,0:0:0:0:
109,192,44044,1,0,0:0:0:0:
402,192,44133,1,0,0:0:0:0:
182,192,44133,1,0,0:0:0:0:
256,192,44221,1,0,0:0:0:0:
475,192,44221,1,0,0:0:0:0:
36,192,44221,1,0,0:0:0:0:
329,192,44309,1,0,0:0:0:0:
109,192,44309,1,0,0:0:0:0:
256,192,44397,1,0,0:0:0:0:
182,192,44397,1,0,0:0:0:0:
475,192,44397,1,0,0:0:0:0:
36,192,44486,1,0,0:0:0:0:
402,192,44486,1,0,0:0:0:0:
109,192,44574,1,0,0:0:0:0:
329,192,44574,1,0,0:0:0:0:
475,192,44574,1,0,0:0:0:0:
402,192,44662,1,0,0:0:0:0:
182,192,44662,1,0,0:0:0:0:
475,192,44750,1,0,0:0:0:0:
256,192,44750,1,0,0:0:0:0:
109,192,44750,1,0,0:0:0:0:
36,192,44839,1,0,0:0:0:0:
329,192,44839,1,0,0:0:0:0:
256,192,44927,1,0,0:0:0:0:
182,192,44927,1,0,0:0:0:0:
475,192,44927,1,0,0:0:0:0:
402,192,45015,1,0,0:0:0:0:
329,192,45015,1,0,0:0:0:0:
109,192,45103,1,0,0:0:0:0:
36,192,45103,1,0,0:0:0:0:
256,192,45103,1,0,0:0:0:0:
475,192,45191,1,0,0:0:0:0:
182,192,45191,1,0,0:0:0:0:
109,192,45280,1,0,0:0:0:0:
329,192,45280,1,0,0:0:0:0:
402,192,45280,1,0,0:0:0:0:
475,192,45368,1,0,0:0:0:0:
182,192,45368,1,0,0:0:0:0:
256,192,45456,1,0,0:0:0:0:
402,192,45456,1,0,0:0:0:0:
36,192,45456,1,0,0:0:0:0:
109,192,45456,1,0,0:0:0:0:
329,192,45456,1,0,0:0:0:0:
182,192,45721,1,0,0:0:0:0:
329,192,45721,1,0,0:0:0:0:
109,192,45721,1,0,0:0:0:0:
402,192,45721,1,0,0:0:0:0:
36,192,45721,1,0,0:0:0:0:
475,192,45721,1,0,0:0:0:0:
36,192,45986,1,0,0:0:0:0:
256,192,45986,1,0,0:0:0:0:
475,192,45986,1,0,0:0:0:0:
182,192,45986,1,0,0:0:0:0:
109,192,45986,1,0,0:0:0:0:
402,192,45986,1,0,0:0:0:0:
36,192,46162,1,0,0:0:0:0:
329,192,46162,1,0,0:0:0:0:
182,192,46162,1,0,0:0:0:0:
475,192,46162,1,0,0:0:0:0:
402,192,46250,1,0,0:0:0:0:
256,192,46250,1,0,0:0:0:0:
182,192,46339,1,0,0:0:0:0:
36,192,46339,1,0,0:0:0:0:
475,192,46339,1,0,0:0:0:0:
256,192,46427,1,0,0:0:0:0:
402,192,46427,1,0,0:0:0:0:
475,192,46515,1,0,0:0:0:0:
109,192,46515,1,0,0:0:0:0:
36,192,46515,1,0,0:0:0:0:
329,192,46515,1,0,0:0:0:0:
402,192,46603,1,0,0:0:0:0:
182,192,46603,1,0,0:0:0:0:
256,192,46603,1,0,0:0:0:0:
329,192,46691,1,0,0:0:0:0:
109,192,46691,1,0,0:0:0:0:
36,192,46691,1,0,0:0:0:0:
475,192,46691,1,0,0:0:0:0:
402,192,46868,1,0,0:0:0:0:
475,192,46868,1,0,0:0:0:0:
109,192,46868,1,0,0:0:0:0:
36,192,46868,1,0,0:0:0:0:
256,192,46868,1,0,0:0:0:0:
182,192,46956,1,0,0:0:0:0:
109,192,47044,1,0,0:0:0:0:
329,192,47044,1,0,0:0:0:0:
402,192,47044,1,0,0:0:0:0:
475,192,47044,1,0,0:0:0:0:
256,192,47133,1,0,0:0:0:0:
402,192,47221,1,0,0:0:0:0:
36,192,47221,1,0,0:0:0:0:
182,192,47221,1,0,0:0:0:0:
475,192,47221,1,0,0:0:0:0:
256,192,47309,1,0,0:0:0:0:
109,192,47309,1,0,0:0:0:0:
329,192,47309,1,0,0:0:0:0:
182,192,47397,1,0,0:0:0:0:
475,192,47397,1,0,0:0:0:0:
402,192,47486,1,0,0:0:0:0:
182,192,47574,1,0,0:0:0:0:
329,192,47574,1,0,0:0:0:0:
36,192,47574,1,0,0:0:0:0:
475,192,47574,1,0,0:0:0:0:
109,192,47574,1,0,0:0:0:0:
256,192,47662,1,0,0:0:0:0:
402,192,47750,1,0,0:0:0:0:
36,192,47750,1,0,0:0:0:0:
109,192,47839,1,0,0:0:0:0:
329,192,47839,1,0,0:0:0:0:
475,192,47839,1,0,0:0:0:0:
182,192,47839,1,0,0:0:0:0:
402,192,47927,1,0,0:0:0:0:
256,192,47927,1,0,0:0:0:0:
109,192,48015,1,0,0:0:0:0:
329,192,48103,1,0,0:0:0:0:
36,192,48103,1,0,0:0:0:0:
475,192,48103,1,0,0:0:0:0:
182,192,48103,1,0,0:0:0:0:
256,192,48191,1,0,0:0:0:0:
402,192,48280,1,0,0:0:0:0:
182,192,48280,1,0,0:0:0:0:
36,192,48280,1,0,0:0:0:0:
475,192,48280,1,0,0:0:0:0:
109,192,48280,1,0,0:0:0:0:
329,192,48368,1,0,0:0:0:0:
475,192,48456,1,0,0:0:0:0:
256,192,48456,1,0,0:0:0:0:
109,192,48456,1,0,0:0:0:0:
36,192,48456,1,0,0:0:0:0:
402,192,48544,1,0,0:0:0:0:
329,192,48633,1,0,0:0:0:0:
182,192,48633,1,0,0:0:0:0:
36,192,48633,1,0,0:0:0:0:
475,192,48633,1,0,0:0:0:0:
109,192,48721,1,0,0:0:0:0:
256,192,48721,1,0,0:0:0:0:
402,192,48721,1,0,0:0:0:0:
475,192,48809,1,0,0:0:0:0:
182,192,48809,1,0,0:0:0:0:
329,192,48897,1,0,0:0:0:0:
256,192,48986,1,0,0:0:0:0:
36,192,48986,1,0,0:0:0:0:
402,192,48986,1,0,0:0:0:0:
475,192,48986,1,0,0:0:0:0:
109,192,48986,1,0,0:0:0:0:
182,192,49074,1,0,0:0:0:0:
329,192,49162,1,0,0:0:0:0:
402,192,49162,1,0,0:0:0:0:
36,192,49250,1,0,0:0:0:0:
256,192,49250,1,0,0:0:0:0:
475,192,49250,1,0,0:0:0:0:
109,192,49250,1,0,0:0:0:0:
182,192,49339,1,0,0:0:0:0:
402,192,49339,1,0,0:0:0:0:
329,192,49427,1,0,0:0:0:0:
402,192,49515,1,0,0:0:0:0:
475,192,49515,1,0,0:0:0:0:
256,192,49515,1,0,0:0:0:0:
36,192,49515,1,0,0:0:0:0:
109,192,49603,1,0,0:0:0:0:
182,192,49691,1,0,0:0:0:0:
36,192,49691,1,0,0:0:0:0:
402,192,49691,1,0,0:0:0:0:
329,192,49691,1,0,0:0:0:0:
475,192,49691,1,0,0:0:0:0:
256,192,49780,1,0,0:0:0:0:
182,192,49868,1,0,0:0:0:0:
36,192,49868,1,0,0:0:0:0:
402,192,49868,1,0,0:0:0:0:
475,192,49868,1,0,0:0:0:0:
329,192,49956,1,0,0:0:0:0:
475,192,50044,1,0,0:0:0:0:
36,192,50044,1,0,0:0:0:0:
109,192,50044,1,0,0:0:0:0:
256,192,50044,1,0,0:0:0:0:
402,192,50133,1,0,0:0:0:0:
182,192,50133,1,0,0:0:0:0:
329,192,50133,1,0,0:0:0:0:
109,192,50221,1,0,0:0:0:0:
475,192,50221,1,0,0:0:0:0:
256,192,50309,1,0,0:0:0:0:
109,192,50397,1,0,0:0:0:0:
36,192,50397,1,0,0:0:0:0:
475,192,50397,1,0,0:0:0:0:
329,192,50397,1,0,0:0:0:0:
402,192,50397,1,0,0:0:0:0:
182,192,50486,1,0,0:0:0:0:
402,192,50574,1,0,0:0:0:0:
256,192,50574,1,0,0:0:0:0:
182,192,50662,1,0,0:0:0:0:
36,192,50662,1,0,0:0:0:0:
475,192,50662,1,0,0:0:0:0:
329,192,50662,1,0,0:0:0:0:
109,192,50750,1,0,0:0:0:0:
402,192,50750,1,0,0:0:0:0:
256,192,50839,1,0,0:0:0:0:
402,192,50927,1,0,0:0:0:0:
182,192,50927,1,0,0:0:0:0:
36,192,50927,1,0,0:0:0:0:
475,192,50927,1,0,0:0:0:0:
329,192,51015,1,0,0:0:0:0:
256,192,51103,1,0,0:0:0:0:
109,192,51103,1,0,0:0:0:0:
475,192,51103,1,0,0:0:0:0:
36,192,51103,1,0,0:0:0:0:
402,192,51191,1,0,0:0:0:0:
329,192,51280,1,0,0:0:0:0:
182,192,51280,1,0,0:0:0:0:
36,192,51280,1,0,0:0:0:0:
475,192,51280,1,0,0:0:0:0:
256,192,51368,1,0,0:0:0:0:
109,192,51456,1,0,0:0:0:0:
475,192,51456,1,0,0:0:0:0:
182,192,51456,1,0,0:0:0:0:
402,192,51456,1,0,0:0:0:0:
36,192,51544,1,0,0:0:0:0:
329,192,51544,1,0,0:0:0:0:
256,192,51544,1,0,0:0:0:0:
109,192,51633,1,0,0:0:0:0:
402,192,51633,1,0,0:0:0:0:
182,192,51721,1,0,0:0:0:0:
329,192,51809,1,0,0:0:0:0:
256,192,51809,1,0,0:0:0:0:
36,192,51809,1,0,0:0:0:0:
475,192,51809,1,0,0:0:0:0:
109,192,51809,1,0,0:0:0:0:
402,192,51897,1,0,0:0:0:0:
329,192,51986,1,0,0:0:0:0:
109,192,51986,1,0,0:0:0:0:
256,192,52074,1,0,0:0:0:0:
182,192,52074,1,0,0:0:0:0:
475,192,52074,1,0,0:0:0:0:
329,192,52162,1,0,0:0:0:0:
402,192,52162,1,0,0:0:0:0:
36,192,52162,1,0,0:0:0:0:
109,192,52162,1,0,0:0:0:0:
256,192,52250,1,0,0:0:0:0:
109,192,52339,1,0,0:0:0:0:
475,192,52339,1,0,0:0:0:0:
402,192,52339,1,0,0:0:0:0:
36,192,52339,1,0,0:0:0:0:
182,192,52339,1,0,0:0:0:0:
329,192,52427,1,0,0:0:0:0:
256,192,52515,1,0,0:0:0:0:
402,192,52515,1,0,0:0:0:0:
475,192,52515,1,0,0:0:0:0:
36,192,52515,1,0,0:0:0:0:
109,192,52515,1,0,0:0:0:0:
182,192,52603,1,0,0:0:0:0:
109,192,52691,1,0,0:0:0:0:
329,192,52691,1,0,0:0:0:0:
475,192,52691,1,0,0:0:0:0:
36,192,52691,1,0,0:0:0:0:
256,192,52780,1,0,0:0:0:0:
329,192,52868,1,0,0:0:0:0:
182,192,52868,1,0,0:0:0:0:
36,192,52868,1,0,0:0:0:0:
402,192,52868,1,0,0:0:0:0:
475,192,52956,1,0,0:0:0:0:
109,192,52956,1,0,0:0:0:0:
256,192,52956,1,0,0:0:0:0:
402,192,53044,1,0,0:0:0:0:
182,192,53044,1,0,0:0:0:0:
329,192,53133,1,0,0:0:0:0:
109,192,53221,1,0,0:0:0:0:
402,192,53221,1,0,0:0:0:0:
36,192,53221,1,0,0:0:0:0:
475,192,53221,1,0,0:0:0:0:
256,192,53221,1,0,0:0:0:0:
182,192,53309,1,0,0:0:0:0:
329,192,53397,1,0,0:0:0:0:
109,192,53397,1,0,0:0:0:0:
256,192,53486,1,0,0:0:0:0:
36,192,53486,1,0,0:0:0:0:
402,192,53486,1,0,0:0:0:0:
475,192,53486,1,0,0:0:0:0:
109,192,53574,1,0,0:0:0:0:
329,192,53574,1,0,0:0:0:0:
182,192,53662,1,0,0:0:0:0:
256,192,53750,1,0,0:0:0:0:
36,192,53750,1,0,0:0:0:0:
402,192,53750,1,0,0:0:0:0:
475,192,53750,1,0,0:0:0:0:
109,192,53839,1,0,0:0:0:0:
256,192,53927,1,0,0:0:0:0:
36,192,53927,1,0,0:0:0:0:
475,192,53927,1,0,0:0:0:0:
329,192,53927,1,0,0:0:0:0:
182,192,54015,1,0,0:0:0:0:
109,192,54103,1,0,0:0:0:0:
402,192,54103,1,0,0:0:0:0:
475,192,54103,1,0,0:0:0:0:
329,192,54103,1,0,0:0:0:0:
256,192,54191,1,0,0:0:0:0:
329,192,54280,1,0,0:0:0:0:
182,192,54280,1,0,0:0:0:0:
109,192,54280,1,0,0:0:0:0:
475,192,54280,1,0,0:0:0:0:
402,192,54368,1,0,0:0:0:0:
36,192,54368,1,0,0:0:0:0:
256,192,54368,1,0,0:0:0:0:
109,192,54456,1,0,0:0:0:0:
329,192,54456,1,0,0:0:0:0:
182,192,54544,1,0,0:0:0:0:
256,192,54633,1,0,0:0:0:0:
402,192,54633,1,0,0:0:0:0:
475,192,54633,1,0,0:0:0:0:
36,192,54633,1,0,0:0:0:0:
109,192,54633,1,0,0:0:0:0:
329,192,54721,1,0,0:0:0:0:
475,192,54809,1,0,0:0:0:0:
182,192,54809,1,0,0:0:0:0:
109,192,54897,1,0,0:0:0:0:
36,192,54897,1,0,0:0:0:0:
256,192,54897,1,0,0:0:0:0:
402,192,54897,1,0,0:0:0:0:
182,192,54986,1,0,0:0:0:0:
329,192,54986,1,0,0:0:0:0:
109,192,55074,1,0,0:0:0:0:
402,192,55162,1,0,0:0:0:0:
256,192,55162,1,0,0:0:0:0:
475,192,55162,1,0,0:0:0:0:
36,192,55162,1,0,0:0:0:0:
329,192,55250,1,0,0:0:0:0:
109,192,55339,1,0,0:0:0:0:
36,192,55339,1,0,0:0:0:0:
475,192,55339,1,0,0:0:0:0:
182,192,55339,1,0,0:0:0:0:
402,192,55339,1,0,0:0:0:0:
256,192,55427,1,0,0:0:0:0:
109,192,55515,1,0,0:0:0:0:
329,192,55515,1,0,0:0:0:0:
475,192,55515,1,0,0:0:0:0:
402,192,55515,1,0,0:0:0:0:
182,192,55603,1,0,0:0:0:0:
36,192,55691,1,0,0:0:0:0:
256,192,55691,1,0,0:0:0:0:
402,192,55691,1,0,0:0:0:0:
109,192,55691,1,0,0:0:0:0:
329,192,55780,1,0,0:0:0:0:
475,192,55780,1,0,0:0:0:0:
182,192,55780,1,0,0:0:0:0:
109,192,55868,1,0,0:0:0:0:
402,192,55868,1,0,0:0:0:0:
256,192,55956,1,0,0:0:0:0:
109,192,56044,1,0,0:0:0:0:
402,192,56044,1,0,0:0:0:0:
36,192,56044,1,0,0:0:0:0:
475,192,56044,1,0,0:0:0:0:
182,192,56044,1,0,0:0:0:0:
329,192,56133,1,0,0:0:0:0:
109,192,56221,1,0,0:0:0:0:
256,192,56221,1,0,0:0:0:0:
182,192,56309,1,0,0:0:0:0:
36,192,56309,1,0,0:0:0:0:
402,192,56309,1,0,0:0:0:0:
475,192,56309,1,0,0:0:0:0:
329,192,56397,1,0,0:0:0:0:
109,192,56397,1,0,0:0:0:0:
256,192,56486,1,0,0:0:0:0:
329,192,56574,1,0,0:0:0:0:
475,192,56574,1,0,0:0:0:0:
182,192,56574,1,0,0:0:0:0:
36,192,56574,1,0,0:0:0:0:
402,192,56662,1,0,0:0:0:0:
329,192,56750,1,0,0:0:0:0:
109,192,56750,1,0,0:0:0:0:
475,192,56750,1,0,0:0:0:0:
182,192,56750,1,0,0:0:0:0:
36,192,56750,1,0,0:0:0:0:
256,192,56839,1,0,0:0:0:0:
475,192,56927,1,0,0:0:0:0:
402,192,56927,1,0,0:0:0:0:
36,192,56927,1,0,0:0:0:0:
182,192,56927,1,0,0:0:0:0:
256,192,57015,1,0,0:0:0:0:
109,192,57103,1,0,0:0:0:0:
36,192,57103,1,0,0:0:0:0:
475,192,57103,1,0,0:0:0:0:
329,192,57103,1,0,0:0:0:0:
182,192,57191,1,0,0:0:0:0:
256,192,57191,1,0,0:0:0:0:
402,192,57191,1,0,0:0:0:0:
36,192,57280,1,0,0:0:0:0:
402,192,57368,1,0,0:0:0:0:
256,192,57368,1,0,0:0:0:0:
182,192,57368,1,0,0:0:0:0:
475,192,57456,1,0,0:0:0:0:
109,192,57456,1,0,0:0:0:0:
36,192,57456,1,0,0:0:0:0:
402,192,57500,1,0,0:0:0:0:
329,192,57544,1,0,0:0:0:0:
182,192,57544,1,0,0:0:0:0:
109,192,57589,1,0,0:0:0:0:
256,192,57633,1,0,0:0:0:0:
36,192,57633,1,0,0:0:0:0:
475,192,57633,1,0,0:0:0:0:
182,192,57721,1,0,0:0:0:0:
329,192,57721,1,0,0:0:0:0:
402,192,57721,1,0,0:0:0:0:
475,192,57809,1,0,0:0:0:0:
256,192,57809,1,0,0:0:0:0:
36,192,57809,1,0,0:0:0:0:
402,192,57897,1,0,0:0:0:0:
329,192,57897,1,0,0:0:0:0:
109,192,57897,1,0,0:0:0:0:
182,192,57986,1,0,0:0:0:0:
36,192,57986,1,0,0:0:0:0:
475,192,57986,1,0,0:0:0:0:
256,192,58074,1,0,0:0:0:0:
109,192,58074,1,0,0:0:0:0:
402,192,58074,1,0,0:0:0:0:
329,192,58162,1,0,0:0:0:0:
475,192,58162,1,0,0:0:0:0:
36,192,58162,1,0,0:0:0:0:
182,192,58162,1,0,0:0:0:0:
256,192,58250,1,0,0:0:0:0:
182,192,58339,1,0,0:0:0:0:
402,192,58339,1,0,0:0:0:0:
475,192,58339,1,0,0:0:0:0:
36,192,58339,1,0,0:0:0:0:
329,192,58427,1,0,0:0:0:0:
475,192,58515,1,0,0:0:0:0:
256,192,58515,1,0,0:0:0:0:
36,192,58515,1,0,0:0:0:0:
109,192,58515,1,0,0:0:0:0:
402,192,58603,1,0,0:0:0:0:
329,192,58603,1,0,0:0:0:0:
182,192,58603,1,0,0:0:0:0:
109,192,58691,1,0,0:0:0:0:
475,192,58691,1,0,0:0:0:0:
256,192,58780,1,0,0:0:0:0:
182,192,58868,1,0,0:0:0:0:
402,192,58868,1,0,0:0:0:0:
36,192,58868,1,0,0:0:0:0:
475,192,58868,1,0,0:0:0:0:
329,192,58868,1,0,0:0:0:0:
256,192,58956,1,0,0:0:0:0:
329,192,59044,1,0,0:0:0:0:
109,192,59044,1,0,0:0:0:0:
182,192,59133,1,0,0:0:0:0:
402,192,59133,1,0,0:0:0:0:
475,192,59133,1,0,0:0:0:0:
36,192,59133,1,0,0:0:0:0:
109,192,59221,1,0,0:0:0:0:
256,192,59221,1,0,0:0:0:0:
402,192,59309,1,0,0:0:0:0:
182,192,59397,1,0,0:0:0:0:
36,192,59397,1,0,0:0:0:0:
329,192,59397,1,0,0:0:0:0:
475,192,59397,1,0,0:0:0:0:
256,192,59486,1,0,0:0:0:0:
402,192,59574,1,0,0:0:0:0:
109,192,59574,1,0,0:0:0:0:
475,192,59574,1,0,0:0:0:0:
182,192,59574,1,0,0:0:0:0:
36,192,59574,1,0,0:0:0:0:
329,192,59662,1,0,0:0:0:0:
402,192,59750,1,0,0:0:0:0:
109,192,59750,1,0,0:0:0:0:
475,192,59750,1,0,0:0:0:0:
256,192,59750,1,0,0:0:0:0:
182,192,59839,1,0,0:0:0:0:
256,192,59927,1,0,0:0:0:0:
36,192,59927,1,0,0:0:0:0:
402,192,59927,1,0,0:0:0:0:
475,192,59927,1,0,0:0:0:0:
182,192,60015,1,0,0:0:0:0:
109,192,60015,1,0,0:0:0:0:
329,192,60015,1,0,0:0:0:0:
36,192,60103,1,0,0:0:0:0:
402,192,60103,1,0,0:0:0:0:
256,192,60191,1,0,0:0:0:0:
329,192,60280,1,0,0:0:0:0:
109,192,60280,1,0,0:0:0:0:
36,192,60280,1,0,0:0:0:0:
475,192,60280,1,0,0:0:0:0:
182,192,60280,1,0,0:0:0:0:
402,192,60368,1,0,0:0:0:0:
329,192,60456,1,0,0:0:0:0:
109,192,60456,1,0,0:0:0:0:
182,192,60544,1,0,0:0:0:0:
36,192,60544,1,0,0:0:0:0:
475,192,60544,1,0,0:0:0:0:
402,192,60544,1,0,0:0:0:0:
109,192,60633,1,0,0:0:0:0:
329,192,60633,1,0,0:0:0:0:
256,192,60721,1,0,0:0:0:0:
182,192,60809,1,0,0:0:0:0:
402,192,60809,1,0,0:0:0:0:
475,192,60809,1,0,0:0:0:0:
36,192,60809,1,0,0:0:0:0:
329,192,60897,1,0,0:0:0:0:
256,192,60986,1,0,0:0:0:0:
402,192,60986,1,0,0:0:0:0:
475,192,60986,1,0,0:0:0:0:
36,192,60986,1,0,0:0:0:0:
109,192,60986,1,0,0:0:0:0:
182,192,61074,1,0,0:0:0:0:
256,192,61162,1,0,0:0:0:0:
475,192,61162,1,0,0:0:0:0:
36,192,61162,1,0,0:0:0:0:
402,192,61162,1,0,0:0:0:0:
109,192,61250,1,0,0:0:0:0:
182,192,61339,1,0,0:0:0:0:
329,192,61339,1,0,0:0:0:0:
475,192,61339,1,0,0:0:0:0:
402,192,61339,1,0,0:0:0:0:
109,192,61427,1,0,0:0:0:0:
36,192,61427,1,0,0:0:0:0:
256,192,61427,1,0,0:0:0:0:
182,192,61515,1,0,0:0:0:0:
402,192,61515,1,0,0:0:0:0:
329,192,61603,1,0,0:0:0:0:
402,192,61691,1,0,0:0:0:0:
475,192,61691,1,0,0:0:0:0:
36,192,61691,1,0,0:0:0:0:
109,192,61691,1,0,0:0:0:0:
256,192,61691,1,0,0:0:0:0:
182,192,61780,1,0,0:0:0:0:
329,192,61868,1,0,0:0:0:0:
36,192,61868,1,0,0:0:0:0:
256,192,61956,1,0,0:0:0:0:
109,192,61956,1,0,0:0:0:0:
402,192,61956,1,0,0:0:0:0:
475,192,61956,1,0,0:0:0:0:
329,192,62044,1,0,0:0:0:0:
182,192,62044,1,0,0:0:0:0:
109,192,62133,1,0,0:0:0:0:
36,192,62221,1,0,0:0:0:0:
256,192,62221,1,0,0:0:0:0:
402,192,62221,1,0,0:0:0:0:
475,192,62221,1,0,0:0:0:0:
329,192,62309,1,0,0:0:0:0:
36,192,62397,1,0,0:0:0:0:
256,192,62397,1,0,0:0:0:0:
475,192,62397,1,0,0:0:0:0:
109,192,62397,1,0,0:0:0:0:
182,192,62397,1,0,0:0:0:0:
402,192,62486,1,0,0:0:0:0:
329,192,62574,1,0,0:0:0:0:
36,192,62574,1,0,0:0:0:0:
182,192,62574,1,0,0:0:0:0:
475,192,62574,1,0,0:0:0:0:
256,192,62662,1,0,0:0:0:0:
182,192,62750,1,0,0:0:0:0:
109,192,62750,1,0,0:0:0:0:
475,192,62750,1,0,0:0:0:0:
329,192,62750,1,0,0:0:0:0:
256,192,62839,1,0,0:0:0:0:
36,192,62839,1,0,0:0:0:0:
402,192,62839,1,0,0:0:0:0:
182,192,62927,1,0,0:0:0:0:
475,192,62927,1,0,0:0:0:0:
329,192,63015,1,0,0:0:0:0:
402,192,63103,1,0,0:0:0:0:
36,192,63103,1,0,0:0:0:0:
109,192,63103,1,0,0:0:0:0:
475,192,63103,1,0,0:0:0:0:
256,192,63103,1,0,0:0:0:0:
182,192,63191,1,0,0:0:0:0:
109,192,63280,1,0,0:0:0:0:
329,192,63280,1,0,0:0:0:0:
256,192,63368,1,0,0:0:0:0:
402,192,63368,1,0,0:0:0:0:
475,192,63368,1,0,0:0:0:0:
182,192,63456,1,0,0:0:0:0:
36,192,63456,1,0,0:0:0:0:
329,192,63456,1,0,0:0:0:0:
109,192,63456,1,0,0:0:0:0:
475,192,63544,1,0,0:0:0:0:
256,192,63633,1,0,0:0:0:0:
36,192,63633,1,0,0:0:0:0:
402,192,63633,1,0,0:0:0:0:
109,192,63633,1,0,0:0:0:0:
329,192,63633,1,0,0:0:0:0:
182,192,63721,1,0,0:0:0:0:
475,192,63809,1,0,0:0:0:0:
329,192,63809,1,0,0:0:0:0:
36,192,63809,1,0,0:0:0:0:
402,192,63809,1,0,0:0:0:0:
256,192,63809,1,0,0:0:0:0:
109,192,63897,1,0,0:0:0:0:
182,192,63897,1,0,0:0:0:0:
475,192,63986,1,0,0:0:0:0:
329,192,63986,1,0,0:0:0:0:
36,192,63986,1,0,0:0:0:0:
182,192,64074,1,0,0:0:0:0:
402,192,64074,1,0,0:0:0:0:
256,192,64162,1,0,0:0:0:0:
475,192,64162,1,0,0:0:0:0:
36,192,64162,1,0,0:0:0:0:
329,192,64162,1,0,0:0:0:0:
109,192,64162,1,0,0:0:0:0:
182,192,64250,1,0,0:0:0:0:
402,192,64250,1,0,0:0:0:0:
36,192,64339,1,0,0:0:0:0:
475,192,64339,1,0,0:0:0:0:
256,192,64339,1,0,0:0:0:0:
329,192,64427,1,0,0:0:0:0:
182,192,64427,1,0,0:0:0:0:
109,192,64515,1,0,0:0:0:0:
402,192,64515,1,0,0:0:0:0:
475,192,64515,1,0,0:0:0:0:
36,192,64515,1,0,0:0:0:0:
256,192,64515,1,0,0:0:0:0:
329,192,64603,1,0,0:0:0:0:
182,192,64603,1,0,0:0:0:0:
36,192,64691,1,0,0:0:0:0:
402,192,64691,1,0,0:0:0:0:
475,192,64691,1,0,0:0:0:0:
109,192,64780,1,0,0:0:0:0:
182,192,64780,1,0,0:0:0:0:
256,192,64868,1,0,0:0:0:0:
329,192,64868,1,0,0:0:0:0:
475,192,64868,1,0,0:0:0:0:
36,192,64868,1,0,0:0:0:0:
402,192,64868,1,0,0:0:0:0:
182,192,64956,1,0,0:0:0:0:
109,192,64956,1,0,0:0:0:0:
36,192,65044,1,0,0:0:0:0:
475,192,65044,1,0,0:0:0:0:
402,192,65044,1,0,0:0:0:0:
182,192,65133,1,0,0:0:0:0:
329,192,65133,1,0,0:0:0:0:
109,192,65221,1,0,0:0:0:0:
256,192,65221,1,0,0:0:0:0:
36,192,65221,1,0,0:0:0:0:
475,192,65221,1,0,0:0:0:0:
402,192,65221,1,0,0:0:0:0:
329,192,65309,1,0,0:0:0:0:
182,192,65309,1,0,0:0:0:0:
475,192,65397,1,0,0:0:0:0:
256,192,65397,1,0,0:0:0:0:
109,192,65397,1,0,0:0:0:0:
329,192,65486,1,0,0:0:0:0:
402,192,65486,1,0,0:0:0:0:
256,192,65574,1,0,0:0:0:0:
182,192,65574,1,0,0:0:0:0:
475,192,65574,1,0,0:0:0:0:
36,192,65574,1,0,0:0:0:0:
109,192,65574,1,0,0:0:0:0:
402,192,65662,1,0,0:0:0:0:
329,192,65662,1,0,0:0:0:0:
36,192,65750,1,0,0:0:0:0:
475,192,65750,1,0,0:0:0:0:
182,192,65750,1,0,0:0:0:0:
256,192,65839,1,0,0:0:0:0:
329,192,65839,1,0,0:0:0:0:
402,192,65927,1,0,0:0:0:0:
475,192,65927,1,0,0:0:0:0:
36,192,65927,1,0,0:0:0:0:
109,192,65927,1,0,0:0:0:0:
182,192,65927,1,0,0:0:0:0:
256,192,66015,1,0,0:0:0:0:
329,192,66015,1,0,0:0:0:0:
109,192,66103,1,0,0:0:0:0:
402,192,66103,1,0,0:0:0:0:
36,192,66103,1,0,0:0:0:0:
329,192,66191,1,0,0:0:0:0:
182,192,66191,1,0,0:0:0:0:
109,192,66280,1,0,0:0:0:0:
36,192,66280,1,0,0:0:0:0:
475,192,66280,1,0,0:0:0:0:
256,192,66280,1,0,0:0:0:0:
402,192,66280,1,0,0:0:0:0:
182,192,66368,1,0,0:0:0:0:
329,192,66368,1,0,0:0:0:0:
475,192,66456,1,0,0:0:0:0:
402,192,66456,1,0,0:0:0:0:
36,192,66456,1,0,0:0:0:0:
109,192,66544,1,0,0:0:0:0:
182,192,66544,1,0,0:0:0:0:
256,192,66633,1,0,0:0:0:0:
329,192,66633,1,0,0:0:0:0:
36,192,66633,1,0,0:0:0:0:
475,192,66633,1,0,0:0:0:0:
402,192,66633,1,0,0:0:0:0:
109,192,66721,1,0,0:0:0:0:
182,192,66721,1,0,0:0:0:0:
256,192,66809,1,0,0:0:0:0:
402,192,66809,1,0,0:0:0:0:
475,192,66809,1,0,0:0:0:0:
36,192,66809,1,0,0:0:0:0:
182,192,66897,1,0,0:0:0:0:
329,192,66897,1,0,0:0:0:0:
109,192,66986,1,0,0:0:0:0:
36,192,66986,1,0,0:0:0:0:
256,192,66986,1,0,0:0:0:0:
475,192,66986,1,0,0:0:0:0:
402,192,67074,1,0,0:0:0:0:
329,192,67074,1,0,0:0:0:0:
256,192,67162,1,0,0:0:0:0:
475,192,67162,1,0,0:0:0:0:
182,192,67162,1,0,0:0:0:0:
36,192,67162,1,0,0:0:0:0:
329,192,67250,1,0,0:0:0:0:
109,192,67250,1,0,0:0:0:0:
182,192,67339,1,0,0:0:0:0:
36,192,67339,1,0,0:0:0:0:
475,192,67339,1,0,0:0:0:0:
402,192,67339,1,0,0:0:0:0:
256,192,67427,1,0,0:0:0:0:
329,192,67427,1,0,0:0:0:0:
36,192,67515,1,0,0:0:0:0:
475,192,67515,1,0,0:0:0:0:
182,192,67515,1,0,0:0:0:0:
109,192,67515,1,0,0:0:0:0:
402,192,67603,1,0,0:0:0:0:
256,192,67603,1,0,0:0:0:0:
182,192,67691,1,0,0:0:0:0:
329,192,67691,1,0,0:0:0:0:
475,192,67691,1,0,0:0:0:0:
36,192,67691,1,0,0:0:0:0:
402,192,67780,1,0,0:0:0:0:
109,192,67780,1,0,0:0:0:0:
36,192,67868,1,0,0:0:0:0:
256,192,67868,1,0,0:0:0:0:
475,192,67868,1,0,0:0:0:0:
329,192,67868,1,0,0:0:0:0:
109,192,67956,1,0,0:0:0:0:
182,192,67956,1,0,0:0:0:0:
402,192,68044,1,0,0:0:0:0:
475,192,68044,1,0,0:0:0:0:
36,192,68044,1,0,0:0:0:0:
256,192,68044,1,0,0:0:0:0:
329,192,68133,1,0,0:0:0:0:
109,192,68133,1,0,0:0:0:0:
182,192,68133,1,0,0:0:0:0:
36,192,68221,1,0,0:0:0:0:
256,192,68221,1,0,0:0:0:0:
402,192,68221,1,0,0:0:0:0:
329,192,68309,1,0,0:0:0:0:
475,192,68309,1,0,0:0:0:0:
182,192,68309,1,0,0:0:0:0:
36,192,68397,1,0,0:0:0:0:
109,192,68397,1,0,0:0:0:0:
402,192,68397,1,0,0:0:0:0:
329,192,68486,1,0,0:0:0:0:
182,192,68486,1,0,0:0:0:0:
475,192,68486,1,0,0:0:0:0:
402,192,68574,1,0,0:0:0:0:
256,192,68574,1,0,0:0:0:0:
36,192,68574,1,0,0:0:0:0:
329,192,68662,1,0,0:0:0:0:
182,192,68662,1,0,0:0:0:0:
109,192,68662,1,0,0:0:0:0:
256,192,68750,1,0,0:0:0:0:
475,192,68750,1,0,0:0:0:0:
36,192,68750,1,0,0:0:0:0:
402,192,68750,1,0,0:0:0:0:
109,192,68794,1,0,0:0:0:0:
182,192,68839,1,0,0:0:0:0:
329,192,68839,1,0,0:0:0:0:
402,192,68883,1,0,0:0:0:0:
256,192,68927,1,0,0:0:0:0:
475,192,68927,1,0,0:0:0:0:
36,192,68927,1,0,0:0:0:0:
109,192,69015,1,0,0:0:0:0:
182,192,69015,1,0,0:0:0:0:
329,192,69015,1,0,0:0:0:0:
402,192,69103,1,0,0:0:0:0:
475,192,69103,1,0,0:0:0:0:
36,192,69103,1,0,0:0:0:0:
182,192,69191,1,0,0:0:0:0:
256,192,69191,1,0,0:0:0:0:
329,192,69191,1,0,0:0:0:0:
36,192,69280,1,0,0:0:0:0:
109,192,69280,1,0,0:0:0:0:
475,192,69280,1,0,0:0:0:0:
329,192,69368,1,0,0:0:0:0:
402,192,69368,1,0,0:0:0:0:
182,192,69368,1,0,0:0:0:0:
475,192,69456,1,0,0:0:0:0:
36,192,69456,1,0,0:0:0:0:
256,192,69456,1,0,0:0:0:0:
109,192,69544,1,0,0:0:0:0:
402,192,69544,1,0,0:0:0:0:
329,192,69633,1,0,0:0:0:0:
182,192,69633,1,0,0:0:0:0:
329,192,69809,1,0,0:0:0:0:
182,192,69809,1,0,0:0:0:0:
36,192,69809,1,0,0:0:0:0:
475,192,69897,1,0,0:0:0:0:
256,192,69897,1,0,0:0:0:0:
402,192,69897,1,0,0:0:0:0:
402,192,70074,1,0,0:0:0:0:
256,192,70074,1,0,0:0:0:0:
475,192,70074,1,0,0:0:0:0:
36,192,70162,1,0,0:0:0:0:
182,192,70162,1,0,0:0:0:0:
329,192,70162,1,0,0:0:0:0:
36,192,70339,1,0,0:0:0:0:
109,192,70339,1,0,0:0:0:0:
256,192,70339,1,0,0:0:0:0:
182,192,70427,1,0,0:0:0:0:
475,192,70427,1,0,0:0:0:0:
329,192,70427,1,0,0:0:0:0:
329,192,70603,1,0,0:0:0:0:
182,192,70603,1,0,0:0:0:0:
475,192,70603,1,0,0:0:0:0:
36,192,70691,1,0,0:0:0:0:
256,192,70691,1,0,0:0:0:0:
109,192,70691,1,0,0:0:0:0:
182,192,70868,1,0,0:0:0:0:
402,192,70868,1,0,0:0:0:0:
475,192,70868,1,0,0:0:0:0:
329,192,70956,1,0,0:0:0:0:
109,192,70956,1,0,0:0:0:0:
36,192,70956,1,0,0:0:0:0:
36,192,71133,1,0,0:0:0:0:
109,192,71133,1,0,0:0:0:0:
329,192,71133,1,0,0:0:0:0:
182,192,71221,1,0,0:0:0:0:
402,192,71221,1,0,0:0:0:0:
475,192,71221,1,0,0:0:0:0:
402,192,71397,1,0,0:0:0:0:
36,192,71397,1,0,0:0:0:0:
256,192,71397,1,0,0:0:0:0:
109,192,71486,1,0,0:0:0:0:
475,192,71486,1,0,0:0:0:0:
329,192,71486,1,0,0:0:0:0:
475,192,71662,1,0,0:0:0:0:
109,192,71662,1,0,0:0:0:0:
329,192,71662,1,0,0:0:0:0:
402,192,71750,1,0,0:0:0:0:
256,192,71750,1,0,0:0:0:0:
36,192,71750,1,0,0:0:0:0:
329,192,71927,1,0,0:0:0:0:
36,192,71927,1,0,0:0:0:0:
182,192,71927,1,0,0:0:0:0:
475,192,71927,1,0,0:0:0:0:
256,192,72103,1,0,0:0:0:0:
402,192,72103,1,0,0:0:0:0:
109,192,72103,1,0,0:0:0:0:
182,192,72191,1,0,0:0:0:0:
475,192,72191,1,0,0:0:0:0:
329,192,72191,1,0,0:0:0:0:
402,192,72368,1,0,0:0:0:0:
256,192,72368,1,0,0:0:0:0:
36,192,72368,1,0,0:0:0:0:
329,192,72456,1,0,0:0:0:0:
109,192,72456,1,0,0:0:0:0:
402,192,72633,1,0,0:0:0:0:
256,192,72633,1,0,0:0:0:0:
36,192,72633,1,0,0:0:0:0:
329,192,72721,1,0,0:0:0:0:
109,192,72721,1,0,0:0:0:0:
36,192,72897,1,0,0:0:0:0:
329,192,72897,1,0,0:0:0:0:
182,192,72897,1,0,0:0:0:0:
256,192,72986,1,0,0:0:0:0:
475,192,72986,1,0,0:0:0:0:
402,192,72986,1,0,0:0:0:0:
402,192,73162,1,0,0:0:0:0:
475,192,73162,1,0,0:0:0:0:
256,192,73162,1,0,0:0:0:0:
182,192,73250,1,0,0:0:0:0:
329,192,73250,1,0,0:0:0:0:
36,192,73250,1,0,0:0:0:0:
109,192,73427,1,0,0:0:0:0:
402,192,73427,1,0,0:0:0:0:
256,192,73427,1,0,0:0:0:0:
182,192,73515,1,8,0:0:0:0:
329,192,73515,1,0,0:0:0:0:
475,192,73515,1,0,0:0:0:0:
256,192,73691,1,0,0:0:0:0:
109,192,73691,1,0,0:0:0:0:
475,192,73691,1,0,0:0:0:0:
182,192,73780,1,0,0:0:0:0:
402,192,73780,1,0,0:0:0:0:
36,192,73780,1,0,0:0:0:0:
109,192,73956,1,0,0:0:0:0:
256,192,73956,1,0,0:0:0:0:
475,192,73956,1,0,0:0:0:0:
36,192,74044,1,0,0:0:0:0:
182,192,74044,1,0,0:0:0:0:
402,192,74044,1,0,0:0:0:0:
182,192,74221,1,0,0:0:0:0:
402,192,74221,1,0,0:0:0:0:
109,192,74221,1,0,0:0:0:0:
36,192,74309,1,0,0:0:0:0:
329,192,74309,1,0,0:0:0:0:
475,192,74309,1,0,0:0:0:0:
109,192,74486,1,0,0:0:0:0:
402,192,74486,1,0,0:0:0:0:
182,192,74486,1,0,0:0:0:0:
36,192,74574,1,0,0:0:0:0:
329,192,74574,1,0,0:0:0:0:
475,192,74574,1,0,0:0:0:0:
182,192,74750,1,0,0:0:0:0:
329,192,74750,1,0,0:0:0:0:
36,192,74750,1,0,0:0:0:0:
475,192,74750,1,0,0:0:0:0:
256,192,74839,1,0,0:0:0:0:
109,192,74839,1,0,0:0:0:0:
402,192,74839,1,0,0:0:0:0:
182,192,75015,1,0,0:0:0:0:
329,192,75015,1,0,0:0:0:0:
36,192,75015,1,0,0:0:0:0:
475,192,75015,1,0,0:0:0:0:
256,192,75191,1,0,0:0:0:0:
402,192,75191,1,0,0:0:0:0:
475,192,75191,1,0,0:0:0:0:
182,192,75280,1,0,0:0:0:0:
36,192,75280,1,0,0:0:0:0:
329,192,75280,1,0,0:0:0:0:
182,192,75456,1,0,0:0:0:0:
36,192,75456,1,0,0:0:0:0:
329,192,75456,1,0,0:0:0:0:
256,192,75544,1,0,0:0:0:0:
402,192,75544,1,0,0:0:0:0:
475,192,75544,1,0,0:0:0:0:
36,192,75721,1,0,0:0:0:0:
182,192,75721,1,0,0:0:0:0:
329,192,75721,1,0,0:0:0:0:
109,192,75809,1,0,0:0:0:0:
475,192,75809,1,0,0:0:0:0:
402,192,75809,1,0,0:0:0:0:
109,192,75986,1,0,0:0:0:0:
475,192,75986,1,0,0:0:0:0:
402,192,75986,1,0,0:0:0:0:
182,192,76074,1,0,0:0:0:0:
329,192,76074,1,0,0:0:0:0:
36,192,76074,1,0,0:0:0:0:
182,192,76250,1,0,0:0:0:0:
329,192,76250,1,0,0:0:0:0:
475,192,76250,1,0,0:0:0:0:
109,192,76339,1,0,0:0:0:0:
36,192,76339,1,0,0:0:0:0:
256,192,76339,1,0,0:0:0:0:
109,192,76515,1,0,0:0:0:0:
256,192,76515,1,0,0:0:0:0:
402,192,76515,1,0,0:0:0:0:
329,192,76603,1,0,0:0:0:0:
475,192,76603,1,0,0:0:0:0:
182,192,76603,1,0,0:0:0:0:
475,192,76780,1,0,0:0:0:0:
329,192,76780,1,0,0:0:0:0:
182,192,76780,1,0,0:0:0:0:
256,192,76868,1,0,0:0:0:0:
109,192,76868,1,0,0:0:0:0:
402,192,76868,1,0,0:0:0:0:
182,192,77044,1,0,0:0:0:0:
329,192,77044,1,0,0:0:0:0:
36,192,77044,1,0,0:0:0:0:
109,192,77133,1,0,0:0:0:0:
256,192,77133,1,0,0:0:0:0:
402,192,77133,1,0,0:0:0:0:
182,192,77309,1,0,0:0:0:0:
36,192,77309,1,0,0:0:0:0:
329,192,77309,1,0,0:0:0:0:
256,192,77397,1,0,0:0:0:0:
109,192,77397,1,0,0:0:0:0:
402,192,77397,1,0,0:0:0:0:
182,192,77574,1,0,0:0:0:0:
329,192,77574,1,0,0:0:0:0:
36,192,77574,1,0,0:0:0:0:
475,192,77574,1,0,0:0:0:0:
256,192,77750,1,0,0:0:0:0:
475,192,77750,1,0,0:0:0:0:
402,192,77750,1,0,0:0:0:0:
36,192,77839,1,0,0:0:0:0:
182,192,77839,1,0,0:0:0:0:
329,192,77839,1,0,0:0:0:0:
109,192,78015,1,0,0:0:0:0:
402,192,78015,1,0,0:0:0:0:
329,192,78015,1,0,0:0:0:0:
36,192,78103,1,0,0:0:0:0:
475,192,78103,1,0,0:0:0:0:
182,192,78103,1,0,0:0:0:0:
329,192,78280,1,0,0:0:0:0:
109,192,78280,1,0,0:0:0:0:
402,192,78280,1,0,0:0:0:0:
36,192,78368,1,0,0:0:0:0:
475,192,78368,1,0,0:0:0:0:
182,192,78368,1,0,0:0:0:0:
329,192,78544,1,0,0:0:0:0:
109,192,78544,1,0,0:0:0:0:
402,192,78544,1,0,0:0:0:0:
36,192,78633,1,0,0:0:0:0:
182,192,78633,1,0,0:0:0:0:
475,192,78633,1,0,0:0:0:0:
256,192,78809,1,0,0:0:0:0:
36,192,78809,1,0,0:0:0:0:
402,192,78809,1,0,0:0:0:0:
475,192,78897,1,0,0:0:0:0:
329,192,78897,1,0,0:0:0:0:
109,192,78897,1,0,0:0:0:0:
475,192,79074,1,0,0:0:0:0:
109,192,79074,1,0,0:0:0:0:
329,192,79074,1,0,0:0:0:0:
402,192,79162,1,0,0:0:0:0:
256,192,79162,1,0,0:0:0:0:
36,192,79162,1,0,0:0:0:0:
256,192,79339,1,0,0:0:0:0:
475,192,79339,1,0,0:0:0:0:
109,192,79339,1,0,0:0:0:0:
329,192,79427,1,0,0:0:0:0:
182,192,79427,1,0,0:0:0:0:
402,192,79427,1,0,0:0:0:0:
109,192,79603,1,0,0:0:0:0:
256,192,79603,1,0,0:0:0:0:
475,192,79603,1,0,0:0:0:0:
402,192,79691,1,0,0:0:0:0:
182,192,79691,1,0,0:0:0:0:
329,192,79691,1,0,0:0:0:0:
109,192,79868,1,0,0:0:0:0:
256,192,79868,1,0,0:0:0:0:
475,192,79868,1,0,0:0:0:0:
182,192,79956,1,0,0:0:0:0:
402,192,79956,1,0,0:0:0:0:
329,192,79956,1,0,0:0:0:0:
182,192,80133,1,0,0:0:0:0:
36,192,80133,1,0,0:0:0:0:
329,192,80133,1,0,0:0:0:0:
256,192,80221,1,0,0:0:0:0:
109,192,80221,1,0,0:0:0:0:
402,192,80221,1,0,0:0:0:0:
109,192,80397,1,0,0:0:0:0:
256,192,80397,1,0,0:0:0:0:
402,192,80397,1,0,0:0:0:0:
36,192,80486,1,0,0:0:0:0:
182,192,80486,1,0,0:0:0:0:
329,192,80486,1,0,0:0:0:0:
475,192,80662,1,0,0:0:0:0:
182,192,80662,1,0,0:0:0:0:
329,192,80662,1,0,0:0:0:0:
256,192,80750,1,0,0:0:0:0:
36,192,80750,1,0,0:0:0:0:
109,192,80750,1,0,0:0:0:0:
402,192,80750,1,0,0:0:0:0:
182,192,80839,1,0,0:0:0:0:
36,192,80927,1,0,0:0:0:0:
402,192,80927,1,0,0:0:0:0:
109,192,81015,1,0,0:0:0:0:
402,192,81103,1,0,0:0:0:0:
475,192,81103,1,0,0:0:0:0:
36,192,81103,1,0,0:0:0:0:
329,192,81103,1,0,0:0:0:0:
256,192,81103,1,0,0:0:0:0:
182,192,81191,1,0,0:0:0:0:
109,192,81280,1,0,0:0:0:0:
402,192,81280,1,0,0:0:0:0:
256,192,81368,1,0,0:0:0:0:
402,192,81456,1,0,0:0:0:0:
475,192,81456,1,0,0:0:0:0:
329,192,81456,1,0,0:0:0:0:
36,192,81456,1,0,0:0:0:0:
182,192,81456,1,0,0:0:0:0:
109,192,81544,1,0,0:0:0:0:
256,192,81633,1,0,0:0:0:0:
402,192,81633,1,0,0:0:0:0:
36,192,81721,1,0,0:0:0:0:
402,192,81809,1,0,0:0:0:0:
475,192,81809,1,0,0:0:0:0:
256,192,81809,1,0,0:0:0:0:
329,192,81809,1,0,0:0:0:0:
109,192,81809,1,0,0:0:0:0:
182,192,81897,1,0,0:0:0:0:
402,192,81986,1,0,0:0:0:0:
36,192,81986,1,0,0:0:0:0:
256,192,82074,1,0,0:0:0:0:
402,192,82162,1,0,0:0:0:0:
475,192,82162,1,0,0:0:0:0:
182,192,82162,1,0,0:0:0:0:
329,192,82162,1,0,0:0:0:0:
36,192,82162,1,0,0:0:0:0:
109,192,82250,1,0,0:0:0:0:
182,192,82339,1,0,0:0:0:0:
402,192,82339,1,0,0:0:0:0:
256,192,82427,1,0,0:0:0:0:
402,192,82515,1,0,0:0:0:0:
475,192,82515,1,0,0:0:0:0:
36,192,82515,1,0,0:0:0:0:
329,192,82515,1,0,0:0:0:0:
182,192,82515,1,0,0:0:0:0:
109,192,82603,1,0,0:0:0:0:
402,192,82691,1,0,0:0:0:0:
36,192,82691,1,0,0:0:0:0:
256,192,82780,1,0,0:0:0:0:
402,192,82868,1,0,0:0:0:0:
475,192,82868,1,0,0:0:0:0:
182,192,82868,1,0,0:0:0:0:
329,192,82868,1,0,0:0:0:0:
36,192,82868,1,0,0:0:0:0:
109,192,82956,1,0,0:0:0:0:
402,192,83044,1,0,0:0:0:0:
256,192,83044,1,0,0:0:0:0:
182,192,83133,1,0,0:0:0:0:
402,192,83221,1,0,0:0:0:0:
475,192,83221,1,0,0:0:0:0:
36,192,83221,1,0,0:0:0:0:
329,192,83221,1,0,0:0:0:0:
109,192,83221,1,0,0:0:0:0:
256,192,83309,1,0,0:0:0:0:
109,192,83397,1,0,0:0:0:0:
402,192,83397,1,0,0:0:0:0:
475,192,83397,1,0,0:0:0:0:
36,192,83397,1,0,0:0:0:0:
329,192,83486,1,0,0:0:0:0:
182,192,83486,1,0,0:0:0:0:
36,192,83574,1,0,0:0:0:0:
109,192,83574,1,0,0:0:0:0:
475,192,83574,1,0,0:0:0:0:
256,192,83574,1,0,0:0:0:0:
402,192,83662,1,0,0:0:0:0:
109,192,83750,1,0,0:0:0:0:
329,192,83750,1,0,0:0:0:0:
256,192,83839,1,0,0:0:0:0:
36,192,83927,1,0,0:0:0:0:
109,192,83927,1,0,0:0:0:0:
402,192,83927,1,0,0:0:0:0:
475,192,83927,1,0,0:0:0:0:
182,192,83927,1,0,0:0:0:0:
256,192,84015,1,0,0:0:0:0:
475,192,84103,1,0,0:0:0:0:
109,192,84103,1,0,0:0:0:0:
329,192,84191,1,0,0:0:0:0:
36,192,84280,1,0,0:0:0:0:
109,192,84280,1,0,0:0:0:0:
182,192,84280,1,0,0:0:0:0:
402,192,84280,1,0,0:0:0:0:
475,192,84280,1,0,0:0:0:0:
256,192,84368,1,0,0:0:0:0:
329,192,84456,1,0,0:0:0:0:
109,192,84456,1,0,0:0:0:0:
475,192,84544,1,0,0:0:0:0:
36,192,84633,1,0,0:0:0:0:
109,192,84633,1,0,0:0:0:0:
182,192,84633,1,0,0:0:0:0:
329,192,84633,1,0,0:0:0:0:
402,192,84633,1,0,0:0:0:0:
475,192,84721,1,0,0:0:0:0:
109,192,84809,1,0,0:0:0:0:
329,192,84809,1,0,0:0:0:0:
256,192,84897,1,0,0:0:0:0:
109,192,84986,1,0,0:0:0:0:
36,192,84986,1,0,0:0:0:0:
402,192,84986,1,0,0:0:0:0:
475,192,84986,1,0,0:0:0:0:
182,192,84986,1,0,0:0:0:0:
329,192,85074,1,0,0:0:0:0:
256,192,85162,1,0,0:0:0:0:
109,192,85162,1,0,0:0:0:0:
402,192,85250,1,0,0:0:0:0:
36,192,85339,1,0,0:0:0:0:
109,192,85339,1,0,0:0:0:0:
475,192,85339,1,0,0:0:0:0:
329,192,85339,1,0,0:0:0:0:
182,192,85339,1,0,0:0:0:0:
402,192,85427,1,0,0:0:0:0:
109,192,85515,1,0,0:0:0:0:
256,192,85515,1,0,0:0:0:0:
329,192,85603,1,0,0:0:0:0:
109,192,85691,1,0,0:0:0:0:
36,192,85691,1,0,0:0:0:0:
475,192,85691,1,0,0:0:0:0:
256,192,85691,1,0,0:0:0:0:
182,192,85780,1,0,0:0:0:0:
329,192,85780,1,0,0:0:0:0:
402,192,85780,1,0,0:0:0:0:
36,192,85868,1,0,0:0:0:0:
475,192,85868,1,0,0:0:0:0:
256,192,85868,1,0,0:0:0:0:
109,192,85956,1,0,0:0:0:0:
329,192,85956,1,0,0:0:0:0:
402,192,85956,1,0,0:0:0:0:
182,192,86044,1,0,0:0:0:0:
36,192,86044,1,0,0:0:0:0:
256,192,86044,1,0,0:0:0:0:
475,192,86044,1,0,0:0:0:0:
402,192,86133,1,0,0:0:0:0:
36,192,86221,1,0,0:0:0:0:
109,192,86221,1,0,0:0:0:0:
256,192,86221,1,0,0:0:0:0:
329,192,86221,1,0,0:0:0:0:
182,192,86309,1,0,0:0:0:0:
402,192,86309,1,0,0:0:0:0:
36,192,86397,1,0,0:0:0:0:
109,192,86397,1,0,0:0:0:0:
329,192,86397,1,0,0:0:0:0:
256,192,86397,1,0,0:0:0:0:
475,192,86397,1,0,0:0:0:0:
402,192,86486,1,0,0:0:0:0:
256,192,86574,1,0,0:0:0:0:
36,192,86574,1,0,0:0:0:0:
182,192,86574,1,0,0:0:0:0:
475,192,86574,1,0,0:0:0:0:
109,192,86662,1,0,0:0:0:0:
256,192,86750,1,0,0:0:0:0:
475,192,86750,1,0,0:0:0:0:
36,192,86750,1,0,0:0:0:0:
329,192,86750,1,0,0:0:0:0:
402,192,86750,1,0,0:0:0:0:
182,192,86839,1,0,0:0:0:0:
109,192,86927,1,0,0:0:0:0:
256,192,86927,1,0,0:0:0:0:
402,192,86927,1,0,0:0:0:0:
475,192,86927,1,0,0:0:0:0:
329,192,87015,1,0,0:0:0:0:
182,192,87103,1,0,0:0:0:0:
402,192,87103,1,0,0:0:0:0:
36,192,87103,1,0,0:0:0:0:
475,192,87103,1,0,0:0:0:0:
109,192,87103,1,0,0:0:0:0:
256,192,87191,1,0,0:0:0:0:
402,192,87280,1,0,0:0:0:0:
182,192,87280,1,0,0:0:0:0:
475,192,87280,1,0,0:0:0:0:
36,192,87280,1,0,0:0:0:0:
329,192,87368,1,0,0:0:0:0:
36,192,87456,1,0,0:0:0:0:
256,192,87456,1,0,0:0:0:0:
475,192,87456,1,0,0:0:0:0:
402,192,87456,1,0,0:0:0:0:
109,192,87456,1,0,0:0:0:0:
182,192,87544,1,0,0:0:0:0:
402,192,87633,1,0,0:0:0:0:
256,192,87633,1,0,0:0:0:0:
36,192,87633,1,0,0:0:0:0:
475,192,87633,1,0,0:0:0:0:
109,192,87721,1,0,0:0:0:0:
329,192,87809,1,0,0:0:0:0:
182,192,87809,1,0,0:0:0:0:
36,192,87809,1,0,0:0:0:0:
475,192,87809,1,0,0:0:0:0:
402,192,87809,1,0,0:0:0:0:
256,192,87897,1,0,0:0:0:0:
109,192,87986,1,0,0:0:0:0:
329,192,87986,1,0,0:0:0:0:
182,192,87986,1,0,0:0:0:0:
475,192,87986,1,0,0:0:0:0:
402,192,88074,1,0,0:0:0:0:
109,192,88162,1,0,0:0:0:0:
36,192,88162,1,0,0:0:0:0:
475,192,88162,1,0,0:0:0:0:
329,192,88162,1,0,0:0:0:0:
182,192,88162,1,0,0:0:0:0:
256,192,88250,1,0,0:0:0:0:
182,192,88339,1,0,0:0:0:0:
402,192,88339,1,0,0:0:0:0:
475,192,88339,1,0,0:0:0:0:
36,192,88339,1,0,0:0:0:0:
329,192,88427,1,0,0:0:0:0:
402,192,88515,1,0,0:0:0:0:
256,192,88515,1,0,0:0:0:0:
36,192,88515,1,0,0:0:0:0:
475,192,88515,1,0,0:0:0:0:
109,192,88515,1,0,0:0:0:0:
182,192,88603,1,0,0:0:0:0:
256,192,88691,1,0,0:0:0:0:
402,192,88691,1,0,0:0:0:0:
36,192,88691,1,0,0:0:0:0:
475,192,88691,1,0,0:0:0:0:
109,192,88780,1,0,0:0:0:0:
36,192,88868,1,0,0:0:0:0:
256,192,88868,1,0,0:0:0:0:
475,192,88868,1,0,0:0:0:0:
182,192,88868,1,0,0:0:0:0:
402,192,88868,1,0,0:0:0:0:
329,192,88956,1,0,0:0:0:0:
182,192,89044,1,0,0:0:0:0:
109,192,89044,1,0,0:0:0:0:
402,192,89044,1,0,0:0:0:0:
475,192,89044,1,0,0:0:0:0:
256,192,89133,1,0,0:0:0:0:
402,192,89221,1,0,0:0:0:0:
329,192,89221,1,0,0:0:0:0:
36,192,89221,1,0,0:0:0:0:
475,192,89221,1,0,0:0:0:0:
109,192,89221,1,0,0:0:0:0:
182,192,89309,1,0,0:0:0:0:
329,192,89397,1,0,0:0:0:0:
256,192,89397,1,0,0:0:0:0:
475,192,89397,1,0,0:0:0:0:
36,192,89397,1,0,0:0:0:0:
402,192,89397,1,0,0:0:0:0:
109,192,89486,1,0,0:0:0:0:
182,192,89574,1,0,0:0:0:0:
256,192,89574,1,0,0:0:0:0:
402,192,89574,1,0,0:0:0:0:
475,192,89574,1,0,0:0:0:0:
36,192,89574,1,0,0:0:0:0:
329,192,89662,1,0,0:0:0:0:
256,192,89750,1,0,0:0:0:0:
36,192,89750,1,0,0:0:0:0:
402,192,89750,1,0,0:0:0:0:
475,192,89750,1,0,0:0:0:0:
109,192,89750,1,0,0:0:0:0:
182,192,89839,1,0,0:0:0:0:
402,192,89927,1,0,0:0:0:0:
329,192,89927,1,0,0:0:0:0:
36,192,89927,1,0,0:0:0:0:
475,192,89927,1,0,0:0:0:0:
109,192,89927,1,0,0:0:0:0:
256,192,90015,1,0,0:0:0:0:
329,192,90103,1,0,0:0:0:0:
109,192,90103,1,0,0:0:0:0:
475,192,90103,1,0,0:0:0:0:
36,192,90103,1,0,0:0:0:0:
182,192,90103,1,0,0:0:0:0:
402,192,90191,1,0,0:0:0:0:
109,192,90280,1,0,0:0:0:0:
475,192,90280,1,0,0:0:0:0:
329,192,90280,1,0,0:0:0:0:
36,192,90280,1,0,0:0:0:0:
256,192,90280,1,0,0:0:0:0:
182,192,90368,1,0,0:0:0:0:
475,192,90456,1,0,0:0:0:0:
256,192,90456,1,0,0:0:0:0:
36,192,90456,1,0,0:0:0:0:
109,192,90456,1,0,0:0:0:0:
329,192,90456,1,0,0:0:0:0:
402,192,90544,1,0,0:0:0:0:
256,192,90633,1,0,0:0:0:0:
36,192,90633,1,0,0:0:0:0:
182,192,90633,1,0,0:0:0:0:
475,192,90633,1,0,0:0:0:0:
109,192,90633,1,0,0:0:0:0:
329,192,90721,1,0,0:0:0:0:
182,192,90809,1,0,0:0:0:0:
329,192,90897,1,0,0:0:0:0:
182,192,90986,1,0,0:0:0:0:
36,192,90986,1,0,0:0:0:0:
402,192,90986,1,0,0:0:0:0:
475,192,90986,1,0,0:0:0:0:
109,192,90986,1,0,0:0:0:0:
329,192,91074,1,0,0:0:0:0:
182,192,91162,1,0,0:0:0:0:
329,192,91250,1,0,0:0:0:0:
182,192,91339,1,0,0:0:0:0:
475,192,91339,1,0,0:0:0:0:
36,192,91339,1,0,0:0:0:0:
109,192,91339,1,0,0:0:0:0:
402,192,91383,1,0,0:0:0:0:
329,192,91427,1,0,0:0:0:0:
256,192,91471,1,0,0:0:0:0:
109,192,91515,1,0,0:0:0:0:
36,192,91515,1,0,0:0:0:0:
475,192,91515,1,0,0:0:0:0:
402,192,91515,1,0,0:0:0:0:
329,192,91603,1,0,0:0:0:0:
182,192,91603,1,0,0:0:0:0:
256,192,91691,1,0,0:0:0:0:
475,192,91691,1,0,0:0:0:0:
36,192,91691,1,0,0:0:0:0:
109,192,91780,1,0,0:0:0:0:
329,192,91780,1,0,0:0:0:0:
402,192,91780,1,0,0:0:0:0:
182,192,91780,1,0,0:0:0:0:
36,192,91868,1,0,0:0:0:0:
256,192,91868,1,0,0:0:0:0:
475,192,91868,1,0,0:0:0:0:
109,192,91956,1,0,0:0:0:0:
182,192,91956,1,0,0:0:0:0:
402,192,91956,1,0,0:0:0:0:
329,192,91956,1,0,0:0:0:0:
36,192,92044,1,0,0:0:0:0:
256,192,92044,1,0,0:0:0:0:
475,192,92044,1,0,0:0:0:0:
109,192,92133,1,0,0:0:0:0:
402,192,92133,1,0,0:0:0:0:
36,192,92221,1,0,0:0:0:0:
182,192,92221,1,0,0:0:0:0:
329,192,92221,1,0,0:0:0:0:
256,192,92221,1,0,0:0:0:0:
475,192,92221,1,0,0:0:0:0:
109,192,92309,1,0,0:0:0:0:
402,192,92309,1,0,0:0:0:0:
256,192,92397,1,0,0:0:0:0:
329,192,92397,1,0,0:0:0:0:
36,192,92486,1,0,0:0:0:0:
182,192,92486,1,0,0:0:0:0:
402,192,92486,1,0,0:0:0:0:
109,192,92486,1,0,0:0:0:0:
475,192,92486,1,0,0:0:0:0:
256,192,92574,1,0,0:0:0:0:
329,192,92574,1,0,0:0:0:0:
475,192,92662,1,0,0:0:0:0:
36,192,92662,1,0,0:0:0:0:
402,192,92750,1,0,0:0:0:0:
256,192,92750,1,0,0:0:0:0:
182,192,92750,1,0,0:0:0:0:
109,192,92750,1,0,0:0:0:0:
329,192,92750,1,0,0:0:0:0:
475,192,92839,1,0,0:0:0:0:
36,192,92839,1,0,0:0:0:0:
329,192,92927,1,0,0:0:0:0:
182,192,92927,1,0,0:0:0:0:
109,192,93015,1,0,0:0:0:0:
475,192,93015,1,0,0:0:0:0:
256,192,93015,1,0,0:0:0:0:
36,192,93015,1,0,0:0:0:0:
402,192,93015,1,0,0:0:0:0:
329,192,93103,1,0,0:0:0:0:
182,192,93103,1,0,0:0:0:0:
402,192,93191,1,0,0:0:0:0:
36,192,93191,1,0,0:0:0:0:
475,192,93280,1,0,0:0:0:0:
256,192,93280,1,0,0:0:0:0:
109,192,93280,1,0,0:0:0:0:
329,192,93280,1,0,0:0:0:0:
182,192,93280,1,0,0:0:0:0:
402,192,93368,1,0,0:0:0:0:
36,192,93368,1,0,0:0:0:0:
329,192,93456,1,0,0:0:0:0:
182,192,93456,1,0,0:0:0:0:
36,192,93544,1,0,0:0:0:0:
109,192,93544,1,0,0:0:0:0:
475,192,93544,1,0,0:0:0:0:
256,192,93544,1,0,0:0:0:0:
402,192,93544,1,0,0:0:0:0:
329,192,93633,1,0,0:0:0:0:
182,192,93633,1,0,0:0:0:0:
109,192,93721,1,0,0:0:0:0:
475,192,93721,1,0,0:0:0:0:
36,192,93809,1,0,0:0:0:0:
182,192,93809,1,0,0:0:0:0:
402,192,93809,1,0,0:0:0:0:
256,192,93809,1,0,0:0:0:0:
329,192,93809,1,0,0:0:0:0:
475,192,93897,1,0,0:0:0:0:
109,192,93897,1,0,0:0:0:0:
182,192,93986,1,0,0:0:0:0:
329,192,93986,1,0,0:0:0:0:
475,192,94074,1,0,0:0:0:0:
36,192,94074,1,0,0:0:0:0:
402,192,94074,1,0,0:0:0:0:
256,192,94074,1,0,0:0:0:0:
109,192,94074,1,0,0:0:0:0:
182,192,94162,1,0,0:0:0:0:
329,192,94162,1,0,0:0:0:0:
402,192,94250,1,0,0:0:0:0:
256,192,94250,1,0,0:0:0:0:
475,192,94339,1,0,0:0:0:0:
36,192,94339,1,0,0:0:0:0:
329,192,94339,1,0,0:0:0:0:
109,192,94339,1,0,0:0:0:0:
182,192,94339,1,0,0:0:0:0:
256,192,94427,1,0,0:0:0:0:
402,192,94427,1,0,0:0:0:0:
36,192,94515,1,0,0:0:0:0:
475,192,94515,1,0,0:0:0:0:
329,192,94515,1,0,0:0:0:0:
109,192,94515,1,0,0:0:0:0:
182,192,94603,1,0,0:0:0:0:
402,192,94603,1,0,0:0:0:0:
475,192,94691,1,0,0:0:0:0:
36,192,94691,1,0,0:0:0:0:
256,192,94691,1,0,0:0:0:0:
109,192,94780,1,0,0:0:0:0:
329,192,94780,1,0,0:0:0:0:
402,192,94780,1,0,0:0:0:0:
182,192,94780,1,0,0:0:0:0:
475,192,94868,1,0,0:0:0:0:
36,192,94868,1,0,0:0:0:0:
329,192,94956,1,0,0:0:0:0:
182,192,94956,1,0,0:0:0:0:
402,192,95044,1,0,0:0:0:0:
109,192,95044,1,0,0:0:0:0:
36,192,95044,1,0,0:0:0:0:
475,192,95044,1,0,0:0:0:0:
256,192,95044,1,0,0:0:0:0:
329,192,95133,1,0,0:0:0:0:
182,192,95133,1,0,0:0:0:0:
475,192,95221,1,0,0:0:0:0:
36,192,95221,1,0,0:0:0:0:
109,192,95309,1,0,0:0:0:0:
256,192,95309,1,0,0:0:0:0:
402,192,95309,1,0,0:0:0:0:
329,192,95309,1,0,0:0:0:0:
182,192,95309,1,0,0:0:0:0:
475,192,95397,1,0,0:0:0:0:
36,192,95397,1,0,0:0:0:0:
256,192,95486,1,0,0:0:0:0:
182,192,95486,1,0,0:0:0:0:
475,192,95574,1,0,0:0:0:0:
109,192,95574,1,0,0:0:0:0:
36,192,95574,1,0,0:0:0:0:
329,192,95574,1,0,0:0:0:0:
402,192,95574,1,0,0:0:0:0:
256,192,95662,1,0,0:0:0:0:
182,192,95662,1,0,0:0:0:0:
36,192,95750,1,0,0:0:0:0:
402,192,95750,1,0,0:0:0:0:
256,192,95839,1,0,0:0:0:0:
109,192,95839,1,0,0:0:0:0:
329,192,95839,1,0,0:0:0:0:
475,192,95839,1,0,0:0:0:0:
182,192,95839,1,0,0:0:0:0:
402,192,95927,1,0,0:0:0:0:
36,192,95927,1,0,0:0:0:0:
182,192,96015,1,0,0:0:0:0:
329,192,96015,1,0,0:0:0:0:
402,192,96103,1,0,0:0:0:0:
36,192,96103,1,0,0:0:0:0:
256,192,96103,1,0,0:0:0:0:
475,192,96103,1,0,0:0:0:0:
109,192,96103,1,0,0:0:0:0:
329,192,96191,1,0,0:0:0:0:
182,192,96191,1,0,0:0:0:0:
256,192,96280,1,0,0:0:0:0:
36,192,96280,1,0,0:0:0:0:
402,192,96368,1,0,0:0:0:0:
109,192,96368,1,0,0:0:0:0:
475,192,96368,1,0,0:0:0:0:
329,192,96368,1,0,0:0:0:0:
182,192,96368,1,0,0:0:0:0:
256,192,96456,1,0,0:0:0:0:
36,192,96456,1,0,0:0:0:0:
475,192,96544,1,0,0:0:0:0:
402,192,96544,1,0,0:0:0:0:
36,192,96633,1,0,0:0:0:0:
256,192,96633,1,0,0:0:0:0:
182,192,96633,1,0,0:0:0:0:
329,192,96633,1,0,0:0:0:0:
109,192,96633,1,0,0:0:0:0:
402,192,96721,1,0,0:0:0:0:
475,192,96721,1,0,0:0:0:0:
182,192,96809,1,0,0:0:0:0:
36,192,96809,1,0,0:0:0:0:
109,192,96897,1,0,0:0:0:0:
402,192,96897,1,0,0:0:0:0:
475,192,96897,1,0,0:0:0:0:
329,192,96897,1,0,0:0:0:0:
256,192,96897,1,0,0:0:0:0:
182,192,96986,1,0,0:0:0:0:
36,192,96986,1,0,0:0:0:0:
329,192,97074,1,0,0:0:0:0:
402,192,97074,1,0,0:0:0:0:
109,192,97162,1,0,0:0:0:0:
256,192,97162,1,0,0:0:0:0:
475,192,97162,1,0,0:0:0:0:
36,192,97162,1,0,0:0:0:0:
329,192,97250,1,0,0:0:0:0:
182,192,97250,1,0,0:0:0:0:
36,192,97339,1,0,0:0:0:0:
109,192,97339,1,0,0:0:0:0:
256,192,97339,1,0,0:0:0:0:
475,192,97339,1,0,0:0:0:0:
402,192,97339,1,0,0:0:0:0:
329,192,97427,1,0,0:0:0:0:
182,192,97515,1,0,0:0:0:0:
109,192,97515,1,0,0:0:0:0:
36,192,97515,1,0,0:0:0:0:
475,192,97515,1,0,0:0:0:0:
402,192,97515,1,0,0:0:0:0:
329,192,97603,1,0,0:0:0:0:
475,192,97691,1,0,0:0:0:0:
109,192,97691,1,0,0:0:0:0:
36,192,97691,1,0,0:0:0:0:
256,192,97691,1,0,0:0:0:0:
182,192,97780,1,0,0:0:0:0:
402,192,97780,1,0,0:0:0:0:
36,192,97868,1,0,0:0:0:0:
475,192,97868,1,0,0:0:0:0:
109,192,97868,1,0,0:0:0:0:
329,192,97868,1,0,0:0:0:0:
256,192,97868,1,0,0:0:0:0:
402,192,97956,1,0,0:0:0:0:
182,192,97956,1,0,0:0:0:0:
329,192,98044,1,0,0:0:0:0:
109,192,98044,1,0,0:0:0:0:
36,192,98133,1,0,0:0:0:0:
475,192,98133,1,0,0:0:0:0:
256,192,98133,1,0,0:0:0:0:
402,192,98133,1,0,0:0:0:0:
182,192,98133,1,0,0:0:0:0:
109,192,98221,1,0,0:0:0:0:
329,192,98221,1,0,0:0:0:0:
475,192,98309,1,0,0:0:0:0:
182,192,98309,1,0,0:0:0:0:
256,192,98397,1,0,0:0:0:0:
109,192,98397,1,0,0:0:0:0:
402,192,98397,1,0,0:0:0:0:
329,192,98397,1,0,0:0:0:0:
36,192,98397,1,0,0:0:0:0:
475,192,98486,1,0,0:0:0:0:
182,192,98486,1,0,0:0:0:0:
402,192,98574,1,0,0:0:0:0:
36,192,98574,1,0,0:0:0:0:
329,192,98662,1,0,0:0:0:0:
182,192,98662,1,0,0:0:0:0:
475,192,98662,1,0,0:0:0:0:
256,192,98662,1,0,0:0:0:0:
109,192,98662,1,0,0:0:0:0:
36,192,98750,1,0,0:0:0:0:
402,192,98750,1,0,0:0:0:0:
182,192,98839,1,0,0:0:0:0:
329,192,98839,1,0,0:0:0:0:
256,192,98927,1,0,0:0:0:0:
475,192,98927,1,0,0:0:0:0:
36,192,98927,1,0,0:0:0:0:
402,192,98927,1,0,0:0:0:0:
109,192,98927,1,0,0:0:0:0:
182,192,99015,1,0,0:0:0:0:
329,192,99015,1,0,0:0:0:0:
109,192,99103,1,0,0:0:0:0:
402,192,99103,1,0,0:0:0:0:
182,192,99191,1,0,0:0:0:0:
36,192,99191,1,0,0:0:0:0:
329,192,99191,1,0,0:0:0:0:
475,192,99191,1,0,0:0:0:0:
256,192,99191,1,0,0:0:0:0:
109,192,99280,1,0,0:0:0:0:
402,192,99280,1,0,0:0:0:0:
475,192,99368,1,0,0:0:0:0:
182,192,99368,1,0,0:0:0:0:
256,192,99456,1,0,0:0:0:0:
329,192,99456,1,0,0:0:0:0:
109,192,99456,1,0,0:0:0:0:
36,192,99456,1,0,0:0:0:0:
402,192,99456,1,0,0:0:0:0:
182,192,99544,1,0,0:0:0:0:
475,192,99544,1,0,0:0:0:0:
256,192,99633,1,0,0:0:0:0:
402,192,99633,1,0,0:0:0:0:
329,192,99721,1,0,0:0:0:0:
109,192,99721,1,0,0:0:0:0:
36,192,99721,1,0,0:0:0:0:
475,192,99721,1,0,0:0:0:0:
182,192,99721,1,0,0:0:0:0:
256,192,99809,1,0,0:0:0:0:
402,192,99809,1,0,0:0:0:0:
182,192,99897,1,0,0:0:0:0:
329,192,99897,1,0,0:0:0:0:
36,192,99986,1,0,0:0:0:0:
109,192,99986,1,0,0:0:0:0:
475,192,99986,1,0,0:0:0:0:
402,192,99986,1,0,0:0:0:0:
256,192,99986,1,0,0:0:0:0:
329,192,100074,1,0,0:0:0:0:
182,192,100074,1,0,0:0:0:0:
402,192,100162,1,0,0:0:0:0:
36,192,100162,1,0,0:0:0:0:
475,192,100162,1,0,0:0:0:0:
256,192,100162,1,0,0:0:0:0:
109,192,100250,1,0,0:0:0:0:
329,192,100250,1,0,0:0:0:0:
475,192,100339,1,0,0:0:0:0:
36,192,100339,1,0,0:0:0:0:
402,192,100339,1,0,0:0:0:0:
182,192,100339,1,0,0:0:0:0:
329,192,100427,1,0,0:0:0:0:
109,192,100427,1,0,0:0:0:0:
256,192,100427,1,0,0:0:0:0:
182,192,100515,1,0,0:0:0:0:
475,192,100515,1,0,0:0:0:0:
329,192,100603,1,0,0:0:0:0:
109,192,100603,1,0,0:0:0:0:
402,192,100691,1,0,0:0:0:0:
36,192,100691,1,0,0:0:0:0:
475,192,100691,1,0,0:0:0:0:
182,192,100691,1,0,0:0:0:0:
256,192,100691,1,0,0:0:0:0:
109,192,100780,1,0,0:0:0:0:
329,192,100780,1,0,0:0:0:0:
402,192,100868,1,0,0:0:0:0:
182,192,100868,1,0,0:0:0:0:
109,192,100956,1,0,0:0:0:0:
36,192,100956,1,0,0:0:0:0:
256,192,100956,1,0,0:0:0:0:
475,192,100956,1,0,0:0:0:0:
329,192,100956,1,0,0:0:0:0:
182,192,101044,1,0,0:0:0:0:
402,192,101044,1,0,0:0:0:0:
329,192,101133,1,0,0:0:0:0:
109,192,101133,1,0,0:0:0:0:
475,192,101221,1,0,0:0:0:0:
182,192,101221,1,0,0:0:0:0:
36,192,101221,1,0,0:0:0:0:
402,192,101221,1,0,0:0:0:0:
256,192,101221,1,0,0:0:0:0:
109,192,101309,1,0,0:0:0:0:
329,192,101309,1,0,0:0:0:0:
475,192,101397,1,0,0:0:0:0:
182,192,101397,1,0,0:0:0:0:
402,192,101486,1,0,0:0:0:0:
109,192,101486,1,0,0:0:0:0:
36,192,101486,1,0,0:0:0:0:
329,192,101486,1,0,0:0:0:0:
256,192,101486,1,0,0:0:0:0:
182,192,101574,1,0,0:0:0:0:
475,192,101574,1,0,0:0:0:0:
329,192,101662,1,0,0:0:0:0:
402,192,101662,1,0,0:0:0:0:
109,192,101750,1,0,0:0:0:0:
475,192,101750,1,0,0:0:0:0:
36,192,101750,1,0,0:0:0:0:
256,192,101750,1,0,0:0:0:0:
182,192,101750,1,0,0:0:0:0:
402,192,101839,1,0,0:0:0:0:
329,192,101839,1,0,0:0:0:0:
109,192,101927,1,0,0:0:0:0:
256,192,101927,1,0,0:0:0:0:
36,192,101927,1,0,0:0:0:0:
329,192,102015,1,0,0:0:0:0:
402,192,102015,1,0,0:0:0:0:
475,192,102015,1,0,0:0:0:0:
182,192,102015,1,0,0:0:0:0:
256,192,102103,1,0,0:0:0:0:
36,192,102103,1,0,0:0:0:0:
109,192,102191,1,0,0:0:0:0:
329,192,102191,1,0,0:0:0:0:
475,192,102280,1,0,0:0:0:0:
36,192,102280,1,0,0:0:0:0:
256,192,102280,1,0,0:0:0:0:
402,192,102280,1,0,0:0:0:0:
182,192,102280,1,0,0:0:0:0:
109,192,102368,1,0,0:0:0:0:
329,192,102368,1,0,0:0:0:0:
256,192,102456,1,0,0:0:0:0:
36,192,102456,1,0,0:0:0:0:
402,192,102544,1,0,0:0:0:0:
182,192,102544,1,0,0:0:0:0:
475,192,102544,1,0,0:0:0:0:
329,192,102544,1,0,0:0:0:0:
109,192,102544,1,0,0:0:0:0:
256,192,102633,1,0,0:0:0:0:
36,192,102633,1,0,0:0:0:0:
109,192,102677,1,0,0:0:0:0:
475,192,102677,1,0,0:0:0:0:
182,192,102721,1,0,0:0:0:0:
402,192,102721,1,0,0:0:0:0:
329,192,102765,1,0,0:0:0:0:
256,192,102809,1,0,0:0:0:0:
36,192,102809,1,0,0:0:0:0:
475,192,102809,1,0,0:0:0:0:
402,192,102897,1,0,0:0:0:0:
329,192,102897,1,0,0:0:0:0:
109,192,102897,1,0,0:0:0:0:
182,192,102897,1,0,0:0:0:0:
475,192,102986,1,0,0:0:0:0:
256,192,102986,1,0,0:0:0:0:
36,192,102986,1,0,0:0:0:0:
329,192,103074,1,0,0:0:0:0:
109,192,103074,1,0,0:0:0:0:
182,192,103074,1,0,0:0:0:0:
402,192,103162,1,0,0:0:0:0:
475,192,103162,1,0,0:0:0:0:
256,192,103162,1,0,0:0:0:0:
109,192,103250,1,0,0:0:0:0:
36,192,103250,1,0,0:0:0:0:
329,192,103250,1,0,0:0:0:0:
402,192,103339,1,0,0:0:0:0:
475,192,103339,1,0,0:0:0:0:
182,192,103339,1,0,0:0:0:0:
256,192,103427,1,0,0:0:0:0:
36,192,103427,1,0,0:0:0:0:
329,192,103515,1,0,0:0:0:0:
182,192,103515,1,0,0:0:0:0:
475,192,103515,1,0,0:0:0:0:
402,192,103515,1,0,0:0:0:0:
109,192,103515,1,0,0:0:0:0:
36,192,103603,1,0,0:0:0:0:
256,192,103603,1,0,0:0:0:0:
402,192,103691,1,0,0:0:0:0:
475,192,103691,1,0,0:0:0:0:
329,192,103780,1,0,0:0:0:0:
109,192,103780,1,0,0:0:0:0:
36,192,103780,1,0,0:0:0:0:
182,192,103780,1,0,0:0:0:0:
256,192,103780,1,0,0:0:0:0:
475,192,103868,1,0,0:0:0:0:
402,192,103868,1,0,0:0:0:0:
329,192,103956,1,0,0:0:0:0:
182,192,103956,1,0,0:0:0:0:
402,192,104044,1,0,0:0:0:0:
109,192,104044,1,0,0:0:0:0:
475,192,104044,1,0,0:0:0:0:
256,192,104044,1,0,0:0:0:0:
36,192,104044,1,0,0:0:0:0:
329,192,104133,1,0,0:0:0:0:
182,192,104133,1,0,0:0:0:0:
109,192,104221,1,0,0:0:0:0:
256,192,104221,1,0,0:0:0:0:
36,192,104309,1,0,0:0:0:0:
402,192,104309,1,0,0:0:0:0:
475,192,104309,1,0,0:0:0:0:
182,192,104309,1,0,0:0:0:0:
329,192,104309,1,0,0:0:0:0:
109,192,104397,1,0,0:0:0:0:
256,192,104397,1,0,0:0:0:0:
36,192,104486,1,0,0:0:0:0:
329,192,104486,1,0,0:0:0:0:
256,192,104574,1,0,0:0:0:0:
109,192,104574,1,0,0:0:0:0:
475,192,104574,1,0,0:0:0:0:
182,192,104574,1,0,0:0:0:0:
402,192,104574,1,0,0:0:0:0:
36,192,104662,1,0,0:0:0:0:
329,192,104662,1,0,0:0:0:0:
182,192,104750,1,0,0:0:0:0:
402,192,104750,1,0,0:0:0:0:
109,192,104839,1,0,0:0:0:0:
329,192,104839,1,0,0:0:0:0:
475,192,104839,1,0,0:0:0:0:
36,192,104839,1,0,0:0:0:0:
256,192,104839,1,0,0:0:0:0:
182,192,104927,1,0,0:0:0:0:
402,192,104927,1,0,0:0:0:0:
109,192,105015,1,0,0:0:0:0:
475,192,105015,1,0,0:0:0:0:
36,192,105103,1,0,0:0:0:0:
329,192,105103,1,0,0:0:0:0:
182,192,105103,1,0,0:0:0:0:
402,192,105103,1,0,0:0:0:0:
256,192,105103,1,0,0:0:0:0:
475,192,105191,1,0,0:0:0:0:
109,192,105191,1,0,0:0:0:0:
329,192,105280,1,0,0:0:0:0:
182,192,105280,1,0,0:0:0:0:
475,192,105368,1,0,0:0:0:0:
36,192,105368,1,0,0:0:0:0:
256,192,105368,1,0,0:0:0:0:
109,192,105368,1,0,0:0:0:0:
402,192,105368,1,0,0:0:0:0:
329,192,105456,1,0,0:0:0:0:
182,192,105456,1,0,0:0:0:0:
109,192,105544,1,0,0:0:0:0:
475,192,105544,1,0,0:0:0:0:
36,192,105633,1,0,0:0:0:0:
256,192,105633,1,0,0:0:0:0:
402,192,105633,1,0,0:0:0:0:
182,192,105633,1,0,0:0:0:0:
329,192,105633,1,0,0:0:0:0:
475,192,105721,1,0,0:0:0:0:
109,192,105721,1,0,0:0:0:0:
329,192,105809,1,0,0:0:0:0:
36,192,105809,1,0,0:0:0:0:
402,192,105809,1,0,0:0:0:0:
256,192,105809,1,0,0:0:0:0:
182,192,105897,1,0,0:0:0:0:
475,192,105897,1,0,0:0:0:0:
109,192,105986,1,0,0:0:0:0:
36,192,105986,1,0,0:0:0:0:
402,192,105986,1,0,0:0:0:0:
256,192,105986,1,0,0:0:0:0:
329,192,106074,1,0,0:0:0:0:
182,192,106074,1,0,0:0:0:0:
475,192,106074,1,0,0:0:0:0:
256,192,106162,1,0,0:0:0:0:
402,192,106162,1,0,0:0:0:0:
182,192,106250,1,0,0:0:0:0:
329,192,106250,1,0,0:0:0:0:
36,192,106339,1,0,0:0:0:0:
402,192,106339,1,0,0:0:0:0:
475,192,106339,1,0,0:0:0:0:
256,192,106339,1,0,0:0:0:0:
109,192,106339,1,0,0:0:0:0:
329,192,106427,1,0,0:0:0:0:
182,192,106427,1,0,0:0:0:0:
256,192,106515,1,0,0:0:0:0:
36,192,106515,1,0,0:0:0:0:
182,192,106603,1,0,0:0:0:0:
402,192,106603,1,0,0:0:0:0:
475,192,106603,1,0,0:0:0:0:
329,192,106603,1,0,0:0:0:0:
109,192,106603,1,0,0:0:0:0:
36,192,106691,1,0,0:0:0:0:
256,192,106691,1,0,0:0:0:0:
329,192,106780,1,0,0:0:0:0:
109,192,106780,1,0,0:0:0:0:
182,192,106868,1,0,0:0:0:0:
36,192,106868,1,0,0:0:0:0:
475,192,106868,1,0,0:0:0:0:
256,192,106868,1,0,0:0:0:0:
402,192,106868,1,0,0:0:0:0:
329,192,106956,1,0,0:0:0:0:
109,192,106956,1,0,0:0:0:0:
402,192,107044,1,0,0:0:0:0:
182,192,107044,1,0,0:0:0:0:
329,192,107133,1,0,0:0:0:0:
109,192,107133,1,0,0:0:0:0:
36,192,107133,1,0,0:0:0:0:
256,192,107133,1,0,0:0:0:0:
475,192,107133,1,0,0:0:0:0:
182,192,107221,1,0,0:0:0:0:
402,192,107221,1,0,0:0:0:0:
109,192,107309,1,0,0:0:0:0:
329,192,107309,1,0,0:0:0:0:
256,192,107397,1,0,0:0:0:0:
182,192,107397,1,0,0:0:0:0:
36,192,107397,1,0,0:0:0:0:
402,192,107397,1,0,0:0:0:0:
475,192,107397,1,0,0:0:0:0:
109,192,107486,1,0,0:0:0:0:
329,192,107486,1,0,0:0:0:0:
36,192,107574,1,0,0:0:0:0:
256,192,107574,1,0,0:0:0:0:
109,192,107662,1,0,0:0:0:0:
182,192,107662,1,0,0:0:0:0:
475,192,107662,1,0,0:0:0:0:
329,192,107662,1,0,0:0:0:0:
402,192,107662,1,0,0:0:0:0:
36,192,107750,1,0,0:0:0:0:
256,192,107750,1,0,0:0:0:0:
475,192,107839,1,0,0:0:0:0:
329,192,107839,1,0,0:0:0:0:
182,192,107927,1,0,0:0:0:0:
402,192,107927,1,0,0:0:0:0:
36,192,107927,1,0,0:0:0:0:
256,192,107927,1,0,0:0:0:0:
109,192,107927,1,0,0:0:0:0:
329,192,108015,1,0,0:0:0:0:
475,192,108015,1,0,0:0:0:0:
109,192,108103,1,0,0:0:0:0:
256,192,108103,1,0,0:0:0:0:
402,192,108191,1,0,0:0:0:0:
182,192,108191,1,0,0:0:0:0:
36,192,108191,1,0,0:0:0:0:
329,192,108191,1,0,0:0:0:0:
475,192,108191,1,0,0:0:0:0:
109,192,108280,1,0,0:0:0:0:
256,192,108280,1,0,0:0:0:0:
182,192,108368,1,0,0:0:0:0:
329,192,108368,1,0,0:0:0:0:
36,192,108456,1,0,0:0:0:0:
402,192,108456,1,0,0:0:0:0:
256,192,108456,1,0,0:0:0:0:
475,192,108456,1,0,0:0:0:0:
109,192,108544,1,0,0:0:0:0:
329,192,108544,1,0,0:0:0:0:
402,192,108633,1,0,0:0:0:0:
475,192,108633,1,0,0:0:0:0:
256,192,108633,1,0,0:0:0:0:
182,192,108633,1,0,0:0:0:0:
36,192,108633,1,0,0:0:0:0:
329,192,108721,1,0,0:0:0:0:
109,192,108809,1,0,0:0:0:0:
182,192,108809,1,0,0:0:0:0:
402,192,108809,1,0,0:0:0:0:
475,192,108809,1,0,0:0:0:0:
36,192,108809,1,0,0:0:0:0:
256,192,108897,1,0,0:0:0:0:
182,192,108986,1,0,0:0:0:0:
329,192,108986,1,0,0:0:0:0:
475,192,108986,1,0,0:0:0:0:
36,192,108986,1,0,0:0:0:0:
256,192,109074,1,0,0:0:0:0:
402,192,109074,1,0,0:0:0:0:
329,192,109162,1,0,0:0:0:0:
36,192,109162,1,0,0:0:0:0:
182,192,109162,1,0,0:0:0:0:
475,192,109162,1,0,0:0:0:0:
109,192,109162,1,0,0:0:0:0:
256,192,109250,1,0,0:0:0:0:
402,192,109250,1,0,0:0:0:0:
182,192,109339,1,0,0:0:0:0:
36,192,109339,1,0,0:0:0:0:
329,192,109427,1,0,0:0:0:0:
109,192,109427,1,0,0:0:0:0:
475,192,109427,1,0,0:0:0:0:
256,192,109427,1,0,0:0:0:0:
402,192,109427,1,0,0:0:0:0:
182,192,109515,1,0,0:0:0:0:
36,192,109515,1,0,0:0:0:0:
329,192,109603,1,0,0:0:0:0:
402,192,109603,1,0,0:0:0:0:
182,192,109691,1,0,0:0:0:0:
36,192,109691,1,0,0:0:0:0:
475,192,109691,1,0,0:0:0:0:
109,192,109691,1,0,0:0:0:0:
256,192,109691,1,0,0:0:0:0:
402,192,109780,1,0,0:0:0:0:
329,192,109780,1,0,0:0:0:0:
256,192,109868,1,0,0:0:0:0:
109,192,109868,1,0,0:0:0:0:
182,192,109956,1,0,0:0:0:0:
475,192,109956,1,0,0:0:0:0:
36,192,109956,1,0,0:0:0:0:
329,192,109956,1,0,0:0:0:0:
402,192,109956,1,0,0:0:0:0:
256,192,110044,1,0,0:0:0:0:
109,192,110044,1,0,0:0:0:0:
182,192,110133,1,0,0:0:0:0:
329,192,110133,1,0,0:0:0:0:
256,192,110221,1,0,0:0:0:0:
402,192,110221,1,0,0:0:0:0:
36,192,110221,1,0,0:0:0:0:
109,192,110221,1,0,0:0:0:0:
475,192,110221,1,0,0:0:0:0:
182,192,110309,1,0,0:0:0:0:
329,192,110309,1,0,0:0:0:0:
36,192,110397,1,0,0:0:0:0:
402,192,110397,1,0,0:0:0:0:
329,192,110486,1,0,0:0:0:0:
182,192,110486,1,0,0:0:0:0:
109,192,110486,1,0,0:0:0:0:
256,192,110486,1,0,0:0:0:0:
475,192,110486,1,0,0:0:0:0:
36,192,110574,1,0,0:0:0:0:
402,192,110574,1,0,0:0:0:0:
182,192,110662,1,0,0:0:0:0:
329,192,110662,1,0,0:0:0:0:
36,192,110750,1,0,0:0:0:0:
109,192,110750,1,0,0:0:0:0:
475,192,110750,1,0,0:0:0:0:
256,192,110750,1,0,0:0:0:0:
402,192,110750,1,0,0:0:0:0:
329,192,110839,1,0,0:0:0:0:
182,192,110839,1,0,0:0:0:0:
402,192,110927,1,0,0:0:0:0:
109,192,110927,1,0,0:0:0:0:
256,192,111015,1,0,0:0:0:0:
475,192,111015,1,0,0:0:0:0:
36,192,111015,1,0,0:0:0:0:
329,192,111015,1,0,0:0:0:0:
182,192,111015,1,0,0:0:0:0:
109,192,111103,1,0,0:0:0:0:
402,192,111103,1,0,0:0:0:0:
182,192,111191,1,0,0:0:0:0:
329,192,111191,1,0,0:0:0:0:
256,192,111280,1,0,0:0:0:0:
475,192,111280,1,0,0:0:0:0:
36,192,111280,1,0,0:0:0:0:
402,192,111280,1,0,0:0:0:0:
109,192,111368,1,0,0:0:0:0:
329,192,111368,1,0,0:0:0:0:
182,192,111456,1,0,0:0:0:0:
402,192,111456,1,0,0:0:0:0:
475,192,111456,1,0,0:0:0:0:
36,192,111456,1,0,0:0:0:0:
109,192,111544,1,0,0:0:0:0:
329,192,111544,1,0,0:0:0:0:
36,192,111633,1,0,0:0:0:0:
475,192,111633,1,0,0:0:0:0:
402,192,111633,1,0,0:0:0:0:
256,192,111633,1,0,0:0:0:0:
329,192,111721,1,0,0:0:0:0:
109,192,111721,1,0,0:0:0:0:
182,192,111721,1,0,0:0:0:0:
36,192,111809,1,0,0:0:0:0:
256,192,111809,1,0,0:0:0:0:
475,192,111809,1,0,0:0:0:0:
402,192,111809,1,0,0:0:0:0:
329,192,111897,1,0,0:0:0:0:
182,192,111897,1,0,0:0:0:0:
109,192,111897,1,0,0:0:0:0:
256,192,111986,1,0,0:0:0:0:
36,192,111986,1,0,0:0:0:0:
475,192,111986,1,0,0:0:0:0:
182,192,112074,1,0,0:0:0:0:
402,192,112074,1,0,0:0:0:0:
36,192,112162,1,0,0:0:0:0:
109,192,112162,1,0,0:0:0:0:
256,192,112162,1,0,0:0:0:0:
475,192,112162,1,0,0:0:0:0:
329,192,112162,1,0,0:0:0:0:
182,192,112250,1,0,0:0:0:0:
402,192,112250,1,0,0:0:0:0:
36,192,112339,1,0,0:0:0:0:
329,192,112339,1,0,0:0:0:0:
475,192,112339,1,0,0:0:0:0:
256,192,112427,1,0,0:0:0:0:
109,192,112427,1,0,0:0:0:0:
402,192,112515,1,0,0:0:0:0:
475,192,112515,1,0,0:0:0:0:
36,192,112515,1,0,0:0:0:0:
182,192,112515,1,0,0:0:0:0:
329,192,112515,1,0,0:0:0:0:
109,192,112603,1,0,0:0:0:0:
256,192,112603,1,0,0:0:0:0:
182,192,112691,1,0,0:0:0:0:
329,192,112691,1,0,0:0:0:0:
475,192,112691,1,0,0:0:0:0:
402,192,112780,1,0,0:0:0:0:
36,192,112780,1,0,0:0:0:0:
182,192,112868,1,0,0:0:0:0:
256,192,112868,1,0,0:0:0:0:
109,192,112868,1,0,0:0:0:0:
329,192,112868,1,0,0:0:0:0:
475,192,112868,1,0,0:0:0:0:
402,192,112956,1,0,0:0:0:0:
36,192,112956,1,0,0:0:0:0:
109,192,113044,1,0,0:0:0:0:
256,192,113044,1,0,0:0:0:0:
475,192,113044,1,0,0:0:0:0:
182,192,113133,1,0,0:0:0:0:
329,192,113133,1,0,0:0:0:0:
256,192,113221,1,0,0:0:0:0:
109,192,113221,1,0,0:0:0:0:
36,192,113221,1,0,0:0:0:0:
475,192,113221,1,0,0:0:0:0:
402,192,113221,1,0,0:0:0:0:
182,192,113309,1,0,0:0:0:0:
329,192,113309,1,0,0:0:0:0:
475,192,113397,1,0,0:0:0:0:
36,192,113397,1,0,0:0:0:0:
256,192,113397,1,0,0:0:0:0:
182,192,113486,1,0,0:0:0:0:
402,192,113486,1,0,0:0:0:0:
256,192,113574,1,0,0:0:0:0:
109,192,113574,1,0,0:0:0:0:
36,192,113574,1,0,0:0:0:0:
329,192,113574,1,0,0:0:0:0:
475,192,113574,1,0,0:0:0:0:
182,192,113662,1,0,0:0:0:0:
402,192,113662,1,0,0:0:0:0:
36,192,113750,1,0,0:0:0:0:
329,192,113750,1,0,0:0:0:0:
475,192,113750,1,0,0:0:0:0:
256,192,113839,1,0,0:0:0:0:
109,192,113839,1,0,0:0:0:0:
182,192,113927,1,0,0:0:0:0:
36,192,113927,1,0,0:0:0:0:
475,192,113927,1,0,0:0:0:0:
402,192,113971,1,0,0:0:0:0:
329,192,114015,1,0,0:0:0:0:
256,192,114015,1,0,0:0:0:0:
36,192,114059,1,0,0:0:0:0:
109,192,114103,1,0,0:0:0:0:
475,192,114103,1,0,0:0:0:0:
182,192,114103,1,0,0:0:0:0:
329,192,114191,1,0,0:0:0:0:
402,192,114191,1,0,0:0:0:0:
256,192,114191,1,0,0:0:0:0:
109,192,114280,1,0,0:0:0:0:
475,192,114280,1,0,0:0:0:0:
36,192,114280,1,0,0:0:0:0:
329,192,114368,1,0,0:0:0:0:
402,192,114368,1,0,0:0:0:0:
182,192,114368,1,0,0:0:0:0:
475,192,114456,1,0,0:0:0:0:
36,192,114456,1,0,0:0:0:0:
256,192,114456,1,0,0:0:0:0:
109,192,114456,1,0,0:0:0:0:
329,192,114544,1,0,0:0:0:0:
182,192,114544,1,0,0:0:0:0:
402,192,114633,1,0,0:0:0:0:
475,192,114633,1,0,0:0:0:0:
36,192,114633,1,0,0:0:0:0:
256,192,114633,1,0,0:0:0:0:
329,192,114721,1,0,0:0:0:0:
109,192,114721,1,0,0:0:0:0:
36,192,114809,1,0,0:0:0:0:
182,192,114809,1,0,0:0:0:0:
402,192,114809,1,0,0:0:0:0:
475,192,114809,1,0,0:0:0:0:
256,192,114809,1,0,0:0:0:0:
109,192,114897,1,0,0:0:0:0:
329,192,114897,1,0,0:0:0:0:
402,192,114986,1,0,0:0:0:0:
182,192,114986,1,0,0:0:0:0:
36,192,115074,1,0,0:0:0:0:
109,192,115074,1,0,0:0:0:0:
329,192,115074,1,0,0:0:0:0:
256,192,115074,1,0,0:0:0:0:
475,192,115074,1,0,0:0:0:0:
182,192,115162,1,0,0:0:0:0:
402,192,115162,1,0,0:0:0:0:
109,192,115250,1,0,0:0:0:0:
329,192,115250,1,0,0:0:0:0:
475,192,115339,1,0,0:0:0:0:
256,192,115339,1,0,0:0:0:0:
36,192,115339,1,0,0:0:0:0:
402,192,115339,1,0,0:0:0:0:
182,192,115339,1,0,0:0:0:0:
329,192,115427,1,0,0:0:0:0:
109,192,115427,1,0,0:0:0:0:
475,192,115515,1,0,0:0:0:0:
182,192,115515,1,0,0:0:0:0:
36,192,115603,1,0,0:0:0:0:
402,192,115603,1,0,0:0:0:0:
256,192,115603,1,0,0:0:0:0:
329,192,115603,1,0,0:0:0:0:
109,192,115603,1,0,0:0:0:0:
475,192,115691,1,0,0:0:0:0:
182,192,115691,1,0,0:0:0:0:
329,192,115780,1,0,0:0:0:0:
109,192,115780,1,0,0:0:0:0:
402,192,115868,1,0,0:0:0:0:
36,192,115868,1,0,0:0:0:0:
182,192,115868,1,0,0:0:0:0:
475,192,115868,1,0,0:0:0:0:
256,192,115868,1,0,0:0:0:0:
109,192,115956,1,0,0:0:0:0:
329,192,115956,1,0,0:0:0:0:
36,192,116044,1,0,0:0:0:0:
256,192,116044,1,0,0:0:0:0:
109,192,116133,1,0,0:0:0:0:
329,192,116133,1,0,0:0:0:0:
402,192,116133,1,0,0:0:0:0:
182,192,116133,1,0,0:0:0:0:
475,192,116133,1,0,0:0:0:0:
256,192,116221,1,0,0:0:0:0:
36,192,116221,1,0,0:0:0:0:
182,192,116309,1,0,0:0:0:0:
329,192,116309,1,0,0:0:0:0:
256,192,116397,1,0,0:0:0:0:
36,192,116397,1,0,0:0:0:0:
475,192,116397,1,0,0:0:0:0:
402,192,116397,1,0,0:0:0:0:
109,192,116397,1,0,0:0:0:0:
329,192,116486,1,0,0:0:0:0:
182,192,116486,1,0,0:0:0:0:
109,192,116574,1,0,0:0:0:0:
402,192,116574,1,0,0:0:0:0:
475,192,116662,1,0,0:0:0:0:
256,192,116662,1,0,0:0:0:0:
36,192,116662,1,0,0:0:0:0:
182,192,116662,1,0,0:0:0:0:
329,192,116662,1,0,0:0:0:0:
109,192,116750,1,0,0:0:0:0:
402,192,116750,1,0,0:0:0:0:
475,192,116839,1,0,0:0:0:0:
256,192,116839,1,0,0:0:0:0:
402,192,116927,1,0,0:0:0:0:
109,192,116927,1,0,0:0:0:0:
36,192,116927,1,0,0:0:0:0:
329,192,116927,1,0,0:0:0:0:
182,192,116927,1,0,0:0:0:0:
256,192,117015,1,0,0:0:0:0:
475,192,117015,1,0,0:0:0:0:
182,192,117103,1,0,0:0:0:0:
329,192,117103,1,0,0:0:0:0:
402,192,117103,1,0,0:0:0:0:
36,192,117103,1,0,0:0:0:0:
109,192,117191,1,0,0:0:0:0:
256,192,117191,1,0,0:0:0:0:
402,192,117280,1,0,0:0:0:0:
36,192,117280,1,0,0:0:0:0:
475,192,117280,1,0,0:0:0:0:
182,192,117280,1,0,0:0:0:0:
329,192,117368,1,0,0:0:0:0:
109,192,117368,1,0,0:0:0:0:
256,192,117368,1,0,0:0:0:0:
475,192,117456,1,0,0:0:0:0:
182,192,117456,1,0,0:0:0:0:
329,192,117544,1,0,0:0:0:0:
36,192,117544,1,0,0:0:0:0:
402,192,117633,1,0,0:0:0:0:
256,192,117633,1,0,0:0:0:0:
109,192,117633,1,0,0:0:0:0:
182,192,117633,1,0,0:0:0:0:
475,192,117633,1,0,0:0:0:0:
329,192,117721,1,0,0:0:0:0:
36,192,117721,1,0,0:0:0:0:
475,192,117809,1,0,0:0:0:0:
182,192,117809,1,0,0:0:0:0:
36,192,117897,1,0,0:0:0:0:
402,192,117897,1,0,0:0:0:0:
329,192,117897,1,0,0:0:0:0:
256,192,117897,1,0,0:0:0:0:
109,192,117897,1,0,0:0:0:0:
475,192,117986,1,0,0:0:0:0:
182,192,117986,1,0,0:0:0:0:
402,192,118074,1,0,0:0:0:0:
109,192,118074,1,0,0:0:0:0:
475,192,118162,1,0,0:0:0:0:
256,192,118162,1,0,0:0:0:0:
36,192,118162,1,0,0:0:0:0:
182,192,118162,1,0,0:0:0:0:
329,192,118162,1,0,0:0:0:0:
402,192,118250,1,0,0:0:0:0:
109,192,118250,1,0,0:0:0:0:
182,192,118339,1,0,0:0:0:0:
329,192,118339,1,0,0:0:0:0:
256,192,118427,1,0,0:0:0:0:
475,192,118427,1,0,0:0:0:0:
36,192,118427,1,0,0:0:0:0:
402,192,118427,1,0,0:0:0:0:
109,192,118427,1,0,0:0:0:0:
182,192,118515,1,0,0:0:0:0:
329,192,118515,1,0,0:0:0:0:
109,192,118603,1,0,0:0:0:0:
475,192,118603,1,0,0:0:0:0:
256,192,118691,1,0,0:0:0:0:
402,192,118691,1,0,0:0:0:0:
36,192,118691,1,0,0:0:0:0:
329,192,118691,1,0,0:0:0:0:
475,192,118780,1,0,0:0:0:0:
109,192,118780,1,0,0:0:0:0:
182,192,118780,1,0,0:0:0:0:
329,192,118868,1,0,0:0:0:0:
36,192,118868,1,0,0:0:0:0:
256,192,118956,1,0,0:0:0:0:
109,192,118956,1,0,0:0:0:0:
475,192,118956,1,0,0:0:0:0:
402,192,118956,1,0,0:0:0:0:
182,192,118956,1,0,0:0:0:0:
329,192,119044,1,0,0:0:0:0:
36,192,119044,1,0,0:0:0:0:
475,192,119133,1,0,0:0:0:0:
182,192,119133,1,0,0:0:0:0:
36,192,119221,1,0,0:0:0:0:
256,192,119221,1,0,0:0:0:0:
329,192,119221,1,0,0:0:0:0:
402,192,119221,1,0,0:0:0:0:
109,192,119221,1,0,0:0:0:0:
475,192,119309,1,0,0:0:0:0:
182,192,119309,1,0,0:0:0:0:
402,192,119397,1,0,0:0:0:0:
109,192,119397,1,0,0:0:0:0:
36,192,119486,1,0,0:0:0:0:
182,192,119486,1,0,0:0:0:0:
329,192,119486,1,0,0:0:0:0:
256,192,119486,1,0,0:0:0:0:
475,192,119486,1,0,0:0:0:0:
402,192,119574,1,0,0:0:0:0:
109,192,119574,1,0,0:0:0:0:
329,192,119662,1,0,0:0:0:0:
182,192,119662,1,0,0:0:0:0:
402,192,119750,1,0,0:0:0:0:
36,192,119750,1,0,0:0:0:0:
256,192,119750,1,0,0:0:0:0:
475,192,119750,1,0,0:0:0:0:
109,192,119839,1,0,0:0:0:0:
329,192,119839,1,0,0:0:0:0:
402,192,119927,1,0,0:0:0:0:
36,192,119927,1,0,0:0:0:0:
475,192,119927,1,0,0:0:0:0:
256,192,119927,1,0,0:0:0:0:
182,192,119927,1,0,0:0:0:0:
109,192,120015,1,0,0:0:0:0:
329,192,120103,1,0,0:0:0:0:
182,192,120103,1,0,0:0:0:0:
402,192,120103,1,0,0:0:0:0:
475,192,120103,1,0,0:0:0:0:
36,192,120103,1,0,0:0:0:0:
256,192,120191,1,0,0:0:0:0:
182,192,120280,1,0,0:0:0:0:
36,192,120280,1,0,0:0:0:0:
402,192,120280,1,0,0:0:0:0:
475,192,120280,1,0,0:0:0:0:
329,192,120368,1,0,0:0:0:0:
256,192,120368,1,0,0:0:0:0:
182,192,120456,1,0,0:0:0:0:
402,192,120456,1,0,0:0:0:0:
36,192,120456,1,0,0:0:0:0:
109,192,120456,1,0,0:0:0:0:
475,192,120456,1,0,0:0:0:0:
256,192,120544,1,0,0:0:0:0:
329,192,120544,1,0,0:0:0:0:
109,192,120633,1,0,0:0:0:0:
402,192,120633,1,0,0:0:0:0:
329,192,120721,1,0,0:0:0:0:
475,192,120721,1,0,0:0:0:0:
36,192,120721,1,0,0:0:0:0:
182,192,120721,1,0,0:0:0:0:
256,192,120721,1,0,0:0:0:0:
402,192,120809,1,0,0:0:0:0:
109,192,120809,1,0,0:0:0:0:
182,192,120897,1,0,0:0:0:0:
329,192,120897,1,0,0:0:0:0:
402,192,120986,1,0,0:0:0:0:
36,192,120986,1,0,0:0:0:0:
475,192,120986,1,0,0:0:0:0:
256,192,120986,1,0,0:0:0:0:
109,192,120986,1,0,0:0:0:0:
329,192,121074,1,0,0:0:0:0:
182,192,121074,1,0,0:0:0:0:
475,192,121162,1,0,0:0:0:0:
36,192,121162,1,0,0:0:0:0:
109,192,121250,1,0,0:0:0:0:
256,192,121250,1,0,0:0:0:0:
402,192,121250,1,0,0:0:0:0:
182,192,121250,1,0,0:0:0:0:
329,192,121250,1,0,0:0:0:0:
36,192,121339,1,0,0:0:0:0:
475,192,121339,1,0,0:0:0:0:
256,192,121427,1,0,0:0:0:0:
402,192,121427,1,0,0:0:0:0:
182,192,121515,1,0,0:0:0:0:
475,192,121515,1,0,0:0:0:0:
36,192,121515,1,0,0:0:0:0:
329,192,121515,1,0,0:0:0:0:
109,192,121515,1,0,0:0:0:0:
256,192,121603,1,0,0:0:0:0:
402,192,121603,1,0,0:0:0:0:
109,192,121691,1,0,0:0:0:0:
329,192,121691,1,0,0:0:0:0:
182,192,121780,1,0,0:0:0:0:
36,192,121780,1,0,0:0:0:0:
256,192,121780,1,0,0:0:0:0:
475,192,121780,1,0,0:0:0:0:
402,192,121780,1,0,0:0:0:0:
109,192,121868,1,0,0:0:0:0:
329,192,121868,1,0,0:0:0:0:
402,192,121956,1,0,0:0:0:0:
182,192,121956,1,0,0:0:0:0:
329,192,122044,1,0,0:0:0:0:
256,192,122044,1,0,0:0:0:0:
36,192,122044,1,0,0:0:0:0:
475,192,122044,1,0,0:0:0:0:
109,192,122044,1,0,0:0:0:0:
182,192,122133,1,0,0:0:0:0:
402,192,122133,1,0,0:0:0:0:
329,192,122221,1,0,0:0:0:0:
109,192,122221,1,0,0:0:0:0:
402,192,122309,1,0,0:0:0:0:
475,192,122309,1,0,0:0:0:0:
36,192,122309,1,0,0:0:0:0:
182,192,122309,1,0,0:0:0:0:
256,192,122309,1,0,0:0:0:0:
109,192,122397,1,0,0:0:0:0:
329,192,122397,1,0,0:0:0:0:
256,192,122486,1,0,0:0:0:0:
475,192,122486,1,0,0:0:0:0:
402,192,122574,1,0,0:0:0:0:
36,192,122574,1,0,0:0:0:0:
109,192,122574,1,0,0:0:0:0:
329,192,122574,1,0,0:0:0:0:
182,192,122574,1,0,0:0:0:0:
475,192,122662,1,0,0:0:0:0:
256,192,122662,1,0,0:0:0:0:
329,192,122750,1,0,0:0:0:0:
182,192,122750,1,0,0:0:0:0:
36,192,122750,1,0,0:0:0:0:
402,192,122750,1,0,0:0:0:0:
109,192,122839,1,0,0:0:0:0:
475,192,122839,1,0,0:0:0:0:
182,192,122927,1,0,0:0:0:0:
402,192,122927,1,0,0:0:0:0:
36,192,122927,1,0,0:0:0:0:
329,192,122927,1,0,0:0:0:0:
256,192,123015,1,0,0:0:0:0:
109,192,123015,1,0,0:0:0:0:
475,192,123015,1,0,0:0:0:0:
36,192,123103,1,0,0:0:0:0:
402,192,123103,1,0,0:0:0:0:
182,192,123191,1,0,0:0:0:0:
329,192,123191,1,0,0:0:0:0:
36,192,123280,1,0,0:0:0:0:
109,192,123280,1,0,0:0:0:0:
475,192,123280,1,0,0:0:0:0:
256,192,123280,1,0,0:0:0:0:
402,192,123280,1,0,0:0:0:0:
329,192,123368,1,0,0:0:0:0:
182,192,123368,1,0,0:0:0:0:
256,192,123456,1,0,0:0:0:0:
109,192,123456,1,0,0:0:0:0:
182,192,123544,1,0,0:0:0:0:
36,192,123544,1,0,0:0:0:0:
329,192,123544,1,0,0:0:0:0:
402,192,123544,1,0,0:0:0:0:
475,192,123544,1,0,0:0:0:0:
109,192,123633,1,0,0:0:0:0:
256,192,123633,1,0,0:0:0:0:
475,192,123721,1,0,0:0:0:0:
329,192,123721,1,0,0:0:0:0:
402,192,123809,1,0,0:0:0:0:
182,192,123809,1,0,0:0:0:0:
36,192,123809,1,0,0:0:0:0:
256,192,123809,1,0,0:0:0:0:
109,192,123809,1,0,0:0:0:0:
329,192,123897,1,0,0:0:0:0:
475,192,123897,1,0,0:0:0:0:
256,192,123986,1,0,0:0:0:0:
36,192,123986,1,0,0:0:0:0:
402,192,124074,1,0,0:0:0:0:
475,192,124074,1,0,0:0:0:0:
109,192,124074,1,0,0:0:0:0:
182,192,124074,1,0,0:0:0:0:
329,192,124074,1,0,0:0:0:0:
256,192,124162,1,0,0:0:0:0:
36,192,124162,1,0,0:0:0:0:
109,192,124250,1,0,0:0:0:0:
329,192,124250,1,0,0:0:0:0:
36,192,124339,1,0,0:0:0:0:
475,192,124339,1,0,0:0:0:0:
182,192,124339,1,0,0:0:0:0:
256,192,124339,1,0,0:0:0:0:
402,192,124339,1,0,0:0:0:0:
109,192,124427,1,0,0:0:0:0:
329,192,124427,1,0,0:0:0:0:
182,192,124515,1,0,0:0:0:0:
402,192,124515,1,0,0:0:0:0:
109,192,124603,1,0,0:0:0:0:
329,192,124603,1,0,0:0:0:0:
36,192,124603,1,0,0:0:0:0:
256,192,124603,1,0,0:0:0:0:
475,192,124603,1,0,0:0:0:0:
402,192,124691,1,0,0:0:0:0:
182,192,124691,1,0,0:0:0:0:
109,192,124780,1,0,0:0:0:0:
329,192,124780,1,0,0:0:0:0:
475,192,124868,1,0,0:0:0:0:
36,192,124868,1,0,0:0:0:0:
256,192,124868,1,0,0:0:0:0:
182,192,124868,1,0,0:0:0:0:
402,192,124868,1,0,0:0:0:0:
109,192,124956,1,0,0:0:0:0:
329,192,124956,1,0,0:0:0:0:
475,192,125044,1,0,0:0:0:0:
182,192,125044,1,0,0:0:0:0:
109,192,125133,1,0,0:0:0:0:
36,192,125133,1,0,0:0:0:0:
256,192,125133,1,0,0:0:0:0:
402,192,125133,1,0,0:0:0:0:
475,192,125221,1,0,0:0:0:0:
329,192,125221,1,0,0:0:0:0:
36,192,125265,1,0,0:0:0:0:
182,192,125309,1,0,0:0:0:0:
109,192,125309,1,0,0:0:0:0:
329,192,125353,1,0,0:0:0:0:
256,192,125353,1,0,0:0:0:0:
475,192,125397,1,0,0:0:0:0:
402,192,125397,1,0,0:0:0:0:
36,192,125486,1,0,0:0:0:0:
109,192,125486,1,0,0:0:0:0:
256,192,125486,1,0,0:0:0:0:
475,192,125574,1,0,0:0:0:0:
182,192,125574,1,0,0:0:0:0:
402,192,125574,1,0,0:0:0:0:
109,192,125662,1,0,0:0:0:0:
36,192,125662,1,0,0:0:0:0:
329,192,125662,1,0,0:0:0:0:
402,192,125750,1,0,0:0:0:0:
256,192,125750,1,0,0:0:0:0:
475,192,125750,1,0,0:0:0:0:
182,192,125839,1,0,0:0:0:0:
109,192,125839,1,0,0:0:0:0:
36,192,125839,1,0,0:0:0:0:
475,192,125927,1,0,0:0:0:0:
256,192,125927,1,0,0:0:0:0:
329,192,125927,1,0,0:0:0:0:
402,192,125927,1,0,0:0:0:0:
36,192,126015,1,0,0:0:0:0:
182,192,126103,1,0,0:0:0:0:
329,192,126103,1,0,0:0:0:0:
475,192,126191,1,0,0:0:0:0:
36,192,126280,1,0,0:0:0:0:
402,192,126280,1,0,0:0:0:0:
256,192,126280,1,0,0:0:0:0:
109,192,126280,1,0,0:0:0:0:
329,192,126368,1,0,0:0:0:0:
475,192,126368,1,0,0:0:0:0:
182,192,126368,1,0,0:0:0:0:
256,192,126456,1,0,0:0:0:0:
36,192,126456,1,0,0:0:0:0:
109,192,126544,1,0,0:0:0:0:
402,192,126544,1,0,0:0:0:0:
329,192,126633,1,0,0:0:0:0:
36,192,126633,1,0,0:0:0:0:
182,192,126633,1,0,0:0:0:0:
256,192,126633,1,0,0:0:0:0:
475,192,126633,1,0,0:0:0:0:
402,192,126721,1,0,0:0:0:0:
109,192,126721,1,0,0:0:0:0:
182,192,126809,1,0,0:0:0:0:
329,192,126809,1,0,0:0:0:0:
109,192,126897,1,0,0:0:0:0:
36,192,126897,1,0,0:0:0:0:
475,192,126897,1,0,0:0:0:0:
402,192,126897,1,0,0:0:0:0:
256,192,126897,1,0,0:0:0:0:
182,192,126986,1,0,0:0:0:0:
329,192,126986,1,0,0:0:0:0:
256,192,127074,1,0,0:0:0:0:
36,192,127074,1,0,0:0:0:0:
475,192,127162,1,0,0:0:0:0:
109,192,127162,1,0,0:0:0:0:
402,192,127162,1,0,0:0:0:0:
329,192,127162,1,0,0:0:0:0:
182,192,127162,1,0,0:0:0:0:
256,192,127250,1,0,0:0:0:0:
36,192,127250,1,0,0:0:0:0:
402,192,127339,1,0,0:0:0:0:
182,192,127339,1,0,0:0:0:0:
329,192,127427,1,0,0:0:0:0:
36,192,127427,1,0,0:0:0:0:
109,192,127427,1,0,0:0:0:0:
475,192,127427,1,0,0:0:0:0:
256,192,127427,1,0,0:0:0:0:
182,192,127515,1,0,0:0:0:0:
402,192,127515,1,0,0:0:0:0:
109,192,127603,1,0,0:0:0:0:
329,192,127603,1,0,0:0:0:0:
36,192,127691,1,0,0:0:0:0:
475,192,127691,1,0,0:0:0:0:
256,192,127691,1,0,0:0:0:0:
402,192,127691,1,0,0:0:0:0:
182,192,127691,1,0,0:0:0:0:
329,192,127780,1,0,0:0:0:0:
109,192,127780,1,0,0:0:0:0:
402,192,127868,1,0,0:0:0:0:
182,192,127868,1,0,0:0:0:0:
475,192,127956,1,0,0:0:0:0:
109,192,127956,1,0,0:0:0:0:
329,192,127956,1,0,0:0:0:0:
256,192,127956,1,0,0:0:0:0:
36,192,127956,1,0,0:0:0:0:
402,192,128044,1,0,0:0:0:0:
182,192,128044,1,0,0:0:0:0:
109,192,128133,1,0,0:0:0:0:
329,192,128133,1,0,0:0:0:0:
36,192,128221,1,0,0:0:0:0:
402,192,128221,1,0,0:0:0:0:
475,192,128221,1,0,0:0:0:0:
256,192,128221,1,0,0:0:0:0:
182,192,128221,1,0,0:0:0:0:
329,192,128309,1,0,0:0:0:0:
109,192,128309,1,0,0:0:0:0:
256,192,128397,1,0,0:0:0:0:
475,192,128397,1,0,0:0:0:0:
402,192,128397,1,0,0:0:0:0:
36,192,128397,1,0,0:0:0:0:
182,192,128486,1,0,0:0:0:0:
329,192,128486,1,0,0:0:0:0:
36,192,128574,1,0,0:0:0:0:
256,192,128574,1,0,0:0:0:0:
402,192,128574,1,0,0:0:0:0:
109,192,128574,1,0,0:0:0:0:
329,192,128662,1,0,0:0:0:0:
182,192,128662,1,0,0:0:0:0:
475,192,128662,1,0,0:0:0:0:
402,192,128750,1,0,0:0:0:0:
36,192,128750,1,0,0:0:0:0:
109,192,128839,1,0,0:0:0:0:
256,192,128839,1,0,0:0:0:0:
182,192,128927,1,0,0:0:0:0:
402,192,128927,1,0,0:0:0:0:
475,192,128927,1,0,0:0:0:0:
36,192,128927,1,0,0:0:0:0:
329,192,128927,1,0,0:0:0:0:
256,192,129015,1,0,0:0:0:0:
109,192,129015,1,0,0:0:0:0:
329,192,129103,1,0,0:0:0:0:
182,192,129103,1,0,0:0:0:0:
109,192,129191,1,0,0:0:0:0:
402,192,129191,1,0,0:0:0:0:
475,192,129191,1,0,0:0:0:0:
36,192,129191,1,0,0:0:0:0:
256,192,129191,1,0,0:0:0:0:
182,192,129280,1,0,0:0:0:0:
329,192,129280,1,0,0:0:0:0:
402,192,129368,1,0,0:0:0:0:
256,192,129368,1,0,0:0:0:0:
36,192,129456,1,0,0:0:0:0:
109,192,129456,1,0,0:0:0:0:
475,192,129456,1,0,0:0:0:0:
182,192,129456,1,0,0:0:0:0:
329,192,129456,1,0,0:0:0:0:
402,192,129544,1,0,0:0:0:0:
256,192,129544,1,0,0:0:0:0:
475,192,129633,1,0,0:0:0:0:
182,192,129633,1,0,0:0:0:0:
329,192,129721,1,0,0:0:0:0:
109,192,129721,1,0,0:0:0:0:
36,192,129721,1,0,0:0:0:0:
256,192,129721,1,0,0:0:0:0:
402,192,129721,1,0,0:0:0:0:
182,192,129809,1,0,0:0:0:0:
475,192,129809,1,0,0:0:0:0:
109,192,129897,1,0,0:0:0:0:
329,192,129897,1,0,0:0:0:0:
182,192,129986,1,0,0:0:0:0:
402,192,129986,1,0,0:0:0:0:
475,192,129986,1,0,0:0:0:0:
256,192,129986,1,0,0:0:0:0:
36,192,129986,1,0,0:0:0:0:
329,192,130074,1,0,0:0:0:0:
109,192,130074,1,0,0:0:0:0:
256,192,130162,1,0,0:0:0:0:
402,192,130162,1,0,0:0:0:0:
182,192,130250,1,0,0:0:0:0:
329,192,130250,1,0,0:0:0:0:
475,192,130250,1,0,0:0:0:0:
36,192,130250,1,0,0:0:0:0:
109,192,130250,1,0,0:0:0:0:
256,192,130339,1,0,0:0:0:0:
402,192,130339,1,0,0:0:0:0:
182,192,130427,1,0,0:0:0:0:
329,192,130427,1,0,0:0:0:0:
256,192,130515,1,0,0:0:0:0:
475,192,130515,1,0,0:0:0:0:
36,192,130515,1,0,0:0:0:0:
402,192,130515,1,0,0:0:0:0:
109,192,130515,1,0,0:0:0:0:
182,192,130603,1,0,0:0:0:0:
329,192,130603,1,0,0:0:0:0:
109,192,130691,1,0,0:0:0:0:
256,192,130691,1,0,0:0:0:0:
475,192,130780,1,0,0:0:0:0:
329,192,130780,1,0,0:0:0:0:
36,192,130780,1,0,0:0:0:0:
182,192,130780,1,0,0:0:0:0:
402,192,130780,1,0,0:0:0:0:
109,192,130868,1,0,0:0:0:0:
256,192,130868,1,0,0:0:0:0:
182,192,130956,1,0,0:0:0:0:
402,192,130956,1,0,0:0:0:0:
36,192,131044,1,0,0:0:0:0:
475,192,131044,1,0,0:0:0:0:
256,192,131044,1,0,0:0:0:0:
329,192,131044,1,0,0:0:0:0:
109,192,131133,1,0,0:0:0:0:
402,192,131133,1,0,0:0:0:0:
182,192,131221,1,0,0:0:0:0:
475,192,131221,1,0,0:0:0:0:
36,192,131221,1,0,0:0:0:0:
329,192,131221,1,0,0:0:0:0:
256,192,131309,1,0,0:0:0:0:
109,192,131309,1,0,0:0:0:0:
402,192,131309,1,0,0:0:0:0:
182,192,131397,1,0,0:0:0:0:
329,192,131397,1,0,0:0:0:0:
36,192,131486,1,0,0:0:0:0:
256,192,131486,1,0,0:0:0:0:
109,192,131486,1,0,0:0:0:0:
475,192,131574,1,0,0:0:0:0:
402,192,131574,1,0,0:0:0:0:
329,192,131574,1,0,0:0:0:0:
182,192,131574,1,0,0:0:0:0:
256,192,131662,1,0,0:0:0:0:
36,192,131662,1,0,0:0:0:0:
475,192,131750,1,0,0:0:0:0:
402,192,131750,1,0,0:0:0:0:
109,192,131750,1,0,0:0:0:0:
329,192,131839,1,0,0:0:0:0:
182,192,131839,1,0,0:0:0:0:
109,192,131927,1,0,0:0:0:0:
256,192,131927,1,0,0:0:0:0:
475,192,131927,1,0,0:0:0:0:
402,192,131927,1,0,0:0:0:0:
36,192,131927,1,0,0:0:0:0:
182,192,132015,1,0,0:0:0:0:
329,192,132015,1,0,0:0:0:0:
256,192,132103,1,0,0:0:0:0:
475,192,132103,1,0,0:0:0:0:
36,192,132103,1,0,0:0:0:0:
402,192,132191,1,0,0:0:0:0:
109,192,132191,1,0,0:0:0:0:
256,192,132280,1,0,0:0:0:0:
329,192,132280,1,0,0:0:0:0:
475,192,132280,1,0,0:0:0:0:
182,192,132280,1,0,0:0:0:0:
36,192,132280,1,0,0:0:0:0:
109,192,132368,1,0,0:0:0:0:
402,192,132368,1,0,0:0:0:0:
329,192,132456,1,0,0:0:0:0:
182,192,132456,1,0,0:0:0:0:
475,192,132456,1,0,0:0:0:0:
256,192,132544,1,0,0:0:0:0:
109,192,132544,1,0,0:0:0:0:
329,192,132633,1,0,0:0:0:0:
402,192,132633,1,0,0:0:0:0:
36,192,132633,1,0,0:0:0:0:
475,192,132633,1,0,0:0:0:0:
182,192,132633,1,0,0:0:0:0:
109,192,132721,1,0,0:0:0:0:
256,192,132721,1,0,0:0:0:0:
475,192,132809,1,0,0:0:0:0:
402,192,132809,1,0,0:0:0:0:
36,192,132809,1,0,0:0:0:0:
329,192,132897,1,0,0:0:0:0:
182,192,132897,1,0,0:0:0:0:
36,192,132986,1,0,0:0:0:0:
256,192,132986,1,0,0:0:0:0:
475,192,132986,1,0,0:0:0:0:
109,192,132986,1,0,0:0:0:0:
402,192,132986,1,0,0:0:0:0:
329,192,133074,1,0,0:0:0:0:
182,192,133074,1,0,0:0:0:0:
109,192,133162,1,0,0:0:0:0:
475,192,133162,1,0,0:0:0:0:
36,192,133162,1,0,0:0:0:0:
402,192,133250,1,0,0:0:0:0:
256,192,133250,1,0,0:0:0:0:
182,192,133339,1,0,0:0:0:0:
475,192,133339,1,0,0:0:0:0:
329,192,133339,1,0,0:0:0:0:
36,192,133339,1,0,0:0:0:0:
109,192,133339,1,0,0:0:0:0:
402,192,133427,1,0,0:0:0:0:
256,192,133427,1,0,0:0:0:0:
475,192,133515,1,0,0:0:0:0:
109,192,133515,1,0,0:0:0:0:
329,192,133515,1,0,0:0:0:0:
36,192,133603,1,0,0:0:0:0:
256,192,133603,1,0,0:0:0:0:
329,192,133691,1,0,0:0:0:0:
402,192,133691,1,0,0:0:0:0:
475,192,133691,1,0,0:0:0:0:
182,192,133691,1,0,0:0:0:0:
109,192,133691,1,0,0:0:0:0:
256,192,133780,1,0,0:0:0:0:
36,192,133780,1,0,0:0:0:0:
475,192,133868,1,0,0:0:0:0:
182,192,133868,1,0,0:0:0:0:
402,192,133868,1,0,0:0:0:0:
109,192,133956,1,0,0:0:0:0:
329,192,133956,1,0,0:0:0:0:
182,192,134044,1,0,0:0:0:0:
475,192,134044,1,0,0:0:0:0:
36,192,134044,1,0,0:0:0:0:
256,192,134044,1,0,0:0:0:0:
402,192,134044,1,0,0:0:0:0:
109,192,134133,1,0,0:0:0:0:
329,192,134133,1,0,0:0:0:0:
36,192,134221,1,0,0:0:0:0:
475,192,134221,1,0,0:0:0:0:
256,192,134221,1,0,0:0:0:0:
182,192,134309,1,0,0:0:0:0:
329,192,134309,1,0,0:0:0:0:
36,192,134397,1,0,0:0:0:0:
256,192,134397,1,0,0:0:0:0:
475,192,134397,1,0,0:0:0:0:
402,192,134397,1,0,0:0:0:0:
109,192,134397,1,0,0:0:0:0:
329,192,134486,1,0,0:0:0:0:
475,192,134574,1,0,0:0:0:0:
256,192,134574,1,0,0:0:0:0:
109,192,134574,1,0,0:0:0:0:
36,192,134574,1,0,0:0:0:0:
402,192,134574,1,0,0:0:0:0:
182,192,134662,1,0,0:0:0:0:
36,192,134750,1,0,0:0:0:0:
109,192,134750,1,0,0:0:0:0:
329,192,134750,1,0,0:0:0:0:
475,192,134750,1,0,0:0:0:0:
402,192,134750,1,0,0:0:0:0:
256,192,134839,1,0,0:0:0:0:
329,192,134927,1,0,0:0:0:0:
36,192,134927,1,0,0:0:0:0:
182,192,134927,1,0,0:0:0:0:
475,192,134927,1,0,0:0:0:0:
109,192,134927,1,0,0:0:0:0:
402,192,135015,1,0,0:0:0:0:
109,192,135103,1,0,0:0:0:0:
36,192,135103,1,0,0:0:0:0:
475,192,135103,1,0,0:0:0:0:
182,192,135103,1,0,0:0:0:0:
329,192,135103,1,0,0:0:0:0:
256,192,135191,1,0,0:0:0:0:
182,192,135280,1,0,0:0:0:0:
36,192,135280,1,0,0:0:0:0:
329,192,135280,1,0,0:0:0:0:
475,192,135280,1,0,0:0:0:0:
402,192,135280,1,0,0:0:0:0:
109,192,135368,1,0,0:0:0:0:
329,192,135456,1,0,0:0:0:0:
475,192,135456,1,0,0:0:0:0:
256,192,135456,1,0,0:0:0:0:
36,192,135456,1,0,0:0:0:0:
182,192,135456,1,0,0:0:0:0:
402,192,135544,1,0,0:0:0:0:
329,192,135633,1,0,0:0:0:0:
109,192,135633,1,0,0:0:0:0:
475,192,135633,1,0,0:0:0:0:
36,192,135633,1,0,0:0:0:0:
256,192,135633,1,0,0:0:0:0:
182,192,135721,1,0,0:0:0:0:
475,192,135809,1,0,0:0:0:0:
402,192,135809,1,0,0:0:0:0:
256,192,135809,1,0,0:0:0:0:
36,192,135809,1,0,0:0:0:0:
329,192,135897,1,0,0:0:0:0:
109,192,135897,1,0,0:0:0:0:
182,192,135897,1,0,0:0:0:0:
36,192,135986,1,0,0:0:0:0:
256,192,135986,1,0,0:0:0:0:
475,192,135986,1,0,0:0:0:0:
402,192,136074,1,0,0:0:0:0:
109,192,136074,1,0,0:0:0:0:
329,192,136074,1,0,0:0:0:0:
475,192,136162,1,0,0:0:0:0:
182,192,136162,1,0,0:0:0:0:
36,192,136162,1,0,0:0:0:0:
402,192,136250,1,0,0:0:0:0:
109,192,136250,1,0,0:0:0:0:
256,192,136250,1,0,0:0:0:0:
329,192,136339,1,0,0:0:0:0:
36,192,136339,1,0,0:0:0:0:
182,192,136339,1,0,0:0:0:0:
256,192,136427,1,0,0:0:0:0:
402,192,136427,1,0,0:0:0:0:
475,192,136427,1,0,0:0:0:0:
109,192,136427,1,0,0:0:0:0:
329,192,136515,1,0,0:0:0:0:
36,192,136515,1,0,0:0:0:0:
109,192,136559,1,0,0:0:0:0:
182,192,136603,1,0,0:0:0:0:
402,192,136603,1,0,0:0:0:0:
475,192,136603,1,0,0:0:0:0:
256,192,136647,1,0,0:0:0:0:
36,192,136691,1,0,0:0:0:0:
329,192,136691,1,0,0:0:0:0:
109,192,136691,1,0,0:0:0:0:
402,192,136780,1,0,0:0:0:0:
256,192,136780,1,0,0:0:0:0:
475,192,136780,1,0,0:0:0:0:
182,192,136780,1,0,0:0:0:0:
36,192,136868,1,0,0:0:0:0:
329,192,136868,1,0,0:0:0:0:
109,192,136868,1,0,0:0:0:0:
475,192,136956,1,0,0:0:0:0:
182,192,136956,1,0,0:0:0:0:
402,192,136956,1,0,0:0:0:0:
256,192,136956,1,0,0:0:0:0:
329,192,137044,1,0,0:0:0:0:
36,192,137044,1,0,0:0:0:0:
109,192,137044,1,0,0:0:0:0:
256,192,137133,1,0,0:0:0:0:
475,192,137133,1,0,0:0:0:0:
402,192,137133,1,0,0:0:0:0:
329,192,137221,1,0,0:0:0:0:
182,192,137221,1,0,0:0:0:0:
36,192,137221,1,0,0:0:0:0:
109,192,137221,1,0,0:0:0:0:
