osu file format v14

[General]
AudioFilename: audio.mp3
AudioLeadIn: 0
PreviewTime: 140157
Countdown: 0
SampleSet: Normal
StackLeniency: 0.7
Mode: 3
LetterboxInBreaks: 0
SpecialStyle: 0
WidescreenStoryboard: 1

[Editor]
DistanceSpacing: 0.8
BeatDivisor: 6
GridSize: 4
TimelineZoom: 1.8

[Metadata]
Title:Unmeiron
TitleUnicode:運命論
Artist:LUZE feat. Emew.
ArtistUnicode:ルゼ feat. えみゅう。
Creator:Monheim
Version:Ephesians
Source:BOF2013
Tags:bms conductor konzertsaal - the bms of fighters 2013 - studio bsw LexicographiA luzeria extended long ver. electronic instrumental other video game civilization
BeatmapID:4210848
BeatmapSetID:2021922

[Difficulty]
HPDrainRate:8
CircleSize:4
OverallDifficulty:9
ApproachRate:5
SliderMultiplier:1.4
SliderTickRate:1

[Events]
//Background and Video events
0,0,"7y87y78y.png",0,0
//Break Periods
//Storyboard Layer 0 (Background)
//Storyboard Layer 1 (Fail)
//Storyboard Layer 2 (Pass)
//Storyboard Layer 3 (Foreground)
//Storyboard Layer 4 (Overlay)
//Storyboard Sound Samples

[TimingPoints]
23687,352.941176470588,4,1,1,50,1,0
140157,352.941176470588,4,1,1,50,1,1
162392,-100,4,1,1,50,0,0
162745,-100,4,1,1,50,0,1
184980,-100,4,1,1,50,0,0
185333,-100,4,1,1,50,0,1
207921,-100,4,1,1,50,0,0

[HitObjects]
64,192,23687,5,0,0:0:0:0:
320,192,24392,1,0,0:0:0:0:
192,192,25098,1,0,0:0:0:0:
448,192,25804,1,0,0:0:0:0:
320,192,26510,1,0,0:0:0:0:
448,192,26554,1,0,0:0:0:0:
192,192,27922,1,0,0:0:0:0:
64,192,29334,1,0,0:0:0:0:
320,192,30039,1,0,0:0:0:0:
192,192,30745,1,0,0:0:0:0:
320,192,31451,1,0,0:0:0:0:
192,192,31495,1,0,0:0:0:0:
448,192,32157,1,0,0:0:0:0:
320,192,33569,1,0,0:0:0:0:
64,192,34451,1,0,0:0:0:0:
192,192,34510,1,0,0:0:0:0:
320,192,34569,1,0,0:0:0:0:
448,192,34628,1,0,0:0:0:0:
192,192,34981,1,0,0:0:0:0:
64,192,34981,1,0,0:0:0:0:
320,192,34981,1,0,0:0:0:0:
448,192,35157,1,0,0:0:0:0:
320,192,35334,1,0,0:0:0:0:
448,192,35422,1,0,0:0:0:0:
192,192,35510,1,0,0:0:0:0:
64,192,35687,1,0,0:0:0:0:
448,192,35687,1,0,0:0:0:0:
192,192,35863,1,0,0:0:0:0:
64,192,36039,1,0,0:0:0:0:
192,192,36128,1,0,0:0:0:0:
320,192,36216,1,0,0:0:0:0:
448,192,36392,1,0,0:0:0:0:
192,192,36392,1,0,0:0:0:0:
64,192,36569,1,0,0:0:0:0:
192,192,36745,1,0,0:0:0:0:
64,192,36834,1,0,0:0:0:0:
320,192,36922,1,0,0:0:0:0:
448,192,37098,1,0,0:0:0:0:
64,192,37098,1,0,0:0:0:0:
320,192,37275,1,0,0:0:0:0:
448,192,37451,1,0,0:0:0:0:
320,192,37539,1,0,0:0:0:0:
192,192,37628,1,0,0:0:0:0:
64,192,37804,1,0,0:0:0:0:
320,192,37804,1,0,0:0:0:0:
448,192,37981,1,0,0:0:0:0:
320,192,38157,1,0,0:0:0:0:
448,192,38245,1,0,0:0:0:0:
192,192,38334,1,0,0:0:0:0:
320,192,38510,1,0,0:0:0:0:
448,192,38687,1,0,0:0:0:0:
320,192,38863,1,0,0:0:0:0:
448,192,38951,1,0,0:0:0:0:
192,192,39039,1,0,0:0:0:0:
448,192,39216,1,0,0:0:0:0:
64,192,39216,1,0,0:0:0:0:
192,192,39392,1,0,0:0:0:0:
64,192,39569,1,0,0:0:0:0:
192,192,39657,1,0,0:0:0:0:
320,192,39745,1,0,0:0:0:0:
64,192,39922,1,0,0:0:0:0:
192,192,40098,1,0,0:0:0:0:
64,192,40275,1,0,0:0:0:0:
192,192,40363,1,0,0:0:0:0:
320,192,40451,1,0,0:0:0:0:
448,192,40628,1,0,0:0:0:0:
192,192,40628,1,0,0:0:0:0:
64,192,40804,1,0,0:0:0:0:
192,192,40981,1,0,0:0:0:0:
64,192,41069,1,0,0:0:0:0:
320,192,41157,1,0,0:0:0:0:
448,192,41334,1,0,0:0:0:0:
64,192,41334,1,0,0:0:0:0:
320,192,41510,1,0,0:0:0:0:
448,192,41687,1,0,0:0:0:0:
320,192,41775,1,0,0:0:0:0:
192,192,41863,1,0,0:0:0:0:
64,192,42039,1,0,0:0:0:0:
320,192,42039,1,0,0:0:0:0:
448,192,42216,1,0,0:0:0:0:
320,192,42392,1,0,0:0:0:0:
448,192,42481,1,0,0:0:0:0:
192,192,42569,1,0,0:0:0:0:
64,192,42745,1,0,0:0:0:0:
448,192,42745,1,0,0:0:0:0:
192,192,42922,1,0,0:0:0:0:
64,192,43098,1,0,0:0:0:0:
192,192,43187,1,0,0:0:0:0:
320,192,43275,1,0,0:0:0:0:
192,192,43451,1,0,0:0:0:0:
448,192,43451,1,0,0:0:0:0:
320,192,43539,1,0,0:0:0:0:
64,192,43628,1,0,0:0:0:0:
192,192,43804,1,0,0:0:0:0:
64,192,43892,1,0,0:0:0:0:
320,192,43981,1,0,0:0:0:0:
448,192,44157,1,0,0:0:0:0:
64,192,44157,1,0,0:0:0:0:
192,192,44245,1,0,0:0:0:0:
320,192,44334,1,0,0:0:0:0:
448,192,44510,1,0,0:0:0:0:
320,192,44598,1,0,0:0:0:0:
192,192,44687,1,0,0:0:0:0:
64,192,44863,1,0,0:0:0:0:
320,192,44863,1,0,0:0:0:0:
192,192,44951,1,0,0:0:0:0:
448,192,45039,1,0,0:0:0:0:
320,192,45216,1,0,0:0:0:0:
448,192,45304,1,0,0:0:0:0:
192,192,45392,1,0,0:0:0:0:
64,192,45569,1,0,0:0:0:0:
448,192,45569,1,0,0:0:0:0:
320,192,45657,1,0,0:0:0:0:
192,192,45745,1,0,0:0:0:0:
64,192,45922,1,0,0:0:0:0:
192,192,46010,1,0,0:0:0:0:
320,192,46098,1,0,0:0:0:0:
192,192,46275,1,0,0:0:0:0:
64,192,46275,1,0,0:0:0:0:
192,192,47687,5,0,0:0:0:0:
320,192,47687,1,0,0:0:0:0:
64,192,47687,1,0,0:0:0:0:
448,192,47687,1,0,0:0:0:0:
192,192,47775,1,0,0:0:0:0:
448,192,47863,1,0,0:0:0:0:
64,192,47863,1,0,0:0:0:0:
64,192,48039,1,0,0:0:0:0:
192,192,48039,1,0,0:0:0:0:
320,192,48039,1,0,0:0:0:0:
192,192,48128,1,0,0:0:0:0:
448,192,48216,1,0,0:0:0:0:
64,192,48216,1,0,0:0:0:0:
192,192,48304,1,0,0:0:0:0:
320,192,48304,1,0,0:0:0:0:
64,192,48392,1,0,0:0:0:0:
192,192,48392,1,0,0:0:0:0:
192,192,48481,1,0,0:0:0:0:
320,192,48481,1,0,0:0:0:0:
320,192,48569,1,0,0:0:0:0:
448,192,48569,1,0,0:0:0:0:
64,192,48569,1,0,0:0:0:0:
448,192,48657,1,0,0:0:0:0:
320,192,48745,1,0,0:0:0:0:
192,192,48745,1,0,0:0:0:0:
64,192,48745,1,0,0:0:0:0:
192,192,48834,1,0,0:0:0:0:
448,192,48922,1,0,0:0:0:0:
64,192,48922,1,0,0:0:0:0:
448,192,49098,1,0,0:0:0:0:
192,192,49098,1,0,0:0:0:0:
320,192,49098,1,0,0:0:0:0:
448,192,49187,1,0,0:0:0:0:
192,192,49275,1,0,0:0:0:0:
320,192,49275,1,0,0:0:0:0:
320,192,49451,1,0,0:0:0:0:
448,192,49451,1,0,0:0:0:0:
64,192,49451,1,0,0:0:0:0:
448,192,49539,1,0,0:0:0:0:
192,192,49628,1,0,0:0:0:0:
320,192,49628,1,0,0:0:0:0:
64,192,49716,1,0,0:0:0:0:
448,192,49716,1,0,0:0:0:0:
448,192,49804,1,0,0:0:0:0:
320,192,49804,1,0,0:0:0:0:
448,192,49892,1,0,0:0:0:0:
64,192,49892,1,0,0:0:0:0:
320,192,49981,1,0,0:0:0:0:
64,192,49981,1,0,0:0:0:0:
192,192,49981,1,0,0:0:0:0:
192,192,50069,1,0,0:0:0:0:
320,192,50157,1,0,0:0:0:0:
448,192,50157,1,0,0:0:0:0:
64,192,50157,1,0,0:0:0:0:
448,192,50245,1,0,0:0:0:0:
192,192,50334,1,0,0:0:0:0:
320,192,50334,1,0,0:0:0:0:
320,192,50510,1,0,0:0:0:0:
192,192,50510,1,0,0:0:0:0:
64,192,50510,1,0,0:0:0:0:
64,192,50598,1,0,0:0:0:0:
192,192,50687,1,0,0:0:0:0:
320,192,50687,1,0,0:0:0:0:
448,192,50863,1,0,0:0:0:0:
64,192,50863,1,0,0:0:0:0:
192,192,50863,1,0,0:0:0:0:
64,192,50951,1,0,0:0:0:0:
192,192,51039,1,0,0:0:0:0:
320,192,51039,1,0,0:0:0:0:
64,192,51128,1,0,0:0:0:0:
448,192,51128,1,0,0:0:0:0:
64,192,51216,1,0,0:0:0:0:
192,192,51216,1,0,0:0:0:0:
448,192,51304,1,0,0:0:0:0:
64,192,51304,1,0,0:0:0:0:
320,192,51392,1,0,0:0:0:0:
448,192,51392,1,0,0:0:0:0:
192,192,51392,1,0,0:0:0:0:
320,192,51481,1,0,0:0:0:0:
448,192,51569,1,0,0:0:0:0:
192,192,51569,1,0,0:0:0:0:
64,192,51569,1,0,0:0:0:0:
64,192,51657,1,0,0:0:0:0:
320,192,51745,1,0,0:0:0:0:
192,192,51745,1,0,0:0:0:0:
64,192,51922,1,0,0:0:0:0:
320,192,51922,1,0,0:0:0:0:
448,192,51922,1,0,0:0:0:0:
320,192,52010,1,0,0:0:0:0:
448,192,52098,1,0,0:0:0:0:
64,192,52098,1,0,0:0:0:0:
192,192,52275,1,0,0:0:0:0:
448,192,52275,1,0,0:0:0:0:
320,192,52275,1,0,0:0:0:0:
320,192,52363,1,0,0:0:0:0:
448,192,52451,1,0,0:0:0:0:
64,192,52451,1,0,0:0:0:0:
192,192,52539,1,0,0:0:0:0:
320,192,52539,1,0,0:0:0:0:
320,192,52628,1,0,0:0:0:0:
448,192,52628,1,0,0:0:0:0:
192,192,52716,1,0,0:0:0:0:
320,192,52716,1,0,0:0:0:0:
448,192,52804,1,0,0:0:0:0:
192,192,52804,1,0,0:0:0:0:
64,192,52804,1,0,0:0:0:0:
64,192,52892,1,0,0:0:0:0:
192,192,52981,1,0,0:0:0:0:
320,192,52981,1,0,0:0:0:0:
448,192,52981,1,0,0:0:0:0:
320,192,53069,1,0,0:0:0:0:
448,192,53157,1,0,0:0:0:0:
64,192,53157,1,0,0:0:0:0:
192,192,53334,5,0,0:0:0:0:
64,192,53334,1,0,0:0:0:0:
448,192,53334,1,0,0:0:0:0:
192,192,53422,1,0,0:0:0:0:
448,192,53510,1,0,0:0:0:0:
64,192,53510,1,0,0:0:0:0:
64,192,53687,1,0,0:0:0:0:
192,192,53687,1,0,0:0:0:0:
320,192,53687,1,0,0:0:0:0:
192,192,53775,1,0,0:0:0:0:
448,192,53863,1,0,0:0:0:0:
64,192,53863,1,0,0:0:0:0:
192,192,53951,1,0,0:0:0:0:
320,192,53951,1,0,0:0:0:0:
64,192,54039,1,0,0:0:0:0:
192,192,54039,1,0,0:0:0:0:
192,192,54128,1,0,0:0:0:0:
320,192,54128,1,0,0:0:0:0:
320,192,54216,1,0,0:0:0:0:
448,192,54216,1,0,0:0:0:0:
64,192,54216,1,0,0:0:0:0:
448,192,54304,1,0,0:0:0:0:
320,192,54392,1,0,0:0:0:0:
192,192,54392,1,0,0:0:0:0:
64,192,54392,1,0,0:0:0:0:
192,192,54481,1,0,0:0:0:0:
448,192,54569,1,0,0:0:0:0:
64,192,54569,1,0,0:0:0:0:
448,192,54745,1,0,0:0:0:0:
192,192,54745,1,0,0:0:0:0:
320,192,54745,1,0,0:0:0:0:
448,192,54834,1,0,0:0:0:0:
192,192,54922,1,0,0:0:0:0:
320,192,54922,1,0,0:0:0:0:
320,192,55098,1,0,0:0:0:0:
448,192,55098,1,0,0:0:0:0:
64,192,55098,1,0,0:0:0:0:
448,192,55187,1,0,0:0:0:0:
192,192,55275,1,0,0:0:0:0:
320,192,55275,1,0,0:0:0:0:
64,192,55363,1,0,0:0:0:0:
448,192,55363,1,0,0:0:0:0:
448,192,55451,1,0,0:0:0:0:
320,192,55451,1,0,0:0:0:0:
448,192,55539,1,0,0:0:0:0:
64,192,55539,1,0,0:0:0:0:
320,192,55628,1,0,0:0:0:0:
64,192,55628,1,0,0:0:0:0:
192,192,55628,1,0,0:0:0:0:
192,192,55716,1,0,0:0:0:0:
320,192,55804,1,0,0:0:0:0:
448,192,55804,1,0,0:0:0:0:
64,192,55804,1,0,0:0:0:0:
448,192,55892,1,0,0:0:0:0:
192,192,55981,1,0,0:0:0:0:
320,192,55981,1,0,0:0:0:0:
320,192,56157,1,0,0:0:0:0:
192,192,56157,1,0,0:0:0:0:
64,192,56157,1,0,0:0:0:0:
64,192,56245,1,0,0:0:0:0:
192,192,56334,1,0,0:0:0:0:
320,192,56334,1,0,0:0:0:0:
448,192,56510,1,0,0:0:0:0:
64,192,56510,1,0,0:0:0:0:
192,192,56510,1,0,0:0:0:0:
64,192,56598,1,0,0:0:0:0:
192,192,56687,1,0,0:0:0:0:
320,192,56687,1,0,0:0:0:0:
64,192,56775,1,0,0:0:0:0:
448,192,56775,1,0,0:0:0:0:
64,192,56863,1,0,0:0:0:0:
192,192,56863,1,0,0:0:0:0:
448,192,56951,1,0,0:0:0:0:
64,192,56951,1,0,0:0:0:0:
320,192,57039,1,0,0:0:0:0:
448,192,57039,1,0,0:0:0:0:
192,192,57039,1,0,0:0:0:0:
320,192,57128,1,0,0:0:0:0:
448,192,57216,1,0,0:0:0:0:
192,192,57216,1,0,0:0:0:0:
64,192,57216,1,0,0:0:0:0:
64,192,57304,1,0,0:0:0:0:
320,192,57392,1,0,0:0:0:0:
192,192,57392,1,0,0:0:0:0:
64,192,57569,1,0,0:0:0:0:
320,192,57569,1,0,0:0:0:0:
448,192,57569,1,0,0:0:0:0:
320,192,57657,1,0,0:0:0:0:
448,192,57745,1,0,0:0:0:0:
64,192,57745,1,0,0:0:0:0:
192,192,57922,1,0,0:0:0:0:
448,192,57922,1,0,0:0:0:0:
320,192,57922,1,0,0:0:0:0:
320,192,58010,1,0,0:0:0:0:
448,192,58098,1,0,0:0:0:0:
64,192,58098,1,0,0:0:0:0:
192,192,58187,1,0,0:0:0:0:
320,192,58187,1,0,0:0:0:0:
64,192,58187,1,0,0:0:0:0:
320,192,58275,1,0,0:0:0:0:
448,192,58275,1,0,0:0:0:0:
64,192,58275,1,0,0:0:0:0:
192,192,58363,1,0,0:0:0:0:
320,192,58363,1,0,0:0:0:0:
448,192,58451,1,0,0:0:0:0:
192,192,58451,1,0,0:0:0:0:
64,192,58451,1,0,0:0:0:0:
64,192,58539,1,0,0:0:0:0:
192,192,58628,1,0,0:0:0:0:
320,192,58628,1,0,0:0:0:0:
448,192,58628,1,0,0:0:0:0:
320,192,58716,1,0,0:0:0:0:
448,192,58804,1,0,0:0:0:0:
64,192,58804,1,0,0:0:0:0:
320,192,58892,1,0,0:0:0:0:
192,192,58892,1,0,0:0:0:0:
448,192,58892,1,0,0:0:0:0:
192,192,58981,5,0,0:0:0:0:
448,192,58981,1,0,0:0:0:0:
64,192,58981,1,0,0:0:0:0:
192,192,59069,1,0,0:0:0:0:
64,192,59157,1,0,0:0:0:0:
448,192,59157,1,0,0:0:0:0:
320,192,59334,1,0,0:0:0:0:
192,192,59334,1,0,0:0:0:0:
64,192,59334,1,0,0:0:0:0:
192,192,59422,1,0,0:0:0:0:
64,192,59510,1,0,0:0:0:0:
448,192,59510,1,0,0:0:0:0:
320,192,59598,1,0,0:0:0:0:
192,192,59598,1,0,0:0:0:0:
192,192,59687,1,0,0:0:0:0:
64,192,59687,1,0,0:0:0:0:
320,192,59775,1,0,0:0:0:0:
192,192,59775,1,0,0:0:0:0:
64,192,59863,1,0,0:0:0:0:
448,192,59863,1,0,0:0:0:0:
320,192,59863,1,0,0:0:0:0:
448,192,59951,1,0,0:0:0:0:
64,192,60039,1,0,0:0:0:0:
192,192,60039,1,0,0:0:0:0:
320,192,60039,1,0,0:0:0:0:
192,192,60128,1,0,0:0:0:0:
448,192,60216,1,0,0:0:0:0:
64,192,60216,1,0,0:0:0:0:
320,192,60392,1,0,0:0:0:0:
192,192,60392,1,0,0:0:0:0:
448,192,60392,1,0,0:0:0:0:
448,192,60481,1,0,0:0:0:0:
320,192,60569,1,0,0:0:0:0:
192,192,60569,1,0,0:0:0:0:
64,192,60745,1,0,0:0:0:0:
448,192,60745,1,0,0:0:0:0:
320,192,60745,1,0,0:0:0:0:
448,192,60834,1,0,0:0:0:0:
320,192,60922,1,0,0:0:0:0:
192,192,60922,1,0,0:0:0:0:
448,192,61010,1,0,0:0:0:0:
64,192,61010,1,0,0:0:0:0:
320,192,61098,1,0,0:0:0:0:
448,192,61098,1,0,0:0:0:0:
64,192,61186,1,0,0:0:0:0:
448,192,61186,1,0,0:0:0:0:
192,192,61275,1,0,0:0:0:0:
64,192,61275,1,0,0:0:0:0:
320,192,61275,1,0,0:0:0:0:
192,192,61363,1,0,0:0:0:0:
64,192,61451,1,0,0:0:0:0:
448,192,61451,1,0,0:0:0:0:
320,192,61451,1,0,0:0:0:0:
448,192,61539,1,0,0:0:0:0:
320,192,61628,1,0,0:0:0:0:
192,192,61628,1,0,0:0:0:0:
64,192,61804,1,0,0:0:0:0:
192,192,61804,1,0,0:0:0:0:
320,192,61804,1,0,0:0:0:0:
64,192,61892,1,0,0:0:0:0:
320,192,61981,1,0,0:0:0:0:
192,192,61981,1,0,0:0:0:0:
192,192,62157,1,0,0:0:0:0:
64,192,62157,1,0,0:0:0:0:
448,192,62157,1,0,0:0:0:0:
64,192,62245,1,0,0:0:0:0:
320,192,62334,1,0,0:0:0:0:
192,192,62334,1,0,0:0:0:0:
448,192,62422,1,0,0:0:0:0:
64,192,62422,1,0,0:0:0:0:
192,192,62510,1,0,0:0:0:0:
64,192,62510,1,0,0:0:0:0:
64,192,62598,1,0,0:0:0:0:
448,192,62598,1,0,0:0:0:0:
192,192,62686,1,0,0:0:0:0:
448,192,62686,1,0,0:0:0:0:
320,192,62686,1,0,0:0:0:0:
320,192,62775,1,0,0:0:0:0:
64,192,62863,1,0,0:0:0:0:
192,192,62863,1,0,0:0:0:0:
448,192,62863,1,0,0:0:0:0:
64,192,62951,1,0,0:0:0:0:
320,192,63039,1,0,0:0:0:0:
192,192,63039,1,0,0:0:0:0:
448,192,63216,1,0,0:0:0:0:
320,192,63216,1,0,0:0:0:0:
64,192,63216,1,0,0:0:0:0:
320,192,63304,1,0,0:0:0:0:
64,192,63392,1,0,0:0:0:0:
448,192,63392,1,0,0:0:0:0:
320,192,63569,1,0,0:0:0:0:
448,192,63569,1,0,0:0:0:0:
192,192,63569,1,0,0:0:0:0:
320,192,63657,1,0,0:0:0:0:
64,192,63745,1,0,0:0:0:0:
448,192,63745,1,0,0:0:0:0:
320,192,63834,1,0,0:0:0:0:
192,192,63834,1,0,0:0:0:0:
448,192,63922,1,0,0:0:0:0:
320,192,63922,1,0,0:0:0:0:
320,192,64010,1,0,0:0:0:0:
192,192,64010,1,0,0:0:0:0:
64,192,64098,1,0,0:0:0:0:
192,192,64098,1,0,0:0:0:0:
448,192,64098,1,0,0:0:0:0:
64,192,64186,1,0,0:0:0:0:
448,192,64275,1,0,0:0:0:0:
320,192,64275,1,0,0:0:0:0:
192,192,64275,1,0,0:0:0:0:
320,192,64363,1,0,0:0:0:0:
64,192,64451,1,0,0:0:0:0:
448,192,64451,1,0,0:0:0:0:
192,192,64628,5,0,0:0:0:0:
448,192,64628,1,0,0:0:0:0:
64,192,64628,1,0,0:0:0:0:
192,192,64716,1,0,0:0:0:0:
64,192,64804,1,0,0:0:0:0:
448,192,64804,1,0,0:0:0:0:
320,192,64981,1,0,0:0:0:0:
192,192,64981,1,0,0:0:0:0:
64,192,64981,1,0,0:0:0:0:
192,192,65069,1,0,0:0:0:0:
64,192,65157,1,0,0:0:0:0:
448,192,65157,1,0,0:0:0:0:
320,192,65245,1,0,0:0:0:0:
192,192,65245,1,0,0:0:0:0:
192,192,65334,1,0,0:0:0:0:
64,192,65334,1,0,0:0:0:0:
320,192,65422,1,0,0:0:0:0:
192,192,65422,1,0,0:0:0:0:
64,192,65510,1,0,0:0:0:0:
448,192,65510,1,0,0:0:0:0:
320,192,65510,1,0,0:0:0:0:
448,192,65598,1,0,0:0:0:0:
64,192,65687,1,0,0:0:0:0:
192,192,65687,1,0,0:0:0:0:
320,192,65687,1,0,0:0:0:0:
192,192,65775,1,0,0:0:0:0:
448,192,65863,1,0,0:0:0:0:
64,192,65863,1,0,0:0:0:0:
320,192,66039,1,0,0:0:0:0:
192,192,66039,1,0,0:0:0:0:
448,192,66039,1,0,0:0:0:0:
448,192,66128,1,0,0:0:0:0:
320,192,66216,1,0,0:0:0:0:
192,192,66216,1,0,0:0:0:0:
64,192,66392,1,0,0:0:0:0:
448,192,66392,1,0,0:0:0:0:
320,192,66392,1,0,0:0:0:0:
448,192,66481,1,0,0:0:0:0:
320,192,66569,1,0,0:0:0:0:
192,192,66569,1,0,0:0:0:0:
448,192,66657,1,0,0:0:0:0:
64,192,66657,1,0,0:0:0:0:
320,192,66745,1,0,0:0:0:0:
448,192,66745,1,0,0:0:0:0:
64,192,66834,1,0,0:0:0:0:
448,192,66834,1,0,0:0:0:0:
192,192,66922,1,0,0:0:0:0:
64,192,66922,1,0,0:0:0:0:
320,192,66922,1,0,0:0:0:0:
192,192,67010,1,0,0:0:0:0:
64,192,67098,1,0,0:0:0:0:
448,192,67098,1,0,0:0:0:0:
320,192,67098,1,0,0:0:0:0:
448,192,67187,1,0,0:0:0:0:
320,192,67275,1,0,0:0:0:0:
192,192,67275,1,0,0:0:0:0:
64,192,67451,1,0,0:0:0:0:
192,192,67451,1,0,0:0:0:0:
320,192,67451,1,0,0:0:0:0:
64,192,67539,1,0,0:0:0:0:
320,192,67628,1,0,0:0:0:0:
192,192,67628,1,0,0:0:0:0:
192,192,67804,1,0,0:0:0:0:
64,192,67804,1,0,0:0:0:0:
448,192,67804,1,0,0:0:0:0:
64,192,67892,1,0,0:0:0:0:
320,192,67981,1,0,0:0:0:0:
192,192,67981,1,0,0:0:0:0:
448,192,68069,1,0,0:0:0:0:
64,192,68069,1,0,0:0:0:0:
192,192,68157,1,0,0:0:0:0:
64,192,68157,1,0,0:0:0:0:
64,192,68245,1,0,0:0:0:0:
448,192,68245,1,0,0:0:0:0:
192,192,68334,1,0,0:0:0:0:
448,192,68334,1,0,0:0:0:0:
320,192,68334,1,0,0:0:0:0:
320,192,68422,1,0,0:0:0:0:
448,192,68510,1,0,0:0:0:0:
192,192,68510,1,0,0:0:0:0:
64,192,68510,1,0,0:0:0:0:
64,192,68598,1,0,0:0:0:0:
192,192,68687,1,0,0:0:0:0:
64,192,69745,5,0,0:0:0:0:
192,192,69804,1,0,0:0:0:0:
320,192,69863,1,0,0:0:0:0:
448,192,69922,1,0,0:0:0:0:
64,192,70275,5,0,0:0:0:0:
320,192,70275,1,0,0:0:0:0:
448,192,70275,1,0,0:0:0:0:
320,192,70363,1,0,0:0:0:0:
192,192,70451,1,0,0:0:0:0:
320,192,70451,1,0,0:0:0:0:
448,192,70451,1,0,0:0:0:0:
320,192,70539,1,0,0:0:0:0:
448,192,70628,1,0,0:0:0:0:
192,192,70628,1,0,0:0:0:0:
64,192,70628,1,0,0:0:0:0:
320,192,70716,1,0,0:0:0:0:
64,192,70716,1,0,0:0:0:0:
192,192,70804,1,0,0:0:0:0:
448,192,70804,1,0,0:0:0:0:
192,192,70892,1,0,0:0:0:0:
64,192,70892,1,0,0:0:0:0:
448,192,70981,1,0,0:0:0:0:
64,192,70981,1,0,0:0:0:0:
320,192,70981,1,0,0:0:0:0:
320,192,71069,1,0,0:0:0:0:
192,192,71069,1,0,0:0:0:0:
64,192,71157,1,0,0:0:0:0:
448,192,71157,1,0,0:0:0:0:
192,192,71157,1,0,0:0:0:0:
320,192,71245,1,0,0:0:0:0:
448,192,71245,1,0,0:0:0:0:
320,192,71334,1,0,0:0:0:0:
64,192,71334,1,0,0:0:0:0:
192,192,71334,1,0,0:0:0:0:
64,192,71422,1,0,0:0:0:0:
448,192,71422,1,0,0:0:0:0:
320,192,71510,1,0,0:0:0:0:
448,192,71598,1,0,0:0:0:0:
320,192,71687,1,0,0:0:0:0:
192,192,71687,1,0,0:0:0:0:
64,192,71687,1,0,0:0:0:0:
64,192,71775,1,0,0:0:0:0:
64,192,71863,1,0,0:0:0:0:
192,192,71863,1,0,0:0:0:0:
448,192,71863,1,0,0:0:0:0:
64,192,71951,1,0,0:0:0:0:
448,192,72039,1,0,0:0:0:0:
320,192,72039,1,0,0:0:0:0:
192,192,72039,1,0,0:0:0:0:
320,192,72128,1,0,0:0:0:0:
64,192,72128,1,0,0:0:0:0:
192,192,72216,1,0,0:0:0:0:
448,192,72216,1,0,0:0:0:0:
320,192,72304,1,0,0:0:0:0:
448,192,72304,1,0,0:0:0:0:
320,192,72392,1,0,0:0:0:0:
192,192,72392,1,0,0:0:0:0:
64,192,72392,1,0,0:0:0:0:
64,192,72481,1,0,0:0:0:0:
448,192,72481,1,0,0:0:0:0:
320,192,72569,1,0,0:0:0:0:
448,192,72569,1,0,0:0:0:0:
192,192,72569,1,0,0:0:0:0:
192,192,72657,1,0,0:0:0:0:
64,192,72657,1,0,0:0:0:0:
448,192,72745,1,0,0:0:0:0:
320,192,72745,1,0,0:0:0:0:
64,192,72745,1,0,0:0:0:0:
192,192,72834,1,0,0:0:0:0:
320,192,72834,1,0,0:0:0:0:
64,192,72922,1,0,0:0:0:0:
448,192,72922,1,0,0:0:0:0:
192,192,73010,1,0,0:0:0:0:
320,192,73010,1,0,0:0:0:0:
448,192,73098,1,0,0:0:0:0:
320,192,73098,1,0,0:0:0:0:
64,192,73098,1,0,0:0:0:0:
448,192,73187,1,0,0:0:0:0:
448,192,73275,1,0,0:0:0:0:
320,192,73275,1,0,0:0:0:0:
192,192,73275,1,0,0:0:0:0:
448,192,73363,1,0,0:0:0:0:
320,192,73451,1,0,0:0:0:0:
192,192,73451,1,0,0:0:0:0:
64,192,73451,1,0,0:0:0:0:
192,192,73539,1,0,0:0:0:0:
448,192,73539,1,0,0:0:0:0:
320,192,73628,1,0,0:0:0:0:
64,192,73628,1,0,0:0:0:0:
192,192,73716,1,0,0:0:0:0:
64,192,73716,1,0,0:0:0:0:
64,192,73804,1,0,0:0:0:0:
320,192,73804,1,0,0:0:0:0:
448,192,73804,1,0,0:0:0:0:
192,192,73892,1,0,0:0:0:0:
320,192,73892,1,0,0:0:0:0:
192,192,73981,1,0,0:0:0:0:
64,192,73981,1,0,0:0:0:0:
448,192,73981,1,0,0:0:0:0:
320,192,74069,1,0,0:0:0:0:
448,192,74069,1,0,0:0:0:0:
320,192,74157,1,0,0:0:0:0:
192,192,74157,1,0,0:0:0:0:
64,192,74157,1,0,0:0:0:0:
448,192,74245,1,0,0:0:0:0:
192,192,74245,1,0,0:0:0:0:
320,192,74334,1,0,0:0:0:0:
448,192,74422,1,0,0:0:0:0:
64,192,74510,1,0,0:0:0:0:
320,192,74510,1,0,0:0:0:0:
192,192,74510,1,0,0:0:0:0:
192,192,74598,1,0,0:0:0:0:
192,192,74687,1,0,0:0:0:0:
64,192,74687,1,0,0:0:0:0:
448,192,74687,1,0,0:0:0:0:
192,192,74775,1,0,0:0:0:0:
320,192,74863,1,0,0:0:0:0:
64,192,74863,1,0,0:0:0:0:
448,192,74863,1,0,0:0:0:0:
192,192,74951,1,0,0:0:0:0:
448,192,74951,1,0,0:0:0:0:
320,192,75039,1,0,0:0:0:0:
64,192,75039,1,0,0:0:0:0:
448,192,75128,1,0,0:0:0:0:
320,192,75128,1,0,0:0:0:0:
320,192,75216,1,0,0:0:0:0:
192,192,75216,1,0,0:0:0:0:
64,192,75216,1,0,0:0:0:0:
448,192,75304,1,0,0:0:0:0:
64,192,75304,1,0,0:0:0:0:
192,192,75392,1,0,0:0:0:0:
320,192,75392,1,0,0:0:0:0:
448,192,75392,1,0,0:0:0:0:
192,192,75481,1,0,0:0:0:0:
64,192,75481,1,0,0:0:0:0:
64,192,75569,1,0,0:0:0:0:
320,192,75569,1,0,0:0:0:0:
448,192,75569,1,0,0:0:0:0:
192,192,75657,1,0,0:0:0:0:
448,192,75657,1,0,0:0:0:0:
320,192,75745,1,0,0:0:0:0:
64,192,75745,1,0,0:0:0:0:
192,192,75834,1,0,0:0:0:0:
448,192,75834,1,0,0:0:0:0:
320,192,75922,1,0,0:0:0:0:
192,192,75922,1,0,0:0:0:0:
64,192,75922,1,0,0:0:0:0:
64,192,76010,1,0,0:0:0:0:
192,192,76098,1,0,0:0:0:0:
64,192,76098,1,0,0:0:0:0:
448,192,76098,1,0,0:0:0:0:
64,192,76187,1,0,0:0:0:0:
192,192,76275,1,0,0:0:0:0:
320,192,76275,1,0,0:0:0:0:
448,192,76275,1,0,0:0:0:0:
64,192,76363,1,0,0:0:0:0:
320,192,76363,1,0,0:0:0:0:
192,192,76451,1,0,0:0:0:0:
448,192,76451,1,0,0:0:0:0:
320,192,76539,1,0,0:0:0:0:
64,192,76539,1,0,0:0:0:0:
448,192,76628,1,0,0:0:0:0:
192,192,76628,1,0,0:0:0:0:
64,192,76628,1,0,0:0:0:0:
192,192,76716,1,0,0:0:0:0:
320,192,76716,1,0,0:0:0:0:
64,192,76804,1,0,0:0:0:0:
448,192,76804,1,0,0:0:0:0:
320,192,76804,1,0,0:0:0:0:
192,192,76892,1,0,0:0:0:0:
64,192,76892,1,0,0:0:0:0:
320,192,76981,1,0,0:0:0:0:
448,192,76981,1,0,0:0:0:0:
192,192,76981,1,0,0:0:0:0:
64,192,77069,1,0,0:0:0:0:
320,192,77069,1,0,0:0:0:0:
192,192,77157,1,0,0:0:0:0:
64,192,77245,1,0,0:0:0:0:
192,192,77334,1,0,0:0:0:0:
320,192,77334,1,0,0:0:0:0:
448,192,77334,1,0,0:0:0:0:
320,192,77422,1,0,0:0:0:0:
320,192,77510,1,0,0:0:0:0:
448,192,77510,1,0,0:0:0:0:
64,192,77510,1,0,0:0:0:0:
320,192,77598,1,0,0:0:0:0:
64,192,77686,1,0,0:0:0:0:
448,192,77686,1,0,0:0:0:0:
192,192,77686,1,0,0:0:0:0:
448,192,77775,1,0,0:0:0:0:
320,192,77863,1,0,0:0:0:0:
192,192,77863,1,0,0:0:0:0:
64,192,77951,1,0,0:0:0:0:
448,192,77951,1,0,0:0:0:0:
192,192,78039,1,0,0:0:0:0:
320,192,78039,1,0,0:0:0:0:
448,192,78039,1,0,0:0:0:0:
320,192,78128,1,0,0:0:0:0:
64,192,78128,1,0,0:0:0:0:
192,192,78216,1,0,0:0:0:0:
64,192,78216,1,0,0:0:0:0:
448,192,78216,1,0,0:0:0:0:
320,192,78304,1,0,0:0:0:0:
192,192,78304,1,0,0:0:0:0:
64,192,78392,1,0,0:0:0:0:
448,192,78392,1,0,0:0:0:0:
320,192,78392,1,0,0:0:0:0:
192,192,78481,1,0,0:0:0:0:
448,192,78481,1,0,0:0:0:0:
320,192,78569,1,0,0:0:0:0:
64,192,78569,1,0,0:0:0:0:
320,192,78657,1,0,0:0:0:0:
64,192,78745,1,0,0:0:0:0:
192,192,78745,1,0,0:0:0:0:
448,192,78745,1,0,0:0:0:0:
192,192,78834,1,0,0:0:0:0:
192,192,78922,1,0,0:0:0:0:
64,192,78922,1,0,0:0:0:0:
320,192,78922,1,0,0:0:0:0:
192,192,79010,1,0,0:0:0:0:
448,192,79098,1,0,0:0:0:0:
64,192,79098,1,0,0:0:0:0:
320,192,79098,1,0,0:0:0:0:
192,192,79186,1,0,0:0:0:0:
448,192,79186,1,0,0:0:0:0:
320,192,79275,1,0,0:0:0:0:
64,192,79275,1,0,0:0:0:0:
192,192,79363,1,0,0:0:0:0:
448,192,79363,1,0,0:0:0:0:
320,192,79451,1,0,0:0:0:0:
448,192,79451,1,0,0:0:0:0:
64,192,79451,1,0,0:0:0:0:
192,192,79539,1,0,0:0:0:0:
320,192,79539,1,0,0:0:0:0:
448,192,79628,1,0,0:0:0:0:
192,192,79628,1,0,0:0:0:0:
64,192,79628,1,0,0:0:0:0:
320,192,79716,1,0,0:0:0:0:
448,192,79716,1,0,0:0:0:0:
320,192,79804,1,0,0:0:0:0:
192,192,79804,1,0,0:0:0:0:
64,192,79804,1,0,0:0:0:0:
192,192,79892,1,0,0:0:0:0:
448,192,79892,1,0,0:0:0:0:
64,192,79981,1,0,0:0:0:0:
192,192,80069,1,0,0:0:0:0:
320,192,80157,1,0,0:0:0:0:
448,192,80157,1,0,0:0:0:0:
64,192,80157,1,0,0:0:0:0:
448,192,80245,1,0,0:0:0:0:
448,192,80334,1,0,0:0:0:0:
320,192,80334,1,0,0:0:0:0:
192,192,80334,1,0,0:0:0:0:
448,192,80422,1,0,0:0:0:0:
320,192,80510,1,0,0:0:0:0:
192,192,80510,1,0,0:0:0:0:
64,192,80510,1,0,0:0:0:0:
320,192,80598,1,0,0:0:0:0:
448,192,80686,1,0,0:0:0:0:
64,192,80686,1,0,0:0:0:0:
320,192,80775,1,0,0:0:0:0:
192,192,80775,1,0,0:0:0:0:
448,192,80863,1,0,0:0:0:0:
64,192,80863,1,0,0:0:0:0:
192,192,80863,1,0,0:0:0:0:
320,192,80951,1,0,0:0:0:0:
64,192,80951,1,0,0:0:0:0:
320,192,81039,1,0,0:0:0:0:
448,192,81039,1,0,0:0:0:0:
192,192,81039,1,0,0:0:0:0:
64,192,81128,1,0,0:0:0:0:
320,192,81128,1,0,0:0:0:0:
64,192,81216,1,0,0:0:0:0:
192,192,81216,1,0,0:0:0:0:
448,192,81216,1,0,0:0:0:0:
320,192,81304,1,0,0:0:0:0:
448,192,81304,1,0,0:0:0:0:
320,192,81392,1,0,0:0:0:0:
192,192,81392,1,0,0:0:0:0:
192,192,81481,1,0,0:0:0:0:
64,192,81481,1,0,0:0:0:0:
64,192,81569,5,0,0:0:0:0:
320,192,81569,1,0,0:0:0:0:
448,192,81569,1,0,0:0:0:0:
320,192,81657,1,0,0:0:0:0:
192,192,81745,1,0,0:0:0:0:
320,192,81745,1,0,0:0:0:0:
448,192,81745,1,0,0:0:0:0:
320,192,81834,1,0,0:0:0:0:
448,192,81922,1,0,0:0:0:0:
192,192,81922,1,0,0:0:0:0:
64,192,81922,1,0,0:0:0:0:
320,192,82010,1,0,0:0:0:0:
64,192,82010,1,0,0:0:0:0:
192,192,82098,1,0,0:0:0:0:
448,192,82098,1,0,0:0:0:0:
192,192,82186,1,0,0:0:0:0:
64,192,82186,1,0,0:0:0:0:
448,192,82275,1,0,0:0:0:0:
64,192,82275,1,0,0:0:0:0:
320,192,82275,1,0,0:0:0:0:
320,192,82363,1,0,0:0:0:0:
192,192,82363,1,0,0:0:0:0:
64,192,82451,1,0,0:0:0:0:
448,192,82451,1,0,0:0:0:0:
192,192,82451,1,0,0:0:0:0:
320,192,82539,1,0,0:0:0:0:
448,192,82539,1,0,0:0:0:0:
320,192,82628,1,0,0:0:0:0:
64,192,82628,1,0,0:0:0:0:
192,192,82628,1,0,0:0:0:0:
64,192,82716,1,0,0:0:0:0:
448,192,82716,1,0,0:0:0:0:
320,192,82804,1,0,0:0:0:0:
448,192,82892,1,0,0:0:0:0:
320,192,82981,1,0,0:0:0:0:
192,192,82981,1,0,0:0:0:0:
64,192,82981,1,0,0:0:0:0:
64,192,83069,1,0,0:0:0:0:
64,192,83157,1,0,0:0:0:0:
192,192,83157,1,0,0:0:0:0:
448,192,83157,1,0,0:0:0:0:
64,192,83245,1,0,0:0:0:0:
448,192,83334,1,0,0:0:0:0:
320,192,83334,1,0,0:0:0:0:
192,192,83334,1,0,0:0:0:0:
320,192,83422,1,0,0:0:0:0:
64,192,83422,1,0,0:0:0:0:
192,192,83510,1,0,0:0:0:0:
448,192,83510,1,0,0:0:0:0:
320,192,83598,1,0,0:0:0:0:
448,192,83598,1,0,0:0:0:0:
320,192,83686,1,0,0:0:0:0:
192,192,83686,1,0,0:0:0:0:
64,192,83686,1,0,0:0:0:0:
64,192,83775,1,0,0:0:0:0:
448,192,83775,1,0,0:0:0:0:
320,192,83863,1,0,0:0:0:0:
448,192,83863,1,0,0:0:0:0:
192,192,83863,1,0,0:0:0:0:
192,192,83951,1,0,0:0:0:0:
64,192,83951,1,0,0:0:0:0:
448,192,84039,1,0,0:0:0:0:
320,192,84039,1,0,0:0:0:0:
64,192,84039,1,0,0:0:0:0:
192,192,84128,1,0,0:0:0:0:
320,192,84128,1,0,0:0:0:0:
64,192,84216,1,0,0:0:0:0:
448,192,84216,1,0,0:0:0:0:
192,192,84304,1,0,0:0:0:0:
320,192,84304,1,0,0:0:0:0:
448,192,84392,1,0,0:0:0:0:
320,192,84392,1,0,0:0:0:0:
64,192,84392,1,0,0:0:0:0:
448,192,84481,1,0,0:0:0:0:
448,192,84569,1,0,0:0:0:0:
320,192,84569,1,0,0:0:0:0:
192,192,84569,1,0,0:0:0:0:
448,192,84657,1,0,0:0:0:0:
320,192,84745,1,0,0:0:0:0:
192,192,84745,1,0,0:0:0:0:
64,192,84745,1,0,0:0:0:0:
192,192,84834,1,0,0:0:0:0:
448,192,84834,1,0,0:0:0:0:
320,192,84922,1,0,0:0:0:0:
64,192,84922,1,0,0:0:0:0:
192,192,85010,1,0,0:0:0:0:
64,192,85010,1,0,0:0:0:0:
64,192,85098,1,0,0:0:0:0:
320,192,85098,1,0,0:0:0:0:
448,192,85098,1,0,0:0:0:0:
192,192,85186,1,0,0:0:0:0:
320,192,85186,1,0,0:0:0:0:
192,192,85275,1,0,0:0:0:0:
64,192,85275,1,0,0:0:0:0:
448,192,85275,1,0,0:0:0:0:
320,192,85363,1,0,0:0:0:0:
448,192,85363,1,0,0:0:0:0:
320,192,85451,1,0,0:0:0:0:
192,192,85451,1,0,0:0:0:0:
64,192,85451,1,0,0:0:0:0:
448,192,85539,1,0,0:0:0:0:
192,192,85539,1,0,0:0:0:0:
320,192,85628,1,0,0:0:0:0:
448,192,85716,1,0,0:0:0:0:
64,192,85804,1,0,0:0:0:0:
320,192,85804,1,0,0:0:0:0:
192,192,85804,1,0,0:0:0:0:
192,192,85892,1,0,0:0:0:0:
192,192,85981,1,0,0:0:0:0:
64,192,85981,1,0,0:0:0:0:
448,192,85981,1,0,0:0:0:0:
192,192,86069,1,0,0:0:0:0:
320,192,86157,1,0,0:0:0:0:
64,192,86157,1,0,0:0:0:0:
448,192,86157,1,0,0:0:0:0:
192,192,86245,1,0,0:0:0:0:
448,192,86245,1,0,0:0:0:0:
320,192,86334,1,0,0:0:0:0:
64,192,86334,1,0,0:0:0:0:
448,192,86422,1,0,0:0:0:0:
320,192,86422,1,0,0:0:0:0:
320,192,86510,1,0,0:0:0:0:
192,192,86510,1,0,0:0:0:0:
64,192,86510,1,0,0:0:0:0:
448,192,86598,1,0,0:0:0:0:
64,192,86598,1,0,0:0:0:0:
192,192,86686,1,0,0:0:0:0:
320,192,86686,1,0,0:0:0:0:
448,192,86686,1,0,0:0:0:0:
192,192,86775,1,0,0:0:0:0:
64,192,86775,1,0,0:0:0:0:
64,192,86863,1,0,0:0:0:0:
320,192,86863,1,0,0:0:0:0:
448,192,86863,1,0,0:0:0:0:
192,192,86951,1,0,0:0:0:0:
448,192,86951,1,0,0:0:0:0:
320,192,87039,1,0,0:0:0:0:
64,192,87039,1,0,0:0:0:0:
192,192,87128,1,0,0:0:0:0:
448,192,87128,1,0,0:0:0:0:
320,192,87216,1,0,0:0:0:0:
192,192,87216,1,0,0:0:0:0:
64,192,87216,1,0,0:0:0:0:
64,192,87304,1,0,0:0:0:0:
192,192,87392,1,0,0:0:0:0:
64,192,87392,1,0,0:0:0:0:
448,192,87392,1,0,0:0:0:0:
64,192,87481,1,0,0:0:0:0:
192,192,87569,1,0,0:0:0:0:
320,192,87569,1,0,0:0:0:0:
448,192,87569,1,0,0:0:0:0:
64,192,87657,1,0,0:0:0:0:
320,192,87657,1,0,0:0:0:0:
192,192,87745,1,0,0:0:0:0:
448,192,87745,1,0,0:0:0:0:
320,192,87834,1,0,0:0:0:0:
64,192,87834,1,0,0:0:0:0:
448,192,87922,5,0,0:0:0:0:
192,192,87922,1,0,0:0:0:0:
64,192,87922,1,0,0:0:0:0:
192,192,88010,1,0,0:0:0:0:
320,192,88010,1,0,0:0:0:0:
64,192,88098,1,0,0:0:0:0:
448,192,88098,1,0,0:0:0:0:
320,192,88098,1,0,0:0:0:0:
192,192,88186,1,0,0:0:0:0:
64,192,88186,1,0,0:0:0:0:
320,192,88275,1,0,0:0:0:0:
448,192,88275,1,0,0:0:0:0:
192,192,88275,1,0,0:0:0:0:
64,192,88363,1,0,0:0:0:0:
320,192,88363,1,0,0:0:0:0:
192,192,88451,1,0,0:0:0:0:
64,192,88539,1,0,0:0:0:0:
192,192,88628,1,0,0:0:0:0:
320,192,88628,1,0,0:0:0:0:
448,192,88628,1,0,0:0:0:0:
320,192,88716,1,0,0:0:0:0:
320,192,88804,1,0,0:0:0:0:
448,192,88804,1,0,0:0:0:0:
64,192,88804,1,0,0:0:0:0:
320,192,88892,1,0,0:0:0:0:
64,192,88981,1,0,0:0:0:0:
448,192,88981,1,0,0:0:0:0:
192,192,88981,1,0,0:0:0:0:
448,192,89069,1,0,0:0:0:0:
320,192,89157,1,0,0:0:0:0:
192,192,89157,1,0,0:0:0:0:
64,192,89245,1,0,0:0:0:0:
448,192,89245,1,0,0:0:0:0:
192,192,89334,1,0,0:0:0:0:
320,192,89334,1,0,0:0:0:0:
448,192,89334,1,0,0:0:0:0:
320,192,89422,1,0,0:0:0:0:
64,192,89422,1,0,0:0:0:0:
192,192,89510,1,0,0:0:0:0:
64,192,89510,1,0,0:0:0:0:
448,192,89510,1,0,0:0:0:0:
320,192,89598,1,0,0:0:0:0:
192,192,89598,1,0,0:0:0:0:
64,192,89686,1,0,0:0:0:0:
448,192,89686,1,0,0:0:0:0:
320,192,89686,1,0,0:0:0:0:
192,192,89775,1,0,0:0:0:0:
448,192,89775,1,0,0:0:0:0:
320,192,89863,1,0,0:0:0:0:
64,192,89863,1,0,0:0:0:0:
320,192,89951,1,0,0:0:0:0:
64,192,90039,1,0,0:0:0:0:
192,192,90039,1,0,0:0:0:0:
448,192,90039,1,0,0:0:0:0:
192,192,90128,1,0,0:0:0:0:
192,192,90216,1,0,0:0:0:0:
64,192,90216,1,0,0:0:0:0:
320,192,90216,1,0,0:0:0:0:
192,192,90304,1,0,0:0:0:0:
448,192,90392,1,0,0:0:0:0:
64,192,90392,1,0,0:0:0:0:
320,192,90392,1,0,0:0:0:0:
192,192,90481,1,0,0:0:0:0:
448,192,90481,1,0,0:0:0:0:
320,192,90569,1,0,0:0:0:0:
64,192,90569,1,0,0:0:0:0:
192,192,90657,1,0,0:0:0:0:
448,192,90657,1,0,0:0:0:0:
320,192,90745,1,0,0:0:0:0:
448,192,90745,1,0,0:0:0:0:
64,192,90745,1,0,0:0:0:0:
192,192,90834,1,0,0:0:0:0:
320,192,90834,1,0,0:0:0:0:
448,192,90922,1,0,0:0:0:0:
192,192,90922,1,0,0:0:0:0:
64,192,90922,1,0,0:0:0:0:
320,192,91010,1,0,0:0:0:0:
448,192,91010,1,0,0:0:0:0:
320,192,91098,1,0,0:0:0:0:
192,192,91098,1,0,0:0:0:0:
64,192,91098,1,0,0:0:0:0:
192,192,91186,1,0,0:0:0:0:
448,192,91186,1,0,0:0:0:0:
64,192,91275,1,0,0:0:0:0:
192,192,91363,1,0,0:0:0:0:
320,192,91451,1,0,0:0:0:0:
448,192,91451,1,0,0:0:0:0:
64,192,91451,1,0,0:0:0:0:
192,192,91539,1,0,0:0:0:0:
448,192,91539,1,0,0:0:0:0:
320,192,91628,1,0,0:0:0:0:
64,192,91628,1,0,0:0:0:0:
64,192,91716,1,0,0:0:0:0:
192,192,91716,1,0,0:0:0:0:
448,192,91716,1,0,0:0:0:0:
320,192,91804,1,0,0:0:0:0:
192,192,91804,1,0,0:0:0:0:
64,192,91892,1,0,0:0:0:0:
448,192,91892,1,0,0:0:0:0:
448,192,91981,1,0,0:0:0:0:
320,192,91981,1,0,0:0:0:0:
192,192,91981,1,0,0:0:0:0:
320,192,92069,1,0,0:0:0:0:
64,192,92069,1,0,0:0:0:0:
192,192,92157,1,0,0:0:0:0:
448,192,92157,1,0,0:0:0:0:
320,192,92245,1,0,0:0:0:0:
192,192,92245,1,0,0:0:0:0:
64,192,92245,1,0,0:0:0:0:
64,192,92334,1,0,0:0:0:0:
448,192,92334,1,0,0:0:0:0:
192,192,92422,1,0,0:0:0:0:
320,192,92422,1,0,0:0:0:0:
320,192,92510,1,0,0:0:0:0:
448,192,92510,1,0,0:0:0:0:
64,192,92510,1,0,0:0:0:0:
192,192,92598,1,0,0:0:0:0:
448,192,92598,1,0,0:0:0:0:
320,192,92686,1,0,0:0:0:0:
192,192,92686,1,0,0:0:0:0:
64,192,92686,1,0,0:0:0:0:
320,192,92775,1,0,0:0:0:0:
448,192,92775,1,0,0:0:0:0:
192,192,92951,1,0,0:0:0:0:
320,192,93039,1,0,0:0:0:0:
320,192,93128,1,0,0:0:0:0:
192,192,93216,1,0,0:0:0:0:
192,192,93304,1,0,0:0:0:0:
64,192,93392,1,0,0:0:0:0:
448,192,93392,1,0,0:0:0:0:
448,192,93481,1,0,0:0:0:0:
64,192,93481,1,0,0:0:0:0:
320,192,93569,1,0,0:0:0:0:
448,192,93657,1,0,0:0:0:0:
192,192,93745,1,0,0:0:0:0:
192,192,93834,1,0,0:0:0:0:
320,192,93922,1,0,0:0:0:0:
320,192,94010,1,0,0:0:0:0:
320,192,94098,1,0,0:0:0:0:
448,192,94098,1,0,0:0:0:0:
320,192,94186,1,0,0:0:0:0:
448,192,94186,1,0,0:0:0:0:
192,192,94275,1,0,0:0:0:0:
64,192,94275,1,0,0:0:0:0:
320,192,94275,1,0,0:0:0:0:
64,192,94628,1,0,0:0:0:0:
448,192,94804,1,0,0:0:0:0:
64,192,96039,1,0,0:0:0:0:
448,192,96216,1,0,0:0:0:0:
320,192,96392,1,0,0:0:0:0:
192,192,96569,1,0,0:0:0:0:
320,192,96745,1,0,0:0:0:0:
192,192,97098,1,0,0:0:0:0:
64,192,97451,1,0,0:0:0:0:
448,192,97628,1,0,0:0:0:0:
320,192,98334,1,0,0:0:0:0:
320,192,98510,1,0,0:0:0:0:
64,192,100275,1,0,0:0:0:0:
320,192,100451,1,0,0:0:0:0:
192,192,101686,1,0,0:0:0:0:
64,192,101863,1,0,0:0:0:0:
320,192,102039,1,0,0:0:0:0:
192,192,102216,1,0,0:0:0:0:
448,192,102392,1,0,0:0:0:0:
448,192,102745,1,0,0:0:0:0:
64,192,103098,1,0,0:0:0:0:
192,192,103275,1,0,0:0:0:0:
320,192,103981,1,0,0:0:0:0:
320,192,104157,1,0,0:0:0:0:
64,192,105922,1,0,0:0:0:0:
448,192,106098,1,0,0:0:0:0:
64,192,107334,1,0,0:0:0:0:
448,192,107510,1,0,0:0:0:0:
320,192,107686,1,0,0:0:0:0:
192,192,107863,1,0,0:0:0:0:
320,192,108039,1,0,0:0:0:0:
192,192,108392,1,0,0:0:0:0:
64,192,108745,1,0,0:0:0:0:
448,192,108922,1,0,0:0:0:0:
320,192,109628,1,0,0:0:0:0:
320,192,109804,1,0,0:0:0:0:
64,192,111569,1,0,0:0:0:0:
320,192,111745,1,0,0:0:0:0:
192,192,112981,1,0,0:0:0:0:
64,192,113157,1,0,0:0:0:0:
320,192,113334,1,0,0:0:0:0:
192,192,113510,1,0,0:0:0:0:
448,192,113686,1,0,0:0:0:0:
448,192,114039,1,0,0:0:0:0:
64,192,114392,1,0,0:0:0:0:
192,192,114569,1,0,0:0:0:0:
320,192,115275,1,0,0:0:0:0:
320,192,115451,1,0,0:0:0:0:
64,192,116334,1,0,0:0:0:0:
192,192,116392,1,0,0:0:0:0:
320,192,116451,1,0,0:0:0:0:
448,192,116510,1,0,0:0:0:0:
320,192,116863,1,0,0:0:0:0:
448,192,116863,1,0,0:0:0:0:
64,192,116863,1,0,0:0:0:0:
192,192,116951,1,0,0:0:0:0:
448,192,117039,1,0,0:0:0:0:
64,192,117128,1,0,0:0:0:0:
320,192,117216,1,0,0:0:0:0:
192,192,117304,1,0,0:0:0:0:
448,192,117392,1,0,0:0:0:0:
64,192,117481,1,0,0:0:0:0:
320,192,117569,1,0,0:0:0:0:
448,192,117628,1,0,0:0:0:0:
320,192,117686,1,0,0:0:0:0:
192,192,117745,1,0,0:0:0:0:
320,192,117834,1,0,0:0:0:0:
192,192,117922,1,0,0:0:0:0:
64,192,117981,1,0,0:0:0:0:
192,192,118039,1,0,0:0:0:0:
320,192,118098,1,0,0:0:0:0:
64,192,118186,1,0,0:0:0:0:
192,192,118275,1,0,0:0:0:0:
448,192,118275,1,0,0:0:0:0:
320,192,118363,1,0,0:0:0:0:
192,192,118451,1,0,0:0:0:0:
64,192,118539,1,0,0:0:0:0:
320,192,118628,1,0,0:0:0:0:
192,192,118716,1,0,0:0:0:0:
64,192,118804,1,0,0:0:0:0:
448,192,118892,1,0,0:0:0:0:
192,192,118981,1,0,0:0:0:0:
64,192,119039,1,0,0:0:0:0:
192,192,119098,1,0,0:0:0:0:
320,192,119157,1,0,0:0:0:0:
192,192,119245,1,0,0:0:0:0:
448,192,119334,1,0,0:0:0:0:
320,192,119392,1,0,0:0:0:0:
448,192,119451,1,0,0:0:0:0:
320,192,119510,1,0,0:0:0:0:
192,192,119598,1,0,0:0:0:0:
64,192,119686,1,0,0:0:0:0:
448,192,119686,1,0,0:0:0:0:
192,192,119775,1,0,0:0:0:0:
320,192,119863,1,0,0:0:0:0:
64,192,119951,1,0,0:0:0:0:
192,192,119995,1,0,0:0:0:0:
320,192,120039,1,0,0:0:0:0:
448,192,120084,1,0,0:0:0:0:
320,192,120128,1,0,0:0:0:0:
192,192,120172,1,0,0:0:0:0:
64,192,120216,1,0,0:0:0:0:
192,192,120260,1,0,0:0:0:0:
320,192,120304,1,0,0:0:0:0:
64,192,120348,1,0,0:0:0:0:
448,192,120392,1,0,0:0:0:0:
320,192,120481,1,0,0:0:0:0:
192,192,120569,1,0,0:0:0:0:
320,192,120657,1,0,0:0:0:0:
64,192,120745,1,0,0:0:0:0:
448,192,120804,1,0,0:0:0:0:
192,192,120863,1,0,0:0:0:0:
320,192,120922,1,0,0:0:0:0:
64,192,120981,1,0,0:0:0:0:
192,192,121039,1,0,0:0:0:0:
320,192,121098,1,0,0:0:0:0:
448,192,121098,1,0,0:0:0:0:
64,192,121186,1,0,0:0:0:0:
192,192,121319,1,0,0:0:0:0:
64,192,121363,1,0,0:0:0:0:
192,192,121407,1,0,0:0:0:0:
320,192,121451,1,0,0:0:0:0:
448,192,121539,1,0,0:0:0:0:
64,192,121628,1,0,0:0:0:0:
192,192,121672,1,0,0:0:0:0:
320,192,121716,1,0,0:0:0:0:
448,192,121804,1,0,0:0:0:0:
320,192,121863,1,0,0:0:0:0:
192,192,121922,1,0,0:0:0:0:
448,192,121981,1,0,0:0:0:0:
320,192,122039,1,0,0:0:0:0:
192,192,122098,1,0,0:0:0:0:
64,192,122157,1,0,0:0:0:0:
448,192,122216,1,0,0:0:0:0:
320,192,122275,1,0,0:0:0:0:
448,192,122334,1,0,0:0:0:0:
192,192,122392,1,0,0:0:0:0:
320,192,122451,1,0,0:0:0:0:
64,192,122510,1,0,0:0:0:0:
448,192,122510,1,0,0:0:0:0:
64,192,122686,1,0,0:0:0:0:
192,192,122775,1,0,0:0:0:0:
320,192,122863,1,0,0:0:0:0:
192,192,122951,1,0,0:0:0:0:
448,192,123039,1,0,0:0:0:0:
320,192,123128,1,0,0:0:0:0:
64,192,123216,1,0,0:0:0:0:
192,192,123304,1,0,0:0:0:0:
320,192,123392,1,0,0:0:0:0:
448,192,123569,1,0,0:0:0:0:
192,192,123657,1,0,0:0:0:0:
64,192,123745,1,0,0:0:0:0:
192,192,123834,1,0,0:0:0:0:
448,192,123922,1,0,0:0:0:0:
64,192,123922,1,0,0:0:0:0:
320,192,123981,1,0,0:0:0:0:
192,192,124039,1,0,0:0:0:0:
448,192,124098,1,0,0:0:0:0:
320,192,124157,1,0,0:0:0:0:
448,192,124216,1,0,0:0:0:0:
64,192,124275,1,0,0:0:0:0:
192,192,124334,1,0,0:0:0:0:
64,192,124392,1,0,0:0:0:0:
320,192,124451,1,0,0:0:0:0:
192,192,124510,1,0,0:0:0:0:
64,192,124569,1,0,0:0:0:0:
448,192,124628,1,0,0:0:0:0:
320,192,124686,1,0,0:0:0:0:
192,192,124745,1,0,0:0:0:0:
320,192,124804,1,0,0:0:0:0:
64,192,124863,1,0,0:0:0:0:
192,192,124922,1,0,0:0:0:0:
320,192,124981,1,0,0:0:0:0:
64,192,125039,1,0,0:0:0:0:
192,192,125098,1,0,0:0:0:0:
320,192,125157,1,0,0:0:0:0:
448,192,125216,1,0,0:0:0:0:
320,192,125275,1,0,0:0:0:0:
448,192,125334,1,0,0:0:0:0:
64,192,125334,1,0,0:0:0:0:
192,192,125422,1,0,0:0:0:0:
320,192,125510,1,0,0:0:0:0:
64,192,125598,1,0,0:0:0:0:
448,192,125686,1,0,0:0:0:0:
192,192,125775,1,0,0:0:0:0:
320,192,125863,1,0,0:0:0:0:
64,192,125951,1,0,0:0:0:0:
192,192,126039,1,0,0:0:0:0:
64,192,126128,1,0,0:0:0:0:
320,192,126216,1,0,0:0:0:0:
192,192,126304,1,0,0:0:0:0:
448,192,126392,1,0,0:0:0:0:
320,192,126481,1,0,0:0:0:0:
448,192,126569,1,0,0:0:0:0:
320,192,126745,1,0,0:0:0:0:
192,192,126745,1,0,0:0:0:0:
64,192,126834,1,0,0:0:0:0:
320,192,126922,1,0,0:0:0:0:
192,192,127010,1,0,0:0:0:0:
320,192,127098,1,0,0:0:0:0:
448,192,127157,1,0,0:0:0:0:
320,192,127216,1,0,0:0:0:0:
192,192,127275,1,0,0:0:0:0:
64,192,127334,1,0,0:0:0:0:
320,192,127451,1,0,0:0:0:0:
448,192,127539,1,0,0:0:0:0:
192,192,127628,1,0,0:0:0:0:
64,192,127716,1,0,0:0:0:0:
448,192,127804,1,0,0:0:0:0:
320,192,127863,1,0,0:0:0:0:
192,192,127922,1,0,0:0:0:0:
320,192,127981,1,0,0:0:0:0:
64,192,128039,1,0,0:0:0:0:
192,192,128098,1,0,0:0:0:0:
320,192,128157,1,0,0:0:0:0:
448,192,128157,1,0,0:0:0:0:
192,192,128245,1,0,0:0:0:0:
448,192,128334,1,0,0:0:0:0:
64,192,128422,1,0,0:0:0:0:
320,192,128510,1,0,0:0:0:0:
192,192,128598,1,0,0:0:0:0:
448,192,128686,1,0,0:0:0:0:
64,192,128775,1,0,0:0:0:0:
320,192,128863,1,0,0:0:0:0:
192,192,128863,1,0,0:0:0:0:
448,192,128922,1,0,0:0:0:0:
320,192,128981,1,0,0:0:0:0:
192,192,129039,1,0,0:0:0:0:
320,192,129128,1,0,0:0:0:0:
192,192,129216,1,0,0:0:0:0:
64,192,129275,1,0,0:0:0:0:
192,192,129334,1,0,0:0:0:0:
320,192,129392,1,0,0:0:0:0:
64,192,129481,1,0,0:0:0:0:
192,192,129569,1,0,0:0:0:0:
448,192,129569,1,0,0:0:0:0:
320,192,129657,1,0,0:0:0:0:
192,192,129745,1,0,0:0:0:0:
64,192,129834,1,0,0:0:0:0:
320,192,129922,1,0,0:0:0:0:
192,192,130010,1,0,0:0:0:0:
64,192,130098,1,0,0:0:0:0:
448,192,130186,1,0,0:0:0:0:
192,192,130275,1,0,0:0:0:0:
64,192,130334,1,0,0:0:0:0:
192,192,130392,1,0,0:0:0:0:
320,192,130451,1,0,0:0:0:0:
192,192,130539,1,0,0:0:0:0:
448,192,130628,1,0,0:0:0:0:
320,192,130686,1,0,0:0:0:0:
448,192,130745,1,0,0:0:0:0:
320,192,130804,1,0,0:0:0:0:
192,192,130892,1,0,0:0:0:0:
64,192,130981,1,0,0:0:0:0:
448,192,130981,1,0,0:0:0:0:
192,192,131069,1,0,0:0:0:0:
320,192,131157,1,0,0:0:0:0:
64,192,131245,1,0,0:0:0:0:
192,192,131289,1,0,0:0:0:0:
320,192,131334,1,0,0:0:0:0:
448,192,131378,1,0,0:0:0:0:
320,192,131422,1,0,0:0:0:0:
192,192,131466,1,0,0:0:0:0:
64,192,131510,1,0,0:0:0:0:
192,192,131554,1,0,0:0:0:0:
320,192,131598,1,0,0:0:0:0:
64,192,131642,1,0,0:0:0:0:
448,192,131686,1,0,0:0:0:0:
192,192,131686,1,0,0:0:0:0:
320,192,131775,1,0,0:0:0:0:
192,192,131863,1,0,0:0:0:0:
320,192,131951,1,0,0:0:0:0:
64,192,132039,1,0,0:0:0:0:
448,192,132098,1,0,0:0:0:0:
192,192,132157,1,0,0:0:0:0:
320,192,132216,1,0,0:0:0:0:
64,192,132275,1,0,0:0:0:0:
192,192,132334,1,0,0:0:0:0:
320,192,132392,1,0,0:0:0:0:
448,192,132392,1,0,0:0:0:0:
64,192,132481,1,0,0:0:0:0:
192,192,132613,1,0,0:0:0:0:
64,192,132657,1,0,0:0:0:0:
192,192,132701,1,0,0:0:0:0:
320,192,132745,1,0,0:0:0:0:
448,192,132834,1,0,0:0:0:0:
64,192,132922,1,0,0:0:0:0:
192,192,132966,1,0,0:0:0:0:
320,192,133010,1,0,0:0:0:0:
448,192,133098,1,0,0:0:0:0:
320,192,133157,1,0,0:0:0:0:
192,192,133216,1,0,0:0:0:0:
448,192,133275,1,0,0:0:0:0:
320,192,133334,1,0,0:0:0:0:
192,192,133392,1,0,0:0:0:0:
64,192,133451,1,0,0:0:0:0:
448,192,133510,1,0,0:0:0:0:
320,192,133569,1,0,0:0:0:0:
448,192,133628,1,0,0:0:0:0:
192,192,133686,1,0,0:0:0:0:
320,192,133745,1,0,0:0:0:0:
64,192,133804,1,0,0:0:0:0:
448,192,133804,1,0,0:0:0:0:
64,192,133981,1,0,0:0:0:0:
192,192,134069,1,0,0:0:0:0:
320,192,134157,1,0,0:0:0:0:
192,192,134245,1,0,0:0:0:0:
448,192,134334,1,0,0:0:0:0:
320,192,134422,1,0,0:0:0:0:
64,192,134510,1,0,0:0:0:0:
448,192,134510,1,0,0:0:0:0:
192,192,134598,1,0,0:0:0:0:
320,192,134686,1,0,0:0:0:0:
448,192,134863,1,0,0:0:0:0:
192,192,134951,1,0,0:0:0:0:
64,192,135039,1,0,0:0:0:0:
192,192,135128,1,0,0:0:0:0:
448,192,135216,1,0,0:0:0:0:
64,192,135216,1,0,0:0:0:0:
320,192,135275,1,0,0:0:0:0:
192,192,135334,1,0,0:0:0:0:
448,192,135392,1,0,0:0:0:0:
320,192,135451,1,0,0:0:0:0:
448,192,135510,1,0,0:0:0:0:
64,192,135569,1,0,0:0:0:0:
192,192,135628,1,0,0:0:0:0:
64,192,135686,1,0,0:0:0:0:
320,192,135745,1,0,0:0:0:0:
192,192,135804,1,0,0:0:0:0:
64,192,135863,1,0,0:0:0:0:
448,192,135922,1,0,0:0:0:0:
320,192,135981,1,0,0:0:0:0:
192,192,136039,1,0,0:0:0:0:
320,192,136098,1,0,0:0:0:0:
64,192,136157,1,0,0:0:0:0:
192,192,136216,1,0,0:0:0:0:
320,192,136275,1,0,0:0:0:0:
64,192,136334,1,0,0:0:0:0:
192,192,136392,1,0,0:0:0:0:
320,192,136451,1,0,0:0:0:0:
448,192,136510,1,0,0:0:0:0:
64,192,136628,5,0,0:0:0:0:
320,192,136628,1,0,0:0:0:0:
192,192,136628,1,0,0:0:0:0:
64,192,136716,1,0,0:0:0:0:
448,192,136716,1,0,0:0:0:0:
320,192,136804,1,0,0:0:0:0:
192,192,136804,1,0,0:0:0:0:
64,192,136892,1,0,0:0:0:0:
448,192,136892,1,0,0:0:0:0:
320,192,136981,1,0,0:0:0:0:
192,192,136981,1,0,0:0:0:0:
64,192,136981,1,0,0:0:0:0:
192,192,137069,1,0,0:0:0:0:
448,192,137069,1,0,0:0:0:0:
320,192,137157,1,0,0:0:0:0:
64,192,137157,1,0,0:0:0:0:
64,192,137245,1,0,0:0:0:0:
320,192,137245,1,0,0:0:0:0:
64,192,137334,1,0,0:0:0:0:
448,192,137334,1,0,0:0:0:0:
192,192,137334,1,0,0:0:0:0:
320,192,137422,1,0,0:0:0:0:
192,192,137422,1,0,0:0:0:0:
64,192,137510,1,0,0:0:0:0:
448,192,137510,1,0,0:0:0:0:
192,192,137598,1,0,0:0:0:0:
320,192,137598,1,0,0:0:0:0:
448,192,137686,1,0,0:0:0:0:
64,192,137686,1,0,0:0:0:0:
192,192,137686,1,0,0:0:0:0:
320,192,137775,1,0,0:0:0:0:
64,192,137775,1,0,0:0:0:0:
192,192,137863,1,0,0:0:0:0:
448,192,137863,1,0,0:0:0:0:
192,192,137951,1,0,0:0:0:0:
448,192,137951,1,0,0:0:0:0:
320,192,138039,1,0,0:0:0:0:
448,192,138039,1,0,0:0:0:0:
64,192,138039,1,0,0:0:0:0:
192,192,138128,1,0,0:0:0:0:
320,192,138128,1,0,0:0:0:0:
448,192,138216,1,0,0:0:0:0:
64,192,138216,1,0,0:0:0:0:
192,192,138304,1,0,0:0:0:0:
320,192,138304,1,0,0:0:0:0:
320,192,138392,1,0,0:0:0:0:
448,192,138392,1,0,0:0:0:0:
64,192,138392,1,0,0:0:0:0:
448,192,138481,1,0,0:0:0:0:
192,192,138481,1,0,0:0:0:0:
320,192,138569,1,0,0:0:0:0:
64,192,138569,1,0,0:0:0:0:
192,192,138657,1,0,0:0:0:0:
448,192,138657,1,0,0:0:0:0:
192,192,138745,1,0,0:0:0:0:
448,192,138745,1,0,0:0:0:0:
320,192,138745,1,0,0:0:0:0:
320,192,138834,1,0,0:0:0:0:
64,192,138834,1,0,0:0:0:0:
192,192,138922,1,0,0:0:0:0:
448,192,138922,1,0,0:0:0:0:
320,192,139010,1,0,0:0:0:0:
64,192,139010,1,0,0:0:0:0:
320,192,139098,1,0,0:0:0:0:
192,192,139098,1,0,0:0:0:0:
448,192,139098,1,0,0:0:0:0:
64,192,139186,1,0,0:0:0:0:
448,192,139186,1,0,0:0:0:0:
320,192,139275,1,0,0:0:0:0:
192,192,139275,1,0,0:0:0:0:
64,192,139363,1,0,0:0:0:0:
448,192,139363,1,0,0:0:0:0:
192,192,139451,1,0,0:0:0:0:
448,192,140157,5,0,0:0:0:0:
320,192,140157,1,0,0:0:0:0:
64,192,140157,1,0,0:0:0:0:
192,192,140157,1,0,0:0:0:0:
192,192,140245,1,0,0:0:0:0:
448,192,140245,1,0,0:0:0:0:
320,192,140333,1,0,0:0:0:0:
64,192,140333,1,0,0:0:0:0:
64,192,140421,1,0,0:0:0:0:
320,192,140421,1,0,0:0:0:0:
192,192,140509,1,0,0:0:0:0:
448,192,140509,1,0,0:0:0:0:
320,192,140509,1,0,0:0:0:0:
320,192,140598,1,0,0:0:0:0:
64,192,140598,1,0,0:0:0:0:
64,192,140686,1,0,0:0:0:0:
320,192,140686,1,0,0:0:0:0:
448,192,140774,1,0,0:0:0:0:
192,192,140774,1,0,0:0:0:0:
320,192,140862,1,0,0:0:0:0:
192,192,140862,1,0,0:0:0:0:
64,192,140862,1,0,0:0:0:0:
64,192,140951,1,0,0:0:0:0:
448,192,140951,1,0,0:0:0:0:
448,192,141039,1,0,0:0:0:0:
320,192,141039,1,0,0:0:0:0:
448,192,141127,1,0,0:0:0:0:
192,192,141127,1,0,0:0:0:0:
320,192,141215,1,0,0:0:0:0:
192,192,141215,1,0,0:0:0:0:
64,192,141215,1,0,0:0:0:0:
64,192,141304,1,0,0:0:0:0:
448,192,141304,1,0,0:0:0:0:
192,192,141392,1,0,0:0:0:0:
320,192,141392,1,0,0:0:0:0:
320,192,141480,1,0,0:0:0:0:
64,192,141568,1,0,0:0:0:0:
448,192,141568,1,0,0:0:0:0:
192,192,141568,1,0,0:0:0:0:
320,192,141657,1,0,0:0:0:0:
64,192,141657,1,0,0:0:0:0:
192,192,141745,1,0,0:0:0:0:
448,192,141745,1,0,0:0:0:0:
448,192,141833,1,0,0:0:0:0:
192,192,141833,1,0,0:0:0:0:
320,192,141921,1,0,0:0:0:0:
192,192,141921,1,0,0:0:0:0:
64,192,141921,1,0,0:0:0:0:
192,192,142009,1,0,0:0:0:0:
448,192,142009,1,0,0:0:0:0:
448,192,142098,1,0,0:0:0:0:
192,192,142098,1,0,0:0:0:0:
64,192,142186,1,0,0:0:0:0:
320,192,142186,1,0,0:0:0:0:
320,192,142274,1,0,0:0:0:0:
448,192,142274,1,0,0:0:0:0:
192,192,142274,1,0,0:0:0:0:
64,192,142362,1,0,0:0:0:0:
448,192,142362,1,0,0:0:0:0:
64,192,142451,1,0,0:0:0:0:
192,192,142451,1,0,0:0:0:0:
64,192,142539,1,0,0:0:0:0:
320,192,142539,1,0,0:0:0:0:
192,192,142627,1,0,0:0:0:0:
448,192,142627,1,0,0:0:0:0:
320,192,142627,1,0,0:0:0:0:
64,192,142715,1,0,0:0:0:0:
448,192,142715,1,0,0:0:0:0:
320,192,142804,1,0,0:0:0:0:
192,192,142804,1,0,0:0:0:0:
320,192,142892,1,0,0:0:0:0:
448,192,142980,1,0,0:0:0:0:
192,192,142980,1,0,0:0:0:0:
64,192,142980,1,0,0:0:0:0:
320,192,143068,1,0,0:0:0:0:
64,192,143068,1,0,0:0:0:0:
192,192,143157,1,0,0:0:0:0:
448,192,143157,1,0,0:0:0:0:
192,192,143245,1,0,0:0:0:0:
448,192,143245,1,0,0:0:0:0:
320,192,143333,1,0,0:0:0:0:
192,192,143333,1,0,0:0:0:0:
64,192,143333,1,0,0:0:0:0:
320,192,143421,1,0,0:0:0:0:
448,192,143421,1,0,0:0:0:0:
320,192,143509,1,0,0:0:0:0:
448,192,143509,1,0,0:0:0:0:
192,192,143598,1,0,0:0:0:0:
64,192,143598,1,0,0:0:0:0:
64,192,143686,1,0,0:0:0:0:
320,192,143686,1,0,0:0:0:0:
448,192,143686,1,0,0:0:0:0:
192,192,143745,1,0,0:0:0:0:
448,192,143804,1,0,0:0:0:0:
64,192,143862,1,0,0:0:0:0:
320,192,143862,1,0,0:0:0:0:
320,192,143951,1,0,0:0:0:0:
64,192,143951,1,0,0:0:0:0:
192,192,144039,1,0,0:0:0:0:
448,192,144039,1,0,0:0:0:0:
320,192,144039,1,0,0:0:0:0:
192,192,144127,1,0,0:0:0:0:
64,192,144127,1,0,0:0:0:0:
64,192,144215,1,0,0:0:0:0:
448,192,144304,1,0,0:0:0:0:
320,192,144304,1,0,0:0:0:0:
448,192,144392,1,0,0:0:0:0:
192,192,144392,1,0,0:0:0:0:
64,192,144392,1,0,0:0:0:0:
64,192,144480,1,0,0:0:0:0:
320,192,144480,1,0,0:0:0:0:
192,192,144568,1,0,0:0:0:0:
448,192,144568,1,0,0:0:0:0:
448,192,144657,1,0,0:0:0:0:
192,192,144657,1,0,0:0:0:0:
320,192,144745,1,0,0:0:0:0:
64,192,144745,1,0,0:0:0:0:
192,192,144745,1,0,0:0:0:0:
192,192,144833,1,0,0:0:0:0:
448,192,144833,1,0,0:0:0:0:
192,192,144921,1,0,0:0:0:0:
448,192,144921,1,0,0:0:0:0:
320,192,145009,1,0,0:0:0:0:
64,192,145009,1,0,0:0:0:0:
64,192,145098,1,0,0:0:0:0:
192,192,145098,1,0,0:0:0:0:
448,192,145098,1,0,0:0:0:0:
192,192,145186,1,0,0:0:0:0:
320,192,145186,1,0,0:0:0:0:
320,192,145274,1,0,0:0:0:0:
448,192,145274,1,0,0:0:0:0:
320,192,145362,1,0,0:0:0:0:
64,192,145362,1,0,0:0:0:0:
448,192,145451,1,0,0:0:0:0:
64,192,145451,1,0,0:0:0:0:
192,192,145451,1,0,0:0:0:0:
320,192,145539,1,0,0:0:0:0:
192,192,145539,1,0,0:0:0:0:
64,192,145627,1,0,0:0:0:0:
448,192,145627,1,0,0:0:0:0:
448,192,145715,1,0,0:0:0:0:
192,192,145804,1,0,0:0:0:0:
320,192,145804,1,0,0:0:0:0:
64,192,145804,1,0,0:0:0:0:
64,192,145892,1,0,0:0:0:0:
448,192,145892,1,0,0:0:0:0:
192,192,145980,1,0,0:0:0:0:
320,192,145980,1,0,0:0:0:0:
192,192,146068,1,0,0:0:0:0:
320,192,146068,1,0,0:0:0:0:
64,192,146157,1,0,0:0:0:0:
448,192,146157,1,0,0:0:0:0:
192,192,146157,1,0,0:0:0:0:
320,192,146245,1,0,0:0:0:0:
192,192,146245,1,0,0:0:0:0:
192,192,146333,1,0,0:0:0:0:
320,192,146333,1,0,0:0:0:0:
448,192,146421,1,0,0:0:0:0:
64,192,146421,1,0,0:0:0:0:
320,192,146509,1,0,0:0:0:0:
192,192,146509,1,0,0:0:0:0:
64,192,146509,1,0,0:0:0:0:
192,192,146598,1,0,0:0:0:0:
448,192,146598,1,0,0:0:0:0:
320,192,146686,1,0,0:0:0:0:
64,192,146686,1,0,0:0:0:0:
320,192,146774,1,0,0:0:0:0:
64,192,146774,1,0,0:0:0:0:
320,192,146862,1,0,0:0:0:0:
448,192,146862,1,0,0:0:0:0:
192,192,146862,1,0,0:0:0:0:
320,192,146951,1,0,0:0:0:0:
64,192,146951,1,0,0:0:0:0:
64,192,147039,1,0,0:0:0:0:
320,192,147039,1,0,0:0:0:0:
192,192,147127,1,0,0:0:0:0:
448,192,147127,1,0,0:0:0:0:
320,192,147215,1,0,0:0:0:0:
448,192,147215,1,0,0:0:0:0:
64,192,147215,1,0,0:0:0:0:
320,192,147304,1,0,0:0:0:0:
192,192,147304,1,0,0:0:0:0:
64,192,147392,1,0,0:0:0:0:
448,192,147392,1,0,0:0:0:0:
448,192,147480,1,0,0:0:0:0:
64,192,147480,1,0,0:0:0:0:
192,192,147568,1,0,0:0:0:0:
320,192,147568,1,0,0:0:0:0:
64,192,147568,1,0,0:0:0:0:
448,192,147627,1,0,0:0:0:0:
192,192,147686,1,0,0:0:0:0:
448,192,147745,1,0,0:0:0:0:
64,192,147745,1,0,0:0:0:0:
192,192,147833,1,0,0:0:0:0:
320,192,147833,1,0,0:0:0:0:
448,192,147921,1,0,0:0:0:0:
64,192,147921,1,0,0:0:0:0:
192,192,147921,1,0,0:0:0:0:
320,192,148009,1,0,0:0:0:0:
64,192,148009,1,0,0:0:0:0:
192,192,148098,1,0,0:0:0:0:
448,192,148098,1,0,0:0:0:0:
192,192,148186,1,0,0:0:0:0:
448,192,148186,1,0,0:0:0:0:
320,192,148274,1,0,0:0:0:0:
64,192,148274,1,0,0:0:0:0:
448,192,148274,1,0,0:0:0:0:
192,192,148333,1,0,0:0:0:0:
320,192,148392,1,0,0:0:0:0:
192,192,148451,1,0,0:0:0:0:
448,192,148451,1,0,0:0:0:0:
320,192,148539,1,0,0:0:0:0:
64,192,148539,1,0,0:0:0:0:
192,192,148627,1,0,0:0:0:0:
64,192,148627,1,0,0:0:0:0:
448,192,148627,1,0,0:0:0:0:
320,192,148715,1,0,0:0:0:0:
192,192,148715,1,0,0:0:0:0:
64,192,148804,1,0,0:0:0:0:
448,192,148804,1,0,0:0:0:0:
448,192,148892,1,0,0:0:0:0:
64,192,148892,1,0,0:0:0:0:
192,192,148980,1,0,0:0:0:0:
448,192,148980,1,0,0:0:0:0:
320,192,148980,1,0,0:0:0:0:
64,192,149068,1,0,0:0:0:0:
192,192,149068,1,0,0:0:0:0:
64,192,149157,1,0,0:0:0:0:
448,192,149157,1,0,0:0:0:0:
320,192,149245,1,0,0:0:0:0:
192,192,149245,1,0,0:0:0:0:
64,192,149333,1,0,0:0:0:0:
320,192,149333,1,0,0:0:0:0:
448,192,149333,1,0,0:0:0:0:
192,192,149421,1,0,0:0:0:0:
448,192,149421,1,0,0:0:0:0:
320,192,149509,1,0,0:0:0:0:
64,192,149509,1,0,0:0:0:0:
192,192,149598,1,0,0:0:0:0:
448,192,149598,1,0,0:0:0:0:
320,192,149686,1,0,0:0:0:0:
448,192,149686,1,0,0:0:0:0:
64,192,149686,1,0,0:0:0:0:
320,192,149774,1,0,0:0:0:0:
192,192,149774,1,0,0:0:0:0:
64,192,149862,1,0,0:0:0:0:
448,192,149862,1,0,0:0:0:0:
320,192,149951,1,0,0:0:0:0:
448,192,149951,1,0,0:0:0:0:
320,192,150039,1,0,0:0:0:0:
192,192,150039,1,0,0:0:0:0:
64,192,150039,1,0,0:0:0:0:
448,192,150127,1,0,0:0:0:0:
64,192,150127,1,0,0:0:0:0:
192,192,150215,1,0,0:0:0:0:
320,192,150215,1,0,0:0:0:0:
192,192,150304,1,0,0:0:0:0:
320,192,150304,1,0,0:0:0:0:
448,192,150392,1,0,0:0:0:0:
64,192,150392,1,0,0:0:0:0:
192,192,150392,1,0,0:0:0:0:
320,192,150480,1,0,0:0:0:0:
192,192,150480,1,0,0:0:0:0:
448,192,150568,1,0,0:0:0:0:
64,192,150568,1,0,0:0:0:0:
192,192,150657,1,0,0:0:0:0:
64,192,150745,1,0,0:0:0:0:
448,192,150745,1,0,0:0:0:0:
320,192,150745,1,0,0:0:0:0:
192,192,150804,1,0,0:0:0:0:
448,192,150862,1,0,0:0:0:0:
320,192,150862,1,0,0:0:0:0:
64,192,150921,1,0,0:0:0:0:
320,192,151009,1,0,0:0:0:0:
192,192,151009,1,0,0:0:0:0:
192,192,151098,1,0,0:0:0:0:
64,192,151098,1,0,0:0:0:0:
448,192,151098,1,0,0:0:0:0:
192,192,151186,1,0,0:0:0:0:
320,192,151186,1,0,0:0:0:0:
448,192,151274,1,0,0:0:0:0:
64,192,151274,1,0,0:0:0:0:
320,192,151274,1,0,0:0:0:0:
448,192,151362,1,0,0:0:0:0:
64,192,151451,5,0,0:0:0:0:
192,192,151451,1,0,0:0:0:0:
320,192,151451,1,0,0:0:0:0:
448,192,151539,1,0,0:0:0:0:
64,192,151539,1,0,0:0:0:0:
192,192,151627,1,0,0:0:0:0:
320,192,151627,1,0,0:0:0:0:
320,192,151715,1,0,0:0:0:0:
192,192,151715,1,0,0:0:0:0:
448,192,151804,1,0,0:0:0:0:
64,192,151804,1,0,0:0:0:0:
192,192,151804,1,0,0:0:0:0:
192,192,151892,1,0,0:0:0:0:
320,192,151892,1,0,0:0:0:0:
320,192,151980,1,0,0:0:0:0:
192,192,151980,1,0,0:0:0:0:
64,192,152068,1,0,0:0:0:0:
448,192,152068,1,0,0:0:0:0:
192,192,152157,1,0,0:0:0:0:
448,192,152157,1,0,0:0:0:0:
320,192,152157,1,0,0:0:0:0:
320,192,152245,1,0,0:0:0:0:
64,192,152245,1,0,0:0:0:0:
64,192,152333,1,0,0:0:0:0:
192,192,152333,1,0,0:0:0:0:
64,192,152421,1,0,0:0:0:0:
448,192,152421,1,0,0:0:0:0:
192,192,152509,1,0,0:0:0:0:
448,192,152509,1,0,0:0:0:0:
320,192,152509,1,0,0:0:0:0:
320,192,152598,1,0,0:0:0:0:
64,192,152598,1,0,0:0:0:0:
448,192,152686,1,0,0:0:0:0:
192,192,152686,1,0,0:0:0:0:
192,192,152774,1,0,0:0:0:0:
320,192,152862,1,0,0:0:0:0:
64,192,152862,1,0,0:0:0:0:
448,192,152862,1,0,0:0:0:0:
192,192,152951,1,0,0:0:0:0:
320,192,152951,1,0,0:0:0:0:
448,192,153039,1,0,0:0:0:0:
64,192,153039,1,0,0:0:0:0:
64,192,153127,1,0,0:0:0:0:
448,192,153127,1,0,0:0:0:0:
192,192,153215,1,0,0:0:0:0:
448,192,153215,1,0,0:0:0:0:
320,192,153215,1,0,0:0:0:0:
448,192,153304,1,0,0:0:0:0:
64,192,153304,1,0,0:0:0:0:
64,192,153392,1,0,0:0:0:0:
448,192,153392,1,0,0:0:0:0:
320,192,153480,1,0,0:0:0:0:
192,192,153480,1,0,0:0:0:0:
192,192,153568,1,0,0:0:0:0:
64,192,153568,1,0,0:0:0:0:
448,192,153568,1,0,0:0:0:0:
320,192,153657,1,0,0:0:0:0:
64,192,153657,1,0,0:0:0:0:
320,192,153745,1,0,0:0:0:0:
448,192,153745,1,0,0:0:0:0:
320,192,153833,1,0,0:0:0:0:
192,192,153833,1,0,0:0:0:0:
448,192,153921,1,0,0:0:0:0:
64,192,153921,1,0,0:0:0:0:
192,192,153921,1,0,0:0:0:0:
320,192,154009,1,0,0:0:0:0:
64,192,154009,1,0,0:0:0:0:
192,192,154098,1,0,0:0:0:0:
448,192,154098,1,0,0:0:0:0:
192,192,154186,1,0,0:0:0:0:
64,192,154274,1,0,0:0:0:0:
448,192,154274,1,0,0:0:0:0:
320,192,154274,1,0,0:0:0:0:
192,192,154362,1,0,0:0:0:0:
320,192,154362,1,0,0:0:0:0:
448,192,154451,1,0,0:0:0:0:
64,192,154451,1,0,0:0:0:0:
448,192,154539,1,0,0:0:0:0:
64,192,154539,1,0,0:0:0:0:
192,192,154627,1,0,0:0:0:0:
448,192,154627,1,0,0:0:0:0:
320,192,154627,1,0,0:0:0:0:
192,192,154715,1,0,0:0:0:0:
64,192,154715,1,0,0:0:0:0:
192,192,154804,1,0,0:0:0:0:
64,192,154804,1,0,0:0:0:0:
448,192,154892,1,0,0:0:0:0:
320,192,154892,1,0,0:0:0:0:
320,192,154980,1,0,0:0:0:0:
192,192,154980,1,0,0:0:0:0:
64,192,154980,1,0,0:0:0:0:
448,192,155039,1,0,0:0:0:0:
64,192,155098,1,0,0:0:0:0:
320,192,155157,1,0,0:0:0:0:
192,192,155157,1,0,0:0:0:0:
192,192,155245,1,0,0:0:0:0:
320,192,155245,1,0,0:0:0:0:
448,192,155333,1,0,0:0:0:0:
64,192,155333,1,0,0:0:0:0:
192,192,155333,1,0,0:0:0:0:
448,192,155421,1,0,0:0:0:0:
320,192,155421,1,0,0:0:0:0:
320,192,155509,1,0,0:0:0:0:
64,192,155598,1,0,0:0:0:0:
192,192,155598,1,0,0:0:0:0:
64,192,155686,1,0,0:0:0:0:
448,192,155686,1,0,0:0:0:0:
320,192,155686,1,0,0:0:0:0:
320,192,155774,1,0,0:0:0:0:
192,192,155774,1,0,0:0:0:0:
448,192,155862,1,0,0:0:0:0:
64,192,155862,1,0,0:0:0:0:
64,192,155951,1,0,0:0:0:0:
448,192,155951,1,0,0:0:0:0:
192,192,156039,1,0,0:0:0:0:
320,192,156039,1,0,0:0:0:0:
448,192,156039,1,0,0:0:0:0:
448,192,156127,1,0,0:0:0:0:
64,192,156127,1,0,0:0:0:0:
448,192,156215,1,0,0:0:0:0:
64,192,156215,1,0,0:0:0:0:
192,192,156304,1,0,0:0:0:0:
320,192,156304,1,0,0:0:0:0:
320,192,156392,1,0,0:0:0:0:
448,192,156392,1,0,0:0:0:0:
64,192,156392,1,0,0:0:0:0:
448,192,156480,1,0,0:0:0:0:
192,192,156480,1,0,0:0:0:0:
192,192,156568,1,0,0:0:0:0:
64,192,156568,1,0,0:0:0:0:
192,192,156657,1,0,0:0:0:0:
320,192,156657,1,0,0:0:0:0:
64,192,156745,1,0,0:0:0:0:
320,192,156745,1,0,0:0:0:0:
448,192,156745,1,0,0:0:0:0:
192,192,156833,1,0,0:0:0:0:
448,192,156833,1,0,0:0:0:0:
320,192,156921,1,0,0:0:0:0:
64,192,156921,1,0,0:0:0:0:
64,192,157009,1,0,0:0:0:0:
448,192,157098,1,0,0:0:0:0:
192,192,157098,1,0,0:0:0:0:
320,192,157098,1,0,0:0:0:0:
320,192,157186,1,0,0:0:0:0:
64,192,157186,1,0,0:0:0:0:
448,192,157274,1,0,0:0:0:0:
192,192,157274,1,0,0:0:0:0:
448,192,157362,1,0,0:0:0:0:
192,192,157362,1,0,0:0:0:0:
320,192,157451,1,0,0:0:0:0:
64,192,157451,1,0,0:0:0:0:
448,192,157451,1,0,0:0:0:0:
192,192,157539,1,0,0:0:0:0:
448,192,157539,1,0,0:0:0:0:
448,192,157627,1,0,0:0:0:0:
192,192,157627,1,0,0:0:0:0:
64,192,157715,1,0,0:0:0:0:
320,192,157715,1,0,0:0:0:0:
192,192,157804,1,0,0:0:0:0:
448,192,157804,1,0,0:0:0:0:
320,192,157804,1,0,0:0:0:0:
448,192,157892,1,0,0:0:0:0:
64,192,157892,1,0,0:0:0:0:
192,192,157980,1,0,0:0:0:0:
320,192,157980,1,0,0:0:0:0:
192,192,158068,1,0,0:0:0:0:
320,192,158068,1,0,0:0:0:0:
192,192,158157,1,0,0:0:0:0:
64,192,158157,1,0,0:0:0:0:
448,192,158157,1,0,0:0:0:0:
192,192,158245,1,0,0:0:0:0:
320,192,158245,1,0,0:0:0:0:
320,192,158333,1,0,0:0:0:0:
192,192,158333,1,0,0:0:0:0:
448,192,158421,1,0,0:0:0:0:
64,192,158421,1,0,0:0:0:0:
192,192,158509,1,0,0:0:0:0:
64,192,158509,1,0,0:0:0:0:
320,192,158509,1,0,0:0:0:0:
192,192,158598,1,0,0:0:0:0:
448,192,158598,1,0,0:0:0:0:
320,192,158686,1,0,0:0:0:0:
64,192,158686,1,0,0:0:0:0:
64,192,158774,1,0,0:0:0:0:
320,192,158774,1,0,0:0:0:0:
448,192,158862,1,0,0:0:0:0:
192,192,158862,1,0,0:0:0:0:
320,192,158862,1,0,0:0:0:0:
64,192,158921,1,0,0:0:0:0:
448,192,158980,1,0,0:0:0:0:
64,192,159039,1,0,0:0:0:0:
320,192,159039,1,0,0:0:0:0:
448,192,159127,1,0,0:0:0:0:
192,192,159127,1,0,0:0:0:0:
64,192,159215,1,0,0:0:0:0:
320,192,159215,1,0,0:0:0:0:
448,192,159215,1,0,0:0:0:0:
192,192,159304,1,0,0:0:0:0:
320,192,159304,1,0,0:0:0:0:
448,192,159392,1,0,0:0:0:0:
64,192,159392,1,0,0:0:0:0:
448,192,159480,1,0,0:0:0:0:
64,192,159480,1,0,0:0:0:0:
192,192,159568,1,0,0:0:0:0:
320,192,159568,1,0,0:0:0:0:
64,192,159568,1,0,0:0:0:0:
448,192,159627,1,0,0:0:0:0:
192,192,159686,1,0,0:0:0:0:
448,192,159745,1,0,0:0:0:0:
64,192,159745,1,0,0:0:0:0:
192,192,159833,1,0,0:0:0:0:
320,192,159833,1,0,0:0:0:0:
448,192,159921,1,0,0:0:0:0:
320,192,159921,1,0,0:0:0:0:
64,192,159921,1,0,0:0:0:0:
192,192,160009,1,0,0:0:0:0:
64,192,160009,1,0,0:0:0:0:
192,192,160098,1,0,0:0:0:0:
448,192,160098,1,0,0:0:0:0:
192,192,160186,5,0,0:0:0:0:
448,192,160186,1,0,0:0:0:0:
320,192,160274,1,0,0:0:0:0:
64,192,160274,1,0,0:0:0:0:
448,192,160274,1,0,0:0:0:0:
192,192,160362,1,0,0:0:0:0:
448,192,160362,1,0,0:0:0:0:
192,192,160451,1,0,0:0:0:0:
320,192,160539,1,0,0:0:0:0:
448,192,160539,1,0,0:0:0:0:
192,192,160627,1,0,0:0:0:0:
64,192,160627,1,0,0:0:0:0:
448,192,160627,1,0,0:0:0:0:
64,192,160715,1,0,0:0:0:0:
192,192,160804,1,0,0:0:0:0:
320,192,160804,1,0,0:0:0:0:
448,192,160862,1,0,0:0:0:0:
192,192,160921,1,0,0:0:0:0:
64,192,160980,1,0,0:0:0:0:
320,192,160980,1,0,0:0:0:0:
448,192,161039,1,0,0:0:0:0:
192,192,161098,1,0,0:0:0:0:
64,192,161157,1,0,0:0:0:0:
448,192,161157,1,0,0:0:0:0:
320,192,161157,1,0,0:0:0:0:
320,192,161333,5,0,0:0:0:0:
448,192,161333,1,0,0:0:0:0:
64,192,161333,1,0,0:0:0:0:
192,192,161392,1,0,0:0:0:0:
64,192,161451,1,0,0:0:0:0:
448,192,161451,1,0,0:0:0:0:
320,192,161509,1,0,0:0:0:0:
192,192,161598,1,0,0:0:0:0:
448,192,161598,1,0,0:0:0:0:
320,192,161686,1,0,0:0:0:0:
448,192,161686,1,0,0:0:0:0:
64,192,161686,1,0,0:0:0:0:
192,192,161745,1,0,0:0:0:0:
320,192,161804,1,0,0:0:0:0:
448,192,161862,1,0,0:0:0:0:
64,192,161862,1,0,0:0:0:0:
192,192,161951,1,0,0:0:0:0:
64,192,162039,1,0,0:0:0:0:
320,192,162039,1,0,0:0:0:0:
448,192,162039,1,0,0:0:0:0:
192,192,162127,1,0,0:0:0:0:
448,192,162127,1,0,0:0:0:0:
448,192,162215,1,0,0:0:0:0:
192,192,162304,1,0,0:0:0:0:
320,192,162304,1,0,0:0:0:0:
320,192,162392,1,0,0:0:0:0:
448,192,162392,1,0,0:0:0:0:
64,192,162392,1,0,0:0:0:0:
320,192,162480,1,0,0:0:0:0:
448,192,162480,1,0,0:0:0:0:
320,192,162568,1,0,0:0:0:0:
192,192,162568,1,0,0:0:0:0:
448,192,162657,1,0,0:0:0:0:
320,192,162657,1,0,0:0:0:0:
64,192,162745,5,0,0:0:0:0:
192,192,162745,1,0,0:0:0:0:
448,192,162745,1,0,0:0:0:0:
320,192,162833,1,0,0:0:0:0:
64,192,162833,1,0,0:0:0:0:
192,192,162921,1,0,0:0:0:0:
448,192,162921,1,0,0:0:0:0:
448,192,163009,1,0,0:0:0:0:
192,192,163009,1,0,0:0:0:0:
320,192,163098,1,0,0:0:0:0:
64,192,163098,1,0,0:0:0:0:
192,192,163098,1,0,0:0:0:0:
192,192,163186,1,0,0:0:0:0:
448,192,163186,1,0,0:0:0:0:
448,192,163274,1,0,0:0:0:0:
192,192,163274,1,0,0:0:0:0:
64,192,163362,1,0,0:0:0:0:
320,192,163362,1,0,0:0:0:0:
192,192,163451,1,0,0:0:0:0:
320,192,163451,1,0,0:0:0:0:
448,192,163451,1,0,0:0:0:0:
448,192,163539,1,0,0:0:0:0:
64,192,163539,1,0,0:0:0:0:
64,192,163627,1,0,0:0:0:0:
192,192,163627,1,0,0:0:0:0:
64,192,163715,1,0,0:0:0:0:
320,192,163715,1,0,0:0:0:0:
192,192,163804,1,0,0:0:0:0:
320,192,163804,1,0,0:0:0:0:
448,192,163804,1,0,0:0:0:0:
448,192,163892,1,0,0:0:0:0:
64,192,163892,1,0,0:0:0:0:
320,192,163980,1,0,0:0:0:0:
192,192,163980,1,0,0:0:0:0:
192,192,164068,1,0,0:0:0:0:
448,192,164157,1,0,0:0:0:0:
64,192,164157,1,0,0:0:0:0:
320,192,164157,1,0,0:0:0:0:
192,192,164245,1,0,0:0:0:0:
448,192,164245,1,0,0:0:0:0:
320,192,164333,1,0,0:0:0:0:
64,192,164333,1,0,0:0:0:0:
64,192,164421,1,0,0:0:0:0:
320,192,164421,1,0,0:0:0:0:
192,192,164509,1,0,0:0:0:0:
320,192,164509,1,0,0:0:0:0:
448,192,164509,1,0,0:0:0:0:
320,192,164598,1,0,0:0:0:0:
64,192,164598,1,0,0:0:0:0:
64,192,164686,1,0,0:0:0:0:
320,192,164686,1,0,0:0:0:0:
448,192,164774,1,0,0:0:0:0:
192,192,164774,1,0,0:0:0:0:
192,192,164862,1,0,0:0:0:0:
64,192,164862,1,0,0:0:0:0:
320,192,164862,1,0,0:0:0:0:
448,192,164951,1,0,0:0:0:0:
64,192,164951,1,0,0:0:0:0:
448,192,165039,1,0,0:0:0:0:
320,192,165039,1,0,0:0:0:0:
448,192,165127,1,0,0:0:0:0:
192,192,165127,1,0,0:0:0:0:
320,192,165215,1,0,0:0:0:0:
64,192,165215,1,0,0:0:0:0:
192,192,165215,1,0,0:0:0:0:
448,192,165304,1,0,0:0:0:0:
64,192,165304,1,0,0:0:0:0:
192,192,165392,1,0,0:0:0:0:
320,192,165392,1,0,0:0:0:0:
192,192,165480,1,0,0:0:0:0:
64,192,165568,1,0,0:0:0:0:
320,192,165568,1,0,0:0:0:0:
448,192,165568,1,0,0:0:0:0:
192,192,165656,1,0,0:0:0:0:
448,192,165656,1,0,0:0:0:0:
320,192,165745,1,0,0:0:0:0:
64,192,165745,1,0,0:0:0:0:
320,192,165833,1,0,0:0:0:0:
64,192,165833,1,0,0:0:0:0:
192,192,165921,1,0,0:0:0:0:
320,192,165921,1,0,0:0:0:0:
448,192,165921,1,0,0:0:0:0:
192,192,166009,1,0,0:0:0:0:
64,192,166009,1,0,0:0:0:0:
192,192,166098,1,0,0:0:0:0:
64,192,166098,1,0,0:0:0:0:
320,192,166186,1,0,0:0:0:0:
448,192,166186,1,0,0:0:0:0:
448,192,166274,1,0,0:0:0:0:
192,192,166274,1,0,0:0:0:0:
64,192,166274,1,0,0:0:0:0:
320,192,166333,1,0,0:0:0:0:
64,192,166392,1,0,0:0:0:0:
448,192,166451,1,0,0:0:0:0:
192,192,166451,1,0,0:0:0:0:
192,192,166539,1,0,0:0:0:0:
448,192,166539,1,0,0:0:0:0:
320,192,166627,1,0,0:0:0:0:
64,192,166627,1,0,0:0:0:0:
192,192,166627,1,0,0:0:0:0:
320,192,166715,1,0,0:0:0:0:
448,192,166715,1,0,0:0:0:0:
448,192,166804,1,0,0:0:0:0:
64,192,166892,1,0,0:0:0:0:
192,192,166892,1,0,0:0:0:0:
64,192,166980,1,0,0:0:0:0:
320,192,166980,1,0,0:0:0:0:
448,192,166980,1,0,0:0:0:0:
448,192,167068,1,0,0:0:0:0:
192,192,167068,1,0,0:0:0:0:
320,192,167156,1,0,0:0:0:0:
64,192,167156,1,0,0:0:0:0:
64,192,167245,1,0,0:0:0:0:
320,192,167245,1,0,0:0:0:0:
192,192,167333,1,0,0:0:0:0:
448,192,167333,1,0,0:0:0:0:
320,192,167333,1,0,0:0:0:0:
320,192,167421,1,0,0:0:0:0:
64,192,167421,1,0,0:0:0:0:
320,192,167509,1,0,0:0:0:0:
64,192,167509,1,0,0:0:0:0:
192,192,167598,1,0,0:0:0:0:
448,192,167598,1,0,0:0:0:0:
448,192,167686,1,0,0:0:0:0:
320,192,167686,1,0,0:0:0:0:
64,192,167686,1,0,0:0:0:0:
320,192,167774,1,0,0:0:0:0:
192,192,167774,1,0,0:0:0:0:
192,192,167862,1,0,0:0:0:0:
64,192,167862,1,0,0:0:0:0:
192,192,167951,1,0,0:0:0:0:
448,192,167951,1,0,0:0:0:0:
64,192,168039,1,0,0:0:0:0:
448,192,168039,1,0,0:0:0:0:
320,192,168039,1,0,0:0:0:0:
192,192,168127,1,0,0:0:0:0:
320,192,168127,1,0,0:0:0:0:
448,192,168215,1,0,0:0:0:0:
64,192,168215,1,0,0:0:0:0:
64,192,168304,1,0,0:0:0:0:
320,192,168392,1,0,0:0:0:0:
192,192,168392,1,0,0:0:0:0:
448,192,168392,1,0,0:0:0:0:
448,192,168480,1,0,0:0:0:0:
64,192,168480,1,0,0:0:0:0:
320,192,168568,1,0,0:0:0:0:
192,192,168568,1,0,0:0:0:0:
320,192,168656,1,0,0:0:0:0:
192,192,168656,1,0,0:0:0:0:
448,192,168745,1,0,0:0:0:0:
64,192,168745,1,0,0:0:0:0:
320,192,168745,1,0,0:0:0:0:
192,192,168833,1,0,0:0:0:0:
320,192,168833,1,0,0:0:0:0:
320,192,168921,1,0,0:0:0:0:
192,192,168921,1,0,0:0:0:0:
64,192,169009,1,0,0:0:0:0:
448,192,169009,1,0,0:0:0:0:
192,192,169098,1,0,0:0:0:0:
320,192,169098,1,0,0:0:0:0:
448,192,169098,1,0,0:0:0:0:
320,192,169186,1,0,0:0:0:0:
64,192,169186,1,0,0:0:0:0:
192,192,169274,1,0,0:0:0:0:
448,192,169274,1,0,0:0:0:0:
192,192,169362,1,0,0:0:0:0:
448,192,169362,1,0,0:0:0:0:
192,192,169451,1,0,0:0:0:0:
64,192,169451,1,0,0:0:0:0:
320,192,169451,1,0,0:0:0:0:
192,192,169539,1,0,0:0:0:0:
448,192,169539,1,0,0:0:0:0:
448,192,169627,1,0,0:0:0:0:
192,192,169627,1,0,0:0:0:0:
320,192,169715,1,0,0:0:0:0:
64,192,169715,1,0,0:0:0:0:
192,192,169804,1,0,0:0:0:0:
64,192,169804,1,0,0:0:0:0:
448,192,169804,1,0,0:0:0:0:
192,192,169892,1,0,0:0:0:0:
320,192,169892,1,0,0:0:0:0:
448,192,169980,1,0,0:0:0:0:
64,192,169980,1,0,0:0:0:0:
64,192,170068,1,0,0:0:0:0:
448,192,170068,1,0,0:0:0:0:
320,192,170156,1,0,0:0:0:0:
192,192,170156,1,0,0:0:0:0:
448,192,170156,1,0,0:0:0:0:
64,192,170215,1,0,0:0:0:0:
320,192,170274,1,0,0:0:0:0:
64,192,170333,1,0,0:0:0:0:
448,192,170333,1,0,0:0:0:0:
320,192,170421,1,0,0:0:0:0:
192,192,170421,1,0,0:0:0:0:
64,192,170509,1,0,0:0:0:0:
448,192,170509,1,0,0:0:0:0:
320,192,170509,1,0,0:0:0:0:
192,192,170598,1,0,0:0:0:0:
448,192,170598,1,0,0:0:0:0:
320,192,170686,1,0,0:0:0:0:
64,192,170686,1,0,0:0:0:0:
320,192,170774,1,0,0:0:0:0:
64,192,170774,1,0,0:0:0:0:
192,192,170862,1,0,0:0:0:0:
448,192,170862,1,0,0:0:0:0:
64,192,170862,1,0,0:0:0:0:
320,192,170921,1,0,0:0:0:0:
192,192,170980,1,0,0:0:0:0:
320,192,171039,1,0,0:0:0:0:
64,192,171039,1,0,0:0:0:0:
192,192,171127,1,0,0:0:0:0:
448,192,171127,1,0,0:0:0:0:
320,192,171215,1,0,0:0:0:0:
448,192,171215,1,0,0:0:0:0:
64,192,171215,1,0,0:0:0:0:
192,192,171304,1,0,0:0:0:0:
320,192,171304,1,0,0:0:0:0:
448,192,171392,1,0,0:0:0:0:
64,192,171392,1,0,0:0:0:0:
64,192,171480,1,0,0:0:0:0:
448,192,171480,1,0,0:0:0:0:
320,192,171568,1,0,0:0:0:0:
64,192,171568,1,0,0:0:0:0:
192,192,171568,1,0,0:0:0:0:
448,192,171656,1,0,0:0:0:0:
320,192,171656,1,0,0:0:0:0:
448,192,171745,1,0,0:0:0:0:
64,192,171745,1,0,0:0:0:0:
192,192,171833,1,0,0:0:0:0:
320,192,171833,1,0,0:0:0:0:
448,192,171921,1,0,0:0:0:0:
192,192,171921,1,0,0:0:0:0:
64,192,171921,1,0,0:0:0:0:
320,192,172009,1,0,0:0:0:0:
64,192,172009,1,0,0:0:0:0:
192,192,172098,1,0,0:0:0:0:
448,192,172098,1,0,0:0:0:0:
320,192,172186,1,0,0:0:0:0:
64,192,172186,1,0,0:0:0:0:
192,192,172274,1,0,0:0:0:0:
64,192,172274,1,0,0:0:0:0:
448,192,172274,1,0,0:0:0:0:
192,192,172362,1,0,0:0:0:0:
320,192,172362,1,0,0:0:0:0:
448,192,172451,1,0,0:0:0:0:
64,192,172451,1,0,0:0:0:0:
192,192,172539,1,0,0:0:0:0:
64,192,172539,1,0,0:0:0:0:
192,192,172627,1,0,0:0:0:0:
320,192,172627,1,0,0:0:0:0:
448,192,172627,1,0,0:0:0:0:
64,192,172715,1,0,0:0:0:0:
448,192,172715,1,0,0:0:0:0:
320,192,172804,1,0,0:0:0:0:
192,192,172804,1,0,0:0:0:0:
320,192,172892,1,0,0:0:0:0:
192,192,172892,1,0,0:0:0:0:
64,192,172980,1,0,0:0:0:0:
448,192,172980,1,0,0:0:0:0:
320,192,172980,1,0,0:0:0:0:
192,192,173068,1,0,0:0:0:0:
320,192,173068,1,0,0:0:0:0:
64,192,173156,1,0,0:0:0:0:
448,192,173156,1,0,0:0:0:0:
320,192,173245,1,0,0:0:0:0:
448,192,173333,1,0,0:0:0:0:
64,192,173333,1,0,0:0:0:0:
192,192,173333,1,0,0:0:0:0:
320,192,173392,1,0,0:0:0:0:
64,192,173451,1,0,0:0:0:0:
192,192,173451,1,0,0:0:0:0:
448,192,173509,1,0,0:0:0:0:
192,192,173598,1,0,0:0:0:0:
320,192,173598,1,0,0:0:0:0:
320,192,173686,1,0,0:0:0:0:
448,192,173686,1,0,0:0:0:0:
64,192,173686,1,0,0:0:0:0:
320,192,173774,1,0,0:0:0:0:
192,192,173774,1,0,0:0:0:0:
64,192,173862,1,0,0:0:0:0:
448,192,173862,1,0,0:0:0:0:
192,192,173862,1,0,0:0:0:0:
64,192,173951,1,0,0:0:0:0:
448,192,174039,5,0,0:0:0:0:
320,192,174039,1,0,0:0:0:0:
192,192,174039,1,0,0:0:0:0:
64,192,174127,1,0,0:0:0:0:
448,192,174127,1,0,0:0:0:0:
320,192,174215,1,0,0:0:0:0:
192,192,174215,1,0,0:0:0:0:
192,192,174304,1,0,0:0:0:0:
320,192,174304,1,0,0:0:0:0:
64,192,174392,1,0,0:0:0:0:
448,192,174392,1,0,0:0:0:0:
320,192,174392,1,0,0:0:0:0:
320,192,174480,1,0,0:0:0:0:
192,192,174480,1,0,0:0:0:0:
192,192,174568,1,0,0:0:0:0:
320,192,174568,1,0,0:0:0:0:
448,192,174656,1,0,0:0:0:0:
64,192,174656,1,0,0:0:0:0:
320,192,174745,1,0,0:0:0:0:
64,192,174745,1,0,0:0:0:0:
192,192,174745,1,0,0:0:0:0:
192,192,174833,1,0,0:0:0:0:
448,192,174833,1,0,0:0:0:0:
448,192,174921,1,0,0:0:0:0:
320,192,174921,1,0,0:0:0:0:
448,192,175009,1,0,0:0:0:0:
64,192,175009,1,0,0:0:0:0:
320,192,175098,1,0,0:0:0:0:
64,192,175098,1,0,0:0:0:0:
192,192,175098,1,0,0:0:0:0:
192,192,175186,1,0,0:0:0:0:
448,192,175186,1,0,0:0:0:0:
64,192,175274,1,0,0:0:0:0:
320,192,175274,1,0,0:0:0:0:
320,192,175362,1,0,0:0:0:0:
192,192,175451,1,0,0:0:0:0:
448,192,175451,1,0,0:0:0:0:
64,192,175451,1,0,0:0:0:0:
320,192,175539,1,0,0:0:0:0:
192,192,175539,1,0,0:0:0:0:
64,192,175627,1,0,0:0:0:0:
448,192,175627,1,0,0:0:0:0:
448,192,175715,1,0,0:0:0:0:
64,192,175715,1,0,0:0:0:0:
320,192,175804,1,0,0:0:0:0:
64,192,175804,1,0,0:0:0:0:
192,192,175804,1,0,0:0:0:0:
64,192,175892,1,0,0:0:0:0:
448,192,175892,1,0,0:0:0:0:
448,192,175980,1,0,0:0:0:0:
64,192,175980,1,0,0:0:0:0:
192,192,176068,1,0,0:0:0:0:
320,192,176068,1,0,0:0:0:0:
320,192,176156,1,0,0:0:0:0:
448,192,176156,1,0,0:0:0:0:
64,192,176156,1,0,0:0:0:0:
192,192,176245,1,0,0:0:0:0:
448,192,176245,1,0,0:0:0:0:
192,192,176333,1,0,0:0:0:0:
64,192,176333,1,0,0:0:0:0:
192,192,176421,1,0,0:0:0:0:
320,192,176421,1,0,0:0:0:0:
64,192,176509,1,0,0:0:0:0:
448,192,176509,1,0,0:0:0:0:
320,192,176509,1,0,0:0:0:0:
192,192,176598,1,0,0:0:0:0:
448,192,176598,1,0,0:0:0:0:
320,192,176686,1,0,0:0:0:0:
64,192,176686,1,0,0:0:0:0:
320,192,176774,1,0,0:0:0:0:
448,192,176862,1,0,0:0:0:0:
64,192,176862,1,0,0:0:0:0:
192,192,176862,1,0,0:0:0:0:
320,192,176951,1,0,0:0:0:0:
192,192,176951,1,0,0:0:0:0:
64,192,177039,1,0,0:0:0:0:
448,192,177039,1,0,0:0:0:0:
64,192,177127,1,0,0:0:0:0:
448,192,177127,1,0,0:0:0:0:
320,192,177215,1,0,0:0:0:0:
64,192,177215,1,0,0:0:0:0:
192,192,177215,1,0,0:0:0:0:
320,192,177304,1,0,0:0:0:0:
448,192,177304,1,0,0:0:0:0:
320,192,177392,1,0,0:0:0:0:
448,192,177392,1,0,0:0:0:0:
64,192,177480,1,0,0:0:0:0:
192,192,177480,1,0,0:0:0:0:
192,192,177568,1,0,0:0:0:0:
320,192,177568,1,0,0:0:0:0:
448,192,177568,1,0,0:0:0:0:
64,192,177627,1,0,0:0:0:0:
448,192,177686,1,0,0:0:0:0:
192,192,177745,1,0,0:0:0:0:
320,192,177745,1,0,0:0:0:0:
320,192,177833,1,0,0:0:0:0:
192,192,177833,1,0,0:0:0:0:
64,192,177921,1,0,0:0:0:0:
448,192,177921,1,0,0:0:0:0:
320,192,177921,1,0,0:0:0:0:
64,192,178009,1,0,0:0:0:0:
192,192,178009,1,0,0:0:0:0:
192,192,178098,1,0,0:0:0:0:
448,192,178186,1,0,0:0:0:0:
320,192,178186,1,0,0:0:0:0:
448,192,178274,1,0,0:0:0:0:
64,192,178274,1,0,0:0:0:0:
192,192,178274,1,0,0:0:0:0:
192,192,178362,1,0,0:0:0:0:
320,192,178362,1,0,0:0:0:0:
64,192,178451,1,0,0:0:0:0:
448,192,178451,1,0,0:0:0:0:
448,192,178539,1,0,0:0:0:0:
64,192,178539,1,0,0:0:0:0:
320,192,178627,1,0,0:0:0:0:
192,192,178627,1,0,0:0:0:0:
64,192,178627,1,0,0:0:0:0:
64,192,178715,1,0,0:0:0:0:
448,192,178715,1,0,0:0:0:0:
64,192,178804,1,0,0:0:0:0:
448,192,178804,1,0,0:0:0:0:
320,192,178892,1,0,0:0:0:0:
192,192,178892,1,0,0:0:0:0:
192,192,178980,1,0,0:0:0:0:
64,192,178980,1,0,0:0:0:0:
448,192,178980,1,0,0:0:0:0:
64,192,179068,1,0,0:0:0:0:
320,192,179068,1,0,0:0:0:0:
320,192,179156,1,0,0:0:0:0:
448,192,179156,1,0,0:0:0:0:
320,192,179245,1,0,0:0:0:0:
192,192,179245,1,0,0:0:0:0:
448,192,179333,1,0,0:0:0:0:
192,192,179333,1,0,0:0:0:0:
64,192,179333,1,0,0:0:0:0:
320,192,179421,1,0,0:0:0:0:
64,192,179421,1,0,0:0:0:0:
192,192,179509,1,0,0:0:0:0:
448,192,179509,1,0,0:0:0:0:
448,192,179598,1,0,0:0:0:0:
64,192,179686,1,0,0:0:0:0:
320,192,179686,1,0,0:0:0:0:
192,192,179686,1,0,0:0:0:0:
192,192,179774,1,0,0:0:0:0:
448,192,179774,1,0,0:0:0:0:
64,192,179862,1,0,0:0:0:0:
320,192,179862,1,0,0:0:0:0:
64,192,179951,1,0,0:0:0:0:
320,192,179951,1,0,0:0:0:0:
192,192,180039,1,0,0:0:0:0:
448,192,180039,1,0,0:0:0:0:
64,192,180039,1,0,0:0:0:0:
320,192,180127,1,0,0:0:0:0:
64,192,180127,1,0,0:0:0:0:
64,192,180215,1,0,0:0:0:0:
320,192,180215,1,0,0:0:0:0:
448,192,180304,1,0,0:0:0:0:
192,192,180304,1,0,0:0:0:0:
320,192,180392,1,0,0:0:0:0:
64,192,180392,1,0,0:0:0:0:
192,192,180392,1,0,0:0:0:0:
64,192,180480,1,0,0:0:0:0:
448,192,180480,1,0,0:0:0:0:
320,192,180568,1,0,0:0:0:0:
192,192,180568,1,0,0:0:0:0:
320,192,180656,1,0,0:0:0:0:
192,192,180656,1,0,0:0:0:0:
320,192,180745,1,0,0:0:0:0:
448,192,180745,1,0,0:0:0:0:
64,192,180745,1,0,0:0:0:0:
320,192,180833,1,0,0:0:0:0:
192,192,180833,1,0,0:0:0:0:
192,192,180921,1,0,0:0:0:0:
320,192,180921,1,0,0:0:0:0:
64,192,181009,1,0,0:0:0:0:
448,192,181009,1,0,0:0:0:0:
320,192,181098,1,0,0:0:0:0:
448,192,181098,1,0,0:0:0:0:
192,192,181098,1,0,0:0:0:0:
320,192,181186,1,0,0:0:0:0:
64,192,181186,1,0,0:0:0:0:
192,192,181274,1,0,0:0:0:0:
448,192,181274,1,0,0:0:0:0:
448,192,181362,1,0,0:0:0:0:
192,192,181362,1,0,0:0:0:0:
64,192,181451,1,0,0:0:0:0:
320,192,181451,1,0,0:0:0:0:
192,192,181451,1,0,0:0:0:0:
448,192,181509,1,0,0:0:0:0:
64,192,181568,1,0,0:0:0:0:
448,192,181627,1,0,0:0:0:0:
192,192,181627,1,0,0:0:0:0:
64,192,181715,1,0,0:0:0:0:
320,192,181715,1,0,0:0:0:0:
448,192,181804,1,0,0:0:0:0:
192,192,181804,1,0,0:0:0:0:
64,192,181804,1,0,0:0:0:0:
320,192,181892,1,0,0:0:0:0:
192,192,181892,1,0,0:0:0:0:
64,192,181980,1,0,0:0:0:0:
448,192,181980,1,0,0:0:0:0:
64,192,182068,1,0,0:0:0:0:
448,192,182068,1,0,0:0:0:0:
320,192,182156,1,0,0:0:0:0:
192,192,182156,1,0,0:0:0:0:
448,192,182156,1,0,0:0:0:0:
64,192,182215,1,0,0:0:0:0:
320,192,182274,1,0,0:0:0:0:
64,192,182333,1,0,0:0:0:0:
448,192,182333,1,0,0:0:0:0:
320,192,182421,1,0,0:0:0:0:
192,192,182421,1,0,0:0:0:0:
64,192,182509,1,0,0:0:0:0:
192,192,182509,1,0,0:0:0:0:
448,192,182509,1,0,0:0:0:0:
320,192,182598,1,0,0:0:0:0:
448,192,182598,1,0,0:0:0:0:
320,192,182686,1,0,0:0:0:0:
64,192,182686,1,0,0:0:0:0:
320,192,182774,5,0,0:0:0:0:
64,192,182774,1,0,0:0:0:0:
192,192,182862,1,0,0:0:0:0:
448,192,182862,1,0,0:0:0:0:
64,192,182862,1,0,0:0:0:0:
320,192,182951,1,0,0:0:0:0:
64,192,182951,1,0,0:0:0:0:
320,192,183039,1,0,0:0:0:0:
192,192,183127,1,0,0:0:0:0:
64,192,183127,1,0,0:0:0:0:
320,192,183215,1,0,0:0:0:0:
448,192,183215,1,0,0:0:0:0:
64,192,183215,1,0,0:0:0:0:
448,192,183304,1,0,0:0:0:0:
320,192,183392,1,0,0:0:0:0:
192,192,183392,1,0,0:0:0:0:
64,192,183451,1,0,0:0:0:0:
320,192,183509,1,0,0:0:0:0:
448,192,183568,1,0,0:0:0:0:
192,192,183568,1,0,0:0:0:0:
64,192,183627,1,0,0:0:0:0:
320,192,183686,1,0,0:0:0:0:
448,192,183745,1,0,0:0:0:0:
64,192,183745,1,0,0:0:0:0:
192,192,183745,1,0,0:0:0:0:
192,192,183921,5,0,0:0:0:0:
64,192,183921,1,0,0:0:0:0:
448,192,183921,1,0,0:0:0:0:
320,192,183980,1,0,0:0:0:0:
448,192,184039,1,0,0:0:0:0:
64,192,184039,1,0,0:0:0:0:
192,192,184098,1,0,0:0:0:0:
320,192,184186,1,0,0:0:0:0:
64,192,184186,1,0,0:0:0:0:
192,192,184274,1,0,0:0:0:0:
64,192,184274,1,0,0:0:0:0:
448,192,184274,1,0,0:0:0:0:
320,192,184333,1,0,0:0:0:0:
192,192,184392,1,0,0:0:0:0:
448,192,184451,1,0,0:0:0:0:
64,192,184451,1,0,0:0:0:0:
320,192,184539,1,0,0:0:0:0:
448,192,184627,1,0,0:0:0:0:
192,192,184627,1,0,0:0:0:0:
64,192,184627,1,0,0:0:0:0:
320,192,184715,1,0,0:0:0:0:
64,192,184715,1,0,0:0:0:0:
64,192,184804,1,0,0:0:0:0:
448,192,184892,1,0,0:0:0:0:
192,192,184892,1,0,0:0:0:0:
192,192,184980,1,0,0:0:0:0:
64,192,184980,1,0,0:0:0:0:
448,192,184980,1,0,0:0:0:0:
64,192,185068,1,0,0:0:0:0:
192,192,185068,1,0,0:0:0:0:
192,192,185156,1,0,0:0:0:0:
320,192,185156,1,0,0:0:0:0:
64,192,185245,1,0,0:0:0:0:
192,192,185245,1,0,0:0:0:0:
448,192,185333,5,0,0:0:0:0:
64,192,185333,1,0,0:0:0:0:
320,192,185333,1,0,0:0:0:0:
192,192,185421,1,0,0:0:0:0:
448,192,185421,1,0,0:0:0:0:
320,192,185509,1,0,0:0:0:0:
64,192,185509,1,0,0:0:0:0:
64,192,185598,1,0,0:0:0:0:
192,192,185686,1,0,0:0:0:0:
448,192,185686,1,0,0:0:0:0:
320,192,185686,1,0,0:0:0:0:
320,192,185774,1,0,0:0:0:0:
64,192,185774,1,0,0:0:0:0:
64,192,185862,1,0,0:0:0:0:
448,192,185951,1,0,0:0:0:0:
192,192,185951,1,0,0:0:0:0:
320,192,186039,1,0,0:0:0:0:
192,192,186039,1,0,0:0:0:0:
64,192,186039,1,0,0:0:0:0:
64,192,186127,1,0,0:0:0:0:
448,192,186127,1,0,0:0:0:0:
448,192,186215,1,0,0:0:0:0:
320,192,186215,1,0,0:0:0:0:
448,192,186304,1,0,0:0:0:0:
192,192,186304,1,0,0:0:0:0:
320,192,186392,1,0,0:0:0:0:
192,192,186392,1,0,0:0:0:0:
64,192,186392,1,0,0:0:0:0:
64,192,186480,1,0,0:0:0:0:
448,192,186480,1,0,0:0:0:0:
192,192,186568,1,0,0:0:0:0:
320,192,186568,1,0,0:0:0:0:
320,192,186656,1,0,0:0:0:0:
64,192,186745,1,0,0:0:0:0:
448,192,186745,1,0,0:0:0:0:
192,192,186745,1,0,0:0:0:0:
320,192,186833,1,0,0:0:0:0:
64,192,186833,1,0,0:0:0:0:
192,192,186921,1,0,0:0:0:0:
448,192,186921,1,0,0:0:0:0:
448,192,187009,1,0,0:0:0:0:
320,192,187098,1,0,0:0:0:0:
192,192,187098,1,0,0:0:0:0:
64,192,187098,1,0,0:0:0:0:
192,192,187186,1,0,0:0:0:0:
448,192,187186,1,0,0:0:0:0:
448,192,187274,1,0,0:0:0:0:
64,192,187362,1,0,0:0:0:0:
320,192,187362,1,0,0:0:0:0:
320,192,187451,1,0,0:0:0:0:
448,192,187451,1,0,0:0:0:0:
192,192,187451,1,0,0:0:0:0:
64,192,187539,1,0,0:0:0:0:
448,192,187539,1,0,0:0:0:0:
64,192,187627,1,0,0:0:0:0:
192,192,187627,1,0,0:0:0:0:
64,192,187715,1,0,0:0:0:0:
320,192,187715,1,0,0:0:0:0:
192,192,187804,1,0,0:0:0:0:
448,192,187804,1,0,0:0:0:0:
320,192,187804,1,0,0:0:0:0:
64,192,187892,1,0,0:0:0:0:
448,192,187892,1,0,0:0:0:0:
320,192,187980,1,0,0:0:0:0:
192,192,187980,1,0,0:0:0:0:
320,192,188068,1,0,0:0:0:0:
448,192,188156,1,0,0:0:0:0:
192,192,188156,1,0,0:0:0:0:
64,192,188156,1,0,0:0:0:0:
320,192,188245,1,0,0:0:0:0:
64,192,188245,1,0,0:0:0:0:
192,192,188333,1,0,0:0:0:0:
448,192,188333,1,0,0:0:0:0:
448,192,188421,1,0,0:0:0:0:
320,192,188509,1,0,0:0:0:0:
192,192,188509,1,0,0:0:0:0:
64,192,188509,1,0,0:0:0:0:
320,192,188598,1,0,0:0:0:0:
448,192,188598,1,0,0:0:0:0:
192,192,188774,1,0,0:0:0:0:
64,192,188774,1,0,0:0:0:0:
64,192,188862,1,0,0:0:0:0:
320,192,188862,1,0,0:0:0:0:
448,192,188862,1,0,0:0:0:0:
192,192,188921,1,0,0:0:0:0:
448,192,188980,1,0,0:0:0:0:
64,192,189039,1,0,0:0:0:0:
320,192,189039,1,0,0:0:0:0:
64,192,189127,1,0,0:0:0:0:
192,192,189215,1,0,0:0:0:0:
448,192,189215,1,0,0:0:0:0:
320,192,189215,1,0,0:0:0:0:
192,192,189304,1,0,0:0:0:0:
64,192,189304,1,0,0:0:0:0:
448,192,189480,1,0,0:0:0:0:
320,192,189480,1,0,0:0:0:0:
448,192,189568,1,0,0:0:0:0:
192,192,189568,1,0,0:0:0:0:
64,192,189568,1,0,0:0:0:0:
64,192,189656,1,0,0:0:0:0:
320,192,189656,1,0,0:0:0:0:
192,192,189745,1,0,0:0:0:0:
448,192,189745,1,0,0:0:0:0:
320,192,189921,1,0,0:0:0:0:
64,192,189921,1,0,0:0:0:0:
192,192,189921,1,0,0:0:0:0:
192,192,190009,1,0,0:0:0:0:
448,192,190009,1,0,0:0:0:0:
320,192,190186,1,0,0:0:0:0:
64,192,190186,1,0,0:0:0:0:
64,192,190274,1,0,0:0:0:0:
192,192,190274,1,0,0:0:0:0:
448,192,190274,1,0,0:0:0:0:
320,192,190451,1,0,0:0:0:0:
448,192,190451,1,0,0:0:0:0:
320,192,190539,1,0,0:0:0:0:
64,192,190539,1,0,0:0:0:0:
448,192,190627,1,0,0:0:0:0:
64,192,190627,1,0,0:0:0:0:
192,192,190627,1,0,0:0:0:0:
64,192,190804,1,0,0:0:0:0:
448,192,190804,1,0,0:0:0:0:
448,192,190892,1,0,0:0:0:0:
192,192,190892,1,0,0:0:0:0:
320,192,190980,1,0,0:0:0:0:
64,192,190980,1,0,0:0:0:0:
192,192,190980,1,0,0:0:0:0:
64,192,191068,1,0,0:0:0:0:
448,192,191068,1,0,0:0:0:0:
192,192,191156,1,0,0:0:0:0:
320,192,191156,1,0,0:0:0:0:
64,192,191333,1,0,0:0:0:0:
192,192,191333,1,0,0:0:0:0:
320,192,191421,1,0,0:0:0:0:
192,192,191421,1,0,0:0:0:0:
448,192,191598,1,0,0:0:0:0:
64,192,191598,1,0,0:0:0:0:
320,192,191686,1,0,0:0:0:0:
192,192,191686,1,0,0:0:0:0:
192,192,191774,1,0,0:0:0:0:
448,192,191774,1,0,0:0:0:0:
320,192,191862,1,0,0:0:0:0:
64,192,191862,1,0,0:0:0:0:
320,192,192039,1,0,0:0:0:0:
448,192,192039,1,0,0:0:0:0:
320,192,192127,1,0,0:0:0:0:
64,192,192127,1,0,0:0:0:0:
192,192,192304,1,0,0:0:0:0:
448,192,192304,1,0,0:0:0:0:
320,192,192392,1,0,0:0:0:0:
64,192,192392,1,0,0:0:0:0:
320,192,192480,1,0,0:0:0:0:
192,192,192480,1,0,0:0:0:0:
64,192,192568,1,0,0:0:0:0:
448,192,192568,1,0,0:0:0:0:
192,192,192745,1,0,0:0:0:0:
320,192,192745,1,0,0:0:0:0:
448,192,192804,1,0,0:0:0:0:
192,192,192862,1,0,0:0:0:0:
448,192,192921,1,0,0:0:0:0:
64,192,192921,1,0,0:0:0:0:
64,192,193098,1,0,0:0:0:0:
192,192,193098,1,0,0:0:0:0:
320,192,193186,1,0,0:0:0:0:
64,192,193186,1,0,0:0:0:0:
192,192,193274,1,0,0:0:0:0:
448,192,193274,1,0,0:0:0:0:
320,192,193451,1,0,0:0:0:0:
64,192,193451,1,0,0:0:0:0:
192,192,193509,1,0,0:0:0:0:
320,192,193568,1,0,0:0:0:0:
192,192,193627,1,0,0:0:0:0:
448,192,193627,1,0,0:0:0:0:
320,192,193715,1,0,0:0:0:0:
64,192,193715,1,0,0:0:0:0:
64,192,193804,1,0,0:0:0:0:
448,192,193804,1,0,0:0:0:0:
320,192,193892,1,0,0:0:0:0:
192,192,193892,1,0,0:0:0:0:
64,192,193980,1,0,0:0:0:0:
448,192,193980,1,0,0:0:0:0:
192,192,194156,1,0,0:0:0:0:
320,192,194156,1,0,0:0:0:0:
64,192,194245,1,0,0:0:0:0:
448,192,194245,1,0,0:0:0:0:
192,192,194421,1,0,0:0:0:0:
64,192,194421,1,0,0:0:0:0:
192,192,194598,1,0,0:0:0:0:
448,192,194598,1,0,0:0:0:0:
320,192,194686,1,0,0:0:0:0:
64,192,194686,1,0,0:0:0:0:
192,192,194774,1,0,0:0:0:0:
448,192,194774,1,0,0:0:0:0:
448,192,194862,1,0,0:0:0:0:
64,192,194862,1,0,0:0:0:0:
320,192,194951,1,0,0:0:0:0:
192,192,194951,1,0,0:0:0:0:
64,192,195039,1,0,0:0:0:0:
448,192,195039,1,0,0:0:0:0:
320,192,195215,1,0,0:0:0:0:
64,192,195215,1,0,0:0:0:0:
448,192,195304,1,0,0:0:0:0:
64,192,195304,1,0,0:0:0:0:
192,192,195392,1,0,0:0:0:0:
320,192,195392,1,0,0:0:0:0:
320,192,195480,1,0,0:0:0:0:
64,192,195480,1,0,0:0:0:0:
448,192,195568,1,0,0:0:0:0:
64,192,195568,1,0,0:0:0:0:
320,192,195656,1,0,0:0:0:0:
192,192,195656,1,0,0:0:0:0:
192,192,195833,1,0,0:0:0:0:
320,192,195833,1,0,0:0:0:0:
64,192,195921,1,0,0:0:0:0:
448,192,195921,1,0,0:0:0:0:
192,192,195980,1,0,0:0:0:0:
448,192,196039,1,0,0:0:0:0:
320,192,196039,1,0,0:0:0:0:
64,192,196098,1,0,0:0:0:0:
320,192,196186,1,0,0:0:0:0:
192,192,196186,1,0,0:0:0:0:
64,192,196274,1,0,0:0:0:0:
448,192,196274,1,0,0:0:0:0:
192,192,196362,1,0,0:0:0:0:
320,192,196362,1,0,0:0:0:0:
320,192,196627,1,0,0:0:0:0:
448,192,196627,1,0,0:0:0:0:
448,192,196715,1,0,0:0:0:0:
64,192,196715,1,0,0:0:0:0:
192,192,196804,1,0,0:0:0:0:
320,192,196804,1,0,0:0:0:0:
448,192,196980,1,0,0:0:0:0:
320,192,196980,1,0,0:0:0:0:
192,192,197068,1,0,0:0:0:0:
320,192,197068,1,0,0:0:0:0:
64,192,197245,1,0,0:0:0:0:
448,192,197245,1,0,0:0:0:0:
192,192,197333,1,0,0:0:0:0:
448,192,197333,1,0,0:0:0:0:
64,192,197509,1,0,0:0:0:0:
192,192,197509,1,0,0:0:0:0:
448,192,197568,1,0,0:0:0:0:
64,192,197627,1,0,0:0:0:0:
448,192,197686,1,0,0:0:0:0:
320,192,197686,1,0,0:0:0:0:
448,192,197862,1,0,0:0:0:0:
192,192,197862,1,0,0:0:0:0:
64,192,198039,1,0,0:0:0:0:
192,192,198039,1,0,0:0:0:0:
192,192,198127,1,0,0:0:0:0:
320,192,198127,1,0,0:0:0:0:
448,192,198215,1,0,0:0:0:0:
64,192,198215,1,0,0:0:0:0:
64,192,198392,1,0,0:0:0:0:
192,192,198392,1,0,0:0:0:0:
448,192,198480,1,0,0:0:0:0:
64,192,198480,1,0,0:0:0:0:
320,192,198656,1,0,0:0:0:0:
192,192,198656,1,0,0:0:0:0:
192,192,198745,1,0,0:0:0:0:
448,192,198745,1,0,0:0:0:0:
320,192,198921,1,0,0:0:0:0:
448,192,198921,1,0,0:0:0:0:
192,192,198980,1,0,0:0:0:0:
320,192,199039,1,0,0:0:0:0:
64,192,199098,1,0,0:0:0:0:
192,192,199098,1,0,0:0:0:0:
192,192,199274,1,0,0:0:0:0:
448,192,199274,1,0,0:0:0:0:
64,192,199451,1,0,0:0:0:0:
320,192,199451,1,0,0:0:0:0:
192,192,199539,1,0,0:0:0:0:
320,192,199539,1,0,0:0:0:0:
448,192,199627,1,0,0:0:0:0:
64,192,199627,1,0,0:0:0:0:
192,192,199804,1,0,0:0:0:0:
320,192,199804,1,0,0:0:0:0:
192,192,199892,1,0,0:0:0:0:
64,192,199892,1,0,0:0:0:0:
448,192,200068,1,0,0:0:0:0:
320,192,200068,1,0,0:0:0:0:
320,192,200156,1,0,0:0:0:0:
64,192,200156,1,0,0:0:0:0:
448,192,200215,1,0,0:0:0:0:
64,192,200274,1,0,0:0:0:0:
320,192,200333,1,0,0:0:0:0:
192,192,200333,1,0,0:0:0:0:
448,192,200509,1,0,0:0:0:0:
64,192,200509,1,0,0:0:0:0:
64,192,200598,1,0,0:0:0:0:
192,192,200598,1,0,0:0:0:0:
448,192,200774,1,0,0:0:0:0:
192,192,200774,1,0,0:0:0:0:
64,192,200862,1,0,0:0:0:0:
320,192,200862,1,0,0:0:0:0:
320,192,200951,1,0,0:0:0:0:
192,192,200951,1,0,0:0:0:0:
448,192,201039,1,0,0:0:0:0:
64,192,201039,1,0,0:0:0:0:
320,192,201215,1,0,0:0:0:0:
192,192,201215,1,0,0:0:0:0:
448,192,201304,1,0,0:0:0:0:
64,192,201304,1,0,0:0:0:0:
192,192,201480,1,0,0:0:0:0:
320,192,201480,1,0,0:0:0:0:
448,192,201568,1,0,0:0:0:0:
192,192,201568,1,0,0:0:0:0:
320,192,201745,1,0,0:0:0:0:
448,192,201745,1,0,0:0:0:0:
192,192,201833,1,0,0:0:0:0:
320,192,201833,1,0,0:0:0:0:
64,192,201921,1,0,0:0:0:0:
192,192,201921,1,0,0:0:0:0:
320,192,202098,1,0,0:0:0:0:
64,192,202098,1,0,0:0:0:0:
64,192,202186,1,0,0:0:0:0:
192,192,202274,1,0,0:0:0:0:
320,192,202274,1,0,0:0:0:0:
320,192,202362,1,0,0:0:0:0:
64,192,202362,1,0,0:0:0:0:
448,192,202451,1,0,0:0:0:0:
192,192,202451,1,0,0:0:0:0:
320,192,202627,1,0,0:0:0:0:
64,192,202627,1,0,0:0:0:0:
192,192,202715,1,0,0:0:0:0:
448,192,202715,1,0,0:0:0:0:
64,192,202892,1,0,0:0:0:0:
320,192,202892,1,0,0:0:0:0:
192,192,202980,1,0,0:0:0:0:
448,192,202980,1,0,0:0:0:0:
448,192,203068,1,0,0:0:0:0:
64,192,203068,1,0,0:0:0:0:
192,192,203156,1,0,0:0:0:0:
320,192,203156,1,0,0:0:0:0:
64,192,203333,1,0,0:0:0:0:
448,192,203333,1,0,0:0:0:0:
192,192,203421,1,0,0:0:0:0:
320,192,203421,1,0,0:0:0:0:
448,192,203598,1,0,0:0:0:0:
64,192,203598,1,0,0:0:0:0:
192,192,203686,1,0,0:0:0:0:
320,192,203686,1,0,0:0:0:0:
192,192,203774,1,0,0:0:0:0:
448,192,203774,1,0,0:0:0:0:
320,192,203862,1,0,0:0:0:0:
64,192,203862,1,0,0:0:0:0:
192,192,204039,1,0,0:0:0:0:
448,192,204039,1,0,0:0:0:0:
64,192,204098,1,0,0:0:0:0:
448,192,204156,1,0,0:0:0:0:
64,192,204215,1,0,0:0:0:0:
320,192,204215,1,0,0:0:0:0:
64,192,204392,1,0,0:0:0:0:
320,192,204392,1,0,0:0:0:0:
192,192,204480,1,0,0:0:0:0:
320,192,204480,1,0,0:0:0:0:
448,192,204568,1,0,0:0:0:0:
64,192,204568,1,0,0:0:0:0:
192,192,204745,1,0,0:0:0:0:
320,192,204745,1,0,0:0:0:0:
448,192,204804,1,0,0:0:0:0:
192,192,204862,1,0,0:0:0:0:
448,192,204921,1,0,0:0:0:0:
64,192,204921,1,0,0:0:0:0:
192,192,205009,1,0,0:0:0:0:
320,192,205009,1,0,0:0:0:0:
448,192,205098,1,0,0:0:0:0:
64,192,205098,1,0,0:0:0:0:
192,192,205186,1,0,0:0:0:0:
64,192,205186,1,0,0:0:0:0:
192,192,205274,1,0,0:0:0:0:
448,192,205274,1,0,0:0:0:0:
320,192,205451,1,0,0:0:0:0:
64,192,205451,1,0,0:0:0:0:
192,192,205539,1,0,0:0:0:0:
448,192,205539,1,0,0:0:0:0:
320,192,205715,1,0,0:0:0:0:
448,192,205715,1,0,0:0:0:0:
64,192,205804,1,0,0:0:0:0:
448,192,205804,1,0,0:0:0:0:
192,192,205980,1,0,0:0:0:0:
320,192,205980,1,0,0:0:0:0:
448,192,206039,1,0,0:0:0:0:
192,192,206098,1,0,0:0:0:0:
64,192,206156,1,0,0:0:0:0:
320,192,206156,1,0,0:0:0:0:
192,192,206215,1,0,0:0:0:0:
320,192,206274,1,0,0:0:0:0:
64,192,206333,1,0,0:0:0:0:
448,192,206333,1,0,0:0:0:0:
320,192,206509,5,0,0:0:0:0:
64,192,206509,1,0,0:0:0:0:
192,192,206568,1,0,0:0:0:0:
64,192,206627,1,0,0:0:0:0:
448,192,206686,1,0,0:0:0:0:
320,192,206686,1,0,0:0:0:0:
192,192,206745,1,0,0:0:0:0:
448,192,206804,1,0,0:0:0:0:
320,192,206862,1,0,0:0:0:0:
64,192,206862,1,0,0:0:0:0:
192,192,206921,1,0,0:0:0:0:
64,192,206980,1,0,0:0:0:0:
448,192,207039,1,0,0:0:0:0:
320,192,207039,1,0,0:0:0:0:
192,192,207098,1,0,0:0:0:0:
448,192,207156,1,0,0:0:0:0:
64,192,207215,1,0,0:0:0:0:
320,192,207215,1,0,0:0:0:0:
320,192,207392,1,0,0:0:0:0:
192,192,207392,1,0,0:0:0:0:
320,192,207480,1,0,0:0:0:0:
64,192,207480,1,0,0:0:0:0:
448,192,207568,1,0,0:0:0:0:
192,192,207568,1,0,0:0:0:0:
448,192,207656,1,0,0:0:0:0:
320,192,207745,1,0,0:0:0:0:
64,192,207745,1,0,0:0:0:0:
448,192,207833,1,0,0:0:0:0:
192,192,207833,1,0,0:0:0:0:
64,192,207921,5,0,0:0:0:0:
64,192,208274,1,0,0:0:0:0:
320,192,208627,1,0,0:0:0:0:
320,192,208980,1,0,0:0:0:0:
192,192,209333,1,0,0:0:0:0:
192,192,209686,1,0,0:0:0:0:
448,192,210039,1,0,0:0:0:0:
448,192,210392,1,0,0:0:0:0:
320,192,210745,1,0,0:0:0:0:
320,192,211451,1,0,0:0:0:0:
192,192,212156,1,0,0:0:0:0:
64,192,213568,1,0,0:0:0:0:
64,192,213921,1,0,0:0:0:0:
320,192,214274,1,0,0:0:0:0:
320,192,214627,1,0,0:0:0:0:
192,192,214980,1,0,0:0:0:0:
192,192,215333,1,0,0:0:0:0:
320,192,215686,1,0,0:0:0:0:
320,192,216039,1,0,0:0:0:0:
448,192,216392,1,0,0:0:0:0:
320,192,217804,1,0,0:0:0:0:
64,192,219215,1,0,0:0:0:0:
64,192,219568,1,0,0:0:0:0:
320,192,219921,1,0,0:0:0:0:
320,192,220274,1,0,0:0:0:0:
192,192,220627,1,0,0:0:0:0:
192,192,220980,1,0,0:0:0:0:
448,192,221333,1,0,0:0:0:0:
448,192,221686,1,0,0:0:0:0:
320,192,222039,1,0,0:0:0:0:
192,192,223451,1,0,0:0:0:0:
64,192,224862,1,0,0:0:0:0:
64,192,225215,1,0,0:0:0:0:
320,192,225568,1,0,0:0:0:0:
320,192,225921,1,0,0:0:0:0:
192,192,226274,1,0,0:0:0:0:
192,192,226627,1,0,0:0:0:0:
320,192,226980,1,0,0:0:0:0:
320,192,227333,1,0,0:0:0:0:
64,192,227686,1,0,0:0:0:0:
192,192,228392,1,0,0:0:0:0:
448,192,229098,1,0,0:0:0:0:
320,192,229804,1,0,0:0:0:0:
