osu file format v14

[General]
AudioFilename: audio.mp3
AudioLeadIn: 0
PreviewTime: -1
Countdown: 0
SampleSet: Soft
StackLeniency: 0.2
Mode: 0
LetterboxInBreaks: 0
WidescreenStoryboard: 0

[Editor]
DistanceSpacing: 1.1
BeatDivisor: 4
GridSize: 4
TimelineZoom: 1

[Metadata]
Title:Reve Lucide
TitleUnicode:Rêve Lucide
Artist:LUNE
ArtistUnicode:LÜNE
Creator:_Sylveon
Version:ASCENDED
Source:
Tags:Dream Star Fox 64 meme ASCENDED Vaporwave
BeatmapID:2136302
BeatmapSetID:1021035

[Difficulty]
HPDrainRate:4.6
CircleSize:3.8
OverallDifficulty:7.5
ApproachRate:9.4
SliderMultiplier:2.2
SliderTickRate:1

[Events]
//Background and Video events
0,0,"maxresdefault.jpg",0,0
//Break Periods
2,55198,63601
2,128340,137926
//Storyboard Layer 0 (Background)
//Storyboard Layer 1 (Fail)
//Storyboard Layer 2 (Pass)
//Storyboard Layer 3 (Foreground)
//Storyboard Layer 4 (Overlay)
//Storyboard Sound Samples

[TimingPoints]
141,1142.85714285714,4,2,2,35,1,0
141,-250,4,2,2,35,0,0
1283,-250,4,2,2,5,0,0
4712,-250,4,2,2,35,0,0
5855,-250,4,2,2,5,0,0
6998,-250,4,2,2,35,0,0
8140,-250,4,2,2,5,0,0
9283,-166.666666666667,4,2,2,35,0,0
10426,-166.666666666667,4,3,2,35,0,0
13855,-166.666666666667,4,2,2,35,0,0
14998,-166.666666666667,4,3,2,35,0,0
16140,-166.666666666667,4,2,2,35,0,0
17283,-166.666666666667,4,3,2,35,0,0
17855,-100,4,3,2,40,0,0
18427,571.428571428571,4,3,2,45,1,0
36712,-90.9090909090909,4,3,2,50,0,0
54426,-90.9090909090909,4,3,2,60,0,0
54998,-90.9090909090909,4,3,2,50,0,0
64141,-200,4,3,2,5,0,0
65284,-200,4,3,2,50,0,0
68712,-200,4,3,2,5,0,0
69855,-200,4,3,2,50,0,0
70998,-200,4,3,2,50,0,0
73284,-100,4,3,2,50,0,0
91569,-83.3333333333333,4,3,2,50,0,0
109855,-76.9230769230769,4,3,2,55,0,1
126426,-83.3333333333333,4,3,2,55,0,1
126998,-90.9090909090909,4,3,2,45,0,1
127569,-100,4,3,2,35,0,1
128141,2285.71428571429,4,2,2,5,1,0
128141,-100,4,2,2,5,0,0
138466,719.33820884786,4,2,2,35,1,0
138466,-142.857142857143,4,3,2,5,0,0
144220,-133.333333333333,4,3,2,5,0,0
147098,-125,4,3,2,5,0,0
149975,-142.857142857143,4,3,2,5,0,0
154291,-133.333333333333,4,3,2,5,0,0
155730,-125,4,3,2,5,0,0
158607,-111.111111111111,4,3,2,5,0,0
160046,-83.3333333333333,4,3,2,5,0,0
160765,-200,4,3,2,40,0,0
161484,-100,4,3,2,30,0,0
162204,-83.3333333333333,4,3,2,30,0,0
162923,-66.6666666666667,4,3,2,30,0,0
163642,-200,4,3,2,30,0,0
164362,-100,4,3,2,30,0,0
165081,-76.9230769230769,4,3,2,30,0,0
165800,-66.6666666666667,4,3,2,30,0,0
166520,-200,4,3,2,30,0,0
167239,-100,4,3,2,30,0,0
167958,-83.3333333333333,4,3,2,30,0,0
168678,-66.6666666666667,4,3,2,30,0,0
169397,-200,4,3,2,30,0,0
170116,-100,4,3,2,30,0,0
170836,-71.4285714285714,4,3,2,30,0,0
171555,-58.8235294117647,4,3,2,30,0,0
172274,-76.9230769230769,4,3,2,30,0,0
172994,-90.9090909090909,4,3,2,30,0,0
173713,-71.4285714285714,4,3,2,30,0,0
174432,-55.5555555555556,4,3,2,30,0,0
175152,-166.666666666667,4,3,2,30,0,0
175871,-90.909090909091,4,3,2,30,0,0
176590,-66.6666666666667,4,3,2,30,0,0
177310,-55.5555555555556,4,3,2,30,0,0
178029,-333.333333333333,4,3,2,30,0,0
178748,-83.3333333333333,4,3,2,30,0,0
179468,-142.857142857143,4,3,2,30,0,0
180187,-58.8235294117647,4,3,2,30,0,0
180906,-71.4285714285714,4,3,2,30,0,0
181626,-71.4285714285714,4,3,2,30,0,0
182345,-62.5,4,3,2,30,0,0
183064,-50,4,3,2,30,0,0
183784,-66.6666666666667,4,3,2,30,0,0
184503,-66.6666666666667,4,3,2,40,0,1
204645,-66.6666666666667,4,3,2,40,0,1
204824,-66.6666666666667,4,3,2,5,0,1
207522,-66.6666666666667,4,3,2,5,0,0

[Colours]
Combo1 : 137,198,70
Combo2 : 190,149,208
Combo3 : 37,185,239
Combo4 : 222,199,116
Combo5 : 199,99,132

[HitObjects]
35,106,141,6,0,B|125:95|125:95|187:124|187:124|237:79|237:79|342:64,1,322.666666666667
310,246,4712,6,0,P|288:198|366:160,1,146.666666666667
355,155,6998,6,0,P|388:198|311:246,1,146.666666666667
198,278,9283,6,0,P|267:272|329:317,1,131.99999597168
244,358,12712,5,0,0:0:0:0:
140,309,13855,6,0,P|163:248|148:166,1,131.99999597168
35,48,16140,6,0,P|60:131|112:125,1,131.99999597168
306,41,17855,6,0,L|354:49,2,36.6666666666667
189,92,18426,5,0,0:0:0:0:
286,180,18617,1,0,0:0:0:0:
160,216,18807,1,0,0:0:0:0:
306,156,18998,2,0,P|349:168|378:189,1,73.3333333333333,2|0,0:0|0:0,0:0:0:0:
326,327,19379,1,0,0:0:0:0:
166,267,19569,5,0,0:0:0:0:
194,162,19760,1,0,0:0:0:0:
268,238,19950,1,0,0:0:0:0:
144,286,20141,5,2,0:0:0:0:
174,170,20331,1,0,0:0:0:0:
256,254,20522,1,0,0:0:0:0:
112,359,20712,6,0,L|38:354,1,73.3333333333333
238,321,21093,1,0,0:0:0:0:
118,222,21284,2,0,L|44:217,1,73.3333333333333,2|0,0:0|0:0,0:0:0:0:
231,176,21665,1,0,0:0:0:0:
221,358,21855,5,0,0:0:0:0:
197,240,22046,1,0,0:0:0:0:
312,276,22236,1,0,0:0:0:0:
153,309,22426,5,2,0:0:0:0:
294,135,22617,1,0,0:0:0:0:
358,346,22807,1,0,0:0:0:0:
251,233,22998,6,0,P|214:228|170:244,1,73.3333333333333
128,354,23379,1,0,0:0:0:0:
311,378,23569,6,0,P|345:363|375:327,1,73.3333333333333,2|0,0:0|0:0,0:0:0:0:
307,149,23950,1,0,0:0:0:0:
199,304,24141,6,0,L|208:382,2,73.3333333333333
82,221,24712,6,0,L|90:148,1,73.3333333333333,2|0,0:0|0:0,0:0:0:0:
107,11,25093,1,0,0:0:0:0:
275,158,25284,6,0,P|223:162|181:135,1,73.3333333333333
208,32,25665,1,0,0:0:0:0:
144,233,25855,6,0,P|114:189|116:140,1,73.3333333333333,2|0,0:0|0:0,0:0:0:0:
278,75,26236,1,0,0:0:0:0:
230,335,26426,5,0,0:0:0:0:
161,155,26617,1,0,0:0:0:0:
354,179,26807,1,0,0:0:0:0:
129,367,26998,5,10,0:0:0:0:
194,26,27188,1,8,0:0:0:0:
432,265,27379,1,8,0:0:0:0:
217,199,27569,5,0,0:0:0:0:
359,74,27760,1,0,0:0:0:0:
404,260,27950,1,0,0:0:0:0:
193,27,28141,2,0,P|170:75|172:129,1,73.3333333333333,2|0,0:0|0:0,0:0:0:0:
154,217,28522,1,0,0:0:0:0:
403,89,28712,5,0,0:0:0:0:
257,28,28903,1,0,0:0:0:0:
270,179,29093,1,0,0:0:0:0:
437,87,29284,5,2,0:0:0:0:
276,19,29474,1,0,0:0:0:0:
291,186,29665,1,0,0:0:0:0:
478,7,29855,6,0,L|391:28,1,73.3333333333333
315,116,30236,1,0,0:0:0:0:
507,174,30426,2,0,L|420:195,1,73.3333333333333,2|0,0:0|0:0,0:0:0:0:
341,295,30807,1,0,0:0:0:0:
502,373,30998,5,0,0:0:0:0:
512,271,31188,1,0,0:0:0:0:
420,313,31379,1,0,0:0:0:0:
490,366,31569,5,2,0:0:0:0:
448,166,31760,1,0,0:0:0:0:
322,323,31950,1,0,0:0:0:0:
214,107,32141,6,0,P|189:147|190:200,1,73.3333333333333
270,267,32522,1,0,0:0:0:0:
240,0,32712,6,0,P|192:-1|147:25,1,73.3333333333333,2|0,0:0|0:0,0:0:0:0:
76,222,33093,1,0,0:0:0:0:
300,312,33284,6,0,L|396:301,2,73.3333333333333
141,251,33855,6,0,L|53:243,1,73.3333333333333,2|0,0:0|0:0,0:0:0:0:
246,161,34236,1,0,0:0:0:0:
342,345,34426,6,0,P|386:342|434:313,1,73.3333333333333
458,164,34807,1,0,0:0:0:0:
195,318,34998,6,0,P|219:354|268:381,1,73.3333333333333,2|0,0:0|0:0,0:0:0:0:
476,252,35379,1,0,0:0:0:0:
177,60,35569,5,0,0:0:0:0:
246,258,35760,1,0,0:0:0:0:
377,97,35950,1,0,0:0:0:0:
104,214,36141,5,10,0:0:0:0:
348,367,36331,1,10,0:0:0:0:
285,31,36522,1,10,0:0:0:0:
188,241,36712,6,0,L|290:244,1,80.6666691284181
410,162,37093,1,0,0:0:0:0:
248,100,37284,1,2,0:0:0:0:
296,292,37474,2,0,L|299:198,1,80.6666691284181
135,64,37855,5,0,0:0:0:0:
67,141,38046,2,0,L|74:239,1,80.6666691284181
215,197,38426,5,2,0:0:0:0:
122,284,38617,2,0,L|129:382,1,80.6666691284181
389,226,38998,5,0,0:0:0:0:
243,139,39188,1,0,0:0:0:0:
238,307,39379,1,0,0:0:0:0:
400,234,39569,5,2,0:0:0:0:
243,133,39760,1,0,0:0:0:0:
234,316,39950,1,0,0:0:0:0:
468,166,40141,6,0,P|425:143|374:142,1,80.6666691284181
313,296,40522,1,0,0:0:0:0:
348,26,40712,6,0,P|306:51|280:95,1,80.6666691284181,2|0,0:0|0:0,0:0:0:0:
314,294,41093,1,0,0:0:0:0:
425,105,41284,5,0,0:0:0:0:
193,158,41474,1,0,0:0:0:0:
355,338,41665,1,0,0:0:0:0:
483,53,41855,6,0,L|379:41,1,80.6666691284181,2|0,0:0|0:0,0:0:0:0:
263,33,42236,1,0,0:0:0:0:
172,97,42426,6,0,L|179:211,2,80.6666691284181
61,326,42998,6,0,L|75:231,1,80.6666691284181,2|0,0:0|0:0,0:0:0:0:
89,147,43379,1,0,0:0:0:0:
232,262,43569,6,0,L|239:376,1,80.6666691284181
319,121,43950,1,0,0:0:0:0:
151,203,44141,1,2,0:0:0:0:
316,305,44331,2,0,P|357:316|416:281,1,80.6666691284181
428,113,44712,5,0,0:0:0:0:
298,155,44903,1,0,0:0:0:0:
400,251,45093,1,0,0:0:0:0:
231,40,45284,5,2,0:0:0:0:
324,354,45474,1,0,0:0:0:0:
446,116,45665,1,0,0:0:0:0:
212,226,45855,6,0,P|247:233|301:211,1,80.6666691284181
310,78,46236,1,0,0:0:0:0:
108,181,46426,1,2,0:0:0:0:
287,378,46617,2,0,L|296:284,1,80.6666691284181
116,64,46998,5,0,0:0:0:0:
273,149,47188,2,0,L|381:135,1,80.6666691284181
57,223,47569,5,2,0:0:0:0:
214,308,47760,2,0,L|322:294,1,80.6666691284181
383,59,48141,5,0,0:0:0:0:
237,46,48331,1,0,0:0:0:0:
294,170,48522,1,0,0:0:0:0:
392,57,48712,5,2,0:0:0:0:
231,40,48903,1,0,0:0:0:0:
292,178,49093,1,0,0:0:0:0:
389,3,49284,6,0,P|346:4|293:25,1,80.6666691284181
217,157,49665,1,0,0:0:0:0:
65,84,49855,6,0,P|108:85|161:106,1,80.6666691284181,2|0,0:0|0:0,0:0:0:0:
218,177,50236,1,0,0:0:0:0:
27,255,50426,5,0,0:0:0:0:
70,10,50617,1,0,0:0:0:0:
231,184,50807,1,0,0:0:0:0:
1,305,50998,6,0,L|23:195,1,80.6666691284181,2|0,0:0|0:0,0:0:0:0:
45,91,51379,1,0,0:0:0:0:
78,314,51569,6,0,P|22:315|-22:282,2,80.6666691284181
202,143,52141,6,0,P|171:168|155:205,1,80.6666691284181,2|0,0:0|0:0,0:0:0:0:
221,355,52522,1,0,0:0:0:0:
329,48,52712,5,0,0:0:0:0:
186,206,52903,1,0,0:0:0:0:
401,262,53093,1,0,0:0:0:0:
336,40,53284,5,2,0:0:0:0:
186,206,53474,1,0,0:0:0:0:
408,269,53665,1,0,0:0:0:0:
250,84,53855,6,0,P|211:83|162:100,2,80.6666691284181
36,336,54426,5,10,0:0:0:0:
81,35,54617,1,10,0:0:0:0:
339,221,54807,1,10,0:0:0:0:
142,180,54998,5,4,0:0:0:0:
106,177,64141,6,0,P|209:151|302:226,1,220
295,213,67569,5,0,0:0:0:0:
77,333,68712,6,0,B|100:251|100:251|120:239|120:239|110:216|110:216|136:117,1,220
287,132,70998,6,0,B|262:159|228:155|228:155|242:86|316:54|388:85|423:145|414:212|374:256|343:272,1,403.333333333333
237,227,73284,6,0,P|264:260|271:309,1,73.3333333333333
255,369,73665,1,0,0:0:0:0:
184,117,73855,6,0,P|226:110|272:128,1,73.3333333333333,0|0,0:0|0:0,0:0:0:0:
339,213,74236,1,0,0:0:0:0:
93,302,74426,6,0,L|103:218,2,73.3333333333333,2|0|0,0:0|0:0|0:0,0:0:0:0:
213,370,74998,6,0,L|223:281,1,73.3333333333333
241,135,75379,1,0,0:0:0:0:
127,331,75569,5,0,0:0:0:0:
357,297,75760,1,0,0:0:0:0:
160,190,75950,1,0,0:0:0:0:
124,333,76141,5,0,0:0:0:0:
358,298,76331,1,0,0:0:0:0:
158,189,76522,1,0,0:0:0:0:
257,357,76712,6,0,P|290:351|321:323,1,73.3333333333333,2|0,0:0|0:0,0:0:0:0:
312,188,77093,1,0,0:0:0:0:
144,282,77284,6,0,L|150:371,2,73.3333333333333
310,220,77855,6,0,P|275:243|218:246,1,73.3333333333333
162,175,78236,1,0,0:0:0:0:
125,355,78426,6,0,P|87:336|56:288,1,73.3333333333333
141,95,78807,1,0,0:0:0:0:
343,281,78998,6,0,L|339:369,2,73.3333333333333,2|0|0,0:0|0:0|0:0,0:0:0:0:
246,164,79569,6,0,L|242:252,1,73.3333333333333
237,371,79950,1,0,0:0:0:0:
78,266,80141,5,0,0:0:0:0:
204,237,80331,1,0,0:0:0:0:
162,367,80522,1,0,0:0:0:0:
76,267,80712,5,0,0:0:0:0:
207,232,80903,1,0,0:0:0:0:
168,370,81093,1,0,0:0:0:0:
40,151,81284,6,0,L|130:161,1,73.3333333333333,2|0,0:0|0:0,0:0:0:0:
268,177,81665,1,0,0:0:0:0:
155,18,81855,6,0,P|144:62|147:99,2,73.3333333333333
54,204,82426,6,0,P|70:252|103:296,1,73.3333333333333
202,322,82807,1,0,0:0:0:0:
171,201,82998,6,0,P|220:211|275:204,1,73.3333333333333
347,131,83379,1,0,0:0:0:0:
54,204,83569,6,0,P|70:252|103:296,2,73.3333333333333,2|0|0,0:0|0:0|0:0,0:0:0:0:
264,304,84141,6,0,P|209:301|166:319,1,73.3333333333333
126,373,84522,1,0,0:0:0:0:
210,59,84712,5,0,0:0:0:0:
133,238,84903,1,0,0:0:0:0:
330,168,85093,1,0,0:0:0:0:
210,44,85284,5,0,0:0:0:0:
119,237,85474,1,0,0:0:0:0:
338,168,85665,1,0,0:0:0:0:
83,69,85855,6,0,L|78:156,1,73.3333333333333,2|0,0:0|0:0,0:0:0:0:
66,293,86236,1,0,0:0:0:0:
204,10,86426,6,0,P|161:2|123:6,2,73.3333333333333
191,198,86998,6,0,L|94:190,1,73.3333333333333
32,185,87379,1,0,0:0:0:0:
58,36,87569,6,0,L|155:28,1,73.3333333333333
217,23,87950,1,0,0:0:0:0:
154,356,88141,6,0,L|76:346,2,73.3333333333333,2|0|0,0:0|0:0|0:0,0:0:0:0:
316,169,88712,6,0,L|218:184,1,73.3333333333333
111,202,89093,1,0,0:0:0:0:
372,344,89284,5,0,0:0:0:0:
279,228,89474,1,0,0:0:0:0:
228,365,89665,1,0,0:0:0:0:
380,348,89855,5,0,0:0:0:0:
278,221,90046,1,0,0:0:0:0:
221,371,90236,1,0,0:0:0:0:
407,224,90426,6,0,L|396:146,1,73.3333333333333,2|0,0:0|0:0,0:0:0:0:
379,23,90807,1,0,0:0:0:0:
185,160,90998,6,8,P|222:182|275:189,2,73.3333333333333
354,117,91569,6,0,P|368:168|367:229,1,87.9999973144532
277,346,91950,1,0,0:0:0:0:
183,103,92141,6,0,P|234:116|286:147,1,87.9999973144532,2|0,0:0|0:0,0:0:0:0:
351,290,92522,1,0,0:0:0:0:
61,199,92712,5,0,0:0:0:0:
232,168,92903,1,0,0:0:0:0:
173,338,93093,1,0,0:0:0:0:
5,73,93284,6,0,L|103:82,1,87.9999973144532,2|0,0:0|0:0,0:0:0:0:
284,97,93665,1,0,0:0:0:0:
79,247,93855,6,0,P|44:217|30:157,2,87.9999973144532
348,156,94426,6,0,L|242:162,1,87.9999973144532,2|0,0:0|0:0,0:0:0:0:
119,169,94807,1,0,0:0:0:0:
459,230,94998,5,0,0:0:0:0:
311,200,95188,1,0,0:0:0:0:
354,342,95379,1,0,0:0:0:0:
490,111,95569,6,0,P|443:104|382:129,2,87.9999973144532,2|0|0,0:0|0:0|0:0,0:0:0:0:
345,264,96141,6,0,L|248:251,1,87.9999973144532
105,233,96522,1,0,0:0:0:0:
257,367,96712,6,0,L|365:358,1,87.9999973144532,2|0,0:0|0:0,0:0:0:0:
439,347,97093,1,0,0:0:0:0:
108,196,97284,5,0,0:0:0:0:
72,368,97474,1,0,0:0:0:0:
240,314,97665,1,0,0:0:0:0:
52,177,97855,6,0,L|61:272,1,87.9999973144532,2|0,0:0|0:0,0:0:0:0:
69,375,98236,1,0,0:0:0:0:
239,238,98426,6,0,P|199:200|143:196,2,87.9999973144532
46,353,98998,6,0,L|54:253,1,87.9999973144532,2|0,0:0|0:0,0:0:0:0:
65,104,99379,1,0,0:0:0:0:
327,263,99569,5,0,0:0:0:0:
169,375,99760,1,0,0:0:0:0:
148,187,99950,1,0,0:0:0:0:
358,297,100141,6,0,L|342:394,2,87.9999973144532,2|0|0,0:0|0:0|0:0,0:0:0:0:
483,236,100712,6,0,P|472:180|454:150,1,87.9999973144532
283,95,101093,1,0,0:0:0:0:
462,44,101284,6,0,P|408:25|373:26,1,87.9999973144532,2|0,0:0|0:0,0:0:0:0:
252,205,101665,1,0,0:0:0:0:
486,287,101855,6,0,L|474:184,2,87.9999973144532
195,228,102426,6,0,P|249:213|303:221,1,87.9999973144532,2|0,0:0|0:0,0:0:0:0:
358,325,102807,1,0,0:0:0:0:
74,374,102998,5,0,0:0:0:0:
129,196,103188,1,0,0:0:0:0:
259,320,103379,1,0,0:0:0:0:
14,352,103569,6,0,L|19:246,1,87.9999973144532,2|0,0:0|0:0,0:0:0:0:
26,113,103950,1,0,0:0:0:0:
304,258,104141,5,0,0:0:0:0:
112,354,104331,1,0,0:0:0:0:
124,146,104522,1,0,0:0:0:0:
352,297,104712,6,0,L|346:390,2,87.9999973144532,2|0|0,0:0|0:0|0:0,0:0:0:0:
220,218,105284,6,0,L|214:111,1,87.9999973144532
205,0,105665,1,0,0:0:0:0:
385,200,105855,6,0,P|360:251|320:278,1,87.9999973144532,2|0,0:0|0:0,0:0:0:0:
113,239,106236,1,0,0:0:0:0:
336,65,106426,6,0,P|385:67|432:95,2,87.9999973144532
312,366,106998,5,2,0:0:0:0:
477,199,107188,1,0,0:0:0:0:
246,140,107379,1,0,0:0:0:0:
422,384,107569,6,0,L|427:285,1,87.9999973144532
433,145,107950,1,0,0:0:0:0:
252,323,108141,6,0,L|257:224,1,87.9999973144532,2|0,0:0|0:0,0:0:0:0:
263,117,108522,1,0,0:0:0:0:
69,263,108712,6,0,P|89:312|136:353,2,87.9999973144532
230,42,109284,5,10,0:0:0:0:
264,301,109474,1,10,0:0:0:0:
59,169,109665,1,10,0:0:0:0:
299,11,109855,5,0,0:0:0:0:
226,212,110046,1,0,0:0:0:0:
102,65,110236,1,0,0:0:0:0:
324,1,110426,6,0,L|424:17,2,95.3333289693199,2|0|0,0:0|0:0|0:0,0:0:0:0:
393,297,110998,5,0,0:0:0:0:
442,72,111188,1,0,0:0:0:0:
236,132,111379,1,0,0:0:0:0:
474,322,111569,6,0,L|462:222,1,95.3333289693199,2|0,0:0|0:0,0:0:0:0:
441,79,111950,1,0,0:0:0:0:
256,240,112141,6,0,P|297:262|384:257,1,95.3333289693199
441,79,112522,1,0,0:0:0:0:
135,177,112712,6,0,P|136:223|184:296,1,95.3333289693199,2|0,0:0|0:0,0:0:0:0:
369,344,113093,1,0,0:0:0:0:
166,42,113284,6,0,P|126:66|87:144,2,95.3333289693199
269,326,113855,6,0,L|158:311,1,95.3333289693199,2|0,0:0|0:0,0:0:0:0:
37,295,114236,1,0,0:0:0:0:
207,105,114426,6,0,P|221:167|214:208,1,95.3333289693199
65,354,114807,1,0,0:0:0:0:
33,103,114998,1,2,0:0:0:0:
228,290,115188,2,0,P|229:231|210:187,1,95.3333289693199
7,272,115569,6,0,L|110:259,2,95.3333289693199
306,169,116141,6,0,P|319:229|315:280,1,95.3333289693199,2|0,0:0|0:0,0:0:0:0:
212,230,116522,1,0,0:0:0:0:
306,62,116712,6,0,L|408:49,1,95.3333289693199
510,39,117093,1,0,0:0:0:0:
393,272,117284,6,0,L|291:259,1,95.3333289693199,2|0,0:0|0:0,0:0:0:0:
179,242,117665,1,0,0:0:0:0:
109,104,117855,6,0,L|211:91,2,95.3333289693199
78,280,118426,6,0,P|54:243|58:176,1,95.3333289693199,2|0,0:0|0:0,0:0:0:0:
109,104,118807,1,0,0:0:0:0:
266,312,118998,5,0,0:0:0:0:
125,368,119188,1,0,0:0:0:0:
148,222,119379,1,0,0:0:0:0:
307,384,119569,6,0,P|254:392|189:352,2,95.3333289693199,2|0|0,0:0|0:0|0:0,0:0:0:0:
257,186,120141,6,0,L|270:291,1,95.3333289693199
283,368,120522,1,0,0:0:0:0:
467,307,120712,6,0,L|480:202,1,95.3333289693199,2|0,0:0|0:0,0:0:0:0:
497,92,121093,1,0,0:0:0:0:
188,169,121284,6,0,P|199:224|246:279,2,95.3333289693199
457,248,121855,5,2,0:0:0:0:
322,360,122046,1,0,0:0:0:0:
294,189,122236,1,0,0:0:0:0:
492,222,122426,6,0,L|512:339,2,95.3333289693199
168,234,122998,5,2,0:0:0:0:
386,367,123188,1,0,0:0:0:0:
331,36,123379,1,0,0:0:0:0:
95,197,123569,6,0,L|237:180,1,95.3333289693199
370,162,123950,1,0,0:0:0:0:
190,48,124141,1,2,0:0:0:0:
211,295,124331,2,0,L|203:199,1,95.3333289693199
61,290,124712,6,0,L|51:406,2,95.3333289693199
205,174,125284,6,0,P|198:127|173:80,1,95.3333289693199,2|0,0:0|0:0,0:0:0:0:
58,23,125665,1,0,0:0:0:0:
169,354,125855,6,0,L|279:339,1,95.3333289693199
468,314,126236,1,0,0:0:0:0:
394,129,126426,6,0,L|294:117,1,87.9999973144532,2|0,0:0|0:0,0:0:0:0:
154,103,126807,1,0,0:0:0:0:
102,309,126998,6,0,L|201:296,1,80.6666691284181
326,282,127379,1,0,0:0:0:0:
103,168,127569,6,0,P|52:217|104:169,1,220,2|0,0:0|0:0,0:0:0:0:
58,106,138466,6,0,B|166:129|215:31|215:31|290:118|290:118|339:12|451:39|451:39|495:159|375:216|375:216|378:316|318:364,1,872.666640034994
246,267,142782,6,0,P|265:238|249:269,1,102.666663533529
127,298,143501,6,0,P|141:329|121:300,1,102.666663533529
18,282,144220,6,0,B|76:172|203:215|203:215|154:146|154:146|223:168|303:131|319:53|291:10|214:-2|182:69,1,605.000023078919
405,201,147098,6,0,P|345:184|408:206,1,293.333333333333
214,333,148536,6,0,B|274:366|323:320|323:320|366:370|366:370|405:321|467:343,1,293.333333333333
498,365,149975,6,0,B|423:325|434:244|434:244|381:259|381:259|402:197|416:98|322:66|322:66|279:142|337:217|408:240|493:188|493:98|461:40|461:40|446:69|405:100,1,872.666640034994
235,143,154291,6,0,P|233:88|248:35,1,110.000004196167
331,102,155010,6,0,P|377:72|431:59,1,110.000004196167
407,250,155730,6,0,B|358:294|301:257|303:195|361:156|431:144|485:211|485:211|507:298|444:361|380:357|321:344|321:344|264:359|215:315,1,645.333333333333
156,178,158607,6,0,B|120:126|130:44|225:37|277:118|243:229|186:295,1,329.9999899292
79,341,160046,6,0,P|160:323|281:396,1,175.999994628906
347,369,160765,6,0,L|342:321,2,36.6666666666667
454,237,161484,6,0,L|269:212,1,165
205,325,162204,5,2,0:0:0:0:
205,325,162383,2,0,P|260:336|337:298,1,131.99999597168
206,66,162923,6,0,B|141:191|282:209|188:331,1,247.500009441376
39,202,163642,6,0,P|93:200|133:221,1,82.5,2|0,0:0|0:0,0:0:0:0:
215,313,164362,6,0,P|191:271|239:166,1,165
337,254,165081,5,2,0:0:0:0:
337,254,165261,2,0,L|193:237,1,142.99999345398
66,342,165800,6,0,B|124:365|169:329|169:329|181:353|181:353|225:306|315:336,1,247.500009441376
410,378,166520,6,0,P|455:383|507:358,1,82.5,2|0,0:0|0:0,0:0:0:0:
324,198,167239,6,0,B|327:253|341:281|341:281|332:313|336:363,1,165
178,311,167958,5,2,0:0:0:0:
178,311,168138,2,0,P|215:282|182:315,1,131.99999597168
75,226,168678,6,0,B|146:205|196:252|196:252|253:302|341:265,1,247.500009441376
422,122,169397,6,0,P|374:106|329:112,1,82.5,2|0,0:0|0:0,0:0:0:0:
224,239,170116,6,0,P|241:183|173:77,1,165
6,194,170836,5,2,0:0:0:0:
6,194,171016,2,0,B|55:204|55:204|181:178,1,153.999995300293
292,0,171555,6,0,B|248:52|248:52|238:302,1,280.500005350113
425,296,172274,6,0,P|409:248|354:196,2,95.3333289693199,2|2|2,0:0|0:0|0:0,0:0:0:0:
178,290,172994,6,0,P|266:283|365:337,1,181.500005538941
410,365,173713,5,2,0:0:0:0:
410,365,173893,2,0,P|385:278|388:163,1,153.999995300293
442,38,174432,6,0,P|352:159|221:268,1,296.99999093628
15,142,175152,6,0,P|64:132|126:128,1,98.9999969787599,2|0,0:0|0:0,0:0:0:0:
210,242,175871,6,0,P|148:201|204:212,1,181.500005538941
338,347,176590,5,2,0:0:0:0:
338,347,176770,2,0,P|261:356|169:328,1,165.000006294251
356,83,177310,6,0,P|411:166|346:89,1,296.99999093628
220,15,178029,6,0,P|235:48|240:70,1,49.4999984893799,2|0,0:0|0:0,0:0:0:0:
314,209,178748,6,0,L|100:197,1,197.99999395752
4,278,179468,5,2,0:0:0:0:
4,278,179648,2,0,P|46:262|98:266,1,76.9999976501466
219,370,180187,6,0,B|202:312|202:312|246:67,1,280.500005350113
421,175,180906,6,0,B|357:166|357:166|366:105|366:105|429:115|429:115|423:166,1,230.99999295044,2|0,0:0|0:0,0:0:0:0:
291,331,181626,6,0,B|281:235|281:235|262:210|262:210|250:98,1,230.99999295044
397,17,182345,5,2,0:0:0:0:
397,17,182525,2,0,P|328:47|225:33,1,176
39,151,183064,6,0,B|112:107|185:157|185:157|219:145|219:145|269:217|365:195,1,330
413,17,183784,6,0,P|354:8|285:29,2,110.000004196167,2|2|2,0:0|0:0|0:0,0:0:0:0:
350,197,184503,6,0,P|306:182|236:182,1,82.5000031471254
196,357,184863,2,0,P|239:359|289:350,1,82.5000031471254
82,260,185222,5,2,0:0:0:0:
82,260,185402,1,0,0:0:0:0:
224,375,185582,1,0,0:0:0:0:
257,197,185762,1,0,0:0:0:0:
75,267,185942,6,0,L|59:353,1,82.5000031471254
243,202,186301,2,0,L|235:113,1,82.5000031471254
146,6,186661,5,2,0:0:0:0:
146,6,186841,2,0,P|221:38|314:31,1,165.000006294251
420,146,187380,6,0,P|429:104|436:35,1,82.5000031471254
252,168,187740,2,0,P|257:208|266:249,1,82.5000031471254
371,367,188100,5,2,0:0:0:0:
371,367,188280,1,0,0:0:0:0:
500,252,188460,1,0,0:0:0:0:
341,202,188639,1,0,0:0:0:0:
213,316,188819,6,0,L|105:307,1,82.5000031471254
0,384,189179,2,0,P|21:335|61:294,1,82.5000031471254
271,252,189539,5,2,0:0:0:0:
271,252,189718,2,0,P|189:241|78:190,1,165.000006294251
60,86,190258,5,0,0:0:0:0:
60,86,190438,1,0,0:0:0:0:
240,51,190618,5,0,0:0:0:0:
240,51,190797,1,0,0:0:0:0:
165,226,190977,6,0,L|170:132,1,82.5000031471254,2|0,0:0|0:0,0:0:0:0:
368,206,191337,2,0,L|363:308,1,82.5000031471254
280,372,191697,5,0,0:0:0:0:
280,372,191876,1,0,0:0:0:0:
182,239,192056,2,0,L|187:145,1,82.5000031471254
371,63,192416,5,2,0:0:0:0:
371,63,192596,2,0,P|282:93|186:59,1,165.000006294251
16,126,193135,6,0,P|59:114|125:124,1,82.5000031471254
161,337,193495,2,0,P|119:333|81:318,1,82.5000031471254
269,176,193855,5,2,0:0:0:0:
269,176,194034,1,0,0:0:0:0:
444,347,194214,5,0,0:0:0:0:
444,347,194394,1,0,0:0:0:0:
257,186,194574,6,0,L|271:72,1,82.5000031471254
420,330,194934,2,0,L|410:234,1,82.5000031471254
170,151,195293,6,0,P|117:159|36:125,2,110.000004196167,2|2|2,0:0|0:0|0:0,0:0:0:0:
412,78,196013,6,0,P|373:63|281:55,1,82.5000031471254
221,302,196372,2,0,P|266:303|314:293,1,82.5000031471254
481,153,196732,5,2,0:0:0:0:
481,153,196912,1,0,0:0:0:0:
282,218,197092,1,0,0:0:0:0:
438,362,197271,1,0,0:0:0:0:
503,158,197451,6,0,P|511:109|512:62,1,82.5000031471254
274,229,197811,2,0,P|276:270|283:310,1,82.5000031471254
469,378,198171,5,2,0:0:0:0:
469,378,198350,2,0,P|389:346|278:356,1,165.000006294251
143,382,198890,5,0,0:0:0:0:
143,382,199070,1,0,0:0:0:0:
0,253,199250,5,0,0:0:0:0:
0,253,199429,1,0,0:0:0:0:
181,178,199609,6,0,L|295:188,1,82.5000031471254,2|0,0:0|0:0,0:0:0:0:
136,366,199969,2,0,L|35:372,1,82.5000031471254
311,295,200329,5,0,0:0:0:0:
311,295,200508,1,0,0:0:0:0:
175,123,200688,2,0,L|188:221,1,82.5000031471254
386,352,201048,5,2,0:0:0:0:
386,352,201228,2,0,L|405:182,1,165.000006294251
227,43,201767,6,0,P|243:97|285:144,1,82.5000031471254
466,111,202127,2,0,P|479:69|483:24,1,82.5000031471254
353,235,202487,5,2,0:0:0:0:
353,235,202666,1,0,0:0:0:0:
362,0,202846,5,0,0:0:0:0:
362,0,203026,1,0,0:0:0:0:
202,197,203206,6,0,L|290:182,1,82.5000031471254
494,104,203566,2,0,L|392:120,1,82.5000031471254
292,326,203925,5,2,0:0:0:0:
292,326,204105,2,0,P|230:268|211:151,1,165.000006294251
267,5,204645,5,0,0:0:0:0:
256,192,204824,12,0,207522,0:0:0:0:
