osu file format v14

[General]
AudioFilename: audio.mp3
AudioLeadIn: 0
PreviewTime: 8550
Countdown: 0
SampleSet: Normal
StackLeniency: 0.7
Mode: 1
LetterboxInBreaks: 0
WidescreenStoryboard: 1

[Editor]
Bookmarks: 48,1548,10548,28548,34548,40548,46548,52548,64548,66048,75048,93048,99048,117048,129048
DistanceSpacing: 2.3
BeatDivisor: 4
GridSize: 32
TimelineZoom: 2.599999

[Metadata]
Title:CRUZEIRO DO NEYMAR, OH NEYMAR
TitleUnicode:CRUZEIRO DO NEYMAR, OH NEYMAR
Artist:LUKAO MEC
ArtistUnicode:LUKÃO MEC
Creator:Kyoumo
Version:Insano do flr
Source:
Tags:portuguese portugues brazilian brazil brasil baile funk fácil díficil santos skull kid skid ryanslipk hirok flr foxeru lorenzetto kantan futsuu muzukashii inner oni
BeatmapID:4496872
BeatmapSetID:2134939

[Difficulty]
HPDrainRate:5
CircleSize:4
OverallDifficulty:5.5
ApproachRate:8
SliderMultiplier:1.4
SliderTickRate:1

[Events]
//Background and Video events
0,0,"BG.jpg",0,85
//Break Periods
//Storyboard Layer 0 (Background)
//Storyboard Layer 1 (Fail)
//Storyboard Layer 2 (Pass)
//Storyboard Layer 3 (Foreground)
//Storyboard Layer 4 (Overlay)
//Storyboard Sound Samples

[TimingPoints]
1050,375,4,1,0,70,1,0
1050,-83.3333333333333,4,1,0,70,0,0
2925,-100,4,1,0,70,0,0
5550,375,4,1,0,70,1,0
7425,-83.3333333333333,4,1,0,70,0,0
8737,-100,4,1,0,70,0,0
11550,-90.9090909090909,4,1,0,70,0,1
19045,-90.9090909090909,4,1,0,70,0,1
19232,-89.3894699204434,4,1,0,70,0,1
19420,-87.9120879120879,4,1,0,70,0,1
19607,-86.4902266043937,4,1,0,70,0,1
19795,-85.1063829787234,4,1,0,70,0,1
19982,-83.7731423305688,4,1,0,70,0,1
20076,-83.1186102568365,4,1,0,70,0,1
20170,-82.4742268041237,4,1,0,70,0,1
20357,-81.2215724496426,4,1,0,70,0,1
20451,-80.6061583104949,4,1,0,70,0,1
20545,-80,4,1,0,70,0,1
20925,-90.9090909090909,4,1,0,70,0,1
22420,-90.9090909090909,4,1,0,70,0,1
22607,-90.4434117670783,4,1,0,70,0,1
22701,-90.0198251792669,4,1,0,70,0,1
22795,-89.5060647433281,4,1,0,70,0,1
22982,-88.265865692478,4,1,0,70,0,1
23170,-86.7852018056873,4,1,0,70,0,1
23357,-85.1328686967004,4,1,0,70,0,1
23451,-84.2481224902921,4,1,0,70,0,1
23545,-83.3333333333333,4,1,0,70,0,1
23925,-90.9090909090909,4,1,0,70,0,1
29550,-100,4,1,0,70,0,0
30670,-100,4,1,0,70,0,0
30857,-97.5673214518017,4,1,0,70,0,0
31045,-95.2380952380952,4,1,0,70,0,0
31232,-93.0290250558174,4,1,0,70,0,0
31420,-90.9090909090909,4,1,0,70,0,0
31612,-100,4,1,0,70,0,0
35550,-90.9090909090909,4,1,0,70,0,1
53550,-86.9565217391304,4,1,0,70,0,0
55050,-83.3333333333333,4,1,0,70,0,0
55425,-86.9565217391304,4,1,0,70,0,0
56550,-83.3333333333333,4,1,0,70,0,0
56925,-86.9565217391304,4,1,0,70,0,0
58050,-83.3333333333333,4,1,0,70,0,0
58425,-86.9565217391304,4,1,0,70,0,0
59550,-83.3333333333333,4,1,0,70,0,0
59925,-86.9565217391304,4,1,0,70,0,0
61050,-83.3333333333333,4,1,0,70,0,0
61425,-86.9565217391304,4,1,0,70,0,0
62550,-83.3333333333333,4,1,0,70,0,0
62925,-86.9565217391304,4,1,0,70,0,0
64050,-83.3333333333333,4,1,0,70,0,0
64425,-86.9565217391304,4,1,0,70,0,0
65550,-83.3333333333333,4,1,0,70,0,0
67425,-100,4,1,0,70,0,0
70050,375,4,1,0,70,1,0
71925,-83.3333333333333,4,1,0,70,0,0
73237,-100,4,1,0,70,0,0
76050,-90.9090909090909,4,1,0,70,0,1
83545,-90.9090909090909,4,1,0,70,0,1
83732,-89.3894699204434,4,1,0,70,0,1
83920,-87.9120879120879,4,1,0,70,0,1
84107,-86.4902266043937,4,1,0,70,0,1
84295,-85.1063829787234,4,1,0,70,0,1
84482,-83.7731423305688,4,1,0,70,0,1
84576,-83.1186102568365,4,1,0,70,0,1
84670,-82.4742268041237,4,1,0,70,0,1
84857,-81.2215724496426,4,1,0,70,0,1
84951,-80.6061583104949,4,1,0,70,0,1
85045,-80,4,1,0,70,0,1
85425,-90.9090909090909,4,1,0,70,0,1
86920,-90.9090909090909,4,1,0,70,0,1
87107,-90.4434117670783,4,1,0,70,0,1
87201,-90.0198251792669,4,1,0,70,0,1
87295,-89.5060647433281,4,1,0,70,0,1
87482,-88.265865692478,4,1,0,70,0,1
87670,-86.7852018056873,4,1,0,70,0,1
87857,-85.1328686967004,4,1,0,70,0,1
87951,-84.2481224902921,4,1,0,70,0,1
88045,-83.3333333333333,4,1,0,70,0,1
88425,-90.9090909090909,4,1,0,70,0,1
94050,-100,4,1,0,70,0,0
95170,-100,4,1,0,70,0,0
95357,-97.5673214518017,4,1,0,70,0,0
95545,-95.2380952380952,4,1,0,70,0,0
95732,-93.0290250558174,4,1,0,70,0,0
95920,-90.9090909090909,4,1,0,70,0,0
96112,-100,4,1,0,70,0,0
100050,-90.9090909090909,4,1,0,70,0,1
118050,-86.9565217391304,4,1,0,70,0,0
119550,-83.3333333333333,4,1,0,70,0,0
119925,-86.9565217391304,4,1,0,70,0,0
121050,-83.3333333333333,4,1,0,70,0,0
121425,-86.9565217391304,4,1,0,70,0,0
122550,-83.3333333333333,4,1,0,70,0,0
122925,-86.9565217391304,4,1,0,70,0,0
124050,-83.3333333333333,4,1,0,70,0,0
124425,-86.9565217391304,4,1,0,70,0,0
125550,-83.3333333333333,4,1,0,70,0,0
125925,-86.9565217391304,4,1,0,70,0,0
127050,-83.3333333333333,4,1,0,70,0,0
127425,-86.9565217391304,4,1,0,70,0,0
128550,-83.3333333333333,4,1,0,70,0,0
128925,-86.9565217391304,4,1,0,70,0,0

[HitObjects]
459,70,1050,5,12,0:0:0:0:
459,70,1425,1,12,0:0:0:0:
459,70,1612,1,12,0:0:0:0:
459,70,1987,1,12,0:0:0:0:
459,70,2175,1,12,0:0:0:0:
75,326,2550,1,4,0:0:0:0:
459,70,2925,1,0,0:0:0:0:
75,70,3112,1,0,0:0:0:0:
459,70,3300,1,8,0:0:0:0:
459,70,3487,1,0,0:0:0:0:
75,70,3675,1,0,0:0:0:0:
459,70,3862,1,0,0:0:0:0:
75,70,4050,1,8,0:0:0:0:
75,70,4237,1,0,0:0:0:0:
459,70,4425,1,8,0:0:0:0:
75,70,4612,1,8,0:0:0:0:
75,70,4800,1,0,0:0:0:0:
459,70,4987,1,8,0:0:0:0:
459,70,5175,1,8,0:0:0:0:
459,70,5362,1,0,0:0:0:0:
75,70,5550,1,12,0:0:0:0:
256,192,5925,8,0,6112,0:0:0:0:
256,192,6300,8,0,6487,0:0:0:0:
256,192,6675,8,0,6862,0:0:0:0:
256,192,7050,8,0,7237,0:0:0:0:
459,70,7425,5,12,0:0:0:0:
459,70,7612,1,12,0:0:0:0:
459,70,7987,1,12,0:0:0:0:
459,70,8175,1,12,0:0:0:0:
75,326,8550,1,4,0:0:0:0:
459,70,8737,1,8,0:0:0:0:
75,70,8925,1,0,0:0:0:0:
75,70,9112,1,8,0:0:0:0:
75,70,9300,1,0,0:0:0:0:
75,70,9487,1,0,0:0:0:0:
459,70,9675,1,8,0:0:0:0:
75,70,9862,1,8,0:0:0:0:
459,70,10050,1,0,0:0:0:0:
459,70,10425,1,8,0:0:0:0:
75,70,10612,1,8,0:0:0:0:
75,70,10800,1,0,0:0:0:0:
75,70,10987,1,0,0:0:0:0:
459,70,11175,1,8,0:0:0:0:
75,70,11221,1,8,0:0:0:0:
75,70,11550,1,0,0:0:0:0:
75,70,11925,1,0,0:0:0:0:
459,70,12050,1,8,0:0:0:0:
75,70,12175,1,8,0:0:0:0:
459,70,12300,1,0,0:0:0:0:
459,70,12675,1,8,0:0:0:0:
75,70,12800,1,0,0:0:0:0:
459,70,12925,1,8,0:0:0:0:
459,70,13050,1,8,0:0:0:0:
75,70,13425,1,0,0:0:0:0:
459,70,13550,1,8,0:0:0:0:
75,70,13675,1,8,0:0:0:0:
459,70,13800,1,0,0:0:0:0:
459,70,14175,1,8,0:0:0:0:
448,64,14425,1,8,0:0:0:0:
75,70,14550,1,0,0:0:0:0:
75,70,14925,1,0,0:0:0:0:
459,70,15050,1,8,0:0:0:0:
75,70,15175,1,8,0:0:0:0:
459,70,15300,1,0,0:0:0:0:
459,70,15675,1,0,0:0:0:0:
75,70,15800,1,8,0:0:0:0:
75,70,15925,1,0,0:0:0:0:
459,70,16050,1,8,0:0:0:0:
75,70,16425,1,0,0:0:0:0:
459,70,16550,1,8,0:0:0:0:
75,70,16675,1,8,0:0:0:0:
75,70,16800,1,0,0:0:0:0:
459,70,17175,1,8,0:0:0:0:
75,70,17550,1,0,0:0:0:0:
75,70,17643,1,0,0:0:0:0:
459,70,17737,1,8,0:0:0:0:
75,70,17925,1,0,0:0:0:0:
75,70,18112,1,8,0:0:0:0:
75,70,18206,1,8,0:0:0:0:
75,70,18300,1,0,0:0:0:0:
459,70,18675,1,8,0:0:0:0:
75,70,18768,1,8,0:0:0:0:
75,70,18862,1,8,0:0:0:0:
459,70,19050,1,0,0:0:0:0:
459,70,19237,1,8,0:0:0:0:
459,70,19425,1,0,0:0:0:0:
459,70,19612,1,8,0:0:0:0:
459,70,19800,1,0,0:0:0:0:
459,70,19987,1,8,0:0:0:0:
75,70,20081,1,0,0:0:0:0:
459,70,20175,1,8,0:0:0:0:
459,70,20362,1,0,0:0:0:0:
75,70,20456,1,0,0:0:0:0:
459,326,20550,1,8,0:0:0:0:
75,70,20925,1,0,0:0:0:0:
459,70,21112,1,8,0:0:0:0:
459,70,21206,1,8,0:0:0:0:
75,70,21300,1,0,0:0:0:0:
459,70,21487,1,8,0:0:0:0:
75,70,21675,1,0,0:0:0:0:
75,70,21862,1,0,0:0:0:0:
75,70,21956,1,0,0:0:0:0:
459,70,22050,1,8,0:0:0:0:
459,70,22425,1,0,0:0:0:0:
75,70,22612,1,8,0:0:0:0:
75,70,22706,1,8,0:0:0:0:
459,70,22800,1,0,0:0:0:0:
459,70,22987,1,8,0:0:0:0:
459,70,23175,1,0,0:0:0:0:
459,70,23362,1,8,0:0:0:0:
75,70,23456,1,0,0:0:0:0:
459,326,23550,1,8,0:0:0:0:
75,70,23925,1,0,0:0:0:0:
459,70,24050,1,8,0:0:0:0:
75,70,24175,1,8,0:0:0:0:
459,70,24300,1,0,0:0:0:0:
459,70,24675,1,8,0:0:0:0:
75,70,24800,1,0,0:0:0:0:
459,70,24925,1,8,0:0:0:0:
459,70,25050,1,8,0:0:0:0:
75,70,25425,1,0,0:0:0:0:
459,70,25550,1,8,0:0:0:0:
75,70,25675,1,8,0:0:0:0:
459,70,25800,1,0,0:0:0:0:
459,70,26175,1,8,0:0:0:0:
448,64,26425,1,8,0:0:0:0:
75,70,26550,1,0,0:0:0:0:
75,70,26925,1,0,0:0:0:0:
459,70,27050,1,8,0:0:0:0:
75,70,27175,1,8,0:0:0:0:
459,70,27300,1,0,0:0:0:0:
459,70,27675,1,0,0:0:0:0:
75,70,27800,1,8,0:0:0:0:
75,70,27925,1,0,0:0:0:0:
459,70,28050,1,8,0:0:0:0:
75,70,28425,1,0,0:0:0:0:
459,70,28550,1,8,0:0:0:0:
75,70,28675,1,8,0:0:0:0:
75,70,28800,1,0,0:0:0:0:
459,70,29175,1,8,0:0:0:0:
75,326,29550,1,4,0:0:0:0:
459,70,29925,1,8,0:0:0:0:
459,70,30300,1,8,0:0:0:0:
459,70,30675,1,8,0:0:0:0:
75,70,30862,1,0,0:0:0:0:
459,70,31050,1,8,0:0:0:0:
75,70,31237,1,0,0:0:0:0:
459,70,31425,1,8,0:0:0:0:
459,70,31800,1,8,0:0:0:0:
459,70,31987,1,8,0:0:0:0:
459,70,32175,1,0,0:0:0:0:
75,70,32362,1,8,0:0:0:0:
75,70,32550,1,8,0:0:0:0:
75,70,32737,1,0,0:0:0:0:
459,70,32925,1,8,0:0:0:0:
75,70,33112,1,0,0:0:0:0:
459,70,33300,1,0,0:0:0:0:
459,70,33487,1,0,0:0:0:0:
75,70,33675,1,8,0:0:0:0:
75,70,33862,1,0,0:0:0:0:
459,70,34050,1,8,0:0:0:0:
75,70,34237,1,8,0:0:0:0:
459,70,34425,1,0,0:0:0:0:
459,70,34487,1,0,0:0:0:0:
75,70,34800,1,0,0:0:0:0:
459,70,34987,1,0,0:0:0:0:
459,70,35175,1,8,0:0:0:0:
459,70,35362,1,0,0:0:0:0:
75,70,35550,1,8,0:0:0:0:
75,70,35925,1,0,0:0:0:0:
459,70,36050,1,8,0:0:0:0:
459,70,36300,1,0,0:0:0:0:
75,70,36425,1,8,0:0:0:0:
459,70,36675,1,8,0:0:0:0:
75,70,36862,1,8,0:0:0:0:
459,70,36956,1,8,0:0:0:0:
75,70,37050,1,0,0:0:0:0:
75,70,37425,1,0,0:0:0:0:
459,70,37550,1,8,0:0:0:0:
459,70,37800,1,0,0:0:0:0:
459,70,37893,1,0,0:0:0:0:
75,70,37987,1,8,0:0:0:0:
459,70,38175,1,8,0:0:0:0:
75,70,38362,1,0,0:0:0:0:
459,70,38456,1,8,0:0:0:0:
75,70,38550,1,0,0:0:0:0:
75,70,38925,1,0,0:0:0:0:
75,70,39112,1,8,0:0:0:0:
459,70,39300,1,0,0:0:0:0:
75,70,39393,1,0,0:0:0:0:
75,70,39487,1,8,0:0:0:0:
459,70,39675,1,8,0:0:0:0:
75,70,39862,1,0,0:0:0:0:
75,70,39956,1,0,0:0:0:0:
459,70,40050,1,8,0:0:0:0:
75,70,40237,1,8,0:0:0:0:
459,70,40425,1,0,0:0:0:0:
459,70,40612,1,8,0:0:0:0:
75,70,40706,1,8,0:0:0:0:
75,70,40800,1,0,0:0:0:0:
75,70,40987,1,8,0:0:0:0:
459,70,41175,1,8,0:0:0:0:
75,70,41268,1,0,0:0:0:0:
75,70,41362,1,8,0:0:0:0:
75,70,41550,1,0,0:0:0:0:
75,70,41925,1,0,0:0:0:0:
459,70,42050,1,8,0:0:0:0:
459,70,42300,1,0,0:0:0:0:
75,70,42425,1,8,0:0:0:0:
459,70,42675,1,8,0:0:0:0:
75,70,42862,1,8,0:0:0:0:
459,70,42956,1,8,0:0:0:0:
75,70,43050,1,0,0:0:0:0:
75,70,43425,1,0,0:0:0:0:
459,70,43550,1,8,0:0:0:0:
459,70,43800,1,0,0:0:0:0:
459,70,43893,1,0,0:0:0:0:
75,70,43987,1,8,0:0:0:0:
459,70,44175,1,8,0:0:0:0:
75,70,44362,1,0,0:0:0:0:
459,70,44456,1,8,0:0:0:0:
75,70,44550,1,0,0:0:0:0:
75,70,44925,1,0,0:0:0:0:
75,70,45112,1,8,0:0:0:0:
459,70,45300,1,0,0:0:0:0:
75,70,45393,1,0,0:0:0:0:
75,70,45487,1,8,0:0:0:0:
459,70,45675,1,8,0:0:0:0:
75,70,45862,1,0,0:0:0:0:
75,70,45956,1,0,0:0:0:0:
459,70,46050,1,8,0:0:0:0:
75,70,46237,1,8,0:0:0:0:
459,70,46425,1,0,0:0:0:0:
459,70,46612,1,8,0:0:0:0:
75,70,46706,1,8,0:0:0:0:
75,70,46800,1,0,0:0:0:0:
75,70,46987,1,8,0:0:0:0:
459,70,47175,1,8,0:0:0:0:
75,70,47268,1,0,0:0:0:0:
75,70,47362,1,8,0:0:0:0:
75,70,47550,1,0,0:0:0:0:
75,70,47925,1,0,0:0:0:0:
459,70,48050,1,8,0:0:0:0:
459,70,48300,1,0,0:0:0:0:
75,70,48425,1,8,0:0:0:0:
459,70,48675,1,8,0:0:0:0:
75,70,48862,1,8,0:0:0:0:
459,70,48956,1,8,0:0:0:0:
75,70,49050,1,0,0:0:0:0:
75,70,49425,1,0,0:0:0:0:
459,70,49550,1,8,0:0:0:0:
459,70,49800,1,0,0:0:0:0:
459,70,49893,1,0,0:0:0:0:
75,70,49987,1,8,0:0:0:0:
459,70,50175,1,8,0:0:0:0:
75,70,50362,1,0,0:0:0:0:
459,70,50456,1,8,0:0:0:0:
75,70,50550,1,0,0:0:0:0:
75,70,50925,1,0,0:0:0:0:
75,70,51112,1,8,0:0:0:0:
459,70,51300,1,0,0:0:0:0:
75,70,51393,1,0,0:0:0:0:
75,70,51487,1,8,0:0:0:0:
459,70,51675,1,8,0:0:0:0:
75,70,51862,1,0,0:0:0:0:
75,70,51956,1,0,0:0:0:0:
459,70,52050,1,8,0:0:0:0:
75,70,52237,1,8,0:0:0:0:
459,70,52425,1,0,0:0:0:0:
459,70,52612,1,8,0:0:0:0:
75,70,52706,1,8,0:0:0:0:
75,70,52800,1,0,0:0:0:0:
75,70,52987,1,8,0:0:0:0:
459,70,53175,1,8,0:0:0:0:
75,70,53268,1,0,0:0:0:0:
75,70,53362,1,8,0:0:0:0:
75,70,53550,1,4,0:0:0:0:
448,64,53925,1,8,0:0:0:0:
64,64,54112,1,0,0:0:0:0:
448,64,54300,1,8,0:0:0:0:
64,64,54487,1,0,0:0:0:0:
64,64,54581,1,0,0:0:0:0:
256,192,54675,1,8,0:0:0:0:
448,64,54862,1,8,0:0:0:0:
64,320,55050,1,4,0:0:0:0:
256,192,55425,1,0,0:0:0:0:
256,192,55612,1,8,0:0:0:0:
256,192,55800,1,0,0:0:0:0:
448,64,55987,1,8,0:0:0:0:
448,64,56081,1,8,0:0:0:0:
64,64,56175,1,0,0:0:0:0:
64,64,56362,1,0,0:0:0:0:
256,192,56550,1,12,0:0:0:0:
256,192,56925,1,0,0:0:0:0:
256,192,57112,1,0,0:0:0:0:
256,192,57300,1,8,0:0:0:0:
64,64,57487,1,0,0:0:0:0:
64,64,57581,1,0,0:0:0:0:
448,64,57675,1,8,0:0:0:0:
256,192,57862,1,0,0:0:0:0:
256,192,58050,1,12,0:0:0:0:
448,64,58425,1,8,0:0:0:0:
256,192,58612,1,8,0:0:0:0:
256,192,58800,1,0,0:0:0:0:
448,64,58987,1,8,0:0:0:0:
448,64,59081,1,8,0:0:0:0:
64,64,59175,1,0,0:0:0:0:
256,192,59362,1,8,0:0:0:0:
256,192,59550,1,4,0:0:0:0:
64,64,59925,1,0,0:0:0:0:
64,64,60112,1,0,0:0:0:0:
448,64,60300,1,8,0:0:0:0:
64,64,60487,1,0,0:0:0:0:
64,64,60581,1,0,0:0:0:0:
256,192,60675,1,8,0:0:0:0:
448,64,60862,1,8,0:0:0:0:
64,320,61050,1,4,0:0:0:0:
448,64,61425,1,8,0:0:0:0:
256,192,61612,1,8,0:0:0:0:
256,192,61800,1,0,0:0:0:0:
448,64,61987,1,8,0:0:0:0:
448,64,62081,1,8,0:0:0:0:
64,64,62175,1,0,0:0:0:0:
64,64,62362,1,0,0:0:0:0:
256,192,62550,1,12,0:0:0:0:
448,64,62925,1,8,0:0:0:0:
256,192,63112,1,0,0:0:0:0:
256,192,63300,1,8,0:0:0:0:
64,64,63487,1,0,0:0:0:0:
64,64,63581,1,0,0:0:0:0:
448,64,63675,1,8,0:0:0:0:
256,192,63862,1,0,0:0:0:0:
256,192,64050,1,12,0:0:0:0:
64,64,64425,1,0,0:0:0:0:
256,192,64612,1,8,0:0:0:0:
256,192,64800,1,0,0:0:0:0:
448,64,64987,1,8,0:0:0:0:
448,64,65081,1,8,0:0:0:0:
64,64,65175,1,0,0:0:0:0:
256,192,65362,1,0,0:0:0:0:
256,192,65550,1,12,0:0:0:0:
459,70,65925,1,12,0:0:0:0:
459,70,66112,1,12,0:0:0:0:
459,70,66487,1,12,0:0:0:0:
459,70,66675,1,12,0:0:0:0:
75,326,67050,1,4,0:0:0:0:
459,70,67425,1,0,0:0:0:0:
75,70,67612,1,0,0:0:0:0:
459,70,67800,1,8,0:0:0:0:
459,70,67987,1,0,0:0:0:0:
75,70,68175,1,0,0:0:0:0:
459,70,68362,1,0,0:0:0:0:
75,70,68550,1,8,0:0:0:0:
75,70,68737,1,0,0:0:0:0:
459,70,68925,1,8,0:0:0:0:
75,70,69112,1,8,0:0:0:0:
75,70,69300,1,0,0:0:0:0:
459,70,69487,1,8,0:0:0:0:
459,70,69675,1,8,0:0:0:0:
459,70,69862,1,0,0:0:0:0:
75,70,70050,1,12,0:0:0:0:
256,192,70425,8,0,70612,0:0:0:0:
256,192,70800,8,0,70987,0:0:0:0:
256,192,71175,8,0,71362,0:0:0:0:
256,192,71550,8,0,71737,0:0:0:0:
459,70,71925,5,12,0:0:0:0:
459,70,72112,1,12,0:0:0:0:
459,70,72487,1,12,0:0:0:0:
459,70,72675,1,12,0:0:0:0:
75,326,73050,1,4,0:0:0:0:
459,70,73237,1,8,0:0:0:0:
75,70,73425,1,0,0:0:0:0:
75,70,73612,1,8,0:0:0:0:
75,70,73800,1,0,0:0:0:0:
75,70,73987,1,0,0:0:0:0:
459,70,74175,1,8,0:0:0:0:
75,70,74362,1,8,0:0:0:0:
459,70,74550,1,0,0:0:0:0:
459,70,74925,1,8,0:0:0:0:
75,70,75112,1,8,0:0:0:0:
75,70,75300,1,0,0:0:0:0:
75,70,75487,1,0,0:0:0:0:
459,70,75675,1,8,0:0:0:0:
75,70,75721,1,8,0:0:0:0:
75,70,76050,1,0,0:0:0:0:
75,70,76425,1,0,0:0:0:0:
459,70,76550,1,8,0:0:0:0:
75,70,76675,1,8,0:0:0:0:
459,70,76800,1,0,0:0:0:0:
459,70,77175,1,8,0:0:0:0:
75,70,77300,1,0,0:0:0:0:
459,70,77425,1,8,0:0:0:0:
459,70,77550,1,8,0:0:0:0:
75,70,77925,1,0,0:0:0:0:
459,70,78050,1,8,0:0:0:0:
75,70,78175,1,8,0:0:0:0:
459,70,78300,1,0,0:0:0:0:
459,70,78675,1,8,0:0:0:0:
448,64,78925,1,8,0:0:0:0:
75,70,79050,1,0,0:0:0:0:
75,70,79425,1,0,0:0:0:0:
459,70,79550,1,8,0:0:0:0:
75,70,79675,1,8,0:0:0:0:
459,70,79800,1,0,0:0:0:0:
459,70,80175,1,0,0:0:0:0:
75,70,80300,1,8,0:0:0:0:
75,70,80425,1,0,0:0:0:0:
459,70,80550,1,8,0:0:0:0:
75,70,80925,1,0,0:0:0:0:
459,70,81050,1,8,0:0:0:0:
75,70,81175,1,8,0:0:0:0:
75,70,81300,1,0,0:0:0:0:
459,70,81675,1,8,0:0:0:0:
75,70,82050,1,0,0:0:0:0:
75,70,82143,1,0,0:0:0:0:
459,70,82237,1,8,0:0:0:0:
75,70,82425,1,0,0:0:0:0:
75,70,82612,1,8,0:0:0:0:
75,70,82706,1,8,0:0:0:0:
75,70,82800,1,0,0:0:0:0:
459,70,83175,1,8,0:0:0:0:
75,70,83268,1,8,0:0:0:0:
75,70,83362,1,8,0:0:0:0:
459,70,83550,1,0,0:0:0:0:
459,70,83737,1,8,0:0:0:0:
459,70,83925,1,0,0:0:0:0:
459,70,84112,1,8,0:0:0:0:
459,70,84300,1,0,0:0:0:0:
459,70,84487,1,8,0:0:0:0:
75,70,84581,1,0,0:0:0:0:
459,70,84675,1,8,0:0:0:0:
459,70,84862,1,0,0:0:0:0:
75,70,84956,1,0,0:0:0:0:
459,326,85050,1,8,0:0:0:0:
75,70,85425,1,0,0:0:0:0:
459,70,85612,1,8,0:0:0:0:
459,70,85706,1,8,0:0:0:0:
75,70,85800,1,0,0:0:0:0:
459,70,85987,1,8,0:0:0:0:
75,70,86175,1,0,0:0:0:0:
75,70,86362,1,0,0:0:0:0:
75,70,86456,1,0,0:0:0:0:
459,70,86550,1,8,0:0:0:0:
459,70,86925,1,0,0:0:0:0:
75,70,87112,1,8,0:0:0:0:
75,70,87206,1,8,0:0:0:0:
459,70,87300,1,0,0:0:0:0:
459,70,87487,1,8,0:0:0:0:
459,70,87675,1,0,0:0:0:0:
459,70,87862,1,8,0:0:0:0:
75,70,87956,1,0,0:0:0:0:
459,326,88050,1,8,0:0:0:0:
75,70,88425,1,0,0:0:0:0:
459,70,88550,1,8,0:0:0:0:
75,70,88675,1,8,0:0:0:0:
459,70,88800,1,0,0:0:0:0:
459,70,89175,1,8,0:0:0:0:
75,70,89300,1,0,0:0:0:0:
459,70,89425,1,8,0:0:0:0:
459,70,89550,1,8,0:0:0:0:
75,70,89925,1,0,0:0:0:0:
459,70,90050,1,8,0:0:0:0:
75,70,90175,1,8,0:0:0:0:
459,70,90300,1,0,0:0:0:0:
459,70,90675,1,8,0:0:0:0:
448,64,90925,1,8,0:0:0:0:
75,70,91050,1,0,0:0:0:0:
75,70,91425,1,0,0:0:0:0:
459,70,91550,1,8,0:0:0:0:
75,70,91675,1,8,0:0:0:0:
459,70,91800,1,0,0:0:0:0:
459,70,92175,1,0,0:0:0:0:
75,70,92300,1,8,0:0:0:0:
75,70,92425,1,0,0:0:0:0:
459,70,92550,1,8,0:0:0:0:
75,70,92925,1,0,0:0:0:0:
459,70,93050,1,8,0:0:0:0:
75,70,93175,1,8,0:0:0:0:
75,70,93300,1,0,0:0:0:0:
459,70,93675,1,8,0:0:0:0:
75,326,94050,1,4,0:0:0:0:
459,70,94425,1,8,0:0:0:0:
459,70,94800,1,8,0:0:0:0:
459,70,95175,1,8,0:0:0:0:
75,70,95362,1,0,0:0:0:0:
459,70,95550,1,8,0:0:0:0:
75,70,95737,1,0,0:0:0:0:
459,70,95925,1,8,0:0:0:0:
459,70,96300,1,8,0:0:0:0:
459,70,96487,1,8,0:0:0:0:
459,70,96675,1,0,0:0:0:0:
75,70,96862,1,8,0:0:0:0:
75,70,97050,1,8,0:0:0:0:
75,70,97237,1,0,0:0:0:0:
459,70,97425,1,8,0:0:0:0:
75,70,97612,1,0,0:0:0:0:
459,70,97800,1,0,0:0:0:0:
459,70,97987,1,0,0:0:0:0:
75,70,98175,1,8,0:0:0:0:
75,70,98362,1,0,0:0:0:0:
459,70,98550,1,8,0:0:0:0:
75,70,98737,1,8,0:0:0:0:
459,70,98925,1,0,0:0:0:0:
459,70,98987,1,0,0:0:0:0:
75,70,99300,1,0,0:0:0:0:
459,70,99487,1,0,0:0:0:0:
459,70,99675,1,8,0:0:0:0:
459,70,99862,1,0,0:0:0:0:
75,70,100050,1,8,0:0:0:0:
75,70,100425,1,0,0:0:0:0:
459,70,100550,1,8,0:0:0:0:
459,70,100800,1,0,0:0:0:0:
75,70,100925,1,8,0:0:0:0:
459,70,101175,1,8,0:0:0:0:
75,70,101362,1,8,0:0:0:0:
459,70,101456,1,8,0:0:0:0:
75,70,101550,1,0,0:0:0:0:
75,70,101925,1,0,0:0:0:0:
459,70,102050,1,8,0:0:0:0:
459,70,102300,1,0,0:0:0:0:
459,70,102393,1,0,0:0:0:0:
75,70,102487,1,8,0:0:0:0:
459,70,102675,1,8,0:0:0:0:
75,70,102862,1,0,0:0:0:0:
459,70,102956,1,8,0:0:0:0:
75,70,103050,1,0,0:0:0:0:
75,70,103425,1,0,0:0:0:0:
75,70,103612,1,8,0:0:0:0:
459,70,103800,1,0,0:0:0:0:
75,70,103893,1,0,0:0:0:0:
75,70,103987,1,8,0:0:0:0:
459,70,104175,1,8,0:0:0:0:
75,70,104362,1,0,0:0:0:0:
75,70,104456,1,0,0:0:0:0:
459,70,104550,1,8,0:0:0:0:
75,70,104737,1,8,0:0:0:0:
459,70,104925,1,0,0:0:0:0:
459,70,105112,1,8,0:0:0:0:
75,70,105206,1,8,0:0:0:0:
75,70,105300,1,0,0:0:0:0:
75,70,105487,1,8,0:0:0:0:
459,70,105675,1,8,0:0:0:0:
75,70,105768,1,0,0:0:0:0:
75,70,105862,1,8,0:0:0:0:
75,70,106050,1,0,0:0:0:0:
75,70,106425,1,0,0:0:0:0:
459,70,106550,1,8,0:0:0:0:
459,70,106800,1,0,0:0:0:0:
75,70,106925,1,8,0:0:0:0:
459,70,107175,1,8,0:0:0:0:
75,70,107362,1,8,0:0:0:0:
459,70,107456,1,8,0:0:0:0:
75,70,107550,1,0,0:0:0:0:
75,70,107925,1,0,0:0:0:0:
459,70,108050,1,8,0:0:0:0:
459,70,108300,1,0,0:0:0:0:
459,70,108393,1,0,0:0:0:0:
75,70,108487,1,8,0:0:0:0:
459,70,108675,1,8,0:0:0:0:
75,70,108862,1,0,0:0:0:0:
459,70,108956,1,8,0:0:0:0:
75,70,109050,1,0,0:0:0:0:
75,70,109425,1,0,0:0:0:0:
75,70,109612,1,8,0:0:0:0:
459,70,109800,1,0,0:0:0:0:
75,70,109893,1,0,0:0:0:0:
75,70,109987,1,8,0:0:0:0:
459,70,110175,1,8,0:0:0:0:
75,70,110362,1,0,0:0:0:0:
75,70,110456,1,0,0:0:0:0:
459,70,110550,1,8,0:0:0:0:
75,70,110737,1,8,0:0:0:0:
459,70,110925,1,0,0:0:0:0:
459,70,111112,1,8,0:0:0:0:
75,70,111206,1,8,0:0:0:0:
75,70,111300,1,0,0:0:0:0:
75,70,111487,1,8,0:0:0:0:
459,70,111675,1,8,0:0:0:0:
75,70,111768,1,0,0:0:0:0:
75,70,111862,1,8,0:0:0:0:
75,70,112050,1,0,0:0:0:0:
75,70,112425,1,0,0:0:0:0:
459,70,112550,1,8,0:0:0:0:
459,70,112800,1,0,0:0:0:0:
75,70,112925,1,8,0:0:0:0:
459,70,113175,1,8,0:0:0:0:
75,70,113362,1,8,0:0:0:0:
459,70,113456,1,8,0:0:0:0:
75,70,113550,1,0,0:0:0:0:
75,70,113925,1,0,0:0:0:0:
459,70,114050,1,8,0:0:0:0:
459,70,114300,1,0,0:0:0:0:
459,70,114393,1,0,0:0:0:0:
75,70,114487,1,8,0:0:0:0:
459,70,114675,1,8,0:0:0:0:
75,70,114862,1,0,0:0:0:0:
459,70,114956,1,8,0:0:0:0:
75,70,115050,1,0,0:0:0:0:
75,70,115425,1,0,0:0:0:0:
75,70,115612,1,8,0:0:0:0:
459,70,115800,1,0,0:0:0:0:
75,70,115893,1,0,0:0:0:0:
75,70,115987,1,8,0:0:0:0:
459,70,116175,1,8,0:0:0:0:
75,70,116362,1,0,0:0:0:0:
75,70,116456,1,0,0:0:0:0:
459,70,116550,1,8,0:0:0:0:
75,70,116737,1,8,0:0:0:0:
459,70,116925,1,0,0:0:0:0:
459,70,117112,1,8,0:0:0:0:
75,70,117206,1,8,0:0:0:0:
75,70,117300,1,0,0:0:0:0:
75,70,117487,1,8,0:0:0:0:
459,70,117675,1,8,0:0:0:0:
75,70,117768,1,0,0:0:0:0:
75,70,117862,1,8,0:0:0:0:
75,70,118050,1,4,0:0:0:0:
448,64,118425,1,8,0:0:0:0:
64,64,118612,1,0,0:0:0:0:
448,64,118800,1,8,0:0:0:0:
64,64,118987,1,0,0:0:0:0:
64,64,119081,1,0,0:0:0:0:
256,192,119175,1,8,0:0:0:0:
448,64,119362,1,8,0:0:0:0:
64,320,119550,1,4,0:0:0:0:
256,192,119925,1,0,0:0:0:0:
256,192,120112,1,8,0:0:0:0:
256,192,120300,1,0,0:0:0:0:
448,64,120487,1,8,0:0:0:0:
448,64,120581,1,8,0:0:0:0:
64,64,120675,1,0,0:0:0:0:
64,64,120862,1,0,0:0:0:0:
256,192,121050,1,12,0:0:0:0:
256,192,121425,1,0,0:0:0:0:
256,192,121612,1,0,0:0:0:0:
256,192,121800,1,8,0:0:0:0:
64,64,121987,1,0,0:0:0:0:
64,64,122081,1,0,0:0:0:0:
448,64,122175,1,8,0:0:0:0:
256,192,122362,1,0,0:0:0:0:
256,192,122550,1,12,0:0:0:0:
448,64,122925,1,8,0:0:0:0:
256,192,123112,1,8,0:0:0:0:
256,192,123300,1,0,0:0:0:0:
448,64,123487,1,8,0:0:0:0:
448,64,123581,1,8,0:0:0:0:
64,64,123675,1,0,0:0:0:0:
256,192,123862,1,8,0:0:0:0:
256,192,124050,1,4,0:0:0:0:
64,64,124425,1,0,0:0:0:0:
64,64,124612,1,0,0:0:0:0:
448,64,124800,1,8,0:0:0:0:
64,64,124987,1,0,0:0:0:0:
64,64,125081,1,0,0:0:0:0:
256,192,125175,1,8,0:0:0:0:
448,64,125362,1,8,0:0:0:0:
64,320,125550,1,4,0:0:0:0:
448,64,125925,1,8,0:0:0:0:
256,192,126112,1,8,0:0:0:0:
256,192,126300,1,0,0:0:0:0:
448,64,126487,1,8,0:0:0:0:
448,64,126581,1,8,0:0:0:0:
64,64,126675,1,0,0:0:0:0:
64,64,126862,1,0,0:0:0:0:
256,192,127050,1,12,0:0:0:0:
448,64,127425,1,8,0:0:0:0:
256,192,127612,1,0,0:0:0:0:
256,192,127800,1,8,0:0:0:0:
64,64,127987,1,0,0:0:0:0:
64,64,128081,1,0,0:0:0:0:
448,64,128175,1,8,0:0:0:0:
256,192,128362,1,0,0:0:0:0:
256,192,128550,1,12,0:0:0:0:
64,64,128925,1,0,0:0:0:0:
256,192,129112,1,8,0:0:0:0:
256,192,129300,1,0,0:0:0:0:
448,64,129487,1,8,0:0:0:0:
448,64,129581,1,8,0:0:0:0:
64,64,129675,1,0,0:0:0:0:
256,192,129862,1,8,0:0:0:0:
