osu file format v14

[General]
AudioFilename: audio.mp3
AudioLeadIn: 0
PreviewTime: 8550
Countdown: 0
SampleSet: Normal
StackLeniency: 0.7
Mode: 1
LetterboxInBreaks: 0
WidescreenStoryboard: 1

[Editor]
DistanceSpacing: 1.9
BeatDivisor: 8
GridSize: 32
TimelineZoom: 3.499999

[Metadata]
Title:CRUZEIRO DO NEYMAR, OH NEYMAR
TitleUnicode:CRUZEIRO DO NEYMAR, OH NEYMAR
Artist:LUKAO MEC
ArtistUnicode:LUKÃO MEC
Creator:Kyoumo
Version:Cruzeiro do HiroK
Source:
Tags:portuguese portugues brazilian brazil brasil baile funk fácil díficil santos skull kid skid ryanslipk hirok flr foxeru lorenzetto kantan futsuu muzukashii inner oni
BeatmapID:4527713
BeatmapSetID:2134939

[Difficulty]
HPDrainRate:6
CircleSize:4
OverallDifficulty:6
ApproachRate:9
SliderMultiplier:1.4
SliderTickRate:1

[Events]
//Background and Video events
0,0,"BG.jpg",0,85
//Break Periods
//Storyboard Layer 0 (Background)
//Storyboard Layer 1 (Fail)
//Storyboard Layer 2 (Pass)
//Storyboard Layer 3 (Foreground)
//Storyboard Layer 4 (Overlay)
//Storyboard Sound Samples

[TimingPoints]
1050,375,4,1,0,70,1,0
1050,-66.6666666666667,4,1,0,70,0,0
2550,-100,4,1,0,70,0,0
5550,375,4,1,0,70,1,0
5831,-111.111111111111,4,1,0,50,0,0
6206,-125,4,1,0,40,0,0
6581,-142.857142857143,4,1,0,30,0,0
6956,-166.666666666667,4,1,0,20,0,0
7331,-66.6666666666667,4,1,0,70,0,0
8456,-66.6666666666667,4,1,0,70,0,0
8643,-100,4,1,0,70,0,0
11550,-80,4,1,0,70,0,1
19050,-80,4,1,0,70,0,1
19143,-72.990556223587,4,1,0,70,0,1
19237,-66.5296366754675,4,1,0,70,0,1
19331,-60.6406196249724,4,1,0,70,0,1
19425,-55.2728818652421,4,1,0,70,0,1
19518,-50.429979892808,4,1,0,70,0,1
19612,-45.9660593562574,4,1,0,70,0,1
19706,-41.8972725595773,4,1,0,70,0,1
19800,-38.1886433711126,4,1,0,70,0,1
19893,-34.8426290135214,4,1,0,70,0,1
19987,-31.758457107614,4,1,0,70,0,1
20081,-28.9472874582671,4,1,0,70,0,1
20175,-26.3849546705671,4,1,0,70,0,1
20268,-24.0731564667353,4,1,0,70,0,1
20362,-21.9422680991439,4,1,0,70,0,1
20456,-20,4,1,0,70,0,1
20550,-100,4,1,0,70,0,1
22800,-100,4,1,0,70,0,1
22893,-85.5774485999407,4,1,0,70,0,1
22987,-73.1124520670475,4,1,0,70,0,1
23081,-62.4630756666427,4,1,0,70,0,1
23175,-53.3648607238443,4,1,0,70,0,1
23268,-45.6682862563778,4,1,0,70,0,1
23362,-39.0163582173673,4,1,0,70,0,1
23456,-33.3333333333333,4,1,0,70,0,1
23503,-80,4,1,0,70,0,1
29550,-66.6666666666667,4,1,0,70,0,0
29737,-100,4,1,0,70,0,0
30768,-100,4,1,0,30,0,0
30956,-100,4,1,0,70,0,0
31143,-100,4,1,0,30,0,0
31331,-100,4,1,0,70,0,0
35550,-80,4,1,0,70,0,1
53550,-66.6666666666667,4,1,0,70,0,0
53596,-67.9706808779342,4,1,0,70,0,0
53737,-72.1288361677359,4,1,0,70,0,0
53775,-73.5706668967918,4,1,0,70,0,0
53925,-78.0714053590196,4,1,0,70,0,0
53971,-79.5984986902465,4,1,0,70,0,0
54112,-84.4679940978844,4,1,0,70,0,0
54150,-86.1564803674926,4,1,0,70,0,0
54300,-91.4271650209854,4,1,0,70,0,0
54346,-93.2154998582345,4,1,0,70,0,0
54487,-98.9180251061882,4,1,0,70,0,0
54525,-100.895362546154,4,1,0,70,0,0
54675,-107.06770891769,4,1,0,70,0,0
54721,-109.161976127638,4,1,0,70,0,0
54862,-115.840038530684,4,1,0,70,0,0
54900,-118.155641222791,4,1,0,70,0,0
55050,-125.383897556617,4,1,0,70,0,0
55096,-127.836433320787,4,1,0,70,0,0
55237,-135.656919074002,4,1,0,70,0,0
55275,-138.36865442039,4,1,0,70,0,0
55425,-146.833456374547,4,1,0,70,0,0
55471,-149.705550081576,4,1,0,70,0,0
55612,-158.863894781732,4,1,0,70,0,0
55650,-162.039529623546,4,1,0,70,0,0
55800,-171.952414393248,4,1,0,70,0,0
55846,-175.315840273706,4,1,0,70,0,0
55987,-186.040912896258,4,1,0,70,0,0
56025,-189.759807021371,4,1,0,70,0,0
56175,-201.368499698361,4,1,0,70,0,0
56221,-205.307310477985,4,1,0,70,0,0
56362,-217.867132861288,4,1,0,70,0,0
56400,-222.222222222222,4,1,0,70,0,0
56550,-200,4,1,0,70,0,0
56596,-194.316598066102,4,1,0,70,0,0
56737,-177.882440540502,4,1,0,70,0,0
56775,-172.860295235712,4,1,0,70,0,0
56925,-158.111692272307,4,1,0,70,0,0
56971,-153.618630784146,4,1,0,70,0,0
57112,-140.626468496934,4,1,0,70,0,0
57150,-136.83502038787,4,1,0,70,0,0
57300,-124.996536166064,4,1,0,70,0,0
57346,-121.444508389181,4,1,0,70,0,0
57487,-111.173444561643,4,1,0,70,0,0
57525,-108.317660680938,4,1,0,70,0,0
57675,-98.8170693069656,4,1,0,70,0,0
57721,-96.008983692959,4,1,0,70,0,0
57862,-87.8891072769148,4,1,0,70,0,0
57900,-85.743514943277,4,1,0,70,0,0
58050,-78.1206702675711,4,1,0,70,0,0
58096,-75.9007144251906,4,1,0,70,0,0
58237,-69.4814774192769,4,1,0,70,0,0
58275,-67.8739764929372,4,1,0,70,0,0
58425,-61.7589568872631,4,1,0,70,0,0
58471,-60.0039520122202,4,1,0,70,0,0
58612,-54.92916988171,4,1,0,70,0,0
58650,-53.7285728024031,4,1,0,70,0,0
58800,-48.8240659320882,4,1,0,70,0,0
58846,-47.4366319783923,4,1,0,70,0,0
58987,-43.4247200255511,4,1,0,70,0,0
59025,-42.5311685647815,4,1,0,70,0,0
59175,-38.5982784406859,4,1,0,70,0,0
59221,-37.5014307890113,4,1,0,70,0,0
59362,-34.3297798484553,4,1,0,70,0,0
59400,-33.6673804111348,4,1,0,70,0,0
59550,-66.6666666666667,4,1,0,70,0,0
59596,-67.9706808779342,4,1,0,70,0,0
59737,-72.1288361677359,4,1,0,70,0,0
59775,-73.5706668967918,4,1,0,70,0,0
59925,-78.0714053590196,4,1,0,70,0,0
59971,-79.5984986902465,4,1,0,70,0,0
60112,-84.4679940978844,4,1,0,70,0,0
60150,-86.1564803674926,4,1,0,70,0,0
60300,-91.4271650209854,4,1,0,70,0,0
60346,-93.2154998582345,4,1,0,70,0,0
60487,-98.9180251061882,4,1,0,70,0,0
60525,-100.895362546154,4,1,0,70,0,0
60675,-107.06770891769,4,1,0,70,0,0
60721,-109.161976127638,4,1,0,70,0,0
60862,-115.840038530684,4,1,0,70,0,0
60900,-118.155641222791,4,1,0,70,0,0
61050,-125.383897556617,4,1,0,70,0,0
61096,-127.836433320787,4,1,0,70,0,0
61237,-135.656919074002,4,1,0,70,0,0
61275,-138.36865442039,4,1,0,70,0,0
61425,-146.833456374547,4,1,0,70,0,0
61471,-149.705550081576,4,1,0,70,0,0
61612,-158.863894781732,4,1,0,70,0,0
61650,-162.039529623546,4,1,0,70,0,0
61800,-171.952414393248,4,1,0,70,0,0
61846,-175.315840273706,4,1,0,70,0,0
61987,-186.040912896258,4,1,0,70,0,0
62025,-189.759807021371,4,1,0,70,0,0
62175,-201.368499698361,4,1,0,70,0,0
62221,-205.307310477985,4,1,0,70,0,0
62362,-217.867132861288,4,1,0,70,0,0
62400,-222.222222222222,4,1,0,70,0,0
62550,-200,4,1,0,70,0,0
62596,-194.316598066102,4,1,0,70,0,0
62737,-177.882440540502,4,1,0,70,0,0
62775,-172.860295235712,4,1,0,70,0,0
62925,-158.111692272307,4,1,0,70,0,0
62971,-153.618630784146,4,1,0,70,0,0
63112,-140.626468496934,4,1,0,70,0,0
63150,-136.83502038787,4,1,0,70,0,0
63300,-124.996536166064,4,1,0,70,0,0
63346,-121.444508389181,4,1,0,70,0,0
63487,-111.173444561643,4,1,0,70,0,0
63525,-108.317660680938,4,1,0,70,0,0
63675,-98.8170693069656,4,1,0,70,0,0
63721,-96.008983692959,4,1,0,70,0,0
63862,-87.8891072769148,4,1,0,70,0,0
63900,-85.743514943277,4,1,0,70,0,0
64050,-78.1206702675711,4,1,0,70,0,0
64096,-75.9007144251906,4,1,0,70,0,0
64237,-69.4814774192769,4,1,0,70,0,0
64275,-67.8739764929372,4,1,0,70,0,0
64425,-61.7589568872631,4,1,0,70,0,0
64471,-60.0039520122202,4,1,0,70,0,0
64612,-54.92916988171,4,1,0,70,0,0
64650,-53.7285728024031,4,1,0,70,0,0
64800,-48.8240659320882,4,1,0,70,0,0
64846,-47.4366319783923,4,1,0,70,0,0
64987,-43.4247200255511,4,1,0,70,0,0
65025,-42.5311685647815,4,1,0,70,0,0
65175,-38.5982784406859,4,1,0,70,0,0
65221,-37.5014307890113,4,1,0,70,0,0
65362,-34.3297798484553,4,1,0,70,0,0
65400,-33.6673804111348,4,1,0,70,0,0
65487,-66.6666666666667,4,1,0,70,0,0
67050,-100,4,1,0,70,0,0
70050,375,4,1,0,70,1,0
70331,-111.111111111111,4,1,0,50,0,0
70706,-125,4,1,0,40,0,0
71081,-142.857142857143,4,1,0,30,0,0
71456,-166.666666666667,4,1,0,20,0,0
71831,-66.6666666666667,4,1,0,70,0,0
72956,-66.6666666666667,4,1,0,70,0,0
73143,-100,4,1,0,70,0,0
76050,-80,4,1,0,70,0,1
83550,-80,4,1,0,70,0,1
83643,-72.990556223587,4,1,0,70,0,1
83737,-66.5296366754675,4,1,0,70,0,1
83831,-60.6406196249724,4,1,0,70,0,1
83925,-55.2728818652421,4,1,0,70,0,1
84018,-50.429979892808,4,1,0,70,0,1
84112,-45.9660593562574,4,1,0,70,0,1
84206,-41.8972725595773,4,1,0,70,0,1
84300,-38.1886433711126,4,1,0,70,0,1
84393,-34.8426290135214,4,1,0,70,0,1
84487,-31.758457107614,4,1,0,70,0,1
84581,-28.9472874582671,4,1,0,70,0,1
84675,-26.3849546705671,4,1,0,70,0,1
84768,-24.0731564667353,4,1,0,70,0,1
84862,-21.9422680991439,4,1,0,70,0,1
84956,-20,4,1,0,70,0,1
85050,-100,4,1,0,70,0,1
87300,-100,4,1,0,70,0,1
87393,-85.5774485999407,4,1,0,70,0,1
87487,-73.1124520670475,4,1,0,70,0,1
87581,-62.4630756666427,4,1,0,70,0,1
87675,-53.3648607238443,4,1,0,70,0,1
87768,-45.6682862563778,4,1,0,70,0,1
87862,-39.0163582173673,4,1,0,70,0,1
87956,-33.3333333333333,4,1,0,70,0,1
88003,-80,4,1,0,70,0,1
94050,-66.6666666666667,4,1,0,70,0,0
94237,-100,4,1,0,70,0,0
95268,-100,4,1,0,30,0,0
95456,-100,4,1,0,70,0,0
95643,-100,4,1,0,30,0,0
95831,-100,4,1,0,70,0,0
100050,-80,4,1,0,70,0,1
118050,-66.6666666666667,4,1,0,70,0,0
118096,-67.9706808779342,4,1,0,70,0,0
118237,-72.1288361677359,4,1,0,70,0,0
118275,-73.5706668967918,4,1,0,70,0,0
118425,-78.0714053590196,4,1,0,70,0,0
118471,-79.5984986902465,4,1,0,70,0,0
118612,-84.4679940978844,4,1,0,70,0,0
118650,-86.1564803674926,4,1,0,70,0,0
118800,-91.4271650209854,4,1,0,70,0,0
118846,-93.2154998582345,4,1,0,70,0,0
118987,-98.9180251061882,4,1,0,70,0,0
119025,-100.895362546154,4,1,0,70,0,0
119175,-107.06770891769,4,1,0,70,0,0
119221,-109.161976127638,4,1,0,70,0,0
119362,-115.840038530684,4,1,0,70,0,0
119400,-118.155641222791,4,1,0,70,0,0
119550,-125.383897556617,4,1,0,70,0,0
119596,-127.836433320787,4,1,0,70,0,0
119737,-135.656919074002,4,1,0,70,0,0
119775,-138.36865442039,4,1,0,70,0,0
119925,-146.833456374547,4,1,0,70,0,0
119971,-149.705550081576,4,1,0,70,0,0
120112,-158.863894781732,4,1,0,70,0,0
120150,-162.039529623546,4,1,0,70,0,0
120300,-171.952414393248,4,1,0,70,0,0
120346,-175.315840273706,4,1,0,70,0,0
120487,-186.040912896258,4,1,0,70,0,0
120525,-189.759807021371,4,1,0,70,0,0
120675,-201.368499698361,4,1,0,70,0,0
120721,-205.307310477985,4,1,0,70,0,0
120862,-217.867132861288,4,1,0,70,0,0
120900,-222.222222222222,4,1,0,70,0,0
121050,-200,4,1,0,70,0,0
121096,-194.316598066102,4,1,0,70,0,0
121237,-177.882440540502,4,1,0,70,0,0
121275,-172.860295235712,4,1,0,70,0,0
121425,-158.111692272307,4,1,0,70,0,0
121471,-153.618630784146,4,1,0,70,0,0
121612,-140.626468496934,4,1,0,70,0,0
121650,-136.83502038787,4,1,0,70,0,0
121800,-124.996536166064,4,1,0,70,0,0
121846,-121.444508389181,4,1,0,70,0,0
121987,-111.173444561643,4,1,0,70,0,0
122025,-108.317660680938,4,1,0,70,0,0
122175,-98.8170693069656,4,1,0,70,0,0
122221,-96.008983692959,4,1,0,70,0,0
122362,-87.8891072769148,4,1,0,70,0,0
122400,-85.743514943277,4,1,0,70,0,0
122550,-78.1206702675711,4,1,0,70,0,0
122596,-75.9007144251906,4,1,0,70,0,0
122737,-69.4814774192769,4,1,0,70,0,0
122775,-67.8739764929372,4,1,0,70,0,0
122925,-61.7589568872631,4,1,0,70,0,0
122971,-60.0039520122202,4,1,0,70,0,0
123112,-54.92916988171,4,1,0,70,0,0
123150,-53.7285728024031,4,1,0,70,0,0
123300,-48.8240659320882,4,1,0,70,0,0
123346,-47.4366319783923,4,1,0,70,0,0
123487,-43.4247200255511,4,1,0,70,0,0
123525,-42.5311685647815,4,1,0,70,0,0
123675,-38.5982784406859,4,1,0,70,0,0
123721,-37.5014307890113,4,1,0,70,0,0
123862,-34.3297798484553,4,1,0,70,0,0
123900,-33.6673804111348,4,1,0,70,0,0
124050,-66.6666666666667,4,1,0,70,0,0
124096,-67.9706808779342,4,1,0,70,0,0
124237,-72.1288361677359,4,1,0,70,0,0
124275,-73.5706668967918,4,1,0,70,0,0
124425,-78.0714053590196,4,1,0,70,0,0
124471,-79.5984986902465,4,1,0,70,0,0
124612,-84.4679940978844,4,1,0,70,0,0
124650,-86.1564803674926,4,1,0,70,0,0
124800,-91.4271650209854,4,1,0,70,0,0
124846,-93.2154998582345,4,1,0,70,0,0
124987,-98.9180251061882,4,1,0,70,0,0
125025,-100.895362546154,4,1,0,70,0,0
125175,-107.06770891769,4,1,0,70,0,0
125221,-109.161976127638,4,1,0,70,0,0
125362,-115.840038530684,4,1,0,70,0,0
125400,-118.155641222791,4,1,0,70,0,0
125550,-125.383897556617,4,1,0,70,0,0
125596,-127.836433320787,4,1,0,70,0,0
125737,-135.656919074002,4,1,0,70,0,0
125775,-138.36865442039,4,1,0,70,0,0
125925,-146.833456374547,4,1,0,70,0,0
125971,-149.705550081576,4,1,0,70,0,0
126112,-158.863894781732,4,1,0,70,0,0
126150,-162.039529623546,4,1,0,70,0,0
126300,-171.952414393248,4,1,0,70,0,0
126346,-175.315840273706,4,1,0,70,0,0
126487,-186.040912896258,4,1,0,70,0,0
126525,-189.759807021371,4,1,0,70,0,0
126675,-201.368499698361,4,1,0,70,0,0
126721,-205.307310477985,4,1,0,70,0,0
126862,-217.867132861288,4,1,0,70,0,0
126900,-222.222222222222,4,1,0,70,0,0
127050,-200,4,1,0,70,0,0
127096,-194.316598066102,4,1,0,70,0,0
127237,-177.882440540502,4,1,0,70,0,0
127275,-172.860295235712,4,1,0,70,0,0
127425,-158.111692272307,4,1,0,70,0,0
127471,-153.618630784146,4,1,0,70,0,0
127612,-140.626468496934,4,1,0,70,0,0
127650,-136.83502038787,4,1,0,70,0,0
127800,-124.996536166064,4,1,0,70,0,0
127846,-121.444508389181,4,1,0,70,0,0
127987,-111.173444561643,4,1,0,70,0,0
128025,-108.317660680938,4,1,0,70,0,0
128175,-98.8170693069656,4,1,0,70,0,0
128221,-96.008983692959,4,1,0,70,0,0
128362,-87.8891072769148,4,1,0,70,0,0
128400,-85.743514943277,4,1,0,70,0,0
128550,-78.1206702675711,4,1,0,70,0,0
128596,-75.9007144251906,4,1,0,70,0,0
128737,-69.4814774192769,4,1,0,70,0,0
128775,-67.8739764929372,4,1,0,70,0,0
128925,-61.7589568872631,4,1,0,70,0,0
128971,-60.0039520122202,4,1,0,70,0,0
129112,-54.92916988171,4,1,0,70,0,0
129150,-53.7285728024031,4,1,0,70,0,0
129300,-48.8240659320882,4,1,0,70,0,0
129346,-47.4366319783923,4,1,0,70,0,0
129487,-43.4247200255511,4,1,0,70,0,0
129525,-42.5311685647815,4,1,0,70,0,0
129675,-38.5982784406859,4,1,0,70,0,0
129721,-37.5014307890113,4,1,0,70,0,0
129862,-34.3297798484553,4,1,0,70,0,0
129900,-33.6673804111348,4,1,0,70,0,0
129987,-66.6666666666667,4,1,0,70,0,0

[HitObjects]
448,64,1050,5,8,0:0:0:0:
448,64,1425,1,8,0:0:0:0:
448,64,1612,1,8,0:0:0:0:
448,64,1987,1,8,0:0:0:0:
448,64,2175,1,8,0:0:0:0:
64,320,2550,1,4,0:0:0:0:
64,64,2737,1,0,0:0:0:0:
64,64,2784,1,0,0:0:0:0:
448,64,2925,1,8,0:0:0:0:
64,64,3112,1,0,0:0:0:0:
448,64,3300,1,8,0:0:0:0:
448,64,3487,1,8,0:0:0:0:
64,64,3675,1,0,0:0:0:0:
448,64,3862,1,8,0:0:0:0:
64,64,4050,1,0,0:0:0:0:
64,64,4237,1,0,0:0:0:0:
448,64,4425,1,8,0:0:0:0:
64,64,4612,1,0,0:0:0:0:
64,64,4800,1,0,0:0:0:0:
448,64,4987,1,8,0:0:0:0:
448,64,5175,1,8,0:0:0:0:
448,64,5362,1,8,0:0:0:0:
64,64,5550,1,0,0:0:0:0:
256,192,5925,12,0,6112,0:0:0:0:
256,192,6300,12,0,6487,0:0:0:0:
256,192,6675,12,0,6862,0:0:0:0:
256,192,7050,12,0,7237,0:0:0:0:
448,64,7425,5,8,0:0:0:0:
448,64,7612,1,8,0:0:0:0:
448,64,7987,1,8,0:0:0:0:
448,64,8175,1,8,0:0:0:0:
64,320,8550,1,4,0:0:0:0:
448,64,8737,1,8,0:0:0:0:
64,64,8925,1,0,0:0:0:0:
448,64,9112,1,8,0:0:0:0:
64,64,9300,1,0,0:0:0:0:
64,64,9487,1,0,0:0:0:0:
448,64,9675,1,8,0:0:0:0:
64,64,9862,1,0,0:0:0:0:
448,64,10050,1,8,0:0:0:0:
448,64,10096,1,8,0:0:0:0:
64,64,10237,1,0,0:0:0:0:
448,64,10425,1,8,0:0:0:0:
64,64,10612,1,0,0:0:0:0:
64,64,10800,1,0,0:0:0:0:
64,64,10987,1,0,0:0:0:0:
448,64,11175,1,8,0:0:0:0:
448,64,11362,1,8,0:0:0:0:
64,64,11550,5,0,0:0:0:0:
448,64,11775,1,8,0:0:0:0:
64,64,11925,1,0,0:0:0:0:
448,64,12065,1,8,0:0:0:0:
64,64,12182,1,0,0:0:0:0:
448,64,12300,1,8,0:0:0:0:
448,64,12425,1,8,0:0:0:0:
64,64,12550,1,0,0:0:0:0:
448,64,12675,1,8,0:0:0:0:
64,64,12800,1,0,0:0:0:0:
448,64,12889,1,8,0:0:0:0:
448,64,13050,1,0,0:0:0:0:
64,64,13125,1,0,0:0:0:0:
64,64,13200,1,0,0:0:0:0:
448,64,13275,1,8,0:0:0:0:
64,64,13425,1,0,0:0:0:0:
448,64,13565,1,8,0:0:0:0:
64,64,13682,1,0,0:0:0:0:
448,64,13800,1,8,0:0:0:0:
448,64,13925,1,8,0:0:0:0:
64,64,14050,1,0,0:0:0:0:
448,64,14175,1,8,0:0:0:0:
64,64,14237,1,0,0:0:0:0:
64,64,14300,1,0,0:0:0:0:
448,64,14425,1,8,0:0:0:0:
64,64,14550,1,0,0:0:0:0:
448,64,14775,1,8,0:0:0:0:
64,64,14925,1,0,0:0:0:0:
448,64,15065,1,8,0:0:0:0:
64,64,15182,1,0,0:0:0:0:
448,64,15300,1,0,0:0:0:0:
448,64,15425,1,8,0:0:0:0:
64,64,15550,1,0,0:0:0:0:
448,64,15675,1,8,0:0:0:0:
64,64,15800,1,0,0:0:0:0:
64,64,15862,1,0,0:0:0:0:
64,64,15925,1,0,0:0:0:0:
448,64,16050,1,8,0:0:0:0:
64,64,16125,1,0,0:0:0:0:
64,64,16200,1,0,0:0:0:0:
448,64,16275,1,8,0:0:0:0:
64,64,16425,1,0,0:0:0:0:
448,64,16565,1,8,0:0:0:0:
64,64,16682,1,0,0:0:0:0:
64,64,16800,1,0,0:0:0:0:
448,64,16925,1,8,0:0:0:0:
64,64,17050,1,0,0:0:0:0:
448,64,17175,1,8,0:0:0:0:
64,64,17550,1,0,0:0:0:0:
448,64,17737,1,8,0:0:0:0:
448,64,17831,1,8,0:0:0:0:
64,64,17925,1,0,0:0:0:0:
448,64,18112,1,8,0:0:0:0:
448,64,18206,1,8,0:0:0:0:
64,64,18300,1,0,0:0:0:0:
64,64,18487,1,0,0:0:0:0:
448,64,18675,1,8,0:0:0:0:
64,64,18862,1,0,0:0:0:0:
64,64,18956,1,0,0:0:0:0:
448,64,19050,1,8,0:0:0:0:
64,64,19143,1,0,0:0:0:0:
448,64,19237,1,8,0:0:0:0:
64,64,19331,1,0,0:0:0:0:
448,64,19425,1,8,0:0:0:0:
64,64,19518,1,0,0:0:0:0:
448,64,19612,1,8,0:0:0:0:
64,64,19706,1,0,0:0:0:0:
448,64,19800,1,8,0:0:0:0:
64,64,19893,1,0,0:0:0:0:
448,64,19987,1,8,0:0:0:0:
64,64,20081,1,0,0:0:0:0:
448,64,20175,1,8,0:0:0:0:
64,64,20268,1,0,0:0:0:0:
448,64,20362,1,8,0:0:0:0:
64,64,20456,1,0,0:0:0:0:
448,320,20550,1,12,0:0:0:0:
64,64,20925,1,0,0:0:0:0:
448,64,21112,1,8,0:0:0:0:
448,64,21206,1,8,0:0:0:0:
64,64,21300,1,0,0:0:0:0:
448,64,21487,1,8,0:0:0:0:
64,64,21675,1,0,0:0:0:0:
64,64,21862,1,0,0:0:0:0:
64,64,21956,1,0,0:0:0:0:
448,64,22050,1,8,0:0:0:0:
448,64,22143,1,8,0:0:0:0:
64,64,22237,1,0,0:0:0:0:
448,64,22425,1,8,0:0:0:0:
64,64,22612,1,0,0:0:0:0:
64,64,22706,1,0,0:0:0:0:
448,64,22800,1,8,0:0:0:0:
64,64,22893,1,0,0:0:0:0:
448,64,22987,1,8,0:0:0:0:
64,64,23081,1,0,0:0:0:0:
448,64,23175,1,8,0:0:0:0:
64,64,23268,1,0,0:0:0:0:
448,64,23362,1,8,0:0:0:0:
64,64,23456,1,0,0:0:0:0:
448,320,23550,1,12,0:0:0:0:
448,64,23775,1,8,0:0:0:0:
64,64,23925,1,0,0:0:0:0:
448,64,24065,1,8,0:0:0:0:
64,64,24182,1,0,0:0:0:0:
448,64,24300,1,8,0:0:0:0:
448,64,24425,1,8,0:0:0:0:
64,64,24550,1,0,0:0:0:0:
448,64,24675,1,8,0:0:0:0:
64,64,24800,1,0,0:0:0:0:
448,64,24889,1,8,0:0:0:0:
448,64,25050,1,0,0:0:0:0:
64,64,25125,1,0,0:0:0:0:
64,64,25200,1,0,0:0:0:0:
448,64,25275,1,8,0:0:0:0:
64,64,25425,1,0,0:0:0:0:
448,64,25565,1,8,0:0:0:0:
64,64,25682,1,0,0:0:0:0:
448,64,25800,1,8,0:0:0:0:
448,64,25925,1,8,0:0:0:0:
64,64,26050,1,0,0:0:0:0:
448,64,26175,1,8,0:0:0:0:
64,64,26237,1,0,0:0:0:0:
64,64,26300,1,0,0:0:0:0:
448,64,26425,1,8,0:0:0:0:
64,64,26550,1,0,0:0:0:0:
448,64,26775,1,8,0:0:0:0:
64,64,26925,1,0,0:0:0:0:
448,64,27065,1,8,0:0:0:0:
64,64,27182,1,0,0:0:0:0:
448,64,27300,1,0,0:0:0:0:
448,64,27425,1,8,0:0:0:0:
64,64,27550,1,0,0:0:0:0:
448,64,27675,1,8,0:0:0:0:
64,64,27800,1,0,0:0:0:0:
64,64,27862,1,0,0:0:0:0:
64,64,27925,1,0,0:0:0:0:
448,64,28050,1,8,0:0:0:0:
64,64,28125,1,0,0:0:0:0:
64,64,28200,1,0,0:0:0:0:
448,64,28275,1,8,0:0:0:0:
64,64,28425,1,0,0:0:0:0:
448,64,28565,1,8,0:0:0:0:
64,64,28682,1,0,0:0:0:0:
64,64,28800,1,0,0:0:0:0:
448,64,28925,1,8,0:0:0:0:
64,64,29050,1,0,0:0:0:0:
448,64,29175,1,8,0:0:0:0:
64,320,29550,1,4,0:0:0:0:
448,64,29925,1,8,0:0:0:0:
448,64,30300,1,8,0:0:0:0:
448,64,30675,1,8,0:0:0:0:
64,64,30862,1,0,0:0:0:0:
448,64,31050,1,8,0:0:0:0:
64,64,31237,1,0,0:0:0:0:
448,64,31425,1,8,0:0:0:0:
64,64,31612,1,0,0:0:0:0:
448,64,31800,1,8,0:0:0:0:
448,64,31987,1,8,0:0:0:0:
448,64,32175,1,8,0:0:0:0:
64,64,32362,1,0,0:0:0:0:
64,64,32550,1,0,0:0:0:0:
64,64,32737,1,0,0:0:0:0:
448,64,32925,1,8,0:0:0:0:
64,64,33112,1,0,0:0:0:0:
448,64,33300,1,8,0:0:0:0:
448,64,33487,1,8,0:0:0:0:
64,64,33675,1,0,0:0:0:0:
64,64,33862,1,0,0:0:0:0:
448,64,34050,1,8,0:0:0:0:
64,64,34237,1,0,0:0:0:0:
448,64,34425,1,8,0:0:0:0:
448,64,34612,1,8,0:0:0:0:
64,64,34800,1,0,0:0:0:0:
448,64,34987,1,8,0:0:0:0:
448,64,35175,1,8,0:0:0:0:
448,64,35362,1,8,0:0:0:0:
64,64,35550,1,0,0:0:0:0:
448,64,35775,1,8,0:0:0:0:
64,64,35925,1,0,0:0:0:0:
448,64,36065,1,8,0:0:0:0:
64,64,36182,1,0,0:0:0:0:
448,64,36300,1,0,0:0:0:0:
448,64,36425,1,8,0:0:0:0:
64,64,36550,1,0,0:0:0:0:
448,64,36675,1,8,0:0:0:0:
64,64,36800,1,0,0:0:0:0:
448,64,36889,1,8,0:0:0:0:
448,64,37050,1,0,0:0:0:0:
448,64,37275,1,8,0:0:0:0:
64,64,37425,1,0,0:0:0:0:
448,64,37565,1,8,0:0:0:0:
64,64,37682,1,0,0:0:0:0:
448,64,37800,1,8,0:0:0:0:
448,64,37925,1,8,0:0:0:0:
64,64,38050,1,0,0:0:0:0:
448,64,38175,1,8,0:0:0:0:
448,64,38425,1,0,0:0:0:0:
64,64,38550,1,0,0:0:0:0:
448,64,38775,1,8,0:0:0:0:
64,64,38925,1,0,0:0:0:0:
448,64,39065,1,8,0:0:0:0:
64,64,39182,1,0,0:0:0:0:
448,64,39300,1,8,0:0:0:0:
448,64,39425,1,8,0:0:0:0:
64,64,39550,1,0,0:0:0:0:
448,64,39675,1,8,0:0:0:0:
64,64,39800,1,0,0:0:0:0:
64,64,39925,1,0,0:0:0:0:
448,64,40050,1,8,0:0:0:0:
448,64,40275,1,8,0:0:0:0:
64,64,40425,1,0,0:0:0:0:
448,64,40565,1,8,0:0:0:0:
64,64,40682,1,0,0:0:0:0:
64,64,40800,1,0,0:0:0:0:
448,64,40925,1,8,0:0:0:0:
64,64,41050,1,0,0:0:0:0:
448,64,41175,1,8,0:0:0:0:
64,64,41550,1,0,0:0:0:0:
448,64,41775,1,8,0:0:0:0:
64,64,41925,1,0,0:0:0:0:
448,64,42065,1,8,0:0:0:0:
64,64,42182,1,0,0:0:0:0:
448,64,42300,1,0,0:0:0:0:
448,64,42425,1,8,0:0:0:0:
64,64,42550,1,0,0:0:0:0:
448,64,42675,1,8,0:0:0:0:
64,64,42800,1,0,0:0:0:0:
448,64,42889,1,8,0:0:0:0:
448,64,43050,1,0,0:0:0:0:
448,64,43275,1,8,0:0:0:0:
64,64,43425,1,0,0:0:0:0:
448,64,43565,1,8,0:0:0:0:
64,64,43682,1,0,0:0:0:0:
448,64,43800,1,8,0:0:0:0:
448,64,43925,1,8,0:0:0:0:
64,64,44050,1,0,0:0:0:0:
448,64,44175,1,8,0:0:0:0:
448,64,44425,1,0,0:0:0:0:
64,64,44550,1,0,0:0:0:0:
448,64,44775,1,8,0:0:0:0:
64,64,44925,1,0,0:0:0:0:
448,64,45065,1,8,0:0:0:0:
64,64,45182,1,0,0:0:0:0:
448,64,45300,1,8,0:0:0:0:
448,64,45425,1,8,0:0:0:0:
64,64,45550,1,0,0:0:0:0:
448,64,45675,1,8,0:0:0:0:
64,64,45800,1,0,0:0:0:0:
64,64,45925,1,0,0:0:0:0:
448,64,46050,1,8,0:0:0:0:
448,64,46275,1,8,0:0:0:0:
64,64,46425,1,0,0:0:0:0:
448,64,46565,1,8,0:0:0:0:
64,64,46682,1,0,0:0:0:0:
64,64,46800,1,0,0:0:0:0:
448,64,46925,1,8,0:0:0:0:
64,64,47050,1,0,0:0:0:0:
448,64,47175,1,8,0:0:0:0:
64,64,47550,1,0,0:0:0:0:
448,64,47775,1,8,0:0:0:0:
64,64,47925,1,0,0:0:0:0:
448,64,48065,1,8,0:0:0:0:
64,64,48182,1,0,0:0:0:0:
448,64,48300,1,0,0:0:0:0:
448,64,48425,1,8,0:0:0:0:
64,64,48550,1,0,0:0:0:0:
448,64,48675,1,8,0:0:0:0:
64,64,48800,1,0,0:0:0:0:
448,64,48889,1,8,0:0:0:0:
448,64,49050,1,0,0:0:0:0:
448,64,49275,1,8,0:0:0:0:
64,64,49425,1,0,0:0:0:0:
448,64,49565,1,8,0:0:0:0:
64,64,49682,1,0,0:0:0:0:
448,64,49800,1,8,0:0:0:0:
448,64,49925,1,8,0:0:0:0:
64,64,50050,1,0,0:0:0:0:
448,64,50175,1,8,0:0:0:0:
448,64,50425,1,0,0:0:0:0:
64,64,50550,1,0,0:0:0:0:
448,64,50775,1,8,0:0:0:0:
64,64,50925,1,0,0:0:0:0:
448,64,51065,1,8,0:0:0:0:
64,64,51182,1,0,0:0:0:0:
448,64,51300,1,8,0:0:0:0:
448,64,51425,1,8,0:0:0:0:
64,64,51550,1,0,0:0:0:0:
448,64,51675,1,8,0:0:0:0:
64,64,51800,1,0,0:0:0:0:
64,64,51925,1,0,0:0:0:0:
448,64,52050,1,8,0:0:0:0:
448,64,52275,1,8,0:0:0:0:
64,64,52425,1,0,0:0:0:0:
448,64,52565,1,8,0:0:0:0:
64,64,52682,1,0,0:0:0:0:
64,64,52800,1,0,0:0:0:0:
448,64,52925,1,8,0:0:0:0:
64,64,53050,5,0,0:0:0:0:
448,64,53175,1,8,0:0:0:0:
448,64,53550,5,8,0:0:0:0:
64,64,53737,1,0,0:0:0:0:
64,64,53784,1,0,0:0:0:0:
448,64,53925,1,8,0:0:0:0:
64,64,54112,1,0,0:0:0:0:
64,64,54159,1,0,0:0:0:0:
448,64,54300,1,8,0:0:0:0:
64,64,54487,1,0,0:0:0:0:
64,64,54534,1,0,0:0:0:0:
448,64,54675,1,8,0:0:0:0:
64,64,54862,1,0,0:0:0:0:
64,64,54909,1,0,0:0:0:0:
448,64,55050,1,8,0:0:0:0:
64,64,55237,1,0,0:0:0:0:
64,64,55284,1,0,0:0:0:0:
448,64,55425,1,8,0:0:0:0:
64,64,55612,1,0,0:0:0:0:
64,64,55659,1,0,0:0:0:0:
448,64,55800,1,8,0:0:0:0:
64,64,55987,1,0,0:0:0:0:
64,64,56034,1,0,0:0:0:0:
448,64,56175,1,8,0:0:0:0:
64,64,56362,1,0,0:0:0:0:
64,64,56409,1,0,0:0:0:0:
448,64,56550,1,8,0:0:0:0:
448,64,56596,1,8,0:0:0:0:
64,64,56737,1,0,0:0:0:0:
448,64,56925,1,8,0:0:0:0:
448,64,56971,1,8,0:0:0:0:
64,64,57112,1,0,0:0:0:0:
448,64,57300,1,8,0:0:0:0:
448,64,57346,1,8,0:0:0:0:
64,64,57487,1,0,0:0:0:0:
448,64,57675,1,8,0:0:0:0:
448,64,57721,1,8,0:0:0:0:
64,64,57862,1,0,0:0:0:0:
448,64,58050,1,8,0:0:0:0:
448,64,58096,1,8,0:0:0:0:
64,64,58237,1,0,0:0:0:0:
448,64,58425,1,8,0:0:0:0:
448,64,58471,1,8,0:0:0:0:
64,64,58612,1,0,0:0:0:0:
448,64,58800,1,8,0:0:0:0:
448,64,58846,1,8,0:0:0:0:
64,64,58987,1,0,0:0:0:0:
448,64,59175,1,8,0:0:0:0:
448,64,59221,1,8,0:0:0:0:
64,64,59362,1,0,0:0:0:0:
448,64,59550,1,8,0:0:0:0:
64,64,59737,1,0,0:0:0:0:
64,64,59784,1,0,0:0:0:0:
448,64,59925,1,8,0:0:0:0:
64,64,60112,1,0,0:0:0:0:
64,64,60159,1,0,0:0:0:0:
448,64,60300,1,8,0:0:0:0:
64,64,60487,1,0,0:0:0:0:
64,64,60534,1,0,0:0:0:0:
448,64,60675,1,8,0:0:0:0:
64,64,60862,1,0,0:0:0:0:
64,64,60909,1,0,0:0:0:0:
448,64,61050,1,8,0:0:0:0:
64,64,61237,1,0,0:0:0:0:
64,64,61284,1,0,0:0:0:0:
448,64,61425,1,8,0:0:0:0:
64,64,61612,1,0,0:0:0:0:
64,64,61659,1,0,0:0:0:0:
448,64,61800,1,8,0:0:0:0:
64,64,61987,1,0,0:0:0:0:
64,64,62034,1,0,0:0:0:0:
448,64,62175,1,8,0:0:0:0:
64,64,62362,1,0,0:0:0:0:
64,64,62409,1,0,0:0:0:0:
448,64,62550,1,8,0:0:0:0:
448,64,62596,1,8,0:0:0:0:
64,64,62737,1,0,0:0:0:0:
448,64,62925,1,8,0:0:0:0:
448,64,62971,1,8,0:0:0:0:
64,64,63112,1,0,0:0:0:0:
448,64,63300,1,8,0:0:0:0:
448,64,63346,1,8,0:0:0:0:
64,64,63487,1,0,0:0:0:0:
448,64,63675,1,8,0:0:0:0:
448,64,63721,1,8,0:0:0:0:
64,64,63862,1,0,0:0:0:0:
448,64,64050,1,8,0:0:0:0:
448,64,64096,1,8,0:0:0:0:
64,64,64237,1,0,0:0:0:0:
448,64,64425,1,8,0:0:0:0:
448,64,64471,1,8,0:0:0:0:
64,64,64612,1,0,0:0:0:0:
448,64,64800,1,8,0:0:0:0:
448,64,64846,1,8,0:0:0:0:
64,64,64987,1,0,0:0:0:0:
448,64,65175,1,8,0:0:0:0:
448,64,65221,1,8,0:0:0:0:
64,64,65362,1,0,0:0:0:0:
448,64,65550,5,8,0:0:0:0:
448,64,65925,1,8,0:0:0:0:
448,64,66112,1,8,0:0:0:0:
448,64,66487,1,8,0:0:0:0:
448,64,66675,1,8,0:0:0:0:
64,320,67050,1,4,0:0:0:0:
64,64,67237,1,0,0:0:0:0:
64,64,67284,1,0,0:0:0:0:
448,64,67425,1,8,0:0:0:0:
64,64,67612,1,0,0:0:0:0:
448,64,67800,1,8,0:0:0:0:
448,64,67987,1,8,0:0:0:0:
64,64,68175,1,0,0:0:0:0:
448,64,68362,1,8,0:0:0:0:
64,64,68550,1,0,0:0:0:0:
64,64,68737,1,0,0:0:0:0:
448,64,68925,1,8,0:0:0:0:
64,64,69112,1,0,0:0:0:0:
64,64,69300,1,0,0:0:0:0:
448,64,69487,1,8,0:0:0:0:
448,64,69675,1,8,0:0:0:0:
448,64,69862,1,8,0:0:0:0:
64,64,70050,1,0,0:0:0:0:
256,192,70425,12,0,70612,0:0:0:0:
256,192,70800,12,0,70987,0:0:0:0:
256,192,71175,12,0,71362,0:0:0:0:
256,192,71550,12,0,71737,0:0:0:0:
448,64,71925,5,8,0:0:0:0:
448,64,72112,1,8,0:0:0:0:
448,64,72487,1,8,0:0:0:0:
448,64,72675,1,8,0:0:0:0:
64,320,73050,1,4,0:0:0:0:
448,64,73237,1,8,0:0:0:0:
64,64,73425,1,0,0:0:0:0:
448,64,73612,1,8,0:0:0:0:
64,64,73800,1,0,0:0:0:0:
64,64,73987,1,0,0:0:0:0:
448,64,74175,1,8,0:0:0:0:
64,64,74362,1,0,0:0:0:0:
448,64,74550,1,8,0:0:0:0:
448,64,74596,1,8,0:0:0:0:
64,64,74737,1,0,0:0:0:0:
448,64,74925,1,8,0:0:0:0:
64,64,75112,1,0,0:0:0:0:
64,64,75300,1,0,0:0:0:0:
64,64,75487,1,0,0:0:0:0:
448,64,75675,1,8,0:0:0:0:
448,64,75862,1,8,0:0:0:0:
64,64,76050,5,0,0:0:0:0:
448,64,76275,1,8,0:0:0:0:
64,64,76425,1,0,0:0:0:0:
448,64,76565,1,8,0:0:0:0:
64,64,76682,1,0,0:0:0:0:
448,64,76800,1,8,0:0:0:0:
448,64,76925,1,8,0:0:0:0:
64,64,77050,1,0,0:0:0:0:
448,64,77175,1,8,0:0:0:0:
64,64,77300,1,0,0:0:0:0:
448,64,77389,1,8,0:0:0:0:
448,64,77550,1,0,0:0:0:0:
64,64,77625,1,0,0:0:0:0:
64,64,77700,1,0,0:0:0:0:
448,64,77775,1,8,0:0:0:0:
64,64,77925,1,0,0:0:0:0:
448,64,78065,1,8,0:0:0:0:
64,64,78182,1,0,0:0:0:0:
448,64,78300,1,8,0:0:0:0:
448,64,78425,1,8,0:0:0:0:
64,64,78550,1,0,0:0:0:0:
448,64,78675,1,8,0:0:0:0:
64,64,78737,1,0,0:0:0:0:
64,64,78800,1,0,0:0:0:0:
448,64,78925,1,8,0:0:0:0:
64,64,79050,1,0,0:0:0:0:
448,64,79275,1,8,0:0:0:0:
64,64,79425,1,0,0:0:0:0:
448,64,79565,1,8,0:0:0:0:
64,64,79682,1,0,0:0:0:0:
448,64,79800,1,0,0:0:0:0:
448,64,79925,1,8,0:0:0:0:
64,64,80050,1,0,0:0:0:0:
448,64,80175,1,8,0:0:0:0:
64,64,80300,1,0,0:0:0:0:
64,64,80362,1,0,0:0:0:0:
64,64,80425,1,0,0:0:0:0:
448,64,80550,1,8,0:0:0:0:
64,64,80625,1,0,0:0:0:0:
64,64,80700,1,0,0:0:0:0:
448,64,80775,1,8,0:0:0:0:
64,64,80925,1,0,0:0:0:0:
448,64,81065,1,8,0:0:0:0:
64,64,81182,1,0,0:0:0:0:
64,64,81300,1,0,0:0:0:0:
448,64,81425,1,8,0:0:0:0:
64,64,81550,1,0,0:0:0:0:
448,64,81675,1,8,0:0:0:0:
64,64,82050,1,0,0:0:0:0:
448,64,82237,1,8,0:0:0:0:
448,64,82331,1,8,0:0:0:0:
64,64,82425,1,0,0:0:0:0:
448,64,82612,1,8,0:0:0:0:
448,64,82706,1,8,0:0:0:0:
64,64,82800,1,0,0:0:0:0:
64,64,82987,1,0,0:0:0:0:
448,64,83175,1,8,0:0:0:0:
64,64,83362,1,0,0:0:0:0:
64,64,83456,1,0,0:0:0:0:
448,64,83550,1,8,0:0:0:0:
64,64,83643,1,0,0:0:0:0:
448,64,83737,1,8,0:0:0:0:
64,64,83831,1,0,0:0:0:0:
448,64,83925,1,8,0:0:0:0:
64,64,84018,1,0,0:0:0:0:
448,64,84112,1,8,0:0:0:0:
64,64,84206,1,0,0:0:0:0:
448,64,84300,1,8,0:0:0:0:
64,64,84393,1,0,0:0:0:0:
448,64,84487,1,8,0:0:0:0:
64,64,84581,1,0,0:0:0:0:
448,64,84675,1,8,0:0:0:0:
64,64,84768,1,0,0:0:0:0:
448,64,84862,1,8,0:0:0:0:
64,64,84956,1,0,0:0:0:0:
448,320,85050,1,12,0:0:0:0:
64,64,85425,1,0,0:0:0:0:
448,64,85612,1,8,0:0:0:0:
448,64,85706,1,8,0:0:0:0:
64,64,85800,1,0,0:0:0:0:
448,64,85987,1,8,0:0:0:0:
64,64,86175,1,0,0:0:0:0:
64,64,86362,1,0,0:0:0:0:
64,64,86456,1,0,0:0:0:0:
448,64,86550,1,8,0:0:0:0:
448,64,86643,1,8,0:0:0:0:
64,64,86737,1,0,0:0:0:0:
448,64,86925,1,8,0:0:0:0:
64,64,87112,1,0,0:0:0:0:
64,64,87206,1,0,0:0:0:0:
448,64,87300,1,8,0:0:0:0:
64,64,87393,1,0,0:0:0:0:
448,64,87487,1,8,0:0:0:0:
64,64,87581,1,0,0:0:0:0:
448,64,87675,1,8,0:0:0:0:
64,64,87768,1,0,0:0:0:0:
448,64,87862,1,8,0:0:0:0:
64,64,87956,1,0,0:0:0:0:
448,320,88050,1,12,0:0:0:0:
448,64,88275,1,8,0:0:0:0:
64,64,88425,1,0,0:0:0:0:
448,64,88565,1,8,0:0:0:0:
64,64,88682,1,0,0:0:0:0:
448,64,88800,1,8,0:0:0:0:
448,64,88925,1,8,0:0:0:0:
64,64,89050,1,0,0:0:0:0:
448,64,89175,1,8,0:0:0:0:
64,64,89300,1,0,0:0:0:0:
448,64,89389,1,8,0:0:0:0:
448,64,89550,1,0,0:0:0:0:
64,64,89625,1,0,0:0:0:0:
64,64,89700,1,0,0:0:0:0:
448,64,89775,1,8,0:0:0:0:
64,64,89925,1,0,0:0:0:0:
448,64,90065,1,8,0:0:0:0:
64,64,90182,1,0,0:0:0:0:
448,64,90300,1,8,0:0:0:0:
448,64,90425,1,8,0:0:0:0:
64,64,90550,1,0,0:0:0:0:
448,64,90675,1,8,0:0:0:0:
64,64,90737,1,0,0:0:0:0:
64,64,90800,1,0,0:0:0:0:
448,64,90925,1,8,0:0:0:0:
64,64,91050,1,0,0:0:0:0:
448,64,91275,1,8,0:0:0:0:
64,64,91425,1,0,0:0:0:0:
448,64,91565,1,8,0:0:0:0:
64,64,91682,1,0,0:0:0:0:
448,64,91800,1,0,0:0:0:0:
448,64,91925,1,8,0:0:0:0:
64,64,92050,1,0,0:0:0:0:
448,64,92175,1,8,0:0:0:0:
64,64,92300,1,0,0:0:0:0:
64,64,92362,1,0,0:0:0:0:
64,64,92425,1,0,0:0:0:0:
448,64,92550,1,8,0:0:0:0:
64,64,92625,1,0,0:0:0:0:
64,64,92700,1,0,0:0:0:0:
448,64,92775,1,8,0:0:0:0:
64,64,92925,1,0,0:0:0:0:
448,64,93065,1,8,0:0:0:0:
64,64,93182,1,0,0:0:0:0:
64,64,93300,1,0,0:0:0:0:
448,64,93425,1,8,0:0:0:0:
64,64,93550,1,0,0:0:0:0:
448,64,93675,1,8,0:0:0:0:
64,320,94050,1,4,0:0:0:0:
448,64,94425,1,8,0:0:0:0:
448,64,94800,1,8,0:0:0:0:
448,64,95175,1,8,0:0:0:0:
64,64,95362,1,0,0:0:0:0:
448,64,95550,1,8,0:0:0:0:
64,64,95737,1,0,0:0:0:0:
448,64,95925,1,8,0:0:0:0:
64,64,96112,1,0,0:0:0:0:
448,64,96300,1,8,0:0:0:0:
448,64,96487,1,8,0:0:0:0:
448,64,96675,1,8,0:0:0:0:
64,64,96862,1,0,0:0:0:0:
64,64,97050,1,0,0:0:0:0:
64,64,97237,1,0,0:0:0:0:
448,64,97425,1,8,0:0:0:0:
64,64,97612,1,0,0:0:0:0:
448,64,97800,1,8,0:0:0:0:
448,64,97987,1,8,0:0:0:0:
64,64,98175,1,0,0:0:0:0:
64,64,98362,1,0,0:0:0:0:
448,64,98550,1,8,0:0:0:0:
64,64,98737,1,0,0:0:0:0:
448,64,98925,1,8,0:0:0:0:
448,64,99112,1,8,0:0:0:0:
64,64,99300,1,0,0:0:0:0:
448,64,99487,1,8,0:0:0:0:
448,64,99675,1,8,0:0:0:0:
448,64,99862,1,8,0:0:0:0:
64,64,100050,1,0,0:0:0:0:
448,64,100275,1,8,0:0:0:0:
64,64,100425,1,0,0:0:0:0:
448,64,100565,1,8,0:0:0:0:
64,64,100682,1,0,0:0:0:0:
448,64,100800,1,0,0:0:0:0:
448,64,100925,1,8,0:0:0:0:
64,64,101050,1,0,0:0:0:0:
448,64,101175,1,8,0:0:0:0:
64,64,101300,1,0,0:0:0:0:
448,64,101389,1,8,0:0:0:0:
448,64,101550,1,0,0:0:0:0:
448,64,101775,1,8,0:0:0:0:
64,64,101925,1,0,0:0:0:0:
448,64,102065,1,8,0:0:0:0:
64,64,102182,1,0,0:0:0:0:
448,64,102300,1,8,0:0:0:0:
448,64,102425,1,8,0:0:0:0:
64,64,102550,1,0,0:0:0:0:
448,64,102675,1,8,0:0:0:0:
448,64,102925,1,0,0:0:0:0:
64,64,103050,1,0,0:0:0:0:
448,64,103275,1,8,0:0:0:0:
64,64,103425,1,0,0:0:0:0:
448,64,103565,1,8,0:0:0:0:
64,64,103682,1,0,0:0:0:0:
448,64,103800,1,8,0:0:0:0:
448,64,103925,1,8,0:0:0:0:
64,64,104050,1,0,0:0:0:0:
448,64,104175,1,8,0:0:0:0:
64,64,104300,1,0,0:0:0:0:
64,64,104425,1,0,0:0:0:0:
448,64,104550,1,8,0:0:0:0:
448,64,104775,1,8,0:0:0:0:
64,64,104925,1,0,0:0:0:0:
448,64,105065,1,8,0:0:0:0:
64,64,105182,1,0,0:0:0:0:
64,64,105300,1,0,0:0:0:0:
448,64,105425,1,8,0:0:0:0:
64,64,105550,1,0,0:0:0:0:
448,64,105675,1,8,0:0:0:0:
64,64,106050,1,0,0:0:0:0:
448,64,106275,1,8,0:0:0:0:
64,64,106425,1,0,0:0:0:0:
448,64,106565,1,8,0:0:0:0:
64,64,106682,1,0,0:0:0:0:
448,64,106800,1,0,0:0:0:0:
448,64,106925,1,8,0:0:0:0:
64,64,107050,1,0,0:0:0:0:
448,64,107175,1,8,0:0:0:0:
64,64,107300,1,0,0:0:0:0:
448,64,107389,1,8,0:0:0:0:
448,64,107550,1,0,0:0:0:0:
448,64,107775,1,8,0:0:0:0:
64,64,107925,1,0,0:0:0:0:
448,64,108065,1,8,0:0:0:0:
64,64,108182,1,0,0:0:0:0:
448,64,108300,1,8,0:0:0:0:
448,64,108425,1,8,0:0:0:0:
64,64,108550,1,0,0:0:0:0:
448,64,108675,1,8,0:0:0:0:
448,64,108925,1,0,0:0:0:0:
64,64,109050,1,0,0:0:0:0:
448,64,109275,1,8,0:0:0:0:
64,64,109425,1,0,0:0:0:0:
448,64,109565,1,8,0:0:0:0:
64,64,109682,1,0,0:0:0:0:
448,64,109800,1,8,0:0:0:0:
448,64,109925,1,8,0:0:0:0:
64,64,110050,1,0,0:0:0:0:
448,64,110175,1,8,0:0:0:0:
64,64,110300,1,0,0:0:0:0:
64,64,110425,1,0,0:0:0:0:
448,64,110550,1,8,0:0:0:0:
448,64,110775,1,8,0:0:0:0:
64,64,110925,1,0,0:0:0:0:
448,64,111065,1,8,0:0:0:0:
64,64,111182,1,0,0:0:0:0:
64,64,111300,1,0,0:0:0:0:
448,64,111425,1,8,0:0:0:0:
64,64,111550,1,0,0:0:0:0:
448,64,111675,1,8,0:0:0:0:
64,64,112050,1,0,0:0:0:0:
448,64,112275,1,8,0:0:0:0:
64,64,112425,1,0,0:0:0:0:
448,64,112565,1,8,0:0:0:0:
64,64,112682,1,0,0:0:0:0:
448,64,112800,1,0,0:0:0:0:
448,64,112925,1,8,0:0:0:0:
64,64,113050,1,0,0:0:0:0:
448,64,113175,1,8,0:0:0:0:
64,64,113300,1,0,0:0:0:0:
448,64,113389,1,8,0:0:0:0:
448,64,113550,1,0,0:0:0:0:
448,64,113775,1,8,0:0:0:0:
64,64,113925,1,0,0:0:0:0:
448,64,114065,1,8,0:0:0:0:
64,64,114182,1,0,0:0:0:0:
448,64,114300,1,8,0:0:0:0:
448,64,114425,1,8,0:0:0:0:
64,64,114550,1,0,0:0:0:0:
448,64,114675,1,8,0:0:0:0:
448,64,114925,1,0,0:0:0:0:
64,64,115050,1,0,0:0:0:0:
448,64,115275,1,8,0:0:0:0:
64,64,115425,1,0,0:0:0:0:
448,64,115565,1,8,0:0:0:0:
64,64,115682,1,0,0:0:0:0:
448,64,115800,1,8,0:0:0:0:
448,64,115925,1,8,0:0:0:0:
64,64,116050,1,0,0:0:0:0:
448,64,116175,1,8,0:0:0:0:
64,64,116300,1,0,0:0:0:0:
64,64,116425,1,0,0:0:0:0:
448,64,116550,1,8,0:0:0:0:
448,64,116775,1,8,0:0:0:0:
64,64,116925,1,0,0:0:0:0:
448,64,117065,1,8,0:0:0:0:
64,64,117182,1,0,0:0:0:0:
64,64,117300,1,0,0:0:0:0:
448,64,117425,1,8,0:0:0:0:
64,64,117550,5,0,0:0:0:0:
448,64,117675,1,8,0:0:0:0:
448,64,118050,5,8,0:0:0:0:
64,64,118237,1,0,0:0:0:0:
64,64,118284,1,0,0:0:0:0:
448,64,118425,1,8,0:0:0:0:
64,64,118612,1,0,0:0:0:0:
64,64,118659,1,0,0:0:0:0:
448,64,118800,1,8,0:0:0:0:
64,64,118987,1,0,0:0:0:0:
64,64,119034,1,0,0:0:0:0:
448,64,119175,1,8,0:0:0:0:
64,64,119362,1,0,0:0:0:0:
64,64,119409,1,0,0:0:0:0:
448,64,119550,1,8,0:0:0:0:
64,64,119737,1,0,0:0:0:0:
64,64,119784,1,0,0:0:0:0:
448,64,119925,1,8,0:0:0:0:
64,64,120112,1,0,0:0:0:0:
64,64,120159,1,0,0:0:0:0:
448,64,120300,1,8,0:0:0:0:
64,64,120487,1,0,0:0:0:0:
64,64,120534,1,0,0:0:0:0:
448,64,120675,1,8,0:0:0:0:
64,64,120862,1,0,0:0:0:0:
64,64,120909,1,0,0:0:0:0:
448,64,121050,1,8,0:0:0:0:
448,64,121096,1,8,0:0:0:0:
64,64,121237,1,0,0:0:0:0:
448,64,121425,1,8,0:0:0:0:
448,64,121471,1,8,0:0:0:0:
64,64,121612,1,0,0:0:0:0:
448,64,121800,1,8,0:0:0:0:
448,64,121846,1,8,0:0:0:0:
64,64,121987,1,0,0:0:0:0:
448,64,122175,1,8,0:0:0:0:
448,64,122221,1,8,0:0:0:0:
64,64,122362,1,0,0:0:0:0:
448,64,122550,1,8,0:0:0:0:
448,64,122596,1,8,0:0:0:0:
64,64,122737,1,0,0:0:0:0:
448,64,122925,1,8,0:0:0:0:
448,64,122971,1,8,0:0:0:0:
64,64,123112,1,0,0:0:0:0:
448,64,123300,1,8,0:0:0:0:
448,64,123346,1,8,0:0:0:0:
64,64,123487,1,0,0:0:0:0:
448,64,123675,1,8,0:0:0:0:
448,64,123721,1,8,0:0:0:0:
64,64,123862,1,0,0:0:0:0:
448,64,124050,1,8,0:0:0:0:
64,64,124237,1,0,0:0:0:0:
64,64,124284,1,0,0:0:0:0:
448,64,124425,1,8,0:0:0:0:
64,64,124612,1,0,0:0:0:0:
64,64,124659,1,0,0:0:0:0:
448,64,124800,1,8,0:0:0:0:
64,64,124987,1,0,0:0:0:0:
64,64,125034,1,0,0:0:0:0:
448,64,125175,1,8,0:0:0:0:
64,64,125362,1,0,0:0:0:0:
64,64,125409,1,0,0:0:0:0:
448,64,125550,1,8,0:0:0:0:
64,64,125737,1,0,0:0:0:0:
64,64,125784,1,0,0:0:0:0:
448,64,125925,1,8,0:0:0:0:
64,64,126112,1,0,0:0:0:0:
64,64,126159,1,0,0:0:0:0:
448,64,126300,1,8,0:0:0:0:
64,64,126487,1,0,0:0:0:0:
64,64,126534,1,0,0:0:0:0:
448,64,126675,1,8,0:0:0:0:
64,64,126862,1,0,0:0:0:0:
64,64,126909,1,0,0:0:0:0:
448,64,127050,1,8,0:0:0:0:
448,64,127096,1,8,0:0:0:0:
64,64,127237,1,0,0:0:0:0:
448,64,127425,1,8,0:0:0:0:
448,64,127471,1,8,0:0:0:0:
64,64,127612,1,0,0:0:0:0:
448,64,127800,1,8,0:0:0:0:
448,64,127846,1,8,0:0:0:0:
64,64,127987,1,0,0:0:0:0:
448,64,128175,1,8,0:0:0:0:
448,64,128221,1,8,0:0:0:0:
64,64,128362,1,0,0:0:0:0:
448,64,128550,1,8,0:0:0:0:
448,64,128596,1,8,0:0:0:0:
64,64,128737,1,0,0:0:0:0:
448,64,128925,1,8,0:0:0:0:
448,64,128971,1,8,0:0:0:0:
64,64,129112,1,0,0:0:0:0:
448,64,129300,1,8,0:0:0:0:
448,64,129346,1,8,0:0:0:0:
64,64,129487,1,0,0:0:0:0:
448,64,129675,1,8,0:0:0:0:
448,64,129721,1,8,0:0:0:0:
64,64,129862,1,0,0:0:0:0:
