osu file format v14

[General]
AudioFilename: audio.mp3
AudioLeadIn: 0
PreviewTime: 154098
Countdown: 0
SampleSet: Soft
StackLeniency: 0.7
Mode: 0
LetterboxInBreaks: 0
WidescreenStoryboard: 0

[Editor]
Bookmarks: 38165,73604,107050,157774,190335,222366,254463
DistanceSpacing: 0.95
BeatDivisor: 4
GridSize: 32
TimelineZoom: 1

[Metadata]
Title:Starting Over
TitleUnicode:Starting Over
Artist:LSD and the Search for God
ArtistUnicode:LSD and the Search for God
Creator:fllecc
Version:Insane
Source:
Tags:english alternative rock shoegaze dream pop
BeatmapID:4477556
BeatmapSetID:2129361

[Difficulty]
HPDrainRate:5
CircleSize:4.5
OverallDifficulty:7
ApproachRate:7.5
SliderMultiplier:2
SliderTickRate:0.5

[Events]
//Background and Video events
0,0,"again.jpg",0,0
//Break Periods
//Storyboard Layer 0 (Background)
//Storyboard Layer 1 (Fail)
//Storyboard Layer 2 (Pass)
//Storyboard Layer 3 (Foreground)
//Storyboard Layer 4 (Overlay)
//Storyboard Sound Samples

[TimingPoints]
20192,589.68058968059,4,2,1,50,1,0
20781,-133.333333333333,4,2,1,50,0,0
22255,576.923076923077,4,2,1,50,1,0
22255,-133.333333333333,4,2,1,50,0,0
22831,563.380281690141,4,2,1,50,1,0
23394,-133.333333333333,4,2,1,50,0,0
24803,562.060889929743,4,2,1,50,1,0
25365,-133.333333333333,4,2,1,50,0,0
27051,552.99539170507,4,2,1,50,1,0
27327,-133.333333333333,4,2,1,50,0,0
29262,568.720379146921,4,2,1,50,1,0
29830,-133.333333333333,4,2,1,50,0,0
31536,484.848484848485,4,2,1,50,1,0
31778,561.272217025257,4,2,1,50,1,0
31778,-133.333333333333,4,2,1,50,0,0
33742,545.454545454547,4,2,1,50,1,0
33742,-133.333333333333,4,2,1,50,0,0
35923,560.747663551404,4,2,1,50,1,0
35923,-133.333333333333,4,2,1,50,0,0
38165,549.199084668194,4,2,1,50,1,0
38714,-133.333333333333,4,2,1,50,0,0
40361,551.724137931036,4,2,1,50,1,0
40912,-133.333333333333,4,2,1,50,0,0
42567,555.555555555557,4,2,1,50,1,0
43122,-133.333333333333,4,2,1,50,0,0
44789,549.199084668193,4,2,1,50,1,0
45063,-133.333333333333,4,2,1,50,0,0
46985,559.44055944056,4,2,1,50,1,0
47544,-133.333333333333,4,2,1,50,0,0
49222,552.995391705069,4,2,1,50,1,0
49774,-133.333333333333,4,2,1,50,0,0
51433,563.380281690141,4,2,1,50,1,0
51996,-133.333333333333,4,2,1,50,0,0
53686,551.724137931035,4,2,1,50,1,0
53961,-133.333333333333,4,2,1,50,0,0
55892,564.705882352941,4,2,1,50,1,0
55892,-117.647058823529,4,2,1,50,0,0
57868,564.705882352941,4,2,1,50,1,0
57868,-117.647058823529,4,2,1,50,0,0
58432,549.199084668192,4,2,1,50,1,0
60351,555.555555555555,4,2,1,50,1,0
60906,-133.333333333333,4,2,1,50,0,0
62573,552.995391705069,4,2,1,50,1,0
64231,-133.333333333333,4,2,1,50,0,0
64784,550.45871559633,4,2,1,50,1,0
64784,-133.333333333333,4,2,1,50,0,0
66985,556.844547563805,4,2,1,50,1,0
67263,-133.333333333333,4,2,1,50,0,0
69212,552.995391705069,4,2,1,50,1,0
70594,-133.333333333333,4,2,1,50,0,0
71423,545.454545454545,4,2,1,50,1,0
71968,-133.333333333333,4,2,1,50,0,0
73604,544.217687074829,4,2,1,70,1,1
75780,518.358531317494,4,2,1,70,1,1
77853,529.801324503311,4,2,1,70,1,1
79972,520.60737527115,4,2,1,70,1,1
82054,527.472527472528,4,2,1,70,1,1
84163,520.60737527115,4,2,1,70,1,1
86245,528.634361233481,4,2,1,70,1,1
88359,511.727078891259,4,2,1,70,1,1
90405,529.801324503312,4,2,1,70,1,1
92524,517.241379310346,4,2,1,70,1,1
94592,524.01746724891,4,2,1,70,1,1
96688,515.021459227469,4,2,1,70,1,1
98748,516.129032258066,4,2,1,70,1,1
100554,533.333333333334,4,2,1,70,1,1
101887,504.20168067227,4,2,1,70,1,1
102895,519.480519480521,4,2,1,70,1,1
107050,540.540540540542,4,2,1,50,1,0
107050,-125,4,2,1,50,0,0
108401,-133.333333333333,4,2,1,50,0,0
108941,530.973451327435,4,2,1,50,1,0
108941,-133.333333333333,4,2,1,50,0,0
109737,532.150776053216,4,2,1,50,1,0
111865,530.973451327435,4,2,1,50,1,0
111865,-133.333333333333,4,2,1,50,0,0
113723,528.634361233482,4,2,1,50,1,0
114251,-133.333333333333,4,2,1,50,0,0
115573,530.973451327436,4,2,1,50,1,0
115573,-133.333333333333,4,2,1,50,0,0
117696,534.521158129178,4,2,1,50,1,0
119834,542.986425339369,4,2,1,50,1,0
119834,-133.333333333333,4,2,1,50,0,0
122005,534.521158129178,4,2,1,50,1,0
122272,-133.333333333333,4,2,1,50,0,0
124143,525.16411378556,4,2,1,50,1,0
124143,-117.647058823529,4,2,1,55,0,0
126243,534.521158129178,4,2,1,55,1,0
126510,-117.647058823529,4,2,1,55,0,0
128381,527.472527472529,4,2,1,55,1,0
128381,-117.647058823529,4,2,1,55,0,0
130490,524.01746724891,4,2,1,55,1,0
131014,-117.647058823529,4,2,1,55,0,0
132586,527.472527472529,4,2,1,55,1,0
133113,-117.647058823529,4,2,1,55,0,0
134695,532.150776053217,4,2,1,55,1,0
134695,-117.647058823529,4,2,1,55,0,0
138952,525.164113785561,4,2,1,55,1,0
139214,-117.647058823529,4,2,1,55,0,0
140264,479.041916167668,4,2,1,55,1,0
140264,-117.647058823529,4,2,1,55,0,0
140743,602.409638554217,4,2,1,55,1,0
141044,527.472527472527,4,2,1,55,1,0
141044,-117.647058823529,4,2,1,55,0,0
143153,529.801324503314,4,2,1,55,1,0
143153,-117.647058823529,4,2,1,55,0,0
145272,525.164113785561,4,2,1,55,1,0
145272,-117.647058823529,4,2,1,55,0,0
147372,527.472527472531,4,2,1,55,1,0
147635,-117.647058823529,4,2,1,55,0,0
149481,522.875816993468,4,2,1,55,1,0
150003,-117.647058823529,4,2,1,55,0,0
151572,525.164113785562,4,2,1,55,1,0
151834,-117.647058823529,4,2,1,55,0,0
153672,512.820512820517,4,2,1,55,1,0
154184,-117.647058823529,4,2,1,55,0,0
156236,-100,4,2,1,55,0,0
157774,524.017467248913,4,2,1,70,1,1
159870,510.638297872345,4,2,1,70,1,1
163955,509.554140127393,4,2,1,70,1,1
165993,519.480519480524,4,2,1,70,1,1
168070,503.144654088055,4,2,1,70,1,1
170082,516.12903225807,4,2,1,70,1,1
172146,509.554140127394,4,2,1,70,1,1
174184,510.638297872346,4,2,1,70,1,1
176226,508.474576271192,4,2,1,70,1,1
178259,510.638297872346,4,2,1,70,1,1
180301,506.329113924056,4,2,1,70,1,1
182326,510.638297872346,4,2,1,70,1,1
184368,504.201680672274,4,2,1,70,1,1
186384,496.894409937893,4,2,1,70,1,1
188371,497.925311203325,4,2,1,70,1,1
189366,484.84848484849,4,2,1,70,1,0
190335,502.09205020921,4,2,1,70,1,0
190837,-90.9090909090909,4,2,1,75,0,1
191339,-90.9090909090909,4,2,1,75,0,0
192092,-100,4,2,1,75,0,0
192343,489.795918367352,4,2,1,75,1,0
194302,503.144654088056,4,2,1,75,1,0
198327,504.201680672275,4,2,1,75,1,0
202360,501.043841336123,4,2,1,75,1,0
206368,512.82051282052,4,2,1,75,1,0
208162,497.925311203326,4,2,1,75,1,0
209406,504.201680672276,4,2,1,75,1,0
210414,505.263157894744,4,2,1,75,1,0
212182,495.867768595048,4,2,1,75,1,0
213421,501.043841336124,4,2,1,75,1,0
214422,507.399577167026,4,2,1,85,1,1
216197,502.092050209212,4,2,1,75,1,0
217201,497.925311203326,4,2,1,75,1,0
218446,497.925311203327,4,2,1,75,1,0
219939,484.848484848492,4,2,1,75,1,0
221393,486.815415821508,4,2,1,75,1,0
222366,507.399577167026,4,2,1,70,1,1
224395,504.201680672276,4,2,1,70,1,1
226411,498.960498960506,4,2,1,70,1,1
228406,503.144654088057,4,2,1,70,1,1
230418,506.329113924058,4,2,1,70,1,1
232190,493.827160493834,4,2,1,70,1,1
233424,498.960498960506,4,2,1,70,1,1
234422,506.329113924058,4,2,1,70,1,1
236447,494.845360824749,4,2,1,70,1,1
238426,505.263157894744,4,2,1,70,1,1
240194,498.960498960506,4,2,1,70,1,1
241441,500.000000000007,4,2,1,70,1,1
242442,507.399577167026,4,2,1,70,1,1
244471,498.960498960506,4,2,1,70,1,1
246466,494.845360824749,4,2,1,70,1,1
248197,507.399577167026,4,2,1,70,1,1
249465,506.329113924058,4,2,1,70,1,1
250477,498.960498960506,4,2,1,70,1,1
252472,497.925311203327,4,2,1,70,1,1
253965,-111.111111111111,4,2,1,70,0,1
254463,528.634361233489,4,2,1,50,1,0
254463,-125,4,2,1,50,0,0
256048,-133.333333333333,4,2,1,50,0,0
258163,530.973451327443,4,2,1,50,1,0
258163,-133.333333333333,4,2,1,50,0,0
259755,517.241379310354,4,2,1,50,1,0
259755,-133.333333333333,4,2,1,50,0,0
261306,524.017467248918,4,2,1,50,1,0
262875,536.912751677862,4,2,1,50,1,0
262875,-133.333333333333,4,2,1,50,0,0
265022,529.80132450332,4,2,1,50,1,0
265022,-133.333333333333,4,2,1,50,0,0
267141,533.333333333342,4,2,1,50,1,0
267141,-133.333333333333,4,2,1,50,0,0
269274,525.164113785566,4,2,1,50,1,0
271374,529.801324503319,4,2,1,50,1,0
271903,-133.333333333333,4,2,1,50,0,0
273493,521.73913043479,4,2,1,50,1,0
273493,-133.333333333333,4,2,1,50,0,0
275579,530.973451327441,4,2,1,50,1,0
275579,-133.333333333333,4,2,1,50,0,0
277702,520.607375271157,4,2,1,50,1,0
278482,-133.333333333333,4,2,1,50,0,0
279784,528.634361233488,4,2,1,50,1,0
280312,-133.333333333333,4,2,1,50,0,0
281898,513.918629550328,4,2,1,50,1,0
281898,-133.333333333333,4,2,1,50,0,0
283953,528.634361233487,4,2,1,50,1,0
284481,-133.333333333333,4,2,1,50,0,0
286067,527.472527472535,4,2,1,50,1,0
286330,-133.333333333333,4,2,1,50,0,0
287649,555.555555555566,4,2,1,50,1,0
288204,576.923076923086,4,2,1,50,1,0
297434,-133.333333333333,4,2,1,5,0,0

[Colours]
Combo1 : 255,70,70
Combo2 : 217,138,138
Combo3 : 224,203,152
Combo4 : 251,114,89
Combo5 : 241,205,112

[HitObjects]
0,192,20192,5,4,1:2:0:0:
0,192,20781,2,0,P|65:194|161:176,1,150.000005722046,8|4,3:0|3:0,0:0:0:0:
198,113,21666,2,0,P|161:104|124:101,1,75.0000028610231,2|8,0:3|3:0,0:0:0:0:
299,234,22255,2,0,P|364:232|460:250,1,150.000005722046,2|0,0:3|0:0,0:0:0:0:
500,187,23112,1,8,3:0:0:0:
396,310,23394,2,0,P|399:347|407:383,1,75.0000028610231,2|4,0:3|3:0,0:0:0:0:
447,246,23957,5,2,0:3:0:0:
480,324,24239,1,8,3:0:0:0:
362,231,24521,1,0,0:0:0:0:
502,175,24802,1,4,3:0:0:0:
502,175,25365,54,0,P|497:100|501:25,1,150.000005722046,8|4,3:0|3:0,0:0:0:0:
415,101,26208,2,0,P|417:138|414:175,1,75.0000028610231,2|8,0:3|3:0,0:0:0:0:
238,80,26770,2,0,P|235:42|237:5,1,75.0000028610231,2|4,0:3|3:0,0:0:0:0:
305,124,27327,2,0,P|309:198|304:273,2,150.000005722046,2|2|0,0:3|0:3|0:0,0:0:0:0:
170,36,28709,1,8,3:0:0:0:
233,160,28986,1,2,0:3:0:0:
309,43,29262,5,4,3:0:0:0:
14,129,29830,2,0,P|85:141|113:207,1,150.000005722046,8|4,3:0|3:0,0:0:0:0:
59,339,30683,2,0,P|55:301|47:265,1,75.0000028610231,2|8,0:3|3:0,0:0:0:0:
200,319,31252,2,0,P|169:340|141:365,1,75.0000028610231,2|4,0:3|3:0,0:0:0:0:
113,207,31778,2,0,P|146:223|182:234,1,75.0000028610231,2|8,0:3|3:0,0:0:0:0:
281,362,32339,2,0,P|354:348|429:349,1,150.000005722046,2|0,0:3|0:0,0:0:0:0:
495,310,33181,1,8,3:0:0:0:
375,223,33461,53,0,0:0:0:0:
379,208,33602,1,0,0:0:0:0:
384,193,33742,2,0,P|392:157|396:120,1,75.0000028610231,4|0,3:0|0:0,0:0:0:0:
476,0,34287,2,0,P|474:74|488:148,1,150.000005722046,8|4,3:0|3:0,0:0:0:0:
384,193,35105,1,2,0:3:0:0:
300,129,35378,1,8,3:0:0:0:
218,182,35651,1,2,0:3:0:0:
160,131,35923,2,0,P|168:94|172:57,1,75.0000028610231,4|0,3:0|0:0,0:0:0:0:
235,15,36483,5,8,3:0:0:0:
27,139,36764,2,0,P|21:213|27:288,1,150.000005722046,2|0,0:3|0:0,0:0:0:0:
156,384,37605,2,0,P|161:309|155:234,1,150.000005722046,8|6,3:0|3:0,0:0:0:0:
155,234,38714,54,0,P|117:236|80:233,1,75.0000028610231,8|0,3:0|0:0,0:0:0:0:
243,310,39263,2,0,P|317:308|391:322,1,150.000005722046,4|8,3:0|3:0,0:0:0:0:
512,222,40087,2,0,P|438:236|363:234,1,150.000005722046
479,383,40912,2,0,P|470:346|466:309,1,75.0000028610231,8|0,3:0|0:0,0:0:0:0:
359,153,41464,5,4,3:0:0:0:
300,302,41740,1,2,0:0:0:0:
432,191,42016,53,8,3:0:0:0:
290,196,42292,1,2,0:0:0:0:
466,309,42567,1,4,3:0:0:0:
466,309,43122,6,0,P|356:307|273:380,1,225.000008583069,8|0,3:0|0:0,0:0:0:0:
207,275,44233,1,8,3:0:0:0:
48,376,44511,2,0,P|85:372|121:364,1,75.0000028610231,0|4,0:0|3:0,0:0:0:0:
207,275,45063,1,0,0:0:0:0:
121,193,45338,2,0,P|112:229|109:266,1,75.0000028610231,8|0,3:0|0:0,0:0:0:0:
320,160,45887,54,0,P|324:85|320:10,2,150.000005722046,4|8|4,3:0|3:0|3:0,0:0:0:0:
320,160,47544,2,0,P|357:162|394:159,1,75.0000028610231,8|0,3:0|0:0,0:0:0:0:
258,217,48103,1,4,3:0:0:0:
483,117,48383,2,0,P|478:191|482:266,1,150.000005722046,2|0,0:3|0:0,0:0:0:0:
315,358,49222,1,4,3:0:0:0:
396,261,49498,1,0,0:0:0:0:
507,355,49774,2,0,P|470:351|434:343,1,75.0000028610231,8|0,3:0|0:0,0:0:0:0:
272,240,50327,5,4,3:0:0:0:
57,274,50604,2,0,P|131:272|205:286,1,150.000005722046,2|0,0:0|0:0,0:0:0:0:
410,366,51433,1,4,3:0:0:0:
410,366,51996,54,0,P|418:329|421:292,1,75.0000028610231,8|0,3:0|0:0,0:0:0:0:
446,177,52559,1,4,3:0:0:0:
498,253,52841,1,0,0:0:0:0:
359,192,53123,1,8,3:0:0:0:
378,35,53404,2,0,P|381:72|388:108,1,75.0000028610231,2|4,0:3|3:0,0:0:0:0:
182,181,53961,6,0,P|219:184|256:192,1,75.0000028610231,2|8,0:3|3:0,0:0:0:0:
256,192,54513,1,0,0:0:0:0:
17,245,54789,2,0,P|54:241|90:234,1,75.0000028610231,4|0,3:0|0:0,0:0:0:0:
210,48,55341,1,8,3:0:0:0:
90,127,55617,1,2,0:3:0:0:
319,250,55892,54,0,P|401:251|463:196,1,170.000003242493,4|8,1:2|3:0,0:0:0:0:
411,139,56739,1,0,0:0:0:0:
486,0,57021,2,0,P|489:42|497:84,1,85.0000016212464,4|0,3:0|0:0,0:0:0:0:
497,84,57586,5,8,3:0:0:0:
326,204,57868,2,0,P|242:187|156:190,1,170.000003242493,2|0,0:0|0:0,0:0:0:0:
0,261,58706,1,8,3:0:0:0:
155,115,58981,1,0,0:0:0:0:
63,89,59255,53,4,3:0:0:0:
0,154,59530,5,2,0:0:0:0:
21,243,59804,53,8,3:0:0:0:
109,267,60079,5,2,0:0:0:0:
172,201,60351,53,4,3:0:0:0:
172,201,60906,2,0,P|135:193|98:190,1,75.0000028610231,8|0,3:0|0:0,0:0:0:0:
245,120,61462,1,4,3:0:0:0:
304,169,61739,2,0,P|306:243|292:317,1,150.000005722046,2|0,0:3|0:0,0:0:0:0:
143,379,62573,1,4,3:0:0:0:
214,285,62849,1,0,0:0:0:0:
131,296,63125,1,8,3:0:0:0:
225,367,63402,5,0,0:0:0:0:
384,256,63678,1,4,3:0:0:0:
384,256,64231,2,0,P|382:218|383:181,1,75.0000028610231,8|0,3:0|0:0,0:0:0:0:
503,17,64784,2,0,P|506:73|503:129,1,112.500004291535,4|0,3:0|0:0,0:0:0:0:
503,129,65334,2,0,P|466:121|429:118,1,75.0000028610231,8|0,3:0|0:0,0:0:0:0:
286,23,65884,53,4,3:0:0:0:
166,105,66160,2,0,P|203:101|239:94,1,75.0000028610231,2|8,0:0|3:0,0:0:0:0:
386,2,66710,2,0,P|369:35|358:71,1,75.0000028610231,2|4,0:0|3:0,0:0:0:0:
365,244,67263,2,0,P|343:213|318:185,1,75.0000028610231,2|8,0:0|3:0,0:0:0:0:
360,348,67820,6,0,P|397:344|433:337,1,75.0000028610231,0|4,0:0|3:0,0:0:0:0:
318,185,68377,1,2,0:0:0:0:
272,291,68655,1,8,3:0:0:0:
458,197,68933,54,0,L|446:123,1,75.0000028610231,2|4,0:1|3:0,0:0:0:0:
54,27,69764,1,8,3:0:0:0:
128,82,70041,1,0,0:0:0:0:
1,102,70317,5,4,3:0:0:0:
180,6,70594,2,0,P|217:9|253:16,1,75.0000028610231,2|8,0:0|3:0,0:0:0:0:
85,230,71147,2,0,P|77:193|74:156,1,75.0000028610231,2|4,0:0|3:0,0:0:0:0:
256,192,71695,53,2,0:0:0:0:
219,353,71968,1,8,3:0:0:0:
450,315,72241,2,0,P|412:311|376:304,1,75.0000028610231,2|4,0:3|3:0,0:0:0:0:
213,97,72786,5,6,3:0:0:0:
359,202,73059,1,10,3:0:0:0:
151,358,73332,1,8,0:0:0:0:
101,350,73468,1,8,0:0:0:0:
51,342,73604,6,0,B|11:301|11:301|43:154,1,200,6|8,1:0|0:0,0:0:0:0:
131,18,74420,1,2,0:1:0:0:
119,178,74692,1,0,1:0:0:0:
14,55,74964,1,0,1:0:0:0:
95,98,75236,5,8,0:0:0:0:
242,167,75508,2,0,L|340:150,1,100,0|2,1:0|0:3,0:0:0:0:
479,21,76039,1,0,1:0:0:0:
316,80,76298,53,10,0:1:0:0:
488,155,76557,1,2,0:1:0:0:
397,50,76816,5,0,1:0:0:0:
271,189,77075,1,2,1:0:0:0:
376,342,77335,53,8,0:0:0:0:
342,243,77594,1,2,1:0:0:0:
230,378,77853,6,0,P|180:373|131:361,1,100,4|0,1:2|0:0,0:0:0:0:
0,308,78382,2,0,B|45:271|114:272|114:272|77:281|51:314,1,200,10|0,0:0|1:0,0:0:0:0:
244,227,79177,2,0,P|293:239|343:244,1,100,0|8,1:0|0:0,0:0:0:0:
411,202,79707,1,0,1:0:0:0:
489,303,79972,53,2,0:3:0:0:
340,164,80232,1,0,1:0:0:0:
479,118,80492,1,8,0:0:0:0:
343,244,80752,2,0,P|293:239|244:227,1,100,2|0,0:1|1:0,0:0:0:0:
97,106,81273,1,2,1:0:0:0:
173,10,81533,1,8,0:0:0:0:
20,201,81794,5,8,3:0:0:0:
20,201,81924,1,4,3:0:0:0:
20,201,82054,2,0,B|-9:230|-9:230|14:338,1,150,6|0,1:0|0:0,0:0:0:0:
54,360,82581,2,0,P|103:355|152:343,1,100,8|0,0:0|0:0,0:0:0:0:
256,192,83108,53,2,1:0:0:0:
384,270,83372,1,0,1:0:0:0:
512,192,83636,2,0,P|510:142|511:92,1,100,8|2,0:0|1:0,0:0:0:0:
320,0,84163,2,0,P|322:50|321:100,1,100,2|0,0:3|1:0,0:0:0:0:
462,35,84683,5,10,0:1:0:0:
382,150,84943,1,2,0:1:0:0:
239,223,85204,53,0,1:0:0:0:
107,165,85464,1,2,1:0:0:0:
0,327,85724,5,8,0:0:0:0:
132,278,85985,1,2,1:0:0:0:
42,30,86245,54,0,P|30:79|26:129,1,100,4|0,1:2|0:0,0:0:0:0:
218,249,86773,2,0,P|319:234|359:139,1,200,8|0,0:0|1:0,0:0:0:0:
277,78,87566,1,0,1:0:0:0:
382,44,87830,1,8,0:0:0:0:
464,119,88095,1,0,1:0:0:0:
327,163,88359,5,2,0:3:0:0:
168,106,88614,2,0,P|172:56|184:7,1,100,2|8,1:0|0:0,0:0:0:0:
359,153,89126,2,0,P|370:201|375:251,1,100,2|0,0:1|1:0,0:0:0:0:
209,369,89638,1,2,1:0:0:0:
292,241,89894,1,8,0:0:0:0:
361,376,90150,1,0,1:0:0:0:
192,192,90405,54,0,B|88:163|99:242|-2:229,1,200,6|8,1:0|0:0,0:0:0:0:
72,119,91199,1,0,0:0:0:0:
287,329,91464,2,0,P|393:331|471:273,1,200,2|8,1:0|0:0,0:0:0:0:
447,73,92259,2,0,P|435:121|430:171,1,100,2|2,1:0|0:3,0:3:0:0:
502,207,92782,1,0,1:0:0:0:
334,123,93041,5,10,0:1:0:0:
512,5,93299,1,2,0:1:0:0:
471,90,93558,53,0,1:0:0:0:
337,1,93816,1,2,1:0:0:0:
258,207,94075,5,8,0:0:0:0:
358,140,94334,1,2,1:0:0:0:
131,76,94592,54,0,P|57:75|2:123,1,150,4|0,1:2|0:0,0:0:0:0:
2,122,95116,2,0,P|12:171|19:220,1,100,8|0,0:0|0:0,0:0:0:0:
171,139,95640,1,0,1:0:0:0:
101,369,95902,2,0,P|91:320|83:270,1,100,0|8,1:0|0:0,0:0:0:0:
127,204,96426,1,0,1:0:0:0:
290,330,96688,5,2,0:3:0:0:
369,366,96945,1,2,1:0:0:0:
453,338,97203,1,8,0:0:0:0:
493,257,97460,2,0,P|492:207|494:157,1,100,2|0,0:1|1:0,0:0:0:0:
325,30,97975,1,2,1:0:0:0:
416,162,98233,1,8,0:0:0:0:
512,0,98490,53,8,3:0:0:0:
468,24,98619,1,4,3:0:0:0:
424,48,98748,2,0,L|326:31,1,100,2|0,1:3|0:0,0:0:0:0:
141,138,99264,2,0,P|215:139|270:91,1,150,12|0,0:0|0:0,0:0:0:0:
241,50,99780,5,2,1:0:0:0:
26,154,100038,1,2,1:0:0:0:
165,13,100296,1,8,0:0:0:0:
283,225,100554,6,2,P|279:254|265:374,1,150,6|0,1:0|0:0,0:1:0:0:
221,355,101087,2,2,L|120:366,1,100,0|8,1:0|0:0,0:1:0:0:
96,207,101620,37,2,0:3:0:0:
121,365,101887,1,2,1:0:0:0:
8,251,102139,1,2,1:0:0:0:
167,278,102391,5,8,0:0:0:0:
23,348,102643,1,2,1:0:0:0:
256,192,102895,54,0,B|337:169|328:231|407:220,1,150,4|0,1:0|0:0,0:0:0:0:
496,160,103414,2,0,L|479:62,1,100,8|0,0:0|0:0,0:0:0:0:
376,9,103933,1,2,1:0:0:0:
321,68,104193,1,2,1:0:0:0:
482,256,104453,5,8,0:0:0:0:
410,118,104713,1,8,0:0:0:0:
317,246,104972,53,2,0:3:0:0:
226,373,105232,1,0,1:0:0:0:
173,223,105492,1,0,1:0:0:0:
240,287,105752,1,8,0:0:0:0:
0,192,106011,5,8,3:0:0:0:
104,8,106271,1,8,3:0:0:0:
104,8,106401,1,4,3:0:0:0:
104,8,106531,2,0,L|78:155,1,150,12|0,0:0|0:0,0:0:0:0:
109,194,107050,22,0,P|187:206|258:169,1,160,4|8,1:0|3:0,0:0:0:0:
309,115,108131,1,4,3:0:0:0:
243,0,108401,2,0,P|239:37|242:74,1,75.0000028610231,2|8,0:3|3:0,0:0:0:0:
375,157,108941,2,0,P|476:123|488:17,1,225.000008583069,2|8,0:3|3:0,0:0:0:0:
488,17,110003,5,2,0:0:0:0:
411,29,110269,53,4,3:0:0:0:
386,99,110535,5,2,0:2:0:0:
434,156,110801,53,8,3:0:0:0:
507,142,111067,5,2,0:0:0:0:
361,171,111333,53,4,3:0:0:0:
361,171,111865,2,0,P|324:167|288:159,1,75.0000028610231,8|0,3:0|0:0,0:0:0:0:
217,186,112395,1,4,3:0:0:0:
146,213,112661,2,0,P|109:217|73:225,1,75.0000028610231,2|8,0:3|3:0,0:0:0:0:
0,294,113192,2,0,P|73:310|147:318,1,150,2|0,0:3|0:0,0:0:0:0:
72,225,113987,5,8,3:0:0:0:
216,356,114251,2,0,P|290:364|363:380,1,150,2|0,0:3|0:0,0:0:0:0:
434,353,115044,1,8,3:0:0:0:
505,326,115308,1,0,0:0:0:0:
447,129,115573,54,0,P|442:203|446:278,2,150.000005722046,4|8|4,3:0|3:0|3:0,0:0:0:0:
501,72,116900,1,0,0:0:0:0:
501,72,117165,1,8,3:0:0:0:
389,21,117431,2,0,P|318:20|267:76,1,150.000005722046,2|0,0:3|0:0,0:0:0:0:
186,5,118230,5,8,3:0:0:0:
320,127,118497,53,2,0:0:0:0:
218,205,118765,5,4,3:0:0:0:
294,274,119032,53,2,0:2:0:0:
234,346,119299,5,8,3:0:0:0:
261,381,119566,53,2,0:0:0:0:
359,323,119834,6,0,P|396:323|433:325,1,75.0000028610231,4|0,3:0|0:0,0:0:0:0:
168,260,120376,2,0,P|93:263|18:261,1,150.000005722046,8|4,3:0|3:0,0:0:0:0:
166,182,121191,2,0,P|203:182|240:180,1,75.0000028610231,2|8,0:3|3:0,0:0:0:0:
110,105,121734,2,0,P|91:137|74:170,1,75.0000028610231,2|4,0:3|3:0,0:0:0:0:
204,95,122272,2,0,P|185:62|165:31,1,75.0000028610231,0|8,0:0|3:0,0:0:0:0:
318,174,122806,54,0,P|317:119|318:62,1,112.500004291535,2|0,0:3|0:0,0:0:0:0:
293,34,123341,1,8,0:0:0:0:
110,105,123608,1,8,0:0:0:0:
240,179,123875,1,2,0:3:0:0:
372,115,124143,6,0,P|454:115|511:175,1,170.000003242493,4|8,1:2|0:0,0:0:0:0:
390,220,124930,1,0,0:0:0:0:
467,323,125193,2,0,P|464:281|465:239,1,85.0000016212464,0|0,1:0|1:0,0:0:0:0:
359,293,125718,53,8,0:0:0:0:
290,329,125981,1,2,0:0:0:0:
183,380,126243,1,0,1:0:0:0:
114,344,126510,2,0,P|116:301|115:259,1,85.0000016212464,2|8,0:0|0:0,0:0:0:0:
154,163,127044,2,0,P|184:192|212:223,1,85.0000016212464,0|0,0:0|1:0,0:0:0:0:
39,173,127579,5,2,1:2:0:0:
152,74,127846,1,8,0:0:0:0:
10,26,128113,1,2,0:3:0:0:
71,90,128381,54,0,P|155:91|239:75,1,170.000003242493,0|8,1:0|0:0,0:0:0:0:
288,15,129172,1,0,0:0:0:0:
503,104,129435,2,0,P|461:95|419:91,1,85.0000016212464,0|0,1:0|1:0,0:0:0:0:
419,91,129963,1,8,0:0:0:0:
269,226,130227,2,0,P|277:184|281:142,1,85.0000016212464,0|0,0:0|1:0,0:0:0:0:
354,47,130752,5,0,0:0:0:0:
453,171,131014,2,0,P|448:255|453:340,1,170.000003242493,8|0,0:0|1:0,0:0:0:0:
512,384,131800,53,0,1:0:0:0:
490,278,132062,5,10,0:0:0:0:
372,198,132324,53,2,0:3:0:0:
217,223,132586,5,2,1:2:0:0:
149,344,132849,53,2,1:2:0:0:
35,358,133113,6,0,P|30:273|34:188,1,170.000003242493,8|0,0:0|1:0,0:0:0:0:
210,104,133904,2,0,P|167:99|126:91,1,85.0000016212464,0|8,1:0|0:0,0:0:0:0:
2,114,134432,1,0,0:0:0:0:
2,114,134695,2,0,P|84:113|141:173,1,170.000003242493,0|8,1:0|0:0,0:0:0:0:
284,88,135493,54,0,P|275:46|271:4,1,85.0000016212464,2|0,0:0|1:0,0:0:0:0:
141,173,136025,2,0,P|149:214|153:256,1,85.0000016212464,2|8,1:2|0:0,0:0:0:0:
301,213,136557,1,2,0:3:0:0:
371,347,136823,2,0,P|453:347|510:287,1,170.000003242493,0|8,1:0|0:0,0:0:0:0:
510,287,137887,6,0,P|501:245|497:203,1,85.0000016212464,0|0,1:0|1:0,0:0:0:0:
438,155,138420,1,8,0:0:0:0:
358,263,138686,54,0,P|366:304|370:346,1,85.0000016212464,2|0,0:0|1:0,0:0:0:0:
136,177,139214,6,0,P|127:218|123:260,1,85.0000016212464,2|8,0:0|0:0,0:0:0:0:
297,105,139739,54,0,P|305:146|309:188,1,85.0000016212464,2|0,0:0|1:0,0:0:0:0:
212,30,140264,6,0,P|203:71|199:113,1,85.0000016212464,2|8,1:2|0:0,0:0:0:0:
289,0,140743,53,2,0:3:0:0:
223,213,141044,2,0,P|219:297|224:382,1,170.000003242493,4|8,1:2|0:0,0:0:0:0:
295,354,141835,2,0,P|337:353|379:355,1,85.0000016212464,0|0,0:0|1:0,0:0:0:0:
145,384,142362,5,0,1:0:0:0:
64,357,142626,1,8,0:0:0:0:
24,280,142890,1,2,0:0:0:0:
50,197,143153,2,0,P|51:154|51:112,1,85.0000016212464,0|2,1:0|0:0,0:0:0:0:
0,0,143682,2,0,P|81:8|120:80,1,170.000003242493,8|0,0:0|1:0,0:0:0:0:
16,183,144477,53,0,1:0:0:0:
178,139,144742,1,8,0:0:0:0:
39,101,145007,1,2,0:3:0:0:
157,220,145272,2,0,P|199:215|240:207,1,85.0000016212464,0|0,1:0|0:0,0:0:0:0:
463,135,145797,2,0,P|399:128|337:115,1,127.50000243187,8|0,0:0|0:0,0:0:0:0:
313,80,146322,5,0,1:0:0:0:
502,37,146584,2,0,P|459:41|418:49,1,85.0000016212464,0|8,1:0|0:0,0:0:0:0:
207,110,147110,2,0,P|198:68|194:26,1,85.0000016212464,0|0,0:0|1:0,0:0:0:0:
337,115,147635,2,0,P|345:156|349:198,1,85.0000016212464,0|8,0:0|0:0,0:0:0:0:
278,276,148163,53,0,0:0:0:0:
512,384,148426,2,0,P|455:323|372:323,2,170.000003242493,2|10|0,1:2|0:0|1:0,0:0:0:0:
139,131,150003,2,0,P|56:131|0:192,1,170.000003242493,10|0,0:0|1:0,0:0:0:0:
0,191,150788,5,0,1:0:0:0:
176,241,151049,1,8,0:0:0:0:
85,378,151311,2,0,P|76:336|72:294,1,85.0000016212464,2|0,0:0|1:0,0:0:0:0:
243,189,151834,2,0,P|211:217|176:242,1,85.0000016212464,2|8,0:0|0:0,0:0:0:0:
1,147,152359,2,0,P|41:160|80:177,1,85.0000016212464,2|0,0:0|1:0,0:0:0:0:
272,306,152884,1,2,1:2:0:0:
357,363,153147,1,8,0:0:0:0:
455,334,153410,1,2,0:3:0:0:
495,240,153672,53,0,1:0:0:0:
392,252,153928,1,0,0:0:0:0:
330,168,154184,2,0,P|333:126|343:85,1,85.0000016212464,8|0,0:0|0:0,0:0:0:0:
160,0,154697,5,2,1:3:0:0:
54,14,154954,1,0,1:0:0:0:
4,107,155210,1,8,0:0:0:0:
51,201,155466,2,0,P|93:198|134:188,1,85.0000016212464,0|2,0:0|1:3,0:0:0:0:
374,19,155979,53,2,1:0:0:0:
256,192,156236,2,0,L|279:340,1,150,8|0,0:0|0:0,0:0:0:0:
246,377,156748,5,2,1:3:0:0:
416,355,157005,53,2,1:3:0:0:
501,204,157261,5,12,0:0:0:0:
427,49,157518,5,8,0:0:0:0:
427,49,157646,1,8,0:0:0:0:
427,49,157774,2,0,B|323:20|334:99|233:86,1,200,6|8,1:0|0:0,0:0:0:0:
16,137,158560,1,2,0:1:0:0:
171,16,158822,1,0,1:0:0:0:
126,111,159084,1,0,1:0:0:0:
258,251,159346,1,8,0:0:0:0:
303,156,159608,5,2,1:0:0:0:
148,277,159870,2,0,L|165:375,1,100,2|0,0:3|1:0,0:0:0:0:
16,137,160380,53,10,0:1:0:0:
185,204,160635,1,2,0:1:0:0:
303,316,160891,5,0,1:0:0:0:
411,266,161146,1,2,1:0:0:0:
512,191,161401,53,8,0:0:0:0:
384,145,161656,1,2,1:0:0:0:
480,3,161912,6,0,L|497:101,1,100,4|0,1:2|0:0,0:0:0:0:
293,229,162423,2,2,P|192:214|152:119,1,200,8|0,0:0|1:0,0:1:0:0:
205,13,163189,1,0,1:0:0:0:
244,107,163444,53,8,0:0:0:0:
75,28,163699,1,0,1:0:0:0:
92,213,163955,1,2,0:3:0:0:
151,133,164209,5,0,1:0:0:0:
52,121,164464,1,8,0:0:0:0:
180,323,164719,2,0,P|184:273|191:224,1,100,2|0,0:1|1:0,0:0:0:0:
0,285,165228,2,0,P|7:334|11:384,1,100,2|8,1:0|0:0,0:0:0:0:
259,375,165738,53,0,1:0:0:0:
308,366,165865,1,0,1:0:0:0:
357,357,165993,2,0,P|355:308|357:258,1,100,6|0,1:0|0:0,0:0:0:0:
496,96,166512,2,0,P|498:195|496:295,1,200,10|0,0:1|1:0,0:0:0:0:
339,183,167291,5,2,1:0:0:0:
272,300,167551,1,8,0:0:0:0:
413,204,167811,1,2,1:0:0:0:
280,63,168070,2,0,P|268:111|264:161,1,100,2|0,0:3|1:0,0:0:0:0:
512,0,168573,53,10,0:1:0:0:
393,128,168824,1,2,0:1:0:0:
217,3,169076,5,0,1:0:0:0:
364,47,169327,1,2,1:0:0:0:
233,175,169579,53,8,0:0:0:0:
101,123,169831,1,2,1:0:0:0:
24,171,170082,6,0,P|24:207|23:320,1,150,4|0,1:2|0:0,0:0:0:0:
62,352,170598,2,0,L|160:337,1,100,8|0,0:0|0:0,0:0:0:0:
394,360,171114,2,0,B|349:323|280:324|280:324|317:333|343:366,1,200,2|8,1:2|0:0,0:0:0:0:
469,328,171888,1,0,1:0:0:0:
269,190,172146,53,2,0:3:0:0:
145,238,172400,2,0,P|149:288|161:337,1,100,2|8,1:0|0:0,0:0:0:0:
345,160,172910,2,0,P|341:110|329:61,1,100,2|0,0:1|1:0,0:0:0:0:
69,17,173419,5,2,1:0:0:0:
251,117,173674,1,8,0:0:0:0:
161,2,173929,1,0,1:0:0:0:
0,192,174184,54,0,B|104:163|93:242|194:229,1,200,6|8,1:0|0:0,0:0:0:0:
293,151,174949,1,2,0:1:0:0:
417,235,175205,1,2,1:0:0:0:
512,134,175460,5,2,1:0:0:0:
386,214,175715,1,8,0:0:0:0:
510,384,175971,2,0,P|506:334|494:285,1,100,2|0,1:0|0:3,0:0:0:0:
377,342,176480,1,0,1:0:0:0:
293,151,176734,53,10,0:1:0:0:
494,285,176988,1,2,0:1:0:0:
335,248,177242,5,0,1:0:0:0:
456,188,177496,1,2,1:0:0:0:
275,332,177751,53,8,0:0:0:0:
131,236,178005,1,2,1:0:0:0:
24,288,178259,5,4,1:2:0:0:
24,288,178514,1,2,0:0:0:0:
123,355,178769,1,8,0:0:0:0:
131,236,179024,1,2,0:0:0:0:
32,169,179280,1,0,1:0:0:0:
24,288,179535,53,2,1:2:0:0:
119,146,179790,2,0,L|102:48,1,100,8|2,0:0|1:2,0:0:0:0:
320,0,180301,5,2,0:3:0:0:
409,5,180554,1,2,1:0:0:0:
468,72,180807,1,8,0:0:0:0:
461,161,181060,2,0,P|411:157|362:145,1,100,2|0,0:1|1:0,0:0:0:0:
131,236,181566,2,0,P|179:224|229:220,1,100,2|8,1:0|0:0,0:0:0:0:
256,110,182073,1,0,1:0:0:0:
327,384,182326,54,0,P|323:309|326:234,1,150,4|0,1:2|0:0,0:0:0:0:
363,258,182836,2,0,L|461:241,1,100,8|0,0:0|0:0,0:0:0:0:
364,125,183347,5,2,1:0:0:0:
512,302,183602,1,2,1:0:0:0:
363,258,183857,53,8,0:0:0:0:
499,171,184113,1,2,1:0:0:0:
364,125,184368,1,2,0:3:0:0:
461,240,184620,1,2,1:0:0:0:
256,384,184872,6,0,L|273:286,1,100,8|0,0:0|0:0,0:0:0:0:
132,198,185376,1,2,1:0:0:0:
29,333,185628,1,2,1:0:0:0:
203,242,185880,1,8,0:0:0:0:
38,137,186132,53,2,1:0:0:0:
255,0,186384,2,0,P|248:73|241:149,1,150,4|0,1:0|0:0,0:0:0:0:
277,183,186880,2,0,L|375:166,1,100,8|0,0:0|0:0,0:0:0:0:
487,84,187377,1,2,1:0:0:0:
360,27,187626,1,0,1:0:0:0:
447,197,187874,5,8,0:0:0:0:
419,370,188123,1,8,0:0:0:0:
256,300,188371,53,4,0:2:0:0:
383,243,188619,1,0,1:0:0:0:
239,377,188868,1,8,0:0:0:0:
194,185,189117,2,0,L|202:131,1,50,2|0,0:3|0:0,0:0:0:0:
118,17,189366,5,8,0:0:0:0:
64,20,189487,1,8,0:0:0:0:
26,55,189608,1,8,0:0:0:0:
16,107,189729,1,8,0:0:0:0:
37,134,189850,53,8,0:0:0:0:
32,168,189971,1,8,0:0:0:0:
27,203,190092,1,8,3:0:0:0:
22,238,190213,1,4,3:0:0:0:
15,271,190335,6,0,P|63:328|135:335,1,150,4|0,1:2|0:0,0:0:0:0:
256,224,190837,6,2,B|369:192|357:278|467:264,1,220.000006713867,14|0,0:1|1:0,0:1:0:0:
436,162,191590,37,0,1:0:0:0:
299,298,191841,1,8,0:0:0:0:
412,384,192092,2,0,L|395:286,1,100,2|2,1:0|0:3,0:0:0:0:
219,84,192587,5,0,1:0:0:0:
267,24,192832,2,2,P|263:85|255:224,1,200,12|0,0:2|1:0,0:0:0:0:
88,329,193567,1,0,1:0:0:0:
41,312,193689,1,0,1:0:0:0:
28,263,193812,1,8,0:0:0:0:
75,187,194057,1,0,1:0:0:0:
247,304,194302,53,6,1:0:0:0:
387,368,194553,1,2,1:0:0:0:
496,259,194805,2,0,P|493:184|493:109,1,150,10|0,0:1|0:0,0:0:0:0:
458,73,195308,5,0,1:0:0:0:
280,128,195559,1,2,1:0:0:0:
384,18,195811,1,8,0:0:0:0:
354,183,196063,2,0,B|250:154|261:233|160:220,1,200,6|0,1:0|1:0,0:0:0:0:
2,95,196817,53,8,0:0:0:0:
138,148,197069,1,2,0:3:0:0:
23,239,197320,1,2,1:0:0:0:
112,76,197572,1,2,1:0:0:0:
256,0,197824,5,8,0:0:0:0:
287,111,198075,1,2,1:0:0:0:
480,192,198327,54,0,P|492:144|497:94,1,100,4|0,1:0|0:0,0:0:0:0:
340,240,198831,2,0,P|347:312|409:350,1,150,10|0,0:1|0:0,0:0:0:0:
454,329,199335,5,2,1:0:0:0:
399,181,199587,1,2,1:0:0:0:
512,271,199839,1,8,0:0:0:0:
284,361,200091,2,0,B|207:299|207:299|119:348,1,200,6|0,1:0|1:0,0:0:0:0:
0,233,200848,53,8,0:0:0:0:
48,383,201100,1,2,0:3:0:0:
96,233,201352,5,2,1:0:0:0:
129,128,201604,1,0,1:0:0:0:
171,0,201856,53,10,0:1:0:0:
219,150,202108,1,0,1:0:0:0:
32,32,202360,1,6,1:0:0:0:
323,216,202861,6,0,B|404:193|395:255|474:244,1,150,12|0,0:0|0:0,0:0:0:0:
498,207,203362,1,2,1:0:0:0:
465,90,203612,1,0,1:0:0:0:
348,124,203863,1,8,0:0:0:0:
189,266,204113,54,0,B|85:237|96:316|-5:303,1,200,6|0,1:0|1:0,0:0:0:0:
23,214,204865,5,8,0:0:0:0:
227,351,205115,1,2,0:3:0:0:
453,198,205366,53,2,1:0:0:0:
282,276,205616,1,2,1:0:0:0:
256,0,205867,5,8,0:0:0:0:
249,48,205992,1,8,0:0:0:0:
241,97,206117,1,8,3:0:0:0:
233,147,206242,1,4,3:0:0:0:
198,182,206368,54,0,L|100:165,1,100,6|0,1:0|0:0,0:0:0:0:
0,72,206880,2,0,L|98:55,1,100,10|0,0:1|0:0,0:0:0:0:
296,199,207393,5,2,1:0:0:0:
493,164,207650,1,2,1:0:0:0:
341,109,207906,53,8,0:0:0:0:
428,365,208162,2,2,B|442:298|442:298|413:267|413:267|416:175,1,200,6|0,1:1|1:0,0:1:0:0:
458,37,208908,1,8,0:0:0:0:
337,190,209157,5,2,0:3:0:0:
497,127,209406,1,2,1:0:0:0:
363,20,209658,1,2,1:0:0:0:
396,111,209910,1,8,0:0:0:0:
149,29,210162,53,2,0:3:0:0:
99,21,210288,1,2,0:3:0:0:
49,13,210414,2,0,P|44:72|36:217,1,200,6|8,1:0|0:0,0:0:0:0:
165,163,211171,21,2,0:3:0:0:
206,375,211424,2,2,B|143:348|116:286|116:286|134:324|127:360,1,200,2|8,1:0|0:0,0:1:0:0:
323,215,212182,54,2,B|427:186|416:265|517:252,1,200,6|0,1:0|1:0,0:1:0:0:
344,347,212925,1,8,0:0:0:0:
233,210,213173,1,2,0:3:0:0:
290,101,213421,53,2,1:0:0:0:
256,0,213671,1,2,1:0:0:0:
211,241,213922,5,8,0:0:0:0:
251,364,214172,1,0,1:0:0:0:
409,203,214422,5,6,1:0:0:0:
510,168,214675,1,2,1:0:0:0:
430,228,214929,37,10,0:1:0:0:
327,154,215183,5,0,1:0:0:0:
158,258,215436,5,6,1:0:0:0:
0,160,215690,37,2,1:0:0:0:
101,125,215944,1,8,0:0:0:0:
256,0,216197,6,2,P|248:99|243:199,1,200,6|0,1:0|1:0,0:1:0:0:
398,369,216950,1,8,0:0:0:0:
398,369,217075,1,8,0:0:0:0:
398,369,217201,2,0,P|462:360|495:216,1,200,0|0,1:0|1:0,0:0:0:0:
391,166,217947,1,10,0:1:0:0:
200,279,218196,53,0,1:0:0:0:
31,205,218446,2,0,P|19:157|14:107,1,100,6|0,1:0|0:0,0:0:0:0:
160,0,218943,2,0,P|172:48|177:98,1,100,10|0,0:1|0:0,0:0:0:0:
42,39,219441,5,2,1:0:0:0:
143,167,219690,1,2,1:0:0:0:
12,287,219939,5,12,0:0:0:0:
220,162,220181,1,12,0:0:0:0:
31,205,220423,37,0,1:0:0:0:
289,261,220666,21,12,0:0:0:0:
177,98,220908,1,12,0:0:0:0:
87,327,221151,37,4,1:0:0:0:
351,147,221393,5,8,0:0:0:0:
403,135,221514,1,8,0:0:0:0:
449,159,221635,1,8,0:0:0:0:
472,207,221758,1,8,0:0:0:0:
459,239,221879,53,8,0:0:0:0:
468,272,222001,5,8,0:0:0:0:
455,304,222123,53,8,0:0:0:0:
464,337,222244,5,8,0:0:0:0:
451,369,222366,54,0,P|393:359|253:337,1,200,6|8,1:0|0:0,0:0:0:0:
127,224,223127,1,2,0:1:0:0:
45,372,223380,1,2,1:0:0:0:
194,285,223634,5,2,1:0:0:0:
45,372,223888,1,8,0:0:0:0:
14,201,224141,2,0,P|17:151|29:102,1,100,2|2,1:0|0:3,0:0:0:0:
0,34,224647,1,0,1:0:0:0:
231,53,224899,53,10,0:1:0:0:
106,136,225151,1,2,0:1:0:0:
149,24,225403,5,0,1:0:0:0:
304,145,225655,1,2,1:0:0:0:
384,252,225907,53,8,0:0:0:0:
512,198,226159,1,2,1:0:0:0:
418,0,226411,6,0,B|389:29|389:29|412:137,1,150,4|0,1:2|0:0,0:0:0:0:
377,171,226909,2,0,P|327:168|278:156,1,100,8|0,0:0|0:0,0:0:0:0:
147,72,227408,1,2,1:0:0:0:
286,1,227658,1,2,1:0:0:0:
171,178,227907,1,8,0:0:0:0:
334,248,228157,53,2,1:0:0:0:
278,156,228406,1,2,0:3:0:0:
227,270,228657,2,0,P|230:320|242:369,1,100,2|8,1:0|0:0,0:0:0:0:
441,226,229160,2,0,P|438:176|426:127,1,100,2|0,0:1|1:0,0:0:0:0:
246,0,229663,2,0,P|234:48|231:98,1,100,2|8,1:0|0:0,0:0:0:0:
512,22,230167,5,8,3:0:0:0:
512,22,230292,1,4,3:0:0:0:
512,22,230418,2,0,B|408:-7|419:72|318:59,1,200,6|8,1:0|0:0,0:0:0:0:
482,128,231177,1,2,0:1:0:0:
299,204,231430,1,2,1:0:0:0:
401,93,231683,1,0,1:0:0:0:
446,236,231936,53,8,0:0:0:0:
212,185,232190,2,0,B|172:226|172:226|204:373,1,200,2|0,1:0|1:0,0:0:0:0:
421,363,232930,5,10,0:1:0:0:
268,259,233177,1,2,0:1:0:0:
120,384,233424,53,0,1:0:0:0:
284,346,233673,1,2,1:0:0:0:
315,185,233922,5,8,0:0:0:0:
202,365,234172,1,2,1:0:0:0:
54,197,234422,53,4,1:2:0:0:
186,278,234675,1,0,0:0:0:0:
4,252,234928,2,0,P|4:157|0:43,1,200,8|0,0:0|1:0,0:0:0:0:
86,0,235687,1,0,1:0:0:0:
175,149,235940,1,8,0:0:0:0:
0,52,236194,1,0,1:0:0:0:
174,49,236447,5,2,0:3:0:0:
88,199,236694,2,0,P|93:249|105:298,1,100,2|8,1:0|0:0,0:0:0:0:
352,384,237189,2,0,P|347:334|335:285,1,100,2|0,0:1|1:0,0:0:0:0:
175,343,237684,1,2,1:0:0:0:
322,179,237931,53,8,0:0:0:0:
370,186,238056,1,8,0:0:0:0:
419,193,238178,1,8,0:0:0:0:
469,202,238302,1,8,0:0:0:0:
507,174,238426,6,0,P|478:82|385:65,1,200,6|8,1:0|0:0,0:0:0:0:
258,6,239183,1,2,0:1:0:0:
185,125,239436,1,2,1:0:0:0:
15,43,239689,2,0,P|65:46|114:58,1,100,2|8,1:0|0:0,0:0:0:0:
256,192,240194,2,0,P|227:283|135:306,1,200,2|0,1:0|1:0,0:0:0:0:
0,167,240942,53,10,0:1:0:0:
103,378,241191,1,2,0:1:0:0:
167,234,241441,5,0,1:0:0:0:
218,128,241691,1,2,1:0:0:0:
63,0,241941,53,8,0:0:0:0:
136,151,242191,1,2,1:0:0:0:
392,83,242442,5,4,1:2:0:0:
195,46,242695,1,2,0:0:0:0:
341,12,242949,1,8,0:0:0:0:
277,160,243203,1,2,0:0:0:0:
507,245,243456,53,2,1:0:0:0:
441,152,243710,1,2,1:2:0:0:
394,256,243964,2,0,P|399:306|411:355,1,100,8|2,0:0|1:0,0:0:0:0:
441,152,244471,5,2,0:3:0:0:
326,162,244720,1,0,1:0:0:0:
459,349,244969,53,8,0:0:0:0:
507,245,245219,1,2,0:1:0:0:
279,265,245468,5,0,1:0:0:0:
345,359,245718,1,2,1:0:0:0:
394,256,245967,1,8,0:0:0:0:
229,368,246217,1,2,1:0:0:0:
98,215,246466,54,0,P|101:165|98:115,1,100,2|0,1:3|0:0,0:0:0:0:
256,0,246960,2,0,P|252:74|256:150,1,150,12|0,0:0|0:0,0:0:0:0:
295,181,247455,5,2,1:0:0:0:
211,296,247703,53,2,1:0:0:0:
277,384,247950,5,8,0:0:0:0:
256,149,248197,6,2,P|259:74|255:0,1,150,6|0,1:0|0:0,0:1:0:0:
217,30,248704,2,2,L|116:18,1,100,0|8,1:0|0:0,0:1:0:0:
1,183,249211,37,2,0:3:0:0:
17,6,249465,1,2,1:0:0:0:
159,111,249718,1,2,1:0:0:0:
217,30,249971,5,8,0:0:0:0:
60,100,250224,1,2,1:0:0:0:
320,256,250477,54,0,B|401:233|392:295|471:284,1,150,4|0,1:0|0:0,0:0:0:0:
345,348,250975,2,0,L|247:365,1,100,8|0,0:0|0:0,0:0:0:0:
320,256,251474,5,2,1:0:0:0:
445,378,251724,1,2,1:0:0:0:
231,281,251973,53,8,0:0:0:0:
364,96,252223,1,12,0:1:0:0:
211,14,252472,5,2,0:3:0:0:
256,192,252720,1,0,1:0:0:0:
119,145,252969,53,8,0:0:0:0:
392,234,253218,1,0,1:0:0:0:
280,110,253467,5,8,3:0:0:0:
230,268,253716,1,8,3:0:0:0:
238,318,253841,1,4,3:0:0:0:
246,368,253965,2,0,L|97:352,1,134.999995880127,8|0,0:0|0:0,0:0:0:0:
0,384,254463,22,0,P|48:328|131:323,2,160,4|8|4,1:0|3:0|3:0,0:0:0:0:
230,268,256048,2,0,P|267:272|303:280,1,75.0000028610231,8|0,3:0|0:0,0:0:0:0:
387,384,256577,6,0,P|380:309|386:234,1,150.000005722046,4|8,3:0|3:0,0:0:0:0:
512,160,257370,1,0,0:0:0:0:
512,160,257634,2,0,P|513:197|510:234,1,75.0000028610231,4|0,3:0|0:0,0:0:0:0:
387,117,258163,2,0,P|412:49|486:30,2,150.000005722046,8|4|8,3:0|3:0|3:0,0:0:0:0:
387,117,259755,54,0,P|424:113|460:105,1,75.0000028610231,4|0,3:0|0:0,0:0:0:0:
336,177,260272,1,8,3:0:0:0:
136,249,260530,2,0,P|209:235|284:236,1,150.000005722046,0|0,0:3|0:0,0:0:0:0:
407,320,261306,1,8,3:0:0:0:
336,177,261568,1,0,0:0:0:0:
299,353,261830,5,4,3:0:0:0:
444,144,262354,1,8,3:0:0:0:
165,232,262747,1,2,0:3:0:0:
135,210,262875,54,0,P|138:172|136:135,1,75.0000028610231,4|0,1:0|0:0,0:0:0:0:
35,6,263411,2,0,P|30:80|34:155,1,150.000005722046,10|4,3:0|3:0,0:0:0:0:
189,56,264217,2,0,P|152:47|115:44,1,75.0000028610231,0|8,0:0|3:0,0:0:0:0:
115,44,264754,1,0,0:0:0:0:
34,155,265022,2,0,P|71:151|107:143,2,75.0000028610231,4|0|8,3:0|0:0|3:0,0:0:0:0:
184,136,265816,5,2,0:0:0:0:
24,69,266081,1,4,3:0:0:0:
114,187,266346,1,2,0:0:0:0:
92,16,266611,1,8,3:0:0:0:
34,155,266876,1,2,0:0:0:0:
172,49,267141,2,0,P|209:52|245:60,1,75.0000028610231,4|0,3:0|0:0,0:0:0:0:
352,160,267674,54,0,P|426:161|500:147,1,150.000005722046,8|4,3:0|3:0,0:0:0:0:
453,9,268474,2,0,P|444:45|441:82,1,75.0000028610231,2|8,0:3|3:0,0:0:0:0:
489,220,269007,2,0,P|497:183|500:146,1,75.0000028610231,2|4,0:3|3:0,0:0:0:0:
256,192,269799,5,8,3:0:0:0:
275,265,270061,1,0,0:0:0:0:
201,246,270324,1,4,3:0:0:0:
182,172,270586,1,2,0:0:0:0:
236,118,270849,1,8,3:0:0:0:
310,137,271112,1,2,0:0:0:0:
330,210,271374,53,4,3:0:0:0:
256,192,271638,1,2,0:0:0:0:
32,173,271903,2,0,P|107:176|182:172,2,150,8|4|8,3:0|3:0|3:0,0:0:0:0:
330,210,273228,5,0,0:0:0:0:
330,210,273493,2,0,P|368:208|405:211,1,75.0000028610231,4|0,3:0|0:0,0:0:0:0:
512,144,274014,2,0,P|474:146|437:143,1,75.0000028610231,8|0,3:0|0:0,0:0:0:0:
327,75,274536,1,4,3:0:0:0:
416,54,274797,1,2,0:0:0:0:
437,143,275058,1,8,3:0:0:0:
256,192,275319,53,2,0:0:0:0:
28,262,275579,2,0,P|93:264|189:246,1,150.000005722046,4|8,3:0|3:0,0:0:0:0:
484,363,276375,2,0,P|410:349|335:350,2,150.000005722046,0|2|2,0:0|0:0|0:0,0:0:0:0:
484,363,277702,1,4,3:0:0:0:
256,192,278222,5,8,3:0:0:0:
319,149,278482,2,0,P|314:74|319:0,1,150.000005722046,2|0,0:3|0:0,0:0:0:0:
256,192,279263,2,0,P|258:230|255:267,1,75.0000028610231,8|0,3:0|0:0,0:0:0:0:
129,376,279784,53,6,3:0:0:0:
129,376,280312,2,0,P|58:364|30:298,1,150,8|4,3:0|3:0,0:0:0:0:
80,241,281105,1,0,0:0:0:0:
17,151,281369,2,0,P|9:188|6:225,1,75.0000028610231,8|0,3:0|0:0,0:0:0:0:
188,153,281898,2,0,P|181:78|166:5,1,150,4|8,3:0|3:0,0:0:0:0:
80,241,282668,2,0,P|147:273|219:295,1,150,2|0,0:0|0:0,0:0:0:0:
365,172,283439,1,8,3:0:0:0:
251,221,283696,1,2,0:0:0:0:
448,320,283953,5,4,3:0:0:0:
448,320,284481,2,0,P|445:282|447:245,1,75.0000028610231,8|0,3:0|0:0,0:0:0:0:
365,172,285010,2,0,P|370:97|365:23,1,150.000005722046,6|8,3:0|3:0,0:0:0:0:
455,24,285803,2,0,P|452:61|455:98,1,75.0000028610231,0|4,0:0|3:0,0:0:0:0:
290,229,286330,54,0,P|252:225|216:218,1,75.0000028610231,2|8,0:3|3:0,0:0:0:0:
100,67,286858,2,0,P|116:100|127:136,1,75.0000028610231,2|4,0:3|3:0,0:0:0:0:
55,313,287385,2,0,P|76:282|101:254,1,75.0000028610231,2|8,0:3|3:0,0:0:0:0:
320,352,287926,5,2,0:0:0:0:
335,356,288065,1,2,0:0:0:0:
350,361,288204,1,4,0:2:0:0:
256,192,288492,12,0,297434,0:0:0:0:
