osu file format v14

[General]
AudioFilename: audio.mp3
AudioLeadIn: 0
PreviewTime: -1
Countdown: 0
SampleSet: Normal
StackLeniency: 0.7
Mode: 1
LetterboxInBreaks: 0
WidescreenStoryboard: 0

[Editor]
Bookmarks: 10293,24008,37722,51436,58293,65150,92579,106293,120007,123436,150865,164579,178293,181722,209150,222865,236579,250293,264008,291436
DistanceSpacing: 1.1
BeatDivisor: 6
GridSize: 8
TimelineZoom: 1.399999

[Metadata]
Title:Gaze at the Sun (Great Canyon Remix)
TitleUnicode:Gaze at the Sun (Great Canyon Remix)
Artist:LOrbSheddy
ArtistUnicode:LOrbSheddy
Creator:Coryn
Version:Stream Practice
Source:ポケモン不思議のダンジョン
Tags:gba ds red blue rescue team pokemon pokémon mystery dungeon nintendo gamefreak spike chunsoft arata iiyoshi atsuhiro ishizuna
BeatmapID:1871122
BeatmapSetID:895508

[Difficulty]
HPDrainRate:5
CircleSize:5
OverallDifficulty:5.5
ApproachRate:5
SliderMultiplier:1.4
SliderTickRate:1

[Events]
//Background and Video events
0,0,"XATU.png",0,0
//Break Periods
//Storyboard Layer 0 (Background)
//Storyboard Layer 1 (Fail)
//Storyboard Layer 2 (Pass)
//Storyboard Layer 3 (Foreground)
//Storyboard Sound Samples

[TimingPoints]
8,428.571428571429,4,1,0,60,1,0
8,-133.333333333333,4,1,0,30,0,0
10288,-125,4,1,0,40,0,0
15431,-125,4,1,0,45,0,0
18860,-125,4,1,0,50,0,0
23788,-117.647058823529,4,1,0,40,0,0
34717,-114.942528735632,4,1,0,40,0,0
34931,-112.359550561798,4,1,0,40,0,0
35145,-109.89010989011,4,1,0,40,0,0
35574,-105.263157894737,4,1,0,40,0,0
36003,-101.010101010101,4,1,0,40,0,0
36431,-97.0873786407767,4,1,0,40,0,0
36860,-93.4579439252336,4,1,0,40,0,0
37074,-91.743119266055,4,1,0,40,0,0
37181,-93.4579439252336,4,1,0,40,0,0
37288,-95.2380952380952,4,1,0,40,0,0
37395,-97.0873786407767,4,1,0,40,0,0
37503,-99.009900990099,4,1,0,40,0,0
37610,-101.010101010101,4,1,0,40,0,0
37717,-102.040816326531,4,1,0,40,0,0
38895,-125,4,1,0,40,0,0
49717,-121.951219512195,4,1,0,40,0,0
50574,-116.279069767442,4,1,0,40,0,0
51431,-111.111111111111,4,1,0,55,0,0
57217,-108.695652173913,4,1,0,55,0,0
57431,-106.382978723404,4,1,0,55,0,0
57645,-104.166666666667,4,1,0,55,0,0
57860,-102.040816326531,4,1,0,55,0,0
58074,-100,4,1,0,55,0,0
58288,-66.6666666666667,4,1,0,65,0,0
58503,-95.2380952380952,4,1,0,65,0,0
64288,-66.6666666666667,4,1,0,65,0,0
65145,-90.9090909090909,4,1,0,65,0,0
78645,-90.0900900900901,4,1,0,65,0,0
78753,-89.2857142857143,4,1,0,65,0,0
78860,-88.4955752212389,4,1,0,65,0,0
78967,-87.719298245614,4,1,0,65,0,0
79074,-86.9565217391304,4,1,0,65,0,0
90860,-88.4955752212389,4,1,0,65,0,0
91181,-91.743119266055,4,1,0,65,0,0
91503,-95.2380952380952,4,1,0,65,0,0
91717,-97.0873786407767,4,1,0,65,0,0
91931,-99.009900990099,4,1,0,65,0,0
92145,-101.010101010101,4,1,0,65,0,0
92360,-103.092783505155,4,1,0,65,0,0
92574,-66.6666666666667,4,1,0,65,0,0
93003,-111.111111111111,4,1,0,65,0,0
96217,-108.695652173913,4,1,0,65,0,0
96431,-106.382978723404,4,1,0,65,0,0
96645,-104.166666666667,4,1,0,65,0,0
96860,-102.040816326531,4,1,0,65,0,0
97074,-100,4,1,0,65,0,0
97288,-98.0392156862745,4,1,0,65,0,0
97395,-94.3396226415094,4,1,0,65,0,0
97931,-83.3333333333333,4,1,0,65,0,0
98145,-86.2068965517241,4,1,0,65,0,0
98360,-89.2857142857143,4,1,0,65,0,0
98574,-92.5925925925926,4,1,0,65,0,0
98788,-96.1538461538461,4,1,0,65,0,0
99003,-100,4,1,0,65,0,0
99217,-104.166666666667,4,1,0,65,0,0
99431,-108.695652173913,4,1,0,65,0,0
99645,-111.111111111111,4,1,0,65,0,0
105431,-108.695652173913,4,1,0,65,0,0
105645,-106.382978723404,4,1,0,65,0,0
105860,-104.166666666667,4,1,0,65,0,0
106074,-102.040816326531,4,1,0,65,0,0
106288,-98.0392156862745,4,1,0,65,0,0
116574,-97.0873786407767,4,1,0,65,0,0
116681,-96.1538461538461,4,1,0,65,0,0
116788,-95.2380952380952,4,1,0,65,0,0
116895,-94.3396226415094,4,1,0,65,0,0
117003,-92.5925925925926,4,1,0,65,0,0
117110,-91.743119266055,4,1,0,65,0,0
117217,-90.9090909090909,4,1,0,65,0,0
117324,-90.0900900900901,4,1,0,65,0,0
117431,-89.2857142857143,4,1,0,65,0,0
117538,-88.4955752212389,4,1,0,65,0,0
117645,-87.719298245614,4,1,0,65,0,0
117753,-86.9565217391304,4,1,0,65,0,0
117860,-86.2068965517241,4,1,0,65,0,0
118931,-84.7457627118644,4,1,0,65,0,0
119145,-83.3333333333333,4,1,0,65,0,0
119360,-81.9672131147541,4,1,0,65,0,0
119574,-80.6451612903226,4,1,0,65,0,0
119788,-79.3650793650794,4,1,0,65,0,0
120003,-86.9565217391304,4,1,0,65,0,0
120431,-100,4,1,0,65,0,0
120860,-111.111111111111,4,1,0,65,0,0
121503,-76.9230769230769,4,1,0,65,0,0
122574,-66.6666666666667,4,1,0,65,0,0
123431,-86.9565217391304,4,1,0,65,0,0
136931,-86.2068965517241,4,1,0,65,0,0
137038,-85.4700854700855,4,1,0,65,0,0
137145,-84.7457627118644,4,1,0,65,0,0
137253,-84.0336134453781,4,1,0,65,0,0
137360,-83.3333333333333,4,1,0,65,0,0
149145,-84.7457627118644,4,1,0,65,0,0
149467,-87.719298245614,4,1,0,65,0,0
149788,-90.9090909090909,4,1,0,65,0,0
150003,-92.5925925925926,4,1,0,65,0,0
150217,-94.3396226415094,4,1,0,65,0,0
150431,-96.1538461538461,4,1,0,65,0,0
150645,-98.0392156862745,4,1,0,65,0,0
150860,-66.6666666666667,4,1,0,65,0,0
151074,-111.111111111111,4,1,0,65,0,0
154503,-108.695652173913,4,1,0,65,0,0
154717,-106.382978723404,4,1,0,65,0,0
154931,-104.166666666667,4,1,0,65,0,0
155145,-102.040816326531,4,1,0,65,0,0
155360,-100,4,1,0,65,0,0
155574,-98.0392156862745,4,1,0,65,0,0
155681,-94.3396226415094,4,1,0,65,0,0
156217,-83.3333333333333,4,1,0,65,0,0
156431,-86.2068965517241,4,1,0,65,0,0
156645,-89.2857142857143,4,1,0,65,0,0
156860,-92.5925925925926,4,1,0,65,0,0
157074,-96.1538461538461,4,1,0,65,0,0
157288,-100,4,1,0,65,0,0
157503,-104.166666666667,4,1,0,65,0,0
157717,-108.695652173913,4,1,0,65,0,0
157931,-111.111111111111,4,1,0,65,0,0
163717,-108.695652173913,4,1,0,65,0,0
163931,-106.382978723404,4,1,0,65,0,0
164145,-104.166666666667,4,1,0,65,0,0
164360,-102.040816326531,4,1,0,65,0,0
164574,-98.0392156862745,4,1,0,65,0,0
174860,-97.0873786407767,4,1,0,65,0,0
174967,-96.1538461538461,4,1,0,65,0,0
175074,-95.2380952380952,4,1,0,65,0,0
175181,-94.3396226415094,4,1,0,65,0,0
175288,-93.4579439252336,4,1,0,65,0,0
175395,-92.5925925925926,4,1,0,65,0,0
175503,-91.743119266055,4,1,0,65,0,0
175610,-90.9090909090909,4,1,0,65,0,0
175717,-90.0900900900901,4,1,0,65,0,0
175824,-89.2857142857143,4,1,0,65,0,0
175931,-88.4955752212389,4,1,0,65,0,0
176038,-87.719298245614,4,1,0,65,0,0
176145,-86.9565217391304,4,1,0,65,0,0
177217,-85.4700854700855,4,1,0,65,0,0
177431,-84.0336134453781,4,1,0,65,0,0
177645,-82.6446280991736,4,1,0,65,0,0
177860,-81.3008130081301,4,1,0,65,0,0
178074,-80,4,1,0,65,0,0
178288,-86.9565217391304,4,1,0,65,0,0
178717,-100,4,1,0,65,0,0
179145,-111.111111111111,4,1,0,65,0,0
179788,-76.9230769230769,4,1,0,65,0,0
180860,-66.6666666666667,4,1,0,65,0,0
181717,-86.9565217391304,4,1,0,65,0,0
195217,-86.2068965517241,4,1,0,65,0,0
195324,-85.4700854700855,4,1,0,65,0,0
195431,-84.7457627118644,4,1,0,65,0,0
195538,-84.0336134453781,4,1,0,65,0,0
195645,-83.3333333333333,4,1,0,65,0,0
207431,-84.7457627118644,4,1,0,65,0,0
207753,-86.2068965517241,4,1,0,65,0,0
208074,-89.2857142857143,4,1,0,65,0,0
208288,-90.9090909090909,4,1,0,65,0,0
208503,-92.5925925925926,4,1,0,65,0,0
208717,-96.1538461538461,4,1,0,65,0,0
208936,-98.0392156862745,4,1,0,65,0,0
209150,-66.6666666666667,4,1,0,65,0,0
209360,-111.111111111111,4,1,0,65,0,0
219431,-108.695652173913,4,1,0,65,0,0
221252,-106.382978723404,4,1,0,65,0,0
222860,-106.382978723404,4,1,0,60,0,0
222967,-105.263157894737,4,1,0,60,0,0
223074,-104.166666666667,4,1,0,60,0,0
223181,-103.092783505155,4,1,0,60,0,0
223288,-102.040816326531,4,1,0,60,0,0
223395,-101.010101010101,4,1,0,60,0,0
223502,-100,4,1,0,60,0,0
223610,-99.009900990099,4,1,0,60,0,0
223717,-98.0392156862745,4,1,0,60,0,0
223824,-97.0873786407767,4,1,0,60,0,0
223931,-96.1538461538461,4,1,0,60,0,0
224038,-95.2380952380952,4,1,0,60,0,0
224145,-94.3396226415094,4,1,0,60,0,0
224252,-93.4579439252336,4,1,0,60,0,0
224360,-92.5925925925926,4,1,0,60,0,0
224534,-106.382978723404,4,1,0,60,0,0
224641,-105.263157894737,4,1,0,60,0,0
224748,-104.166666666667,4,1,0,60,0,0
224855,-103.092783505155,4,1,0,60,0,0
224962,-102.040816326531,4,1,0,60,0,0
225069,-101.010101010101,4,1,0,60,0,0
225176,-100,4,1,0,60,0,0
225284,-99.009900990099,4,1,0,60,0,0
225391,-98.0392156862745,4,1,0,60,0,0
225498,-97.0873786407767,4,1,0,60,0,0
225605,-96.1538461538461,4,1,0,60,0,0
225712,-95.2380952380952,4,1,0,60,0,0
225819,-94.3396226415094,4,1,0,60,0,0
225926,-93.4579439252336,4,1,0,60,0,0
226034,-92.5925925925926,4,1,0,60,0,0
226260,-106.382978723404,4,1,0,60,0,0
226367,-105.263157894737,4,1,0,60,0,0
226474,-104.166666666667,4,1,0,60,0,0
226581,-103.092783505155,4,1,0,60,0,0
226688,-102.040816326531,4,1,0,60,0,0
226795,-101.010101010101,4,1,0,60,0,0
226902,-100,4,1,0,60,0,0
227010,-99.009900990099,4,1,0,60,0,0
227117,-98.0392156862745,4,1,0,60,0,0
227224,-97.0873786407767,4,1,0,60,0,0
227331,-96.1538461538461,4,1,0,60,0,0
227438,-95.2380952380952,4,1,0,60,0,0
227545,-94.3396226415094,4,1,0,60,0,0
227652,-93.4579439252336,4,1,0,60,0,0
227760,-92.5925925925926,4,1,0,60,0,0
227960,-106.382978723404,4,1,0,60,0,0
228067,-105.263157894737,4,1,0,60,0,0
228174,-104.166666666667,4,1,0,60,0,0
228281,-103.092783505155,4,1,0,60,0,0
228388,-102.040816326531,4,1,0,60,0,0
228495,-101.010101010101,4,1,0,60,0,0
228602,-100,4,1,0,60,0,0
228710,-99.009900990099,4,1,0,60,0,0
228817,-98.0392156862745,4,1,0,60,0,0
228924,-97.0873786407767,4,1,0,60,0,0
229031,-96.1538461538461,4,1,0,60,0,0
229138,-95.2380952380952,4,1,0,60,0,0
229245,-94.3396226415094,4,1,0,60,0,0
229352,-93.4579439252336,4,1,0,60,0,0
229460,-92.5925925925926,4,1,0,60,0,0
229717,-106.382978723404,4,1,0,60,0,0
229797,-105.263157894737,4,1,0,60,0,0
229904,-104.166666666667,4,1,0,60,0,0
230011,-103.092783505155,4,1,0,60,0,0
230118,-102.040816326531,4,1,0,60,0,0
230225,-101.010101010101,4,1,0,60,0,0
230332,-100,4,1,0,60,0,0
230439,-99.009900990099,4,1,0,60,0,0
230547,-98.0392156862745,4,1,0,60,0,0
230654,-97.0873786407767,4,1,0,60,0,0
230761,-96.1538461538461,4,1,0,60,0,0
230868,-95.2380952380952,4,1,0,60,0,0
230975,-94.3396226415094,4,1,0,60,0,0
231082,-93.4579439252337,4,1,0,60,0,0
231189,-92.5925925925926,4,1,0,60,0,0
231431,-106.382978723404,4,1,0,60,0,0
231538,-105.263157894737,4,1,0,60,0,0
231645,-104.166666666667,4,1,0,60,0,0
231752,-103.092783505155,4,1,0,60,0,0
231859,-102.040816326531,4,1,0,60,0,0
231966,-101.010101010101,4,1,0,60,0,0
232073,-100,4,1,0,60,0,0
232180,-99.009900990099,4,1,0,60,0,0
232288,-98.0392156862745,4,1,0,60,0,0
232395,-97.0873786407767,4,1,0,60,0,0
232502,-96.1538461538461,4,1,0,60,0,0
232609,-95.2380952380952,4,1,0,60,0,0
232716,-94.3396226415094,4,1,0,60,0,0
232823,-93.4579439252337,4,1,0,60,0,0
232930,-92.5925925925926,4,1,0,60,0,0
233145,-105.263157894737,4,1,0,60,0,0
233253,-104.166666666667,4,1,0,60,0,0
233360,-103.092783505155,4,1,0,60,0,0
233467,-102.040816326531,4,1,0,60,0,0
233574,-101.010101010101,4,1,0,60,0,0
233681,-100,4,1,0,60,0,0
233788,-99.009900990099,4,1,0,60,0,0
233895,-98.0392156862745,4,1,0,60,0,0
234003,-97.0873786407767,4,1,0,60,0,0
234110,-96.1538461538461,4,1,0,60,0,0
234217,-95.2380952380952,4,1,0,60,0,0
234324,-94.3396226415094,4,1,0,60,0,0
234431,-93.4579439252337,4,1,0,60,0,0
234538,-92.5925925925926,4,1,0,60,0,0
234645,-91.743119266055,4,1,0,60,0,0
234860,-104.166666666667,4,1,0,60,0,0
234967,-103.092783505155,4,1,0,60,0,0
235074,-102.040816326531,4,1,0,60,0,0
235181,-101.010101010101,4,1,0,60,0,0
235288,-100,4,1,0,60,0,0
235395,-99.009900990099,4,1,0,60,0,0
235502,-98.0392156862745,4,1,0,60,0,0
235609,-97.0873786407767,4,1,0,60,0,0
235717,-96.1538461538461,4,1,0,60,0,0
235824,-95.2380952380952,4,1,0,60,0,0
235931,-94.3396226415094,4,1,0,60,0,0
236038,-93.4579439252337,4,1,0,60,0,0
236145,-92.5925925925926,4,1,0,60,0,0
236252,-91.743119266055,4,1,0,60,0,0
236359,-90.9090909090909,4,1,0,60,0,0
236574,-100,4,1,0,60,0,0
236681,-99.009900990099,4,1,0,60,0,0
236788,-98.0392156862745,4,1,0,60,0,0
236895,-97.0873786407767,4,1,0,60,0,0
237002,-96.1538461538461,4,1,0,60,0,0
237109,-95.2380952380952,4,1,0,60,0,0
237216,-94.3396226415094,4,1,0,60,0,0
237323,-93.4579439252337,4,1,0,60,0,0
237431,-92.5925925925926,4,1,0,60,0,0
237538,-91.7431192660551,4,1,0,60,0,0
237645,-90.9090909090909,4,1,0,60,0,0
237752,-90.0900900900901,4,1,0,60,0,0
237859,-89.2857142857143,4,1,0,60,0,0
237966,-88.4955752212389,4,1,0,60,0,0
238073,-87.719298245614,4,1,0,60,0,0
238288,-100,4,1,0,60,0,0
238395,-99.009900990099,4,1,0,60,0,0
238502,-98.0392156862745,4,1,0,60,0,0
238609,-97.0873786407767,4,1,0,60,0,0
238716,-96.1538461538461,4,1,0,60,0,0
238823,-95.2380952380952,4,1,0,60,0,0
238930,-94.3396226415094,4,1,0,60,0,0
239037,-93.4579439252337,4,1,0,60,0,0
239145,-92.5925925925926,4,1,0,60,0,0
239252,-91.7431192660551,4,1,0,60,0,0
239359,-90.9090909090909,4,1,0,60,0,0
239466,-90.0900900900901,4,1,0,60,0,0
239573,-89.2857142857143,4,1,0,60,0,0
239680,-88.4955752212389,4,1,0,60,0,0
239787,-87.719298245614,4,1,0,60,0,0
240003,-100,4,1,0,60,0,0
240110,-99.009900990099,4,1,0,60,0,0
240217,-98.0392156862745,4,1,0,60,0,0
240324,-97.0873786407767,4,1,0,60,0,0
240431,-96.1538461538461,4,1,0,60,0,0
240538,-95.2380952380952,4,1,0,60,0,0
240645,-94.3396226415094,4,1,0,60,0,0
240752,-93.4579439252337,4,1,0,60,0,0
240860,-92.5925925925926,4,1,0,60,0,0
240967,-91.7431192660551,4,1,0,60,0,0
241074,-90.9090909090909,4,1,0,60,0,0
241181,-90.0900900900901,4,1,0,60,0,0
241288,-89.2857142857143,4,1,0,60,0,0
241395,-88.4955752212389,4,1,0,60,0,0
241502,-87.719298245614,4,1,0,60,0,0
241717,-100,4,1,0,60,0,0
241824,-99.009900990099,4,1,0,60,0,0
241931,-98.0392156862745,4,1,0,60,0,0
242038,-97.0873786407767,4,1,0,60,0,0
242145,-96.1538461538461,4,1,0,60,0,0
242252,-95.2380952380952,4,1,0,60,0,0
242359,-94.3396226415094,4,1,0,60,0,0
242466,-93.4579439252337,4,1,0,60,0,0
242574,-92.5925925925926,4,1,0,60,0,0
242681,-91.7431192660551,4,1,0,60,0,0
242788,-90.9090909090909,4,1,0,60,0,0
242895,-90.0900900900901,4,1,0,60,0,0
243002,-89.2857142857143,4,1,0,60,0,0
243109,-88.4955752212389,4,1,0,60,0,0
243216,-87.719298245614,4,1,0,60,0,0
243431,-100,4,1,0,60,0,0
243538,-99.009900990099,4,1,0,60,0,0
243645,-98.0392156862745,4,1,0,60,0,0
243752,-97.0873786407767,4,1,0,60,0,0
243859,-96.1538461538461,4,1,0,60,0,0
243966,-95.2380952380952,4,1,0,60,0,0
244073,-94.3396226415094,4,1,0,60,0,0
244180,-93.4579439252337,4,1,0,60,0,0
244288,-92.5925925925926,4,1,0,60,0,0
244395,-91.7431192660551,4,1,0,60,0,0
244502,-90.9090909090909,4,1,0,60,0,0
244609,-90.0900900900901,4,1,0,60,0,0
244716,-89.2857142857143,4,1,0,60,0,0
244823,-88.4955752212389,4,1,0,60,0,0
244930,-87.719298245614,4,1,0,60,0,0
245145,-100,4,1,0,60,0,0
245253,-98.9399293286219,4,1,0,60,0,0
245360,-97.9020979020979,4,1,0,60,0,0
245467,-96.8858131487889,4,1,0,60,0,0
245574,-95.8904109589041,4,1,0,60,0,0
245681,-94.9152542372881,4,1,0,60,0,0
245788,-93.9597315436242,4,1,0,60,0,0
245895,-93.0232558139535,4,1,0,60,0,0
246003,-92.1052631578947,4,1,0,60,0,0
246110,-91.2052117263844,4,1,0,60,0,0
246217,-90.3225806451613,4,1,0,60,0,0
246324,-89.4568690095847,4,1,0,60,0,0
246431,-88.6075949367089,4,1,0,60,0,0
246538,-87.7742946708464,4,1,0,60,0,0
246645,-86.9565217391304,4,1,0,60,0,0
246860,-100,4,1,0,60,0,0
246967,-98.7306064880113,4,1,0,60,0,0
247074,-97.4930362116992,4,1,0,60,0,0
247181,-96.2861072902338,4,1,0,60,0,0
247288,-95.1086956521739,4,1,0,60,0,0
247395,-93.9597315436242,4,1,0,60,0,0
247502,-92.8381962864721,4,1,0,60,0,0
247609,-91.7431192660551,4,1,0,60,0,0
247717,-90.6735751295337,4,1,0,60,0,0
247824,-89.628681177977,4,1,0,60,0,0
247931,-88.6075949367089,4,1,0,60,0,0
248038,-87.6095118898623,4,1,0,60,0,0
248145,-86.6336633663366,4,1,0,60,0,0
248252,-85.6793145654835,4,1,0,60,0,0
248359,-84.7457627118644,4,1,0,60,0,0
248574,-100,4,1,0,60,0,0
248681,-98.4528832630098,4,1,0,60,0,0
248788,-96.9529085872576,4,1,0,60,0,0
248895,-95.4979536152797,4,1,0,60,0,0
249002,-94.0860215053763,4,1,0,60,0,0
249109,-92.7152317880795,4,1,0,60,0,0
249216,-91.3838120104439,4,1,0,60,0,0
249323,-90.0900900900901,4,1,0,60,0,0
249431,-88.8324873096447,4,1,0,60,0,0
249538,-87.6095118898623,4,1,0,60,0,0
249645,-86.4197530864198,4,1,0,60,0,0
249752,-85.2618757612668,4,1,0,60,0,0
249859,-84.1346153846154,4,1,0,60,0,0
249966,-83.0367734282325,4,1,0,60,0,0
250073,-81.9672131147541,4,1,0,60,0,0
250288,-100,4,1,0,60,0,0
250395,-98.0392156862745,4,1,0,60,0,0
250502,-96.1538461538461,4,1,0,60,0,0
250609,-94.3396226415094,4,1,0,60,0,0
250716,-92.5925925925926,4,1,0,60,0,0
250823,-90.9090909090909,4,1,0,60,0,0
250930,-89.2857142857143,4,1,0,60,0,0
251037,-87.719298245614,4,1,0,60,0,0
251145,-86.2068965517241,4,1,0,60,0,0
251252,-84.7457627118644,4,1,0,60,0,0
251359,-83.3333333333333,4,1,0,60,0,0
251466,-81.9672131147541,4,1,0,60,0,0
251573,-80.6451612903226,4,1,0,60,0,0
251680,-79.3650793650794,4,1,0,60,0,0
251787,-78.125,4,1,0,60,0,0
252003,-100,4,1,0,60,0,0
252110,-98.0392156862745,4,1,0,60,0,0
252217,-96.1538461538461,4,1,0,60,0,0
252324,-94.3396226415094,4,1,0,60,0,0
252431,-92.5925925925926,4,1,0,60,0,0
252538,-90.9090909090909,4,1,0,60,0,0
252645,-89.2857142857143,4,1,0,60,0,0
252752,-87.719298245614,4,1,0,60,0,0
252860,-86.2068965517241,4,1,0,60,0,0
252967,-84.7457627118644,4,1,0,60,0,0
253074,-83.3333333333333,4,1,0,60,0,0
253181,-81.9672131147541,4,1,0,60,0,0
253288,-80.6451612903226,4,1,0,60,0,0
253395,-79.3650793650794,4,1,0,60,0,0
253502,-78.125,4,1,0,60,0,0
253717,-100,4,1,0,60,0,0
253824,-98.0392156862745,4,1,0,60,0,0
253931,-96.1538461538461,4,1,0,60,0,0
254038,-94.3396226415094,4,1,0,60,0,0
254145,-92.5925925925926,4,1,0,60,0,0
254252,-90.9090909090909,4,1,0,60,0,0
254359,-89.2857142857143,4,1,0,60,0,0
254466,-87.719298245614,4,1,0,60,0,0
254574,-86.2068965517241,4,1,0,60,0,0
254681,-84.7457627118644,4,1,0,60,0,0
254788,-83.3333333333333,4,1,0,60,0,0
254895,-81.9672131147541,4,1,0,60,0,0
255002,-80.6451612903226,4,1,0,60,0,0
255109,-79.3650793650794,4,1,0,60,0,0
255216,-78.125,4,1,0,60,0,0
255431,-100,4,1,0,60,0,0
255538,-98.0392156862745,4,1,0,60,0,0
255645,-96.1538461538461,4,1,0,60,0,0
255752,-94.3396226415094,4,1,0,60,0,0
255859,-92.5925925925926,4,1,0,60,0,0
255966,-90.9090909090909,4,1,0,60,0,0
256073,-89.2857142857143,4,1,0,60,0,0
256180,-87.719298245614,4,1,0,60,0,0
256288,-86.2068965517241,4,1,0,60,0,0
256395,-84.7457627118644,4,1,0,60,0,0
256502,-83.3333333333333,4,1,0,60,0,0
256609,-81.9672131147541,4,1,0,60,0,0
256716,-80.6451612903226,4,1,0,60,0,0
256823,-79.3650793650794,4,1,0,60,0,0
256930,-78.125,4,1,0,60,0,0
257145,-100,4,1,0,60,0,0
257253,-98.0392156862745,4,1,0,60,0,0
257360,-96.1538461538461,4,1,0,60,0,0
257467,-94.3396226415094,4,1,0,60,0,0
257574,-92.5925925925926,4,1,0,60,0,0
257681,-90.9090909090909,4,1,0,60,0,0
257788,-89.2857142857143,4,1,0,60,0,0
257895,-87.719298245614,4,1,0,60,0,0
258003,-86.2068965517241,4,1,0,60,0,0
258110,-84.7457627118644,4,1,0,60,0,0
258217,-83.3333333333333,4,1,0,60,0,0
258324,-81.9672131147541,4,1,0,60,0,0
258431,-80.6451612903226,4,1,0,60,0,0
258538,-79.3650793650794,4,1,0,60,0,0
258645,-78.125,4,1,0,60,0,0
258860,-100,4,1,0,60,0,0
258967,-98.0392156862745,4,1,0,60,0,0
259074,-96.1538461538461,4,1,0,60,0,0
259181,-94.3396226415094,4,1,0,60,0,0
259288,-92.5925925925926,4,1,0,60,0,0
259395,-90.9090909090909,4,1,0,60,0,0
259502,-89.2857142857143,4,1,0,60,0,0
259609,-87.719298245614,4,1,0,60,0,0
259717,-86.2068965517241,4,1,0,60,0,0
259824,-84.7457627118644,4,1,0,60,0,0
259931,-83.3333333333333,4,1,0,60,0,0
260038,-81.9672131147541,4,1,0,60,0,0
260145,-80.6451612903226,4,1,0,60,0,0
260252,-79.3650793650794,4,1,0,60,0,0
260359,-78.125,4,1,0,60,0,0
260574,-100,4,1,0,60,0,0
260681,-98.0392156862745,4,1,0,60,0,0
260788,-96.1538461538461,4,1,0,60,0,0
260895,-94.3396226415094,4,1,0,60,0,0
261002,-92.5925925925926,4,1,0,60,0,0
261109,-90.9090909090909,4,1,0,60,0,0
261216,-89.2857142857143,4,1,0,60,0,0
261323,-87.719298245614,4,1,0,60,0,0
261431,-86.2068965517241,4,1,0,60,0,0
261538,-84.7457627118644,4,1,0,60,0,0
261645,-83.3333333333333,4,1,0,60,0,0
261752,-81.9672131147541,4,1,0,60,0,0
261859,-80.6451612903226,4,1,0,60,0,0
261966,-79.3650793650794,4,1,0,60,0,0
262073,-78.125,4,1,0,60,0,0
262288,-100,4,1,0,60,0,0
262395,-98.0392156862745,4,1,0,60,0,0
262502,-96.1538461538461,4,1,0,60,0,0
262609,-94.3396226415094,4,1,0,60,0,0
262716,-92.5925925925926,4,1,0,60,0,0
262823,-90.9090909090909,4,1,0,60,0,0
262930,-89.2857142857143,4,1,0,60,0,0
263037,-87.719298245614,4,1,0,60,0,0
263145,-86.2068965517241,4,1,0,60,0,0
263252,-84.7457627118644,4,1,0,60,0,0
263359,-83.3333333333333,4,1,0,60,0,0
263466,-81.9672131147541,4,1,0,60,0,0
263573,-80.6451612903226,4,1,0,60,0,0
263680,-79.3650793650794,4,1,0,60,0,0
263787,-78.125,4,1,0,60,0,0
264003,-83.3333333333333,4,1,0,60,0,0
291003,-83.3333333333333,4,1,0,48,0,0
291217,-84.7457627118644,4,1,0,48,0,0
291431,-86.2068965517241,4,1,0,48,0,0
291753,-87.719298245614,4,1,0,48,0,0
292074,-89.2857142857143,4,1,0,48,0,0
292288,-90.9090909090909,4,1,0,48,0,0
292717,-95.2380952380952,4,1,0,48,0,0
293145,-100,4,1,0,48,0,0

[HitObjects]
170,202,6865,5,8,0:0:0:0:
170,202,7079,1,0,0:0:0:0:
170,202,7186,1,0,0:0:0:0:
170,202,7293,1,0,0:0:0:0:
170,202,7508,1,0,0:0:0:0:
208,47,7722,1,8,0:0:0:0:
321,163,7936,1,0,0:0:0:0:
321,163,8150,1,8,0:0:0:0:
321,163,8365,1,8,0:0:0:0:
346,227,8579,1,0,0:0:0:0:
346,227,8650,1,0,0:0:0:0:
247,88,8722,1,0,0:0:0:0:
247,88,8793,1,8,0:0:0:0:
346,227,9008,1,0,0:0:0:0:
346,227,9079,1,0,0:0:0:0:
247,88,9150,1,0,0:0:0:0:
247,88,9222,1,8,0:0:0:0:
369,210,9436,1,8,0:0:0:0:
369,210,9650,1,0,0:0:0:0:
369,210,9865,1,8,0:0:0:0:
281,76,10079,1,8,0:0:0:0:
281,76,10293,1,8,0:0:0:0:
281,76,10508,1,0,0:0:0:0:
281,76,10615,1,0,0:0:0:0:
281,76,10722,1,0,0:0:0:0:
281,76,10936,1,0,0:0:0:0:
281,76,11150,1,8,0:0:0:0:
281,76,11365,1,0,0:0:0:0:
281,76,11579,1,8,0:0:0:0:
281,76,11793,1,8,0:0:0:0:
281,76,12008,1,8,0:0:0:0:
281,76,12222,1,0,0:0:0:0:
281,76,12329,1,0,0:0:0:0:
281,76,12436,1,0,0:0:0:0:
281,76,12650,1,0,0:0:0:0:
281,76,12864,1,8,0:0:0:0:
281,76,13079,1,0,0:0:0:0:
281,76,13293,1,8,0:0:0:0:
281,76,13507,1,8,0:0:0:0:
281,76,13722,1,8,0:0:0:0:
281,76,13936,1,0,0:0:0:0:
281,76,14043,1,0,0:0:0:0:
281,76,14150,1,0,0:0:0:0:
281,76,14364,1,0,0:0:0:0:
281,76,14578,1,8,0:0:0:0:
281,76,14793,1,0,0:0:0:0:
281,76,15007,1,8,0:0:0:0:
281,76,15221,1,8,0:0:0:0:
281,76,15436,1,8,0:0:0:0:
281,76,15650,1,0,0:0:0:0:
281,76,15757,1,0,0:0:0:0:
281,76,15864,1,0,0:0:0:0:
281,76,16078,1,0,0:0:0:0:
281,76,16292,1,8,0:0:0:0:
281,76,16507,1,0,0:0:0:0:
281,76,16721,1,8,0:0:0:0:
281,76,16935,1,8,0:0:0:0:
281,76,17150,1,8,0:0:0:0:
281,76,17365,1,0,0:0:0:0:
281,76,17472,1,0,0:0:0:0:
281,76,17579,1,0,0:0:0:0:
281,76,17793,1,0,0:0:0:0:
281,76,18007,1,8,0:0:0:0:
281,76,18222,1,0,0:0:0:0:
281,76,18436,1,8,0:0:0:0:
281,76,18650,1,8,0:0:0:0:
281,76,18865,1,8,0:0:0:0:
281,76,19079,1,0,0:0:0:0:
281,76,19186,1,0,0:0:0:0:
281,76,19293,1,0,0:0:0:0:
281,76,19507,1,0,0:0:0:0:
281,76,19721,1,8,0:0:0:0:
281,76,19936,1,0,0:0:0:0:
281,76,20150,1,8,0:0:0:0:
281,76,20364,1,8,0:0:0:0:
281,76,20579,1,8,0:0:0:0:
281,76,20793,1,0,0:0:0:0:
281,76,20900,1,0,0:0:0:0:
281,76,21007,1,0,0:0:0:0:
281,76,21221,1,0,0:0:0:0:
281,76,21435,1,8,0:0:0:0:
281,76,21650,1,0,0:0:0:0:
281,76,21864,1,8,0:0:0:0:
281,76,22078,1,8,0:0:0:0:
281,76,22293,1,8,0:0:0:0:
281,76,22508,1,0,0:0:0:0:
281,76,22615,1,0,0:0:0:0:
281,76,22722,1,0,0:0:0:0:
281,76,22936,1,0,0:0:0:0:
281,76,23150,1,8,0:0:0:0:
281,76,23365,1,0,0:0:0:0:
281,76,23579,1,8,0:0:0:0:
281,76,23793,1,8,0:0:0:0:
88,167,23900,1,0,0:0:0:0:
193,190,23954,1,0,0:0:0:0:
281,76,24008,1,8,0:0:0:0:
406,117,24436,1,0,0:0:0:0:
406,117,24650,1,0,0:0:0:0:
406,117,24865,1,8,0:0:0:0:
406,117,25293,1,0,0:0:0:0:
406,117,25722,1,8,0:0:0:0:
381,153,25775,1,8,0:0:0:0:
406,117,26150,1,0,0:0:0:0:
381,153,26579,1,8,0:0:0:0:
381,153,27008,1,8,0:0:0:0:
381,153,27436,1,0,0:0:0:0:
381,153,27490,1,0,0:0:0:0:
381,153,27543,1,0,0:0:0:0:
206,252,27865,1,0,0:0:0:0:
206,252,28079,1,0,0:0:0:0:
206,252,28293,1,8,0:0:0:0:
206,252,28722,1,0,0:0:0:0:
206,252,29150,1,8,0:0:0:0:
206,252,29204,1,8,0:0:0:0:
206,252,29579,1,0,0:0:0:0:
206,252,30008,1,0,0:0:0:0:
206,252,30061,1,0,0:0:0:0:
206,252,30115,1,8,0:0:0:0:
399,135,30222,1,0,0:0:0:0:
361,148,30436,1,0,0:0:0:0:
361,148,30758,1,0,0:0:0:0:
361,148,30811,1,0,0:0:0:0:
361,148,30865,1,8,0:0:0:0:
361,148,31293,1,0,0:0:0:0:
361,148,31508,1,0,0:0:0:0:
361,148,31722,1,8,0:0:0:0:
361,148,32150,1,0,0:0:0:0:
361,148,32579,1,8,0:0:0:0:
361,148,32633,1,8,0:0:0:0:
361,148,33008,1,0,0:0:0:0:
361,148,33436,1,8,0:0:0:0:
361,148,33865,1,8,0:0:0:0:
361,148,34293,1,0,0:0:0:0:
361,148,34347,1,0,0:0:0:0:
361,148,34400,1,0,0:0:0:0:
361,148,34722,1,0,0:0:0:0:
361,148,34936,1,0,0:0:0:0:
361,148,35150,1,8,0:0:0:0:
361,148,35579,1,0,0:0:0:0:
361,148,36008,1,8,0:0:0:0:
361,148,36061,1,8,0:0:0:0:
361,148,36436,1,0,0:0:0:0:
361,148,36865,1,0,0:0:0:0:
361,148,37079,1,8,0:0:0:0:
394,153,37186,1,0,0:0:0:0:
361,148,37293,1,8,0:0:0:0:
394,153,37400,1,8,0:0:0:0:
361,148,37508,1,0,0:0:0:0:
394,153,37615,1,0,0:0:0:0:
361,148,37722,1,12,0:0:0:0:
362,228,39008,1,0,0:0:0:0:
362,228,39436,1,8,0:0:0:0:
362,228,40722,1,8,0:0:0:0:
362,228,41150,1,8,0:0:0:0:
362,228,41793,1,0,0:0:0:0:
362,228,42436,1,0,0:0:0:0:
362,228,42865,1,8,0:0:0:0:
362,228,43722,1,8,0:0:0:0:
362,228,43936,1,8,0:0:0:0:
362,228,44150,1,0,0:0:0:0:
362,228,44365,1,0,0:0:0:0:
381,108,44472,1,0,0:0:0:0:
381,108,44525,1,0,0:0:0:0:
381,108,44579,1,8,0:0:0:0:
363,97,45008,1,8,0:0:0:0:
363,97,45222,1,8,0:0:0:0:
363,97,45436,1,0,0:0:0:0:
363,97,45865,1,8,0:0:0:0:
363,97,46293,1,8,0:0:0:0:
363,97,46722,1,0,0:0:0:0:
363,97,46936,1,0,0:0:0:0:
363,97,47150,1,8,0:0:0:0:
363,97,47365,1,0,0:0:0:0:
363,97,47579,1,8,0:0:0:0:
256,192,48008,12,8,49615,0:0:0:0:
265,104,49722,5,8,0:0:0:0:
265,104,50579,1,0,0:0:0:0:
265,104,51436,1,0,0:0:0:0:
265,104,51865,1,8,0:0:0:0:
265,104,52079,1,8,0:0:0:0:
265,104,52293,1,0,0:0:0:0:
265,104,52722,1,0,0:0:0:0:
265,104,52936,1,8,0:0:0:0:
265,104,53150,1,0,0:0:0:0:
265,104,53579,1,8,0:0:0:0:
265,104,53793,1,0,0:0:0:0:
265,104,54008,1,0,0:0:0:0:
265,104,54436,1,0,0:0:0:0:
265,104,54650,1,8,0:0:0:0:
265,104,54865,1,8,0:0:0:0:
265,104,55293,1,8,0:0:0:0:
265,104,55508,1,8,0:0:0:0:
265,104,55722,1,0,0:0:0:0:
265,104,56150,1,0,0:0:0:0:
265,104,56365,1,8,0:0:0:0:
265,104,56579,1,0,0:0:0:0:
265,104,57008,1,0,0:0:0:0:
265,104,57222,1,8,0:0:0:0:
265,104,57436,1,0,0:0:0:0:
265,104,57650,1,8,0:0:0:0:
265,104,57865,1,8,0:0:0:0:
265,104,58079,1,0,0:0:0:0:
199,124,58293,1,4,0:0:0:0:
324,131,58508,1,8,0:0:0:0:
324,131,58615,1,8,0:0:0:0:
199,124,58722,1,0,0:0:0:0:
324,131,58936,1,0,0:0:0:0:
199,124,59150,1,0,0:0:0:0:
324,131,59365,1,8,0:0:0:0:
199,124,59579,1,8,0:0:0:0:
324,131,59793,1,8,0:0:0:0:
199,124,60008,1,0,0:0:0:0:
256,34,60222,1,8,0:0:0:0:
256,34,60329,1,8,0:0:0:0:
199,124,60436,1,0,0:0:0:0:
256,34,60650,1,8,0:0:0:0:
199,124,60865,1,0,0:0:0:0:
256,34,61079,1,0,0:0:0:0:
199,124,61293,1,8,0:0:0:0:
256,34,61508,1,8,0:0:0:0:
199,124,61722,1,0,0:0:0:0:
256,34,61936,1,8,0:0:0:0:
256,34,62043,1,8,0:0:0:0:
199,124,62150,1,0,0:0:0:0:
256,34,62365,1,0,0:0:0:0:
199,124,62579,1,0,0:0:0:0:
256,34,62793,1,0,0:0:0:0:
199,124,63008,1,8,0:0:0:0:
256,34,63222,1,8,0:0:0:0:
199,124,63436,1,0,0:0:0:0:
292,72,63650,1,8,0:0:0:0:
292,72,63758,1,8,0:0:0:0:
199,124,63865,1,0,0:0:0:0:
292,72,64079,1,0,0:0:0:0:
199,124,64293,1,0,0:0:0:0:
304,144,64365,1,0,0:0:0:0:
304,144,64436,1,0,0:0:0:0:
304,144,64508,1,8,0:0:0:0:
195,176,64722,1,0,0:0:0:0:
195,176,64793,1,0,0:0:0:0:
195,176,64865,1,0,0:0:0:0:
195,176,64936,1,8,0:0:0:0:
240,72,65150,5,0,0:0:0:0:
292,72,65258,1,0,0:0:0:0:
292,72,65365,1,0,0:0:0:0:
240,72,65472,1,8,0:0:0:0:
292,72,65579,1,8,0:0:0:0:
292,72,65686,1,0,0:0:0:0:
240,72,65793,1,8,0:0:0:0:
292,72,65900,1,8,0:0:0:0:
240,72,66008,1,0,0:0:0:0:
356,66,66115,1,0,0:0:0:0:
356,66,66222,1,0,0:0:0:0:
356,66,66329,1,0,0:0:0:0:
240,72,66436,1,8,0:0:0:0:
356,66,66543,1,8,0:0:0:0:
356,66,66650,1,0,0:0:0:0:
356,66,66758,1,0,0:0:0:0:
208,224,66865,1,8,0:0:0:0:
356,66,66972,1,8,0:0:0:0:
356,66,67079,1,8,0:0:0:0:
208,224,67186,1,0,0:0:0:0:
356,66,67293,1,0,0:0:0:0:
356,66,67400,1,0,0:0:0:0:
208,224,67508,1,8,0:0:0:0:
356,66,67615,1,0,0:0:0:0:
208,224,67722,1,8,0:0:0:0:
356,66,67829,1,8,0:0:0:0:
208,224,67936,1,0,0:0:0:0:
356,66,68043,1,8,0:0:0:0:
208,224,68150,1,0,0:0:0:0:
356,66,68258,1,0,0:0:0:0:
208,224,68365,1,8,0:0:0:0:
356,66,68472,1,8,0:0:0:0:
240,72,68579,1,0,0:0:0:0:
356,66,68686,1,0,0:0:0:0:
356,66,68793,1,0,0:0:0:0:
240,72,68901,1,8,0:0:0:0:
356,66,69008,1,8,0:0:0:0:
356,66,69115,1,0,0:0:0:0:
240,72,69222,1,8,0:0:0:0:
356,66,69329,1,8,0:0:0:0:
240,72,69437,1,0,0:0:0:0:
356,66,69543,1,0,0:0:0:0:
356,66,69650,1,0,0:0:0:0:
356,66,69758,1,0,0:0:0:0:
240,72,69865,1,8,0:0:0:0:
356,66,69972,1,8,0:0:0:0:
356,66,70079,1,0,0:0:0:0:
356,66,70186,1,0,0:0:0:0:
208,224,70294,1,8,0:0:0:0:
356,66,70400,1,8,0:0:0:0:
356,66,70508,1,8,0:0:0:0:
208,224,70615,1,0,0:0:0:0:
141,140,70722,1,0,0:0:0:0:
141,140,70829,1,0,0:0:0:0:
208,224,70937,1,8,0:0:0:0:
141,140,71043,1,8,0:0:0:0:
208,224,71151,1,0,0:0:0:0:
141,140,71258,1,0,0:0:0:0:
208,224,71365,1,8,0:0:0:0:
141,140,71472,1,0,0:0:0:0:
208,224,71579,1,0,0:0:0:0:
270,120,71686,1,8,0:0:0:0:
208,224,71794,1,8,0:0:0:0:
270,120,71900,1,8,0:0:0:0:
208,224,72008,1,0,0:0:0:0:
270,120,72115,1,0,0:0:0:0:
270,120,72222,1,0,0:0:0:0:
136,248,72329,1,8,0:0:0:0:
295,245,72436,1,8,0:0:0:0:
295,245,72543,1,0,0:0:0:0:
136,248,72650,1,8,0:0:0:0:
295,245,72758,1,8,0:0:0:0:
136,248,72865,1,0,0:0:0:0:
295,245,72972,1,0,0:0:0:0:
295,245,73079,1,0,0:0:0:0:
295,245,73186,1,0,0:0:0:0:
136,248,73293,1,8,0:0:0:0:
295,245,73400,1,8,0:0:0:0:
327,113,73508,1,0,0:0:0:0:
327,113,73615,1,0,0:0:0:0:
136,248,73722,1,8,0:0:0:0:
295,245,73829,1,8,0:0:0:0:
295,245,73936,1,8,0:0:0:0:
136,248,74043,1,0,0:0:0:0:
327,113,74150,1,0,0:0:0:0:
327,113,74258,1,0,0:0:0:0:
136,248,74365,1,8,0:0:0:0:
295,245,74472,1,0,0:0:0:0:
136,248,74579,1,8,0:0:0:0:
295,245,74686,1,8,0:0:0:0:
136,248,74793,1,0,0:0:0:0:
295,245,74900,1,8,0:0:0:0:
136,248,75008,1,0,0:0:0:0:
295,245,75115,1,0,0:0:0:0:
136,248,75222,1,8,0:0:0:0:
327,113,75329,1,8,0:0:0:0:
136,248,75436,1,0,0:0:0:0:
295,245,75543,1,0,0:0:0:0:
295,245,75650,1,0,0:0:0:0:
136,248,75758,1,8,0:0:0:0:
295,245,75865,1,8,0:0:0:0:
295,245,75972,1,0,0:0:0:0:
136,248,76079,1,8,0:0:0:0:
295,245,76186,1,8,0:0:0:0:
136,248,76293,1,0,0:0:0:0:
295,245,76400,1,0,0:0:0:0:
295,245,76508,1,0,0:0:0:0:
295,245,76615,1,0,0:0:0:0:
136,248,76722,1,8,0:0:0:0:
327,113,76829,1,0,0:0:0:0:
327,113,76936,1,0,0:0:0:0:
327,113,77043,1,0,0:0:0:0:
136,248,77150,1,8,0:0:0:0:
295,245,77258,1,8,0:0:0:0:
295,245,77365,1,0,0:0:0:0:
136,248,77472,1,0,0:0:0:0:
203,188,77579,1,0,0:0:0:0:
203,188,77686,1,0,0:0:0:0:
136,248,77793,1,8,0:0:0:0:
317,173,77900,1,8,0:0:0:0:
136,248,78008,1,0,0:0:0:0:
317,173,78115,1,8,0:0:0:0:
136,248,78222,1,0,0:0:0:0:
283,109,78329,1,0,0:0:0:0:
136,248,78436,1,8,0:0:0:0:
283,109,78543,1,0,0:0:0:0:
136,248,78650,1,8,0:0:0:0:
283,109,78758,1,8,0:0:0:0:
208,224,78865,1,0,0:0:0:0:
283,109,78972,1,0,0:0:0:0:
283,109,79079,1,0,0:0:0:0:
136,248,79186,1,8,0:0:0:0:
202,162,79293,1,8,0:0:0:0:
202,162,79400,1,0,0:0:0:0:
136,248,79507,1,8,0:0:0:0:
202,162,79615,1,8,0:0:0:0:
136,248,79722,1,0,0:0:0:0:
202,162,79829,1,0,0:0:0:0:
202,162,79936,1,0,0:0:0:0:
202,162,80043,1,0,0:0:0:0:
136,248,80150,1,8,0:0:0:0:
203,188,80258,1,8,0:0:0:0:
203,188,80365,1,0,0:0:0:0:
203,188,80472,1,0,0:0:0:0:
136,248,80579,1,8,0:0:0:0:
202,162,80686,1,8,0:0:0:0:
202,162,80793,1,8,0:0:0:0:
136,248,80900,1,0,0:0:0:0:
203,188,81008,1,0,0:0:0:0:
203,188,81115,1,0,0:0:0:0:
136,248,81222,1,8,0:0:0:0:
202,162,81329,1,0,0:0:0:0:
136,248,81436,1,8,0:0:0:0:
202,162,81543,1,8,0:0:0:0:
136,248,81650,1,0,0:0:0:0:
202,162,81758,1,8,0:0:0:0:
136,248,81865,1,0,0:0:0:0:
202,162,81972,1,0,0:0:0:0:
136,248,82079,1,8,0:0:0:0:
203,188,82186,1,8,0:0:0:0:
136,248,82293,1,0,0:0:0:0:
202,162,82400,1,0,0:0:0:0:
202,162,82508,1,0,0:0:0:0:
136,248,82615,1,8,0:0:0:0:
202,162,82722,1,8,0:0:0:0:
202,162,82829,1,0,0:0:0:0:
136,248,82936,1,8,0:0:0:0:
202,162,83043,1,8,0:0:0:0:
136,248,83150,1,0,0:0:0:0:
202,162,83258,1,0,0:0:0:0:
202,162,83365,1,0,0:0:0:0:
202,162,83472,1,0,0:0:0:0:
136,248,83579,1,8,0:0:0:0:
203,188,83686,1,8,0:0:0:0:
203,188,83793,1,0,0:0:0:0:
203,188,83900,1,0,0:0:0:0:
136,248,84007,1,8,0:0:0:0:
202,162,84115,1,8,0:0:0:0:
202,162,84222,1,8,0:0:0:0:
136,248,84329,1,0,0:0:0:0:
203,188,84436,1,0,0:0:0:0:
203,188,84543,1,0,0:0:0:0:
136,248,84650,1,8,0:0:0:0:
274,161,84758,1,8,0:0:0:0:
136,248,84865,1,0,0:0:0:0:
274,161,84972,1,8,0:0:0:0:
136,248,85079,1,0,0:0:0:0:
274,161,85186,1,0,0:0:0:0:
136,248,85293,1,8,0:0:0:0:
274,161,85400,1,0,0:0:0:0:
136,248,85507,1,8,0:0:0:0:
203,188,85615,1,8,0:0:0:0:
208,224,85722,1,0,0:0:0:0:
274,161,85829,1,0,0:0:0:0:
274,161,85936,1,0,0:0:0:0:
136,248,86043,1,8,0:0:0:0:
274,161,86150,1,8,0:0:0:0:
274,161,86258,1,0,0:0:0:0:
136,248,86364,1,8,0:0:0:0:
274,161,86472,1,8,0:0:0:0:
136,248,86579,1,0,0:0:0:0:
274,161,86686,1,0,0:0:0:0:
274,161,86793,1,0,0:0:0:0:
274,161,86900,1,0,0:0:0:0:
136,248,87007,1,8,0:0:0:0:
203,188,87115,1,8,0:0:0:0:
203,188,87222,1,0,0:0:0:0:
203,188,87329,1,0,0:0:0:0:
136,248,87436,1,8,0:0:0:0:
274,161,87543,1,8,0:0:0:0:
274,161,87650,1,8,0:0:0:0:
136,248,87757,1,0,0:0:0:0:
203,188,87865,1,0,0:0:0:0:
203,188,87972,1,0,0:0:0:0:
136,248,88079,1,8,0:0:0:0:
274,161,88186,1,0,0:0:0:0:
136,248,88293,1,8,0:0:0:0:
274,161,88400,1,8,0:0:0:0:
136,248,88507,1,0,0:0:0:0:
274,161,88615,1,8,0:0:0:0:
136,248,88722,1,0,0:0:0:0:
274,161,88829,1,0,0:0:0:0:
136,248,88936,1,8,0:0:0:0:
203,188,89043,1,8,0:0:0:0:
136,248,89150,1,0,0:0:0:0:
274,161,89258,1,0,0:0:0:0:
274,161,89365,1,0,0:0:0:0:
136,248,89472,1,8,0:0:0:0:
274,161,89579,1,8,0:0:0:0:
274,161,89686,1,0,0:0:0:0:
136,248,89793,1,8,0:0:0:0:
274,161,89900,1,8,0:0:0:0:
136,248,90007,1,0,0:0:0:0:
274,161,90115,1,0,0:0:0:0:
274,161,90222,1,0,0:0:0:0:
274,161,90329,1,0,0:0:0:0:
136,248,90436,1,8,0:0:0:0:
203,188,90543,1,8,0:0:0:0:
203,188,90650,1,0,0:0:0:0:
203,188,90758,1,0,0:0:0:0:
136,248,90864,1,8,0:0:0:0:
342,204,90918,1,8,0:0:0:0:
136,248,91186,1,0,0:0:0:0:
342,204,91240,1,0,0:0:0:0:
136,248,91507,1,8,0:0:0:0:
342,204,91561,1,8,0:0:0:0:
136,248,91722,1,0,0:0:0:0:
336,157,91775,1,0,0:0:0:0:
136,248,91936,1,0,0:0:0:0:
336,157,91990,1,0,0:0:0:0:
136,248,92150,1,0,0:0:0:0:
336,157,92204,1,0,0:0:0:0:
136,248,92364,1,8,0:0:0:0:
336,157,92418,1,8,0:0:0:0:
227,211,92579,5,4,0:0:0:0:
351,166,93008,1,0,0:0:0:0:
351,166,93436,1,8,0:0:0:0:
351,166,93758,1,0,0:0:0:0:
360,127,93865,1,0,0:0:0:0:
351,166,94079,1,0,0:0:0:0:
351,166,94293,1,8,0:0:0:0:
261,179,94347,1,8,0:0:0:0:
351,166,94722,1,0,0:0:0:0:
351,166,95150,1,8,0:0:0:0:
261,179,95204,1,8,0:0:0:0:
351,166,95472,1,0,0:0:0:0:
360,127,95579,1,0,0:0:0:0:
351,166,95793,1,0,0:0:0:0:
310,90,95900,1,0,0:0:0:0:
310,90,95954,1,0,0:0:0:0:
351,166,96008,1,8,0:0:0:0:
360,127,96222,1,8,0:0:0:0:
360,127,96436,1,0,0:0:0:0:
360,127,96650,1,0,0:0:0:0:
360,127,96865,1,8,0:0:0:0:
150,151,97079,1,0,0:0:0:0:
150,151,97293,1,0,0:0:0:0:
310,90,97454,1,0,0:0:0:0:
310,90,97508,1,8,0:0:0:0:
197,211,97936,1,0,0:0:0:0:
197,211,97990,1,0,0:0:0:0:
197,211,98150,1,8,0:0:0:0:
197,211,98204,1,8,0:0:0:0:
197,211,98365,1,8,0:0:0:0:
197,211,98418,1,0,0:0:0:0:
197,211,98579,1,0,0:0:0:0:
197,211,98633,1,8,0:0:0:0:
197,211,98793,1,0,0:0:0:0:
197,211,98847,1,0,0:0:0:0:
197,211,99008,1,8,0:0:0:0:
197,211,99061,1,8,0:0:0:0:
197,211,99222,1,8,0:0:0:0:
197,211,99275,1,0,0:0:0:0:
197,211,99436,1,0,0:0:0:0:
197,211,99490,1,0,0:0:0:0:
150,151,99865,1,8,0:0:0:0:
150,151,100293,1,0,0:0:0:0:
150,151,100615,1,8,0:0:0:0:
150,151,100722,1,0,0:0:0:0:
150,151,100936,1,8,0:0:0:0:
274,226,101150,1,8,0:0:0:0:
274,226,101204,1,8,0:0:0:0:
150,151,101579,1,8,0:0:0:0:
274,226,102008,1,0,0:0:0:0:
274,226,102061,1,0,0:0:0:0:
243,120,102436,1,8,0:0:0:0:
274,226,102865,1,8,0:0:0:0:
274,226,102918,1,8,0:0:0:0:
243,120,103293,1,8,0:0:0:0:
274,226,103508,1,0,0:0:0:0:
274,226,103561,1,0,0:0:0:0:
243,120,103722,1,0,0:0:0:0:
243,120,103936,1,0,0:0:0:0:
274,226,104150,1,8,0:0:0:0:
274,226,104204,1,8,0:0:0:0:
243,120,104579,1,0,0:0:0:0:
243,120,104793,1,0,0:0:0:0:
243,120,105008,1,8,0:0:0:0:
243,120,105222,1,0,0:0:0:0:
243,120,105436,1,0,0:0:0:0:
243,120,105650,1,0,0:0:0:0:
243,120,105865,1,8,0:0:0:0:
243,120,106079,1,8,0:0:0:0:
226,211,106293,5,8,0:0:0:0:
226,211,106400,1,0,0:0:0:0:
226,211,106508,1,0,0:0:0:0:
226,211,106615,1,0,0:0:0:0:
226,211,106722,1,8,0:0:0:0:
226,211,106829,1,0,0:0:0:0:
226,211,106936,1,0,0:0:0:0:
226,211,107043,1,0,0:0:0:0:
226,211,107150,1,0,0:0:0:0:
226,211,107258,1,0,0:0:0:0:
226,211,107365,1,0,0:0:0:0:
226,211,107472,1,0,0:0:0:0:
226,211,107579,1,8,0:0:0:0:
226,211,107686,1,8,0:0:0:0:
226,211,107793,1,8,0:0:0:0:
226,211,107900,1,8,0:0:0:0:
310,164,108008,1,0,0:0:0:0:
310,164,108115,1,0,0:0:0:0:
310,164,108222,1,0,0:0:0:0:
310,164,108329,1,0,0:0:0:0:
310,164,108436,1,8,0:0:0:0:
310,164,108543,1,0,0:0:0:0:
310,164,108650,1,0,0:0:0:0:
310,164,108758,1,0,0:0:0:0:
310,164,108865,1,8,0:0:0:0:
310,164,108972,1,8,0:0:0:0:
310,164,109079,1,8,0:0:0:0:
310,164,109186,1,8,0:0:0:0:
310,164,109293,1,8,0:0:0:0:
310,164,109400,1,8,0:0:0:0:
310,164,109508,1,8,0:0:0:0:
310,164,109615,1,8,0:0:0:0:
310,164,109722,1,0,0:0:0:0:
310,164,109829,1,0,0:0:0:0:
310,164,109936,1,0,0:0:0:0:
310,164,110043,1,0,0:0:0:0:
310,164,110150,1,8,0:0:0:0:
310,164,110258,1,0,0:0:0:0:
310,164,110365,1,0,0:0:0:0:
310,164,110472,1,0,0:0:0:0:
310,164,110579,1,0,0:0:0:0:
310,164,110686,1,0,0:0:0:0:
310,164,110793,1,0,0:0:0:0:
310,164,110900,1,0,0:0:0:0:
310,164,111008,1,8,0:0:0:0:
310,164,111115,1,0,0:0:0:0:
310,164,111222,1,8,0:0:0:0:
310,164,111329,1,8,0:0:0:0:
310,164,111436,1,8,0:0:0:0:
310,164,111543,1,8,0:0:0:0:
310,164,111650,1,0,0:0:0:0:
310,164,111758,1,0,0:0:0:0:
310,164,111865,1,8,0:0:0:0:
132,128,111972,1,8,0:0:0:0:
310,164,112079,1,0,0:0:0:0:
132,128,112186,1,0,0:0:0:0:
310,164,112293,1,8,0:0:0:0:
132,128,112400,1,0,0:0:0:0:
310,164,112508,1,8,0:0:0:0:
132,128,112615,1,8,0:0:0:0:
310,164,112722,1,0,0:0:0:0:
132,128,112829,1,0,0:0:0:0:
310,164,112936,1,8,0:0:0:0:
132,128,113043,1,8,0:0:0:0:
175,186,113150,1,0,0:0:0:0:
175,186,113258,1,0,0:0:0:0:
175,186,113365,1,0,0:0:0:0:
175,186,113472,1,0,0:0:0:0:
175,186,113579,1,8,0:0:0:0:
175,186,113686,1,0,0:0:0:0:
175,186,113793,1,0,0:0:0:0:
175,186,113900,1,0,0:0:0:0:
175,186,114008,1,0,0:0:0:0:
344,190,114115,1,0,0:0:0:0:
344,190,114222,1,0,0:0:0:0:
344,190,114329,1,0,0:0:0:0:
344,190,114436,1,8,0:0:0:0:
344,190,114543,1,0,0:0:0:0:
344,190,114650,1,0,0:0:0:0:
344,190,114758,1,0,0:0:0:0:
175,186,114865,1,8,0:0:0:0:
344,190,114972,1,8,0:0:0:0:
344,190,115079,1,8,0:0:0:0:
344,190,115186,1,8,0:0:0:0:
175,186,115293,1,0,0:0:0:0:
344,190,115400,1,0,0:0:0:0:
344,190,115508,1,0,0:0:0:0:
344,190,115615,1,0,0:0:0:0:
175,186,115722,1,8,0:0:0:0:
344,190,115829,1,8,0:0:0:0:
175,186,115936,1,0,0:0:0:0:
344,190,116043,1,0,0:0:0:0:
344,190,116150,1,8,0:0:0:0:
344,190,116258,1,0,0:0:0:0:
175,186,116365,1,8,0:0:0:0:
344,190,116472,1,8,0:0:0:0:
344,190,116579,1,8,0:0:0:0:
344,190,116686,1,8,0:0:0:0:
175,186,116793,1,0,0:0:0:0:
344,190,116900,1,0,0:0:0:0:
175,186,117008,1,8,0:0:0:0:
344,190,117115,1,8,0:0:0:0:
344,190,117222,1,8,0:0:0:0:
344,190,117329,1,8,0:0:0:0:
344,190,117436,1,8,0:0:0:0:
344,190,117543,1,8,0:0:0:0:
344,190,117650,1,8,0:0:0:0:
344,190,117758,1,8,0:0:0:0:
175,186,117865,1,8,0:0:0:0:
344,190,118079,1,8,0:0:0:0:
175,186,118293,1,8,0:0:0:0:
175,186,118508,1,8,0:0:0:0:
175,186,118615,1,8,0:0:0:0:
175,186,118722,1,0,0:0:0:0:
175,186,118936,5,0,0:0:0:0:
175,186,119150,1,8,0:0:0:0:
175,186,119365,1,0,0:0:0:0:
175,186,119579,1,8,0:0:0:0:
175,186,119793,1,8,0:0:0:0:
233,143,120008,5,0,0:0:0:0:
233,143,120436,1,8,0:0:0:0:
150,179,120865,1,8,0:0:0:0:
150,179,120972,1,8,0:0:0:0:
150,179,121079,1,8,0:0:0:0:
150,179,121186,1,8,0:0:0:0:
150,179,121293,1,8,0:0:0:0:
150,179,121508,1,8,0:0:0:0:
150,179,121615,1,8,0:0:0:0:
364,208,121722,1,8,0:0:0:0:
364,208,121793,1,8,0:0:0:0:
364,208,121865,1,8,0:0:0:0:
364,208,121936,1,8,0:0:0:0:
364,208,122008,1,8,0:0:0:0:
364,208,122079,1,8,0:0:0:0:
364,208,122150,1,0,0:0:0:0:
364,208,122222,1,8,0:0:0:0:
364,208,122293,1,8,0:0:0:0:
364,208,122365,1,0,0:0:0:0:
364,208,122436,1,8,0:0:0:0:
364,208,122508,1,8,0:0:0:0:
308,64,122579,5,0,0:0:0:0:
308,64,122650,1,0,0:0:0:0:
308,64,122722,1,0,0:0:0:0:
308,64,122793,1,8,0:0:0:0:
308,64,123008,1,0,0:0:0:0:
308,64,123079,1,0,0:0:0:0:
308,64,123150,1,0,0:0:0:0:
308,64,123222,1,8,0:0:0:0:
240,72,123436,5,8,0:0:0:0:
292,72,123544,1,0,0:0:0:0:
292,72,123651,1,8,0:0:0:0:
240,72,123758,1,8,0:0:0:0:
292,72,123865,1,8,0:0:0:0:
292,72,123972,1,0,0:0:0:0:
240,72,124079,1,8,0:0:0:0:
292,72,124186,1,8,0:0:0:0:
240,72,124294,1,0,0:0:0:0:
356,66,124401,1,0,0:0:0:0:
356,66,124508,1,0,0:0:0:0:
356,66,124615,1,0,0:0:0:0:
240,72,124722,1,8,0:0:0:0:
356,66,124829,1,8,0:0:0:0:
356,66,124936,1,0,0:0:0:0:
356,66,125044,1,0,0:0:0:0:
208,224,125151,1,8,0:0:0:0:
356,66,125258,1,8,0:0:0:0:
356,66,125365,1,8,0:0:0:0:
208,224,125472,1,0,0:0:0:0:
356,66,125579,1,0,0:0:0:0:
356,66,125686,1,0,0:0:0:0:
208,224,125794,1,8,0:0:0:0:
356,66,125901,1,0,0:0:0:0:
208,224,126008,1,8,0:0:0:0:
356,66,126115,1,8,0:0:0:0:
208,224,126222,1,8,0:0:0:0:
356,66,126329,1,0,0:0:0:0:
208,224,126436,1,8,0:0:0:0:
356,66,126544,1,8,0:0:0:0:
208,224,126650,1,0,0:0:0:0:
356,66,126758,1,0,0:0:0:0:
240,72,126865,1,8,0:0:0:0:
356,66,126972,1,0,0:0:0:0:
356,66,127079,1,8,0:0:0:0:
240,72,127187,1,8,0:0:0:0:
356,66,127294,1,8,0:0:0:0:
356,66,127401,1,0,0:0:0:0:
240,72,127508,1,8,0:0:0:0:
356,66,127615,1,8,0:0:0:0:
240,72,127723,1,0,0:0:0:0:
356,66,127829,1,0,0:0:0:0:
356,66,127936,1,0,0:0:0:0:
356,66,128044,1,0,0:0:0:0:
240,72,128151,1,8,0:0:0:0:
356,66,128258,1,8,0:0:0:0:
356,66,128365,1,0,0:0:0:0:
356,66,128472,1,0,0:0:0:0:
208,224,128580,1,8,0:0:0:0:
356,66,128686,1,8,0:0:0:0:
356,66,128794,1,8,0:0:0:0:
208,224,128900,1,0,0:0:0:0:
141,140,129008,1,0,0:0:0:0:
141,140,129115,1,0,0:0:0:0:
208,224,129223,1,8,0:0:0:0:
141,140,129329,1,8,0:0:0:0:
208,224,129437,1,0,0:0:0:0:
141,140,129544,1,0,0:0:0:0:
208,224,129651,1,0,0:0:0:0:
141,140,129758,1,8,0:0:0:0:
208,224,129865,1,0,0:0:0:0:
270,120,129972,1,0,0:0:0:0:
208,224,130079,1,8,0:0:0:0:
270,120,130186,1,0,0:0:0:0:
208,224,130294,1,8,0:0:0:0:
270,120,130401,1,0,0:0:0:0:
270,120,130508,1,8,0:0:0:0:
136,248,130615,1,8,0:0:0:0:
295,245,130722,1,8,0:0:0:0:
295,245,130829,1,0,0:0:0:0:
136,248,130936,1,8,0:0:0:0:
295,245,131044,1,8,0:0:0:0:
136,248,131151,1,0,0:0:0:0:
295,245,131258,1,0,0:0:0:0:
295,245,131365,1,0,0:0:0:0:
295,245,131472,1,0,0:0:0:0:
136,248,131579,1,8,0:0:0:0:
295,245,131686,1,8,0:0:0:0:
327,113,131794,1,0,0:0:0:0:
327,113,131901,1,0,0:0:0:0:
136,248,132008,1,8,0:0:0:0:
295,245,132115,1,8,0:0:0:0:
295,245,132222,1,8,0:0:0:0:
136,248,132329,1,0,0:0:0:0:
327,113,132436,1,0,0:0:0:0:
327,113,132544,1,0,0:0:0:0:
136,248,132651,1,8,0:0:0:0:
295,245,132758,1,0,0:0:0:0:
136,248,132865,1,8,0:0:0:0:
295,245,132972,1,8,0:0:0:0:
136,248,133079,1,8,0:0:0:0:
295,245,133186,1,0,0:0:0:0:
136,248,133294,1,8,0:0:0:0:
295,245,133401,1,8,0:0:0:0:
136,248,133508,1,0,0:0:0:0:
327,113,133615,1,0,0:0:0:0:
136,248,133722,1,8,0:0:0:0:
295,245,133829,1,0,0:0:0:0:
295,245,133936,1,8,0:0:0:0:
136,248,134044,1,8,0:0:0:0:
295,245,134151,1,8,0:0:0:0:
295,245,134258,1,0,0:0:0:0:
136,248,134365,1,8,0:0:0:0:
295,245,134472,1,8,0:0:0:0:
136,248,134579,1,0,0:0:0:0:
295,245,134686,1,0,0:0:0:0:
295,245,134794,1,0,0:0:0:0:
295,245,134901,1,0,0:0:0:0:
136,248,135008,1,8,0:0:0:0:
327,113,135115,1,0,0:0:0:0:
327,113,135222,1,0,0:0:0:0:
327,113,135329,1,0,0:0:0:0:
136,248,135436,1,8,0:0:0:0:
295,245,135544,1,8,0:0:0:0:
295,245,135651,1,0,0:0:0:0:
136,248,135758,1,0,0:0:0:0:
203,188,135865,1,0,0:0:0:0:
203,188,135972,1,0,0:0:0:0:
136,248,136079,1,8,0:0:0:0:
317,173,136186,1,8,0:0:0:0:
136,248,136294,1,0,0:0:0:0:
317,173,136400,1,0,0:0:0:0:
136,248,136508,1,0,0:0:0:0:
283,109,136615,1,8,0:0:0:0:
136,248,136722,1,0,0:0:0:0:
283,109,136829,1,0,0:0:0:0:
136,248,136936,1,8,0:0:0:0:
283,109,137044,1,0,0:0:0:0:
208,224,137151,1,8,0:0:0:0:
283,109,137258,1,0,0:0:0:0:
283,109,137365,1,8,0:0:0:0:
136,248,137472,1,8,0:0:0:0:
202,162,137579,1,8,0:0:0:0:
202,162,137686,1,0,0:0:0:0:
136,248,137793,1,8,0:0:0:0:
202,162,137901,1,8,0:0:0:0:
136,248,138008,1,0,0:0:0:0:
202,162,138115,1,0,0:0:0:0:
202,162,138222,1,0,0:0:0:0:
202,162,138329,1,0,0:0:0:0:
136,248,138436,1,8,0:0:0:0:
203,188,138544,1,8,0:0:0:0:
203,188,138651,1,0,0:0:0:0:
203,188,138758,1,0,0:0:0:0:
136,248,138865,1,8,0:0:0:0:
202,162,138972,1,8,0:0:0:0:
202,162,139079,1,8,0:0:0:0:
136,248,139186,1,0,0:0:0:0:
203,188,139294,1,0,0:0:0:0:
203,188,139401,1,0,0:0:0:0:
136,248,139508,1,8,0:0:0:0:
202,162,139615,1,0,0:0:0:0:
136,248,139722,1,8,0:0:0:0:
202,162,139829,1,8,0:0:0:0:
136,248,139936,1,8,0:0:0:0:
202,162,140044,1,0,0:0:0:0:
136,248,140151,1,8,0:0:0:0:
202,162,140258,1,8,0:0:0:0:
136,248,140365,1,0,0:0:0:0:
203,188,140472,1,0,0:0:0:0:
136,248,140579,1,8,0:0:0:0:
202,162,140686,1,0,0:0:0:0:
202,162,140794,1,8,0:0:0:0:
136,248,140901,1,8,0:0:0:0:
202,162,141008,1,8,0:0:0:0:
202,162,141115,1,0,0:0:0:0:
136,248,141222,1,8,0:0:0:0:
202,162,141329,1,8,0:0:0:0:
136,248,141436,1,0,0:0:0:0:
202,162,141544,1,0,0:0:0:0:
202,162,141651,1,0,0:0:0:0:
202,162,141758,1,0,0:0:0:0:
136,248,141865,1,8,0:0:0:0:
203,188,141972,1,8,0:0:0:0:
203,188,142079,1,0,0:0:0:0:
203,188,142186,1,0,0:0:0:0:
136,248,142293,1,8,0:0:0:0:
202,162,142401,1,8,0:0:0:0:
202,162,142508,1,8,0:0:0:0:
136,248,142615,1,0,0:0:0:0:
203,188,142722,1,0,0:0:0:0:
203,188,142829,1,0,0:0:0:0:
136,248,142936,1,8,0:0:0:0:
274,161,143044,1,8,0:0:0:0:
136,248,143151,1,0,0:0:0:0:
274,161,143258,1,0,0:0:0:0:
136,248,143365,1,0,0:0:0:0:
274,161,143472,1,8,0:0:0:0:
136,248,143579,1,0,0:0:0:0:
274,161,143686,1,0,0:0:0:0:
136,248,143793,1,8,0:0:0:0:
203,188,143901,1,0,0:0:0:0:
208,224,144008,1,8,0:0:0:0:
274,161,144115,1,0,0:0:0:0:
274,161,144222,1,8,0:0:0:0:
136,248,144329,1,8,0:0:0:0:
274,161,144436,1,8,0:0:0:0:
274,161,144544,1,0,0:0:0:0:
136,248,144650,1,8,0:0:0:0:
274,161,144758,1,8,0:0:0:0:
136,248,144865,1,0,0:0:0:0:
274,161,144972,1,0,0:0:0:0:
274,161,145079,1,0,0:0:0:0:
274,161,145186,1,0,0:0:0:0:
136,248,145293,1,8,0:0:0:0:
203,188,145401,1,8,0:0:0:0:
203,188,145508,1,0,0:0:0:0:
203,188,145615,1,0,0:0:0:0:
136,248,145722,1,8,0:0:0:0:
274,161,145829,1,8,0:0:0:0:
274,161,145936,1,8,0:0:0:0:
136,248,146043,1,0,0:0:0:0:
203,188,146151,1,0,0:0:0:0:
203,188,146258,1,0,0:0:0:0:
136,248,146365,1,8,0:0:0:0:
274,161,146472,1,0,0:0:0:0:
136,248,146579,1,8,0:0:0:0:
274,161,146686,1,8,0:0:0:0:
136,248,146793,1,8,0:0:0:0:
274,161,146901,1,0,0:0:0:0:
136,248,147008,1,8,0:0:0:0:
274,161,147115,1,8,0:0:0:0:
136,248,147222,1,0,0:0:0:0:
203,188,147329,1,0,0:0:0:0:
136,248,147436,1,8,0:0:0:0:
274,161,147544,1,0,0:0:0:0:
274,161,147650,1,8,0:0:0:0:
136,248,147758,1,8,0:0:0:0:
274,161,147865,1,8,0:0:0:0:
274,161,147972,1,0,0:0:0:0:
136,248,148079,1,8,0:0:0:0:
274,161,148186,1,8,0:0:0:0:
136,248,148293,1,0,0:0:0:0:
274,161,148401,1,0,0:0:0:0:
274,161,148508,1,0,0:0:0:0:
274,161,148615,1,0,0:0:0:0:
136,248,148722,1,8,0:0:0:0:
203,188,148829,1,8,0:0:0:0:
203,188,148936,1,0,0:0:0:0:
203,188,149044,1,0,0:0:0:0:
136,248,149150,1,8,0:0:0:0:
342,204,149204,1,8,0:0:0:0:
136,248,149472,1,0,0:0:0:0:
342,204,149526,1,0,0:0:0:0:
136,248,149793,1,8,0:0:0:0:
342,204,149847,1,8,0:0:0:0:
136,248,150008,1,0,0:0:0:0:
336,157,150061,1,0,0:0:0:0:
136,248,150222,1,0,0:0:0:0:
336,157,150276,1,0,0:0:0:0:
136,248,150436,1,0,0:0:0:0:
336,157,150490,1,0,0:0:0:0:
136,248,150650,1,8,0:0:0:0:
336,157,150704,1,8,0:0:0:0:
136,248,150865,1,4,0:0:0:0:
337,177,151079,1,8,0:0:0:0:
337,177,151293,1,8,0:0:0:0:
337,177,151508,1,0,0:0:0:0:
337,177,151722,1,8,0:0:0:0:
337,177,152043,1,0,0:0:0:0:
337,177,152150,1,0,0:0:0:0:
337,177,152365,1,0,0:0:0:0:
277,184,152579,1,8,0:0:0:0:
277,184,152633,1,8,0:0:0:0:
337,177,152793,1,8,0:0:0:0:
337,177,153008,1,0,0:0:0:0:
337,177,153222,1,0,0:0:0:0:
277,184,153436,1,8,0:0:0:0:
277,184,153490,1,8,0:0:0:0:
337,177,153758,1,0,0:0:0:0:
337,177,153865,1,0,0:0:0:0:
337,177,154079,1,0,0:0:0:0:
306,169,154186,1,0,0:0:0:0:
306,169,154240,1,0,0:0:0:0:
306,169,154293,1,8,0:0:0:0:
337,177,154508,1,8,0:0:0:0:
337,177,154722,1,0,0:0:0:0:
337,177,154936,1,0,0:0:0:0:
337,177,155150,1,8,0:0:0:0:
337,177,155365,1,0,0:0:0:0:
337,177,155579,1,0,0:0:0:0:
306,169,155740,1,0,0:0:0:0:
306,169,155793,1,8,0:0:0:0:
197,211,156222,1,0,0:0:0:0:
197,211,156276,1,0,0:0:0:0:
197,211,156436,1,8,0:0:0:0:
197,211,156490,1,8,0:0:0:0:
197,211,156651,1,8,0:0:0:0:
197,211,156704,1,0,0:0:0:0:
197,211,156865,1,0,0:0:0:0:
197,211,156919,1,8,0:0:0:0:
197,211,157079,1,0,0:0:0:0:
197,211,157133,1,0,0:0:0:0:
197,211,157294,1,8,0:0:0:0:
197,211,157347,1,8,0:0:0:0:
197,211,157508,1,8,0:0:0:0:
197,211,157561,1,0,0:0:0:0:
197,211,157722,1,0,0:0:0:0:
197,211,157776,1,0,0:0:0:0:
337,177,157936,1,8,0:0:0:0:
337,177,158150,1,0,0:0:0:0:
337,177,158365,1,8,0:0:0:0:
337,177,158579,1,8,0:0:0:0:
337,177,158900,1,0,0:0:0:0:
337,177,159008,1,0,0:0:0:0:
337,177,159222,1,0,0:0:0:0:
277,184,159436,1,0,0:0:0:0:
277,184,159490,1,0,0:0:0:0:
337,177,159650,1,8,0:0:0:0:
337,177,159865,1,0,0:0:0:0:
337,177,160079,1,0,0:0:0:0:
277,184,160293,1,8,0:0:0:0:
277,184,160347,1,8,0:0:0:0:
337,177,160508,1,0,0:0:0:0:
337,177,160722,1,8,0:0:0:0:
337,177,160936,1,0,0:0:0:0:
277,184,161150,1,0,0:0:0:0:
277,184,161204,1,0,0:0:0:0:
337,177,161579,1,0,0:0:0:0:
277,184,161793,1,8,0:0:0:0:
277,184,161847,1,8,0:0:0:0:
337,177,162222,1,0,0:0:0:0:
277,184,162436,1,0,0:0:0:0:
277,184,162490,1,0,0:0:0:0:
337,177,162865,1,0,0:0:0:0:
337,177,163079,1,8,0:0:0:0:
337,177,163186,1,8,0:0:0:0:
337,177,163293,1,0,0:0:0:0:
337,177,163508,5,8,0:0:0:0:
337,177,163722,1,0,0:0:0:0:
337,177,163936,1,0,0:0:0:0:
337,177,164150,1,8,0:0:0:0:
337,177,164365,1,8,0:0:0:0:
312,82,164579,5,8,0:0:0:0:
312,82,164686,1,0,0:0:0:0:
312,82,164793,1,0,0:0:0:0:
312,82,164900,1,8,0:0:0:0:
312,82,165008,1,0,0:0:0:0:
312,82,165115,1,0,0:0:0:0:
312,82,165222,1,8,0:0:0:0:
312,82,165329,1,0,0:0:0:0:
312,82,165436,1,0,0:0:0:0:
312,82,165543,1,8,0:0:0:0:
312,82,165650,1,0,0:0:0:0:
312,82,165758,1,0,0:0:0:0:
312,82,165865,1,8,0:0:0:0:
312,82,165972,1,8,0:0:0:0:
312,82,166079,1,8,0:0:0:0:
261,138,166186,1,8,0:0:0:0:
261,138,166293,1,8,0:0:0:0:
261,138,166400,1,0,0:0:0:0:
261,138,166508,1,0,0:0:0:0:
261,138,166615,1,8,0:0:0:0:
261,138,166722,1,0,0:0:0:0:
261,138,166829,1,0,0:0:0:0:
261,138,166936,1,8,0:0:0:0:
261,138,167043,1,0,0:0:0:0:
261,138,167150,1,0,0:0:0:0:
261,138,167258,1,8,0:0:0:0:
261,138,167365,1,8,0:0:0:0:
261,138,167472,1,0,0:0:0:0:
261,138,167579,1,8,0:0:0:0:
179,153,167686,1,8,0:0:0:0:
179,153,167793,1,0,0:0:0:0:
179,153,167900,1,0,0:0:0:0:
179,153,168008,1,8,0:0:0:0:
179,153,168115,1,8,0:0:0:0:
179,153,168222,1,8,0:0:0:0:
163,153,168329,1,8,0:0:0:0:
163,153,168436,1,8,0:0:0:0:
225,142,168543,1,8,0:0:0:0:
225,142,168650,1,8,0:0:0:0:
225,142,168758,1,8,0:0:0:0:
225,142,168865,1,8,0:0:0:0:
225,142,168972,1,8,0:0:0:0:
225,142,169079,1,0,0:0:0:0:
225,142,169186,1,0,0:0:0:0:
225,142,169293,1,8,0:0:0:0:
105,86,169400,1,0,0:0:0:0:
105,86,169508,1,8,0:0:0:0:
310,164,169615,1,8,0:0:0:0:
310,164,169722,1,8,0:0:0:0:
310,164,169829,1,8,0:0:0:0:
310,164,169936,1,0,0:0:0:0:
310,164,170044,1,0,0:0:0:0:
310,164,170151,1,8,0:0:0:0:
132,128,170258,1,8,0:0:0:0:
310,164,170365,1,0,0:0:0:0:
132,128,170472,1,0,0:0:0:0:
310,164,170579,1,8,0:0:0:0:
132,128,170686,1,0,0:0:0:0:
310,164,170794,1,8,0:0:0:0:
132,128,170901,1,8,0:0:0:0:
310,164,171008,1,0,0:0:0:0:
132,128,171115,1,0,0:0:0:0:
310,164,171222,1,8,0:0:0:0:
132,128,171329,1,8,0:0:0:0:
175,186,171436,1,8,0:0:0:0:
175,186,171544,1,0,0:0:0:0:
175,186,171651,1,0,0:0:0:0:
175,186,171758,1,8,0:0:0:0:
175,186,171865,1,0,0:0:0:0:
175,186,171972,1,0,0:0:0:0:
175,186,172079,1,8,0:0:0:0:
175,186,172186,1,0,0:0:0:0:
175,186,172294,1,0,0:0:0:0:
274,104,172400,1,8,0:0:0:0:
274,104,172508,1,0,0:0:0:0:
274,104,172615,1,0,0:0:0:0:
274,104,172722,1,8,0:0:0:0:
274,104,172829,1,0,0:0:0:0:
274,104,172936,1,0,0:0:0:0:
274,104,173043,1,0,0:0:0:0:
274,104,173150,1,8,0:0:0:0:
274,104,173258,1,8,0:0:0:0:
274,104,173365,1,8,0:0:0:0:
274,104,173472,1,8,0:0:0:0:
184,157,173579,1,0,0:0:0:0:
184,157,173686,1,0,0:0:0:0:
184,157,173793,1,0,0:0:0:0:
184,157,173900,1,0,0:0:0:0:
184,157,174008,1,8,0:0:0:0:
184,157,174115,1,8,0:0:0:0:
184,157,174222,1,0,0:0:0:0:
184,157,174329,1,0,0:0:0:0:
181,131,174436,1,0,0:0:0:0:
181,131,174543,1,0,0:0:0:0:
181,131,174650,1,8,0:0:0:0:
181,131,174758,1,8,0:0:0:0:
181,131,174865,1,8,0:0:0:0:
181,131,174972,1,8,0:0:0:0:
181,131,175079,1,0,0:0:0:0:
181,131,175186,1,0,0:0:0:0:
181,131,175293,1,8,0:0:0:0:
181,131,175400,1,8,0:0:0:0:
181,131,175508,1,8,0:0:0:0:
344,190,175615,1,8,0:0:0:0:
344,190,175722,1,8,0:0:0:0:
344,190,175829,1,8,0:0:0:0:
344,190,175936,1,8,0:0:0:0:
344,190,176043,1,8,0:0:0:0:
344,190,176150,1,8,0:0:0:0:
344,190,176365,1,8,0:0:0:0:
344,190,176579,1,8,0:0:0:0:
344,190,176793,1,8,0:0:0:0:
344,190,176900,1,8,0:0:0:0:
344,190,177008,1,0,0:0:0:0:
344,190,177222,5,0,0:0:0:0:
344,190,177436,1,8,0:0:0:0:
344,190,177650,1,0,0:0:0:0:
344,190,177865,1,8,0:0:0:0:
344,190,178079,1,8,0:0:0:0:
233,143,178293,5,0,0:0:0:0:
233,143,178721,1,8,0:0:0:0:
150,179,179150,1,8,0:0:0:0:
150,179,179257,1,8,0:0:0:0:
150,179,179364,1,8,0:0:0:0:
150,179,179471,1,8,0:0:0:0:
150,179,179578,1,8,0:0:0:0:
150,179,179793,5,8,0:0:0:0:
150,179,179900,1,8,0:0:0:0:
364,208,180007,1,8,0:0:0:0:
364,208,180078,1,0,0:0:0:0:
364,208,180150,1,0,0:0:0:0:
364,208,180221,1,8,0:0:0:0:
364,208,180293,1,8,0:0:0:0:
364,208,180364,1,8,0:0:0:0:
364,208,180435,1,0,0:0:0:0:
364,208,180507,1,8,0:0:0:0:
364,208,180578,1,8,0:0:0:0:
364,208,180650,1,0,0:0:0:0:
364,208,180721,1,8,0:0:0:0:
364,208,180793,1,8,0:0:0:0:
312,197,180865,5,0,0:0:0:0:
312,197,180936,1,0,0:0:0:0:
312,197,181008,1,0,0:0:0:0:
312,197,181079,1,8,0:0:0:0:
312,197,181293,1,0,0:0:0:0:
312,197,181365,1,0,0:0:0:0:
312,197,181436,1,0,0:0:0:0:
312,197,181508,1,8,0:0:0:0:
243,78,181722,5,8,0:0:0:0:
295,78,181830,1,0,0:0:0:0:
295,78,181937,1,8,0:0:0:0:
243,78,182044,1,8,0:0:0:0:
295,78,182151,1,8,0:0:0:0:
295,78,182258,1,0,0:0:0:0:
243,78,182365,1,8,0:0:0:0:
295,78,182472,1,8,0:0:0:0:
243,78,182580,1,0,0:0:0:0:
359,72,182687,1,0,0:0:0:0:
359,72,182794,1,0,0:0:0:0:
359,72,182901,1,0,0:0:0:0:
243,78,183008,1,8,0:0:0:0:
359,72,183115,1,8,0:0:0:0:
359,72,183222,1,0,0:0:0:0:
359,72,183330,1,0,0:0:0:0:
211,230,183437,1,8,0:0:0:0:
359,72,183544,1,8,0:0:0:0:
359,72,183651,1,8,0:0:0:0:
211,230,183758,1,0,0:0:0:0:
359,72,183865,1,0,0:0:0:0:
359,72,183972,1,0,0:0:0:0:
211,230,184080,1,8,0:0:0:0:
359,72,184187,1,0,0:0:0:0:
211,230,184294,1,8,0:0:0:0:
325,184,184365,1,8,0:0:0:0:
359,72,184436,1,8,0:0:0:0:
211,230,184508,1,0,0:0:0:0:
359,72,184615,1,0,0:0:0:0:
211,230,184722,1,8,0:0:0:0:
359,72,184793,1,0,0:0:0:0:
137,193,184865,1,0,0:0:0:0:
211,230,184937,1,8,0:0:0:0:
359,72,185044,1,0,0:0:0:0:
243,78,185151,1,8,0:0:0:0:
359,72,185258,1,0,0:0:0:0:
359,72,185365,1,8,0:0:0:0:
243,78,185473,1,8,0:0:0:0:
359,72,185580,1,8,0:0:0:0:
359,72,185687,1,0,0:0:0:0:
243,78,185794,1,8,0:0:0:0:
359,72,185901,1,8,0:0:0:0:
243,78,186009,1,0,0:0:0:0:
359,72,186115,1,0,0:0:0:0:
359,72,186222,1,0,0:0:0:0:
359,72,186330,1,0,0:0:0:0:
243,78,186437,1,8,0:0:0:0:
359,72,186544,1,8,0:0:0:0:
359,72,186651,1,0,0:0:0:0:
359,72,186758,1,0,0:0:0:0:
211,230,186866,1,8,0:0:0:0:
359,72,186972,1,8,0:0:0:0:
359,72,187080,1,8,0:0:0:0:
211,230,187186,1,0,0:0:0:0:
144,146,187294,1,0,0:0:0:0:
144,146,187401,1,0,0:0:0:0:
211,230,187509,1,8,0:0:0:0:
144,146,187615,1,8,0:0:0:0:
211,230,187723,1,0,0:0:0:0:
261,80,187793,1,0,0:0:0:0:
144,146,187865,1,0,0:0:0:0:
211,230,187937,1,8,0:0:0:0:
144,146,188044,1,8,0:0:0:0:
211,230,188151,1,0,0:0:0:0:
273,126,188222,1,8,0:0:0:0:
281,242,188293,1,8,0:0:0:0:
211,230,188365,1,0,0:0:0:0:
273,126,188472,1,8,0:0:0:0:
211,230,188580,1,8,0:0:0:0:
273,126,188687,1,0,0:0:0:0:
273,126,188794,1,8,0:0:0:0:
139,254,188901,1,8,0:0:0:0:
298,251,189008,1,8,0:0:0:0:
298,251,189115,1,0,0:0:0:0:
139,254,189222,1,8,0:0:0:0:
298,251,189330,1,8,0:0:0:0:
139,254,189437,1,0,0:0:0:0:
298,251,189544,1,0,0:0:0:0:
298,251,189651,1,0,0:0:0:0:
298,251,189758,1,0,0:0:0:0:
139,254,189865,1,8,0:0:0:0:
298,251,189972,1,8,0:0:0:0:
330,119,190080,1,0,0:0:0:0:
330,119,190187,1,0,0:0:0:0:
139,254,190294,1,8,0:0:0:0:
298,251,190401,1,8,0:0:0:0:
298,251,190508,1,8,0:0:0:0:
139,254,190615,1,0,0:0:0:0:
330,119,190722,1,0,0:0:0:0:
330,119,190830,1,0,0:0:0:0:
139,254,190937,1,8,0:0:0:0:
298,251,191044,1,0,0:0:0:0:
139,254,191151,1,8,0:0:0:0:
216,66,191222,1,8,0:0:0:0:
298,251,191293,1,0,0:0:0:0:
139,254,191365,1,0,0:0:0:0:
298,251,191472,1,0,0:0:0:0:
139,254,191580,1,8,0:0:0:0:
202,89,191650,1,8,0:0:0:0:
298,251,191722,1,0,0:0:0:0:
139,254,191794,1,8,0:0:0:0:
330,119,191901,1,0,0:0:0:0:
139,254,192008,1,8,0:0:0:0:
298,251,192115,1,0,0:0:0:0:
298,251,192222,1,8,0:0:0:0:
139,254,192330,1,8,0:0:0:0:
298,251,192437,1,8,0:0:0:0:
298,251,192544,1,0,0:0:0:0:
139,254,192651,1,8,0:0:0:0:
298,251,192758,1,8,0:0:0:0:
139,254,192865,1,0,0:0:0:0:
298,251,192972,1,0,0:0:0:0:
298,251,193080,1,0,0:0:0:0:
298,251,193187,1,0,0:0:0:0:
139,254,193294,1,8,0:0:0:0:
330,119,193401,1,0,0:0:0:0:
330,119,193508,1,0,0:0:0:0:
330,119,193615,1,0,0:0:0:0:
139,254,193722,1,8,0:0:0:0:
298,251,193830,1,8,0:0:0:0:
298,251,193937,1,0,0:0:0:0:
139,254,194044,1,0,0:0:0:0:
206,194,194151,1,0,0:0:0:0:
206,194,194258,1,0,0:0:0:0:
139,254,194365,1,8,0:0:0:0:
320,179,194472,1,8,0:0:0:0:
139,254,194580,1,0,0:0:0:0:
195,109,194650,1,0,0:0:0:0:
320,179,194722,1,8,0:0:0:0:
139,254,194793,1,8,0:0:0:0:
286,115,194901,1,8,0:0:0:0:
139,254,195008,1,0,0:0:0:0:
206,59,195079,1,0,0:0:0:0:
286,115,195150,1,8,0:0:0:0:
139,254,195222,1,0,0:0:0:0:
286,115,195330,1,8,0:0:0:0:
211,230,195437,1,8,0:0:0:0:
286,115,195544,1,0,0:0:0:0:
286,115,195651,1,8,0:0:0:0:
139,254,195758,1,8,0:0:0:0:
205,168,195865,1,8,0:0:0:0:
205,168,195972,1,0,0:0:0:0:
139,254,196079,1,8,0:0:0:0:
205,168,196187,1,8,0:0:0:0:
139,254,196294,1,0,0:0:0:0:
205,168,196401,1,0,0:0:0:0:
205,168,196508,1,0,0:0:0:0:
205,168,196615,1,0,0:0:0:0:
139,254,196722,1,8,0:0:0:0:
206,194,196830,1,8,0:0:0:0:
206,194,196937,1,0,0:0:0:0:
206,194,197044,1,0,0:0:0:0:
139,254,197151,1,8,0:0:0:0:
205,168,197258,1,8,0:0:0:0:
205,168,197365,1,8,0:0:0:0:
139,254,197472,1,0,0:0:0:0:
206,194,197580,1,0,0:0:0:0:
206,194,197687,1,0,0:0:0:0:
139,254,197794,1,8,0:0:0:0:
205,168,197901,1,0,0:0:0:0:
139,254,198008,1,8,0:0:0:0:
198,57,198079,1,0,0:0:0:0:
205,168,198150,1,0,0:0:0:0:
139,254,198222,1,8,0:0:0:0:
205,168,198330,1,0,0:0:0:0:
139,254,198437,1,8,0:0:0:0:
200,46,198508,1,0,0:0:0:0:
205,168,198579,1,8,0:0:0:0:
139,254,198651,1,0,0:0:0:0:
206,194,198758,1,0,0:0:0:0:
139,254,198865,1,8,0:0:0:0:
205,168,198972,1,0,0:0:0:0:
205,168,199080,1,8,0:0:0:0:
139,254,199187,1,8,0:0:0:0:
205,168,199294,1,8,0:0:0:0:
205,168,199401,1,0,0:0:0:0:
139,254,199508,1,8,0:0:0:0:
205,168,199615,1,8,0:0:0:0:
139,254,199722,1,0,0:0:0:0:
205,168,199830,1,0,0:0:0:0:
205,168,199937,1,0,0:0:0:0:
205,168,200044,1,0,0:0:0:0:
139,254,200151,1,8,0:0:0:0:
206,194,200258,1,8,0:0:0:0:
206,194,200365,1,0,0:0:0:0:
206,194,200472,1,0,0:0:0:0:
139,254,200579,1,8,0:0:0:0:
205,168,200687,1,8,0:0:0:0:
205,168,200794,1,8,0:0:0:0:
139,254,200901,1,0,0:0:0:0:
206,194,201008,1,0,0:0:0:0:
206,194,201115,1,0,0:0:0:0:
139,254,201222,1,8,0:0:0:0:
277,167,201330,1,8,0:0:0:0:
139,254,201437,1,0,0:0:0:0:
148,66,201508,1,8,0:0:0:0:
277,167,201579,1,8,0:0:0:0:
139,254,201651,1,0,0:0:0:0:
277,167,201758,1,8,0:0:0:0:
139,254,201865,1,0,0:0:0:0:
186,113,201936,1,8,0:0:0:0:
277,167,202008,1,0,0:0:0:0:
139,254,202079,1,8,0:0:0:0:
206,194,202187,1,8,0:0:0:0:
211,230,202294,1,8,0:0:0:0:
277,167,202401,1,0,0:0:0:0:
277,167,202508,1,8,0:0:0:0:
139,254,202615,1,8,0:0:0:0:
277,167,202722,1,8,0:0:0:0:
277,167,202830,1,0,0:0:0:0:
139,254,202936,1,8,0:0:0:0:
277,167,203044,1,8,0:0:0:0:
139,254,203151,1,0,0:0:0:0:
277,167,203258,1,0,0:0:0:0:
277,167,203365,1,0,0:0:0:0:
277,167,203472,1,0,0:0:0:0:
139,254,203579,1,8,0:0:0:0:
206,194,203687,1,8,0:0:0:0:
206,194,203794,1,0,0:0:0:0:
206,194,203901,1,0,0:0:0:0:
139,254,204008,1,8,0:0:0:0:
277,167,204115,1,8,0:0:0:0:
277,167,204222,1,8,0:0:0:0:
139,254,204329,1,0,0:0:0:0:
206,194,204437,1,0,0:0:0:0:
206,194,204544,1,0,0:0:0:0:
139,254,204651,1,8,0:0:0:0:
277,167,204758,1,0,0:0:0:0:
139,254,204865,1,8,0:0:0:0:
188,86,204936,1,8,0:0:0:0:
277,167,205008,1,8,0:0:0:0:
139,254,205079,1,0,0:0:0:0:
277,167,205187,1,0,0:0:0:0:
139,254,205294,1,8,0:0:0:0:
186,38,205365,1,0,0:0:0:0:
277,167,205436,1,0,0:0:0:0:
139,254,205508,1,8,0:0:0:0:
206,194,205615,1,0,0:0:0:0:
139,254,205722,1,8,0:0:0:0:
277,167,205830,1,0,0:0:0:0:
277,167,205936,1,8,0:0:0:0:
139,254,206044,1,8,0:0:0:0:
277,167,206151,1,8,0:0:0:0:
277,167,206258,1,0,0:0:0:0:
139,254,206365,1,8,0:0:0:0:
277,167,206472,1,8,0:0:0:0:
139,254,206579,1,0,0:0:0:0:
277,167,206687,1,0,0:0:0:0:
277,167,206794,1,0,0:0:0:0:
277,167,206901,1,0,0:0:0:0:
139,254,207008,1,8,0:0:0:0:
206,194,207115,1,8,0:0:0:0:
206,194,207222,1,0,0:0:0:0:
206,194,207330,1,0,0:0:0:0:
139,254,207436,1,8,0:0:0:0:
345,210,207508,1,8,0:0:0:0:
141,140,207579,1,8,0:0:0:0:
141,140,207650,1,0,0:0:0:0:
139,254,207758,1,0,0:0:0:0:
345,210,207812,1,0,0:0:0:0:
139,254,208079,1,8,0:0:0:0:
345,210,208133,1,8,0:0:0:0:
139,254,208294,1,0,0:0:0:0:
339,163,208347,1,0,0:0:0:0:
139,254,208508,1,0,0:0:0:0:
339,163,208562,1,0,0:0:0:0:
139,254,208722,1,0,0:0:0:0:
339,163,208776,1,0,0:0:0:0:
139,254,208936,1,8,0:0:0:0:
339,163,208990,1,8,0:0:0:0:
139,254,209150,1,4,0:0:0:0:
260,226,209365,1,8,0:0:0:0:
260,226,209472,1,8,0:0:0:0:
260,226,209579,1,0,0:0:0:0:
289,312,209793,1,8,0:0:0:0:
260,226,210008,1,0,0:0:0:0:
289,312,210222,1,0,0:0:0:0:
260,226,210436,1,8,0:0:0:0:
289,312,210650,1,8,0:0:0:0:
260,226,210865,1,8,0:0:0:0:
289,312,211079,1,8,0:0:0:0:
289,312,211186,1,8,0:0:0:0:
260,226,211293,1,0,0:0:0:0:
289,312,211508,1,0,0:0:0:0:
260,226,211722,1,0,0:0:0:0:
289,312,211936,1,0,0:0:0:0:
260,226,212150,1,8,0:0:0:0:
289,312,212365,1,8,0:0:0:0:
260,226,212579,1,8,0:0:0:0:
289,312,212793,1,8,0:0:0:0:
289,312,212900,1,8,0:0:0:0:
260,226,213008,1,0,0:0:0:0:
289,312,213222,1,8,0:0:0:0:
260,226,213436,1,0,0:0:0:0:
289,312,213650,1,0,0:0:0:0:
260,226,213865,1,8,0:0:0:0:
289,312,214079,1,8,0:0:0:0:
260,226,214293,1,8,0:0:0:0:
289,312,214508,1,8,0:0:0:0:
289,312,214615,1,8,0:0:0:0:
260,226,214722,1,0,0:0:0:0:
289,312,214936,1,8,0:0:0:0:
260,226,215150,1,0,0:0:0:0:
289,312,215365,1,8,0:0:0:0:
260,226,215579,1,8,0:0:0:0:
289,312,215793,1,8,0:0:0:0:
260,226,216008,1,8,0:0:0:0:
289,312,216222,1,8,0:0:0:0:
289,312,216329,1,8,0:0:0:0:
260,226,216436,1,0,0:0:0:0:
289,312,216650,1,0,0:0:0:0:
260,226,216865,1,0,0:0:0:0:
289,312,217079,1,8,0:0:0:0:
260,226,217293,1,8,0:0:0:0:
289,312,217508,1,8,0:0:0:0:
260,226,217722,1,8,0:0:0:0:
289,312,217936,1,8,0:0:0:0:
289,312,218043,1,8,0:0:0:0:
260,226,218150,1,0,0:0:0:0:
188,134,218365,1,8,0:0:0:0:
260,226,218579,1,0,0:0:0:0:
188,134,218793,1,0,0:0:0:0:
260,226,219008,1,8,0:0:0:0:
201,134,219222,1,8,0:0:0:0:
224,120,219436,1,0,0:0:0:0:
201,134,219650,1,8,0:0:0:0:
224,120,219865,1,0,0:0:0:0:
201,134,220079,1,8,0:0:0:0:
224,120,220293,1,0,0:0:0:0:
201,134,220508,1,0,0:0:0:0:
224,120,220722,1,8,0:0:0:0:
201,134,220936,1,8,0:0:0:0:
224,120,221150,1,0,0:0:0:0:
201,134,221365,1,8,0:0:0:0:
224,120,221579,1,0,0:0:0:0:
201,134,221793,1,8,0:0:0:0:
224,120,222008,1,0,0:0:0:0:
201,134,222222,1,8,0:0:0:0:
224,120,222436,1,8,0:0:0:0:
201,134,222650,1,8,0:0:0:0:
246,75,222865,1,0,0:0:0:0:
406,143,222972,1,0,0:0:0:0:
158,109,223079,1,8,0:0:0:0:
319,124,223186,1,8,0:0:0:0:
319,124,223293,1,0,0:0:0:0:
406,143,223400,1,8,0:0:0:0:
319,124,223508,1,8,0:0:0:0:
406,143,223615,1,8,0:0:0:0:
319,124,223722,1,0,0:0:0:0:
406,143,223829,1,8,0:0:0:0:
319,124,223936,1,0,0:0:0:0:
406,143,224043,1,8,0:0:0:0:
319,124,224150,1,8,0:0:0:0:
406,143,224258,1,0,0:0:0:0:
319,124,224365,1,8,0:0:0:0:
246,75,224579,1,0,0:0:0:0:
280,181,224686,1,8,0:0:0:0:
158,109,224793,1,8,0:0:0:0:
319,124,224900,1,8,0:0:0:0:
319,124,225007,1,0,0:0:0:0:
280,181,225115,1,8,0:0:0:0:
319,124,225222,1,8,0:0:0:0:
280,181,225329,1,0,0:0:0:0:
319,124,225436,1,0,0:0:0:0:
280,181,225543,1,8,0:0:0:0:
319,124,225650,1,0,0:0:0:0:
280,181,225758,1,0,0:0:0:0:
319,124,225864,1,8,0:0:0:0:
280,181,225972,1,0,0:0:0:0:
319,124,226079,1,8,0:0:0:0:
246,75,226293,1,0,0:0:0:0:
280,181,226400,1,0,0:0:0:0:
158,109,226507,1,8,0:0:0:0:
319,124,226614,1,8,0:0:0:0:
319,124,226721,1,0,0:0:0:0:
280,181,226829,1,8,0:0:0:0:
319,124,226936,1,8,0:0:0:0:
280,181,227043,1,8,0:0:0:0:
319,124,227150,1,0,0:0:0:0:
280,181,227258,1,8,0:0:0:0:
319,124,227364,1,0,0:0:0:0:
280,181,227472,1,0,0:0:0:0:
319,124,227578,1,8,0:0:0:0:
280,181,227686,1,0,0:0:0:0:
319,124,227793,1,8,0:0:0:0:
246,75,228008,1,0,0:0:0:0:
280,181,228115,1,8,0:0:0:0:
158,109,228222,1,8,0:0:0:0:
319,124,228329,1,8,0:0:0:0:
319,124,228436,1,0,0:0:0:0:
280,181,228543,1,8,0:0:0:0:
319,124,228651,1,8,0:0:0:0:
280,181,228758,1,8,0:0:0:0:
319,124,228865,1,0,0:0:0:0:
280,181,228972,1,8,0:0:0:0:
319,124,229079,1,0,0:0:0:0:
280,181,229186,1,8,0:0:0:0:
319,124,229293,1,8,0:0:0:0:
280,181,229400,1,0,0:0:0:0:
319,124,229508,1,8,0:0:0:0:
246,75,229722,1,0,0:0:0:0:
280,181,229829,1,0,0:0:0:0:
158,109,229936,1,8,0:0:0:0:
319,124,230043,1,8,0:0:0:0:
319,124,230150,1,0,0:0:0:0:
280,181,230258,1,0,0:0:0:0:
319,124,230365,1,8,0:0:0:0:
280,181,230472,1,8,0:0:0:0:
319,124,230579,1,0,0:0:0:0:
280,181,230686,1,8,0:0:0:0:
319,124,230793,1,0,0:0:0:0:
280,181,230900,1,8,0:0:0:0:
319,124,231007,1,8,0:0:0:0:
280,181,231115,1,0,0:0:0:0:
319,124,231222,1,8,0:0:0:0:
246,75,231436,1,0,0:0:0:0:
208,142,231543,1,8,0:0:0:0:
158,109,231650,1,8,0:0:0:0:
319,124,231757,1,8,0:0:0:0:
319,124,231864,1,0,0:0:0:0:
208,142,231972,1,0,0:0:0:0:
319,124,232079,1,8,0:0:0:0:
208,142,232186,1,8,0:0:0:0:
319,124,232293,1,0,0:0:0:0:
208,142,232400,1,8,0:0:0:0:
319,124,232507,1,0,0:0:0:0:
208,142,232615,1,8,0:0:0:0:
319,124,232721,1,8,0:0:0:0:
208,142,232829,1,0,0:0:0:0:
319,124,232936,1,8,0:0:0:0:
246,75,233150,1,0,0:0:0:0:
208,142,233258,1,8,0:0:0:0:
158,109,233364,1,8,0:0:0:0:
319,124,233471,1,8,0:0:0:0:
319,124,233578,1,0,0:0:0:0:
208,142,233686,1,8,0:0:0:0:
319,124,233793,1,8,0:0:0:0:
208,142,233900,1,0,0:0:0:0:
319,124,234007,1,0,0:0:0:0:
292,93,234115,1,8,0:0:0:0:
319,124,234221,1,0,0:0:0:0:
292,93,234329,1,0,0:0:0:0:
319,124,234435,1,8,0:0:0:0:
292,93,234543,1,0,0:0:0:0:
319,124,234650,1,8,0:0:0:0:
246,75,234865,1,0,0:0:0:0:
292,93,234972,1,0,0:0:0:0:
158,109,235079,1,8,0:0:0:0:
319,124,235186,1,8,0:0:0:0:
319,124,235293,1,0,0:0:0:0:
292,93,235400,1,0,0:0:0:0:
319,124,235508,1,8,0:0:0:0:
292,93,235615,1,8,0:0:0:0:
319,124,235722,1,0,0:0:0:0:
292,93,235829,1,8,0:0:0:0:
319,124,235936,1,0,0:0:0:0:
292,93,236043,1,8,0:0:0:0:
319,124,236150,1,8,0:0:0:0:
292,93,236258,1,0,0:0:0:0:
319,124,236365,1,8,0:0:0:0:
246,75,236579,1,0,0:0:0:0:
292,93,236686,1,8,0:0:0:0:
158,109,236793,1,8,0:0:0:0:
319,124,236900,1,8,0:0:0:0:
319,124,237007,1,0,0:0:0:0:
292,93,237115,1,8,0:0:0:0:
319,124,237222,1,8,0:0:0:0:
292,93,237329,1,8,0:0:0:0:
319,124,237436,1,0,0:0:0:0:
292,93,237543,1,8,0:0:0:0:
319,124,237650,1,0,0:0:0:0:
292,93,237758,1,0,0:0:0:0:
319,124,237864,1,8,0:0:0:0:
292,93,237972,1,0,0:0:0:0:
319,124,238079,1,8,0:0:0:0:
246,75,238293,1,0,0:0:0:0:
292,93,238400,1,0,0:0:0:0:
158,109,238507,1,8,0:0:0:0:
319,124,238614,1,8,0:0:0:0:
319,124,238721,1,0,0:0:0:0:
292,93,238829,1,8,0:0:0:0:
319,124,238936,1,8,0:0:0:0:
292,93,239043,1,0,0:0:0:0:
319,124,239150,1,0,0:0:0:0:
292,93,239258,1,8,0:0:0:0:
319,124,239364,1,0,0:0:0:0:
292,93,239472,1,8,0:0:0:0:
319,124,239578,1,8,0:0:0:0:
292,93,239686,1,0,0:0:0:0:
319,124,239793,1,8,0:0:0:0:
246,75,240008,1,0,0:0:0:0:
292,93,240115,1,8,0:0:0:0:
158,109,240222,1,8,0:0:0:0:
319,124,240329,1,8,0:0:0:0:
319,124,240436,1,0,0:0:0:0:
292,93,240543,1,0,0:0:0:0:
319,124,240651,1,8,0:0:0:0:
292,93,240758,1,8,0:0:0:0:
319,124,240865,1,0,0:0:0:0:
292,93,240972,1,8,0:0:0:0:
319,124,241079,1,0,0:0:0:0:
292,93,241186,1,0,0:0:0:0:
319,124,241293,1,8,0:0:0:0:
292,93,241400,1,0,0:0:0:0:
319,124,241508,1,8,0:0:0:0:
246,75,241722,1,0,0:0:0:0:
292,93,241829,1,0,0:0:0:0:
158,109,241936,1,8,0:0:0:0:
319,124,242043,1,8,0:0:0:0:
319,124,242150,1,0,0:0:0:0:
292,93,242258,1,8,0:0:0:0:
319,124,242365,1,8,0:0:0:0:
292,93,242472,1,8,0:0:0:0:
319,124,242579,1,0,0:0:0:0:
292,93,242686,1,8,0:0:0:0:
319,124,242793,1,0,0:0:0:0:
292,93,242900,1,8,0:0:0:0:
319,124,243007,1,8,0:0:0:0:
292,93,243115,1,0,0:0:0:0:
319,124,243222,1,8,0:0:0:0:
246,75,243436,1,0,0:0:0:0:
292,93,243543,1,8,0:0:0:0:
158,109,243650,1,8,0:0:0:0:
319,124,243757,1,8,0:0:0:0:
319,124,243864,1,0,0:0:0:0:
292,93,243972,1,0,0:0:0:0:
319,124,244079,1,8,0:0:0:0:
292,93,244186,1,8,0:0:0:0:
319,124,244293,1,0,0:0:0:0:
292,93,244400,1,8,0:0:0:0:
319,124,244507,1,0,0:0:0:0:
292,93,244615,1,0,0:0:0:0:
319,124,244721,1,8,0:0:0:0:
292,93,244829,1,0,0:0:0:0:
319,124,244936,1,8,0:0:0:0:
246,75,245150,1,0,0:0:0:0:
269,168,245258,1,0,0:0:0:0:
158,109,245364,1,8,0:0:0:0:
319,124,245471,1,8,0:0:0:0:
319,124,245578,1,0,0:0:0:0:
269,168,245686,1,8,0:0:0:0:
319,124,245793,1,8,0:0:0:0:
269,168,245900,1,8,0:0:0:0:
319,124,246007,1,0,0:0:0:0:
269,168,246115,1,8,0:0:0:0:
319,124,246221,1,0,0:0:0:0:
269,168,246329,1,8,0:0:0:0:
319,124,246435,1,8,0:0:0:0:
269,168,246543,1,0,0:0:0:0:
319,124,246650,1,8,0:0:0:0:
246,75,246865,1,0,0:0:0:0:
269,168,246972,1,0,0:0:0:0:
158,109,247079,1,8,0:0:0:0:
319,124,247186,1,8,0:0:0:0:
319,124,247293,1,0,0:0:0:0:
269,168,247400,1,8,0:0:0:0:
319,124,247508,1,8,0:0:0:0:
269,168,247615,1,0,0:0:0:0:
319,124,247722,1,0,0:0:0:0:
269,168,247829,1,8,0:0:0:0:
319,124,247936,1,0,0:0:0:0:
269,168,248043,1,0,0:0:0:0:
319,124,248150,1,8,0:0:0:0:
269,168,248258,1,0,0:0:0:0:
319,124,248365,1,8,0:0:0:0:
246,75,248579,1,0,0:0:0:0:
269,168,248686,1,8,0:0:0:0:
158,109,248793,1,8,0:0:0:0:
319,124,248900,1,8,0:0:0:0:
319,124,249007,1,0,0:0:0:0:
269,168,249115,1,8,0:0:0:0:
319,124,249222,1,8,0:0:0:0:
269,168,249329,1,8,0:0:0:0:
319,124,249436,1,0,0:0:0:0:
269,168,249543,1,8,0:0:0:0:
319,124,249650,1,0,0:0:0:0:
269,168,249758,1,0,0:0:0:0:
319,124,249864,1,8,0:0:0:0:
269,168,249972,1,0,0:0:0:0:
319,124,250079,1,8,0:0:0:0:
246,75,250293,1,0,0:0:0:0:
269,168,250400,1,0,0:0:0:0:
158,109,250507,1,8,0:0:0:0:
319,124,250614,1,8,0:0:0:0:
319,124,250721,1,0,0:0:0:0:
269,168,250829,1,0,0:0:0:0:
319,124,250936,1,8,0:0:0:0:
269,168,251043,1,8,0:0:0:0:
319,124,251150,1,0,0:0:0:0:
269,168,251258,1,8,0:0:0:0:
319,124,251364,1,0,0:0:0:0:
269,168,251472,1,8,0:0:0:0:
319,124,251578,1,8,0:0:0:0:
269,168,251686,1,0,0:0:0:0:
319,124,251793,1,8,0:0:0:0:
246,75,252008,1,0,0:0:0:0:
269,168,252115,1,8,0:0:0:0:
158,109,252222,1,8,0:0:0:0:
319,124,252329,1,8,0:0:0:0:
319,124,252436,1,0,0:0:0:0:
269,168,252543,1,0,0:0:0:0:
319,124,252651,1,8,0:0:0:0:
269,168,252758,1,8,0:0:0:0:
319,124,252865,1,0,0:0:0:0:
269,168,252972,1,8,0:0:0:0:
319,124,253079,1,0,0:0:0:0:
269,168,253186,1,0,0:0:0:0:
319,124,253293,1,8,0:0:0:0:
269,168,253400,1,0,0:0:0:0:
319,124,253508,1,8,0:0:0:0:
246,75,253722,1,0,0:0:0:0:
269,168,253829,1,0,0:0:0:0:
158,109,253936,1,8,0:0:0:0:
319,124,254043,1,8,0:0:0:0:
319,124,254150,1,0,0:0:0:0:
269,168,254258,1,8,0:0:0:0:
319,124,254365,1,8,0:0:0:0:
269,168,254472,1,8,0:0:0:0:
319,124,254579,1,0,0:0:0:0:
269,168,254686,1,8,0:0:0:0:
319,124,254793,1,0,0:0:0:0:
269,168,254900,1,0,0:0:0:0:
319,124,255007,1,8,0:0:0:0:
269,168,255115,1,0,0:0:0:0:
319,124,255222,1,8,0:0:0:0:
246,75,255436,1,0,0:0:0:0:
269,168,255543,1,8,0:0:0:0:
158,109,255650,1,8,0:0:0:0:
319,124,255757,1,8,0:0:0:0:
319,124,255864,1,0,0:0:0:0:
269,168,255972,1,8,0:0:0:0:
319,124,256079,1,8,0:0:0:0:
269,168,256186,1,8,0:0:0:0:
319,124,256293,1,0,0:0:0:0:
269,168,256400,1,8,0:0:0:0:
319,124,256507,1,0,0:0:0:0:
269,168,256615,1,8,0:0:0:0:
319,124,256721,1,8,0:0:0:0:
269,168,256829,1,0,0:0:0:0:
319,124,256936,1,8,0:0:0:0:
246,75,257150,1,0,0:0:0:0:
269,168,257258,1,8,0:0:0:0:
158,109,257364,1,8,0:0:0:0:
319,124,257471,1,8,0:0:0:0:
319,124,257578,1,0,0:0:0:0:
269,168,257686,1,0,0:0:0:0:
319,124,257793,1,8,0:0:0:0:
269,168,257900,1,8,0:0:0:0:
319,124,258007,1,0,0:0:0:0:
269,168,258115,1,8,0:0:0:0:
319,124,258221,1,0,0:0:0:0:
269,168,258329,1,8,0:0:0:0:
319,124,258435,1,8,0:0:0:0:
269,168,258543,1,0,0:0:0:0:
319,124,258650,1,8,0:0:0:0:
246,75,258865,1,0,0:0:0:0:
269,168,258972,1,8,0:0:0:0:
158,109,259079,1,8,0:0:0:0:
319,124,259186,1,8,0:0:0:0:
319,124,259293,1,0,0:0:0:0:
269,168,259400,1,8,0:0:0:0:
319,124,259508,1,8,0:0:0:0:
269,168,259615,1,0,0:0:0:0:
319,124,259722,1,0,0:0:0:0:
269,168,259829,1,8,0:0:0:0:
319,124,259936,1,0,0:0:0:0:
269,168,260043,1,0,0:0:0:0:
319,124,260150,1,8,0:0:0:0:
269,168,260258,1,0,0:0:0:0:
319,124,260365,1,8,0:0:0:0:
246,75,260579,1,0,0:0:0:0:
269,168,260686,1,0,0:0:0:0:
158,109,260793,1,8,0:0:0:0:
319,124,260900,1,8,0:0:0:0:
319,124,261007,1,0,0:0:0:0:
269,168,261115,1,0,0:0:0:0:
319,124,261222,1,8,0:0:0:0:
269,168,261329,1,8,0:0:0:0:
319,124,261436,1,0,0:0:0:0:
269,168,261543,1,8,0:0:0:0:
319,124,261650,1,0,0:0:0:0:
269,168,261758,1,8,0:0:0:0:
319,124,261864,1,8,0:0:0:0:
269,168,261972,1,0,0:0:0:0:
319,124,262079,1,8,0:0:0:0:
246,75,262293,1,0,0:0:0:0:
228,124,262400,1,8,0:0:0:0:
158,109,262507,1,8,0:0:0:0:
319,124,262614,1,8,0:0:0:0:
319,124,262721,1,0,0:0:0:0:
228,124,262829,1,0,0:0:0:0:
319,124,262936,1,8,0:0:0:0:
228,124,263043,1,8,0:0:0:0:
319,124,263150,1,0,0:0:0:0:
228,124,263258,1,8,0:0:0:0:
319,124,263364,1,0,0:0:0:0:
228,124,263472,1,0,0:0:0:0:
319,124,263578,1,8,0:0:0:0:
228,124,263686,1,0,0:0:0:0:
319,124,263793,1,8,0:0:0:0:
188,141,264008,1,0,0:0:0:0:
188,141,264115,1,8,0:0:0:0:
188,141,264222,1,8,0:0:0:0:
188,141,264329,1,8,0:0:0:0:
188,141,264436,1,0,0:0:0:0:
188,141,264543,1,8,0:0:0:0:
188,141,264650,1,8,0:0:0:0:
188,141,264758,1,8,0:0:0:0:
188,141,264865,1,0,0:0:0:0:
188,141,264972,1,0,0:0:0:0:
188,141,265079,1,8,0:0:0:0:
188,141,265186,1,0,0:0:0:0:
188,141,265293,1,0,0:0:0:0:
188,141,265400,1,0,0:0:0:0:
188,141,265508,1,8,0:0:0:0:
188,141,265615,1,8,0:0:0:0:
188,141,265722,1,0,0:0:0:0:
188,141,265829,1,8,0:0:0:0:
188,141,265936,1,8,0:0:0:0:
188,141,266043,1,8,0:0:0:0:
188,141,266150,1,0,0:0:0:0:
188,141,266258,1,8,0:0:0:0:
188,141,266365,1,8,0:0:0:0:
188,141,266472,1,8,0:0:0:0:
188,141,266579,1,0,0:0:0:0:
188,141,266686,1,0,0:0:0:0:
188,141,266793,1,8,0:0:0:0:
188,141,266900,1,8,0:0:0:0:
188,141,267008,1,0,0:0:0:0:
188,141,267115,1,8,0:0:0:0:
188,141,267222,1,8,0:0:0:0:
188,141,267329,1,0,0:0:0:0:
188,141,267436,1,8,0:0:0:0:
188,141,267543,1,8,0:0:0:0:
188,141,267650,1,8,0:0:0:0:
188,141,267758,1,0,0:0:0:0:
188,141,267865,1,8,0:0:0:0:
188,141,267972,1,8,0:0:0:0:
188,141,268079,1,8,0:0:0:0:
188,141,268186,1,0,0:0:0:0:
242,107,268293,1,8,0:0:0:0:
242,107,268400,1,0,0:0:0:0:
242,107,268508,1,8,0:0:0:0:
161,148,268615,1,0,0:0:0:0:
197,148,268722,1,0,0:0:0:0:
197,148,268829,1,0,0:0:0:0:
197,148,268936,1,8,0:0:0:0:
197,148,269043,1,0,0:0:0:0:
197,148,269150,1,8,0:0:0:0:
197,148,269258,1,8,0:0:0:0:
197,148,269365,1,8,0:0:0:0:
197,148,269472,1,0,0:0:0:0:
197,148,269579,1,8,0:0:0:0:
197,148,269686,1,8,0:0:0:0:
197,148,269793,1,0,0:0:0:0:
197,148,269900,1,0,0:0:0:0:
217,128,270008,1,8,0:0:0:0:
217,128,270115,1,8,0:0:0:0:
217,128,270222,1,0,0:0:0:0:
217,128,270329,1,8,0:0:0:0:
217,128,270436,1,0,0:0:0:0:
217,128,270543,1,0,0:0:0:0:
217,128,270650,1,8,0:0:0:0:
217,128,270758,1,0,0:0:0:0:
217,128,270865,1,8,0:0:0:0:
217,128,270972,1,8,0:0:0:0:
217,128,271079,1,8,0:0:0:0:
217,128,271186,1,0,0:0:0:0:
217,128,271293,1,8,0:0:0:0:
217,128,271400,1,8,0:0:0:0:
217,128,271508,1,0,0:0:0:0:
217,128,271615,1,0,0:0:0:0:
217,128,271722,1,8,0:0:0:0:
217,128,271829,1,0,0:0:0:0:
217,128,271936,1,8,0:0:0:0:
217,128,272043,1,0,0:0:0:0:
217,128,272150,1,0,0:0:0:0:
217,128,272258,1,0,0:0:0:0:
217,128,272365,1,8,0:0:0:0:
217,128,272472,1,8,0:0:0:0:
217,128,272579,1,0,0:0:0:0:
217,128,272686,1,0,0:0:0:0:
217,128,272793,1,8,0:0:0:0:
217,128,272900,1,8,0:0:0:0:
217,128,273008,1,0,0:0:0:0:
240,145,273115,1,0,0:0:0:0:
240,145,273222,1,8,0:0:0:0:
240,145,273329,1,0,0:0:0:0:
240,145,273436,1,8,0:0:0:0:
240,145,273543,1,8,0:0:0:0:
240,145,273650,1,8,0:0:0:0:
240,145,273758,1,0,0:0:0:0:
240,145,273865,1,8,0:0:0:0:
240,145,273972,1,8,0:0:0:0:
240,145,274079,1,0,0:0:0:0:
240,145,274186,1,0,0:0:0:0:
240,145,274293,1,8,0:0:0:0:
240,145,274400,1,8,0:0:0:0:
240,145,274508,1,0,0:0:0:0:
240,145,274615,1,8,0:0:0:0:
240,145,274722,1,8,0:0:0:0:
240,145,274829,1,0,0:0:0:0:
240,145,274936,1,0,0:0:0:0:
136,172,275043,5,0,0:0:0:0:
136,172,275150,1,8,0:0:0:0:
136,172,275258,1,0,0:0:0:0:
136,172,275365,1,8,0:0:0:0:
136,172,275472,1,0,0:0:0:0:
136,172,275579,1,0,0:0:0:0:
136,172,275686,1,0,0:0:0:0:
136,172,275793,1,8,0:0:0:0:
136,172,275900,1,8,0:0:0:0:
136,172,276008,1,0,0:0:0:0:
136,172,276115,1,0,0:0:0:0:
136,172,276222,1,8,0:0:0:0:
136,172,276329,1,0,0:0:0:0:
136,172,276436,1,8,0:0:0:0:
136,172,276543,1,8,0:0:0:0:
136,172,276650,1,0,0:0:0:0:
136,172,276758,1,8,0:0:0:0:
136,172,276865,1,8,0:0:0:0:
136,172,276972,1,8,0:0:0:0:
136,172,277079,1,0,0:0:0:0:
136,172,277186,1,0,0:0:0:0:
136,172,277293,1,8,0:0:0:0:
136,172,277400,1,8,0:0:0:0:
136,172,277508,1,0,0:0:0:0:
136,172,277615,1,8,0:0:0:0:
188,141,277722,1,0,0:0:0:0:
188,141,277829,1,8,0:0:0:0:
188,141,277936,1,8,0:0:0:0:
188,141,278043,1,8,0:0:0:0:
188,141,278150,1,0,0:0:0:0:
188,141,278258,1,8,0:0:0:0:
188,141,278365,1,8,0:0:0:0:
188,141,278472,1,8,0:0:0:0:
188,141,278579,1,0,0:0:0:0:
188,141,278686,1,0,0:0:0:0:
188,141,278793,1,8,0:0:0:0:
188,141,278900,1,0,0:0:0:0:
188,141,279008,1,0,0:0:0:0:
188,141,279115,1,0,0:0:0:0:
188,141,279222,1,8,0:0:0:0:
188,141,279329,1,8,0:0:0:0:
188,141,279436,1,0,0:0:0:0:
188,141,279543,1,8,0:0:0:0:
188,141,279650,1,8,0:0:0:0:
188,141,279758,1,8,0:0:0:0:
188,141,279865,1,0,0:0:0:0:
188,141,279972,1,8,0:0:0:0:
188,141,280079,1,8,0:0:0:0:
188,141,280186,1,8,0:0:0:0:
188,141,280293,1,0,0:0:0:0:
188,141,280400,1,0,0:0:0:0:
188,141,280508,1,8,0:0:0:0:
188,141,280615,1,8,0:0:0:0:
188,141,280722,1,0,0:0:0:0:
188,141,280829,1,8,0:0:0:0:
188,141,280936,1,8,0:0:0:0:
188,141,281043,1,0,0:0:0:0:
188,141,281150,1,8,0:0:0:0:
188,141,281258,1,8,0:0:0:0:
188,141,281365,1,8,0:0:0:0:
188,141,281472,1,0,0:0:0:0:
188,141,281579,1,8,0:0:0:0:
188,141,281686,1,8,0:0:0:0:
188,141,281793,1,8,0:0:0:0:
188,141,281900,1,0,0:0:0:0:
242,107,282008,1,8,0:0:0:0:
242,107,282115,1,0,0:0:0:0:
242,107,282222,1,8,0:0:0:0:
161,148,282329,1,0,0:0:0:0:
197,148,282436,1,0,0:0:0:0:
197,148,282543,1,0,0:0:0:0:
197,148,282650,1,8,0:0:0:0:
197,148,282758,1,0,0:0:0:0:
197,148,282865,1,8,0:0:0:0:
197,148,282972,1,8,0:0:0:0:
197,148,283079,1,8,0:0:0:0:
197,148,283186,1,0,0:0:0:0:
197,148,283293,1,8,0:0:0:0:
197,148,283400,1,8,0:0:0:0:
197,148,283508,1,0,0:0:0:0:
197,148,283615,1,0,0:0:0:0:
217,128,283722,1,8,0:0:0:0:
217,128,283829,1,8,0:0:0:0:
217,128,283936,1,0,0:0:0:0:
217,128,284043,1,8,0:0:0:0:
217,128,284150,1,0,0:0:0:0:
217,128,284258,1,0,0:0:0:0:
217,128,284365,1,8,0:0:0:0:
217,128,284472,1,0,0:0:0:0:
217,128,284579,1,8,0:0:0:0:
217,128,284686,1,8,0:0:0:0:
217,128,284793,1,8,0:0:0:0:
217,128,284900,1,0,0:0:0:0:
217,128,285008,1,8,0:0:0:0:
217,128,285115,1,8,0:0:0:0:
217,128,285222,1,0,0:0:0:0:
217,128,285329,1,0,0:0:0:0:
217,128,285436,1,8,0:0:0:0:
217,128,285543,1,0,0:0:0:0:
217,128,285650,1,8,0:0:0:0:
217,128,285758,1,0,0:0:0:0:
217,128,285865,1,0,0:0:0:0:
217,128,285972,1,0,0:0:0:0:
217,128,286079,1,8,0:0:0:0:
217,128,286186,1,8,0:0:0:0:
217,128,286293,1,0,0:0:0:0:
217,128,286400,1,0,0:0:0:0:
217,128,286508,1,8,0:0:0:0:
217,128,286615,1,8,0:0:0:0:
217,128,286722,1,0,0:0:0:0:
240,145,286829,5,0,0:0:0:0:
240,145,286936,1,8,0:0:0:0:
240,145,287043,1,0,0:0:0:0:
240,145,287150,1,8,0:0:0:0:
240,145,287258,1,8,0:0:0:0:
240,145,287365,1,8,0:0:0:0:
240,145,287472,1,0,0:0:0:0:
240,145,287579,1,8,0:0:0:0:
240,145,287686,1,8,0:0:0:0:
240,145,287793,1,0,0:0:0:0:
240,145,287900,1,0,0:0:0:0:
197,98,288008,1,8,0:0:0:0:
197,98,288115,1,8,0:0:0:0:
197,98,288222,1,0,0:0:0:0:
197,98,288329,1,8,0:0:0:0:
197,98,288436,1,0,0:0:0:0:
197,98,288543,1,8,0:0:0:0:
197,98,288650,1,0,0:0:0:0:
197,98,288758,1,8,0:0:0:0:
342,136,288865,1,0,0:0:0:0:
342,136,288936,1,8,0:0:0:0:
342,136,289008,1,0,0:0:0:0:
342,136,289079,1,8,0:0:0:0:
342,136,289150,1,0,0:0:0:0:
342,136,289222,1,8,0:0:0:0:
342,136,289293,1,0,0:0:0:0:
342,136,289365,1,8,0:0:0:0:
342,136,289436,1,0,0:0:0:0:
342,136,289508,1,8,0:0:0:0:
342,136,289579,1,0,0:0:0:0:
342,136,289650,1,8,0:0:0:0:
342,136,289722,1,0,0:0:0:0:
274,106,289829,1,8,0:0:0:0:
274,106,289936,1,8,0:0:0:0:
274,106,290043,1,0,0:0:0:0:
274,106,290150,1,8,0:0:0:0:
274,106,290258,1,8,0:0:0:0:
274,106,290365,1,0,0:0:0:0:
274,106,290472,1,0,0:0:0:0:
274,106,290579,1,8,0:0:0:0:
274,106,290686,1,8,0:0:0:0:
272,153,290793,1,8,0:0:0:0:
272,153,290900,1,0,0:0:0:0:
272,153,291008,1,8,0:0:0:0:
272,153,291222,1,8,0:0:0:0:
272,153,291436,1,0,0:0:0:0:
328,72,291543,1,0,0:0:0:0:
240,72,291758,1,8,0:0:0:0:
328,72,291865,1,0,0:0:0:0:
240,72,292079,1,8,0:0:0:0:
240,72,292293,1,0,0:0:0:0:
240,72,292722,1,8,0:0:0:0:
208,224,293150,1,8,0:0:0:0:
328,72,293258,1,0,0:0:0:0:
208,224,293472,1,0,0:0:0:0:
328,72,293579,1,0,0:0:0:0:
208,224,293793,1,8,0:0:0:0:
208,224,294008,1,8,0:0:0:0:
208,224,294222,1,0,0:0:0:0:
208,224,294436,1,0,0:0:0:0:
208,224,294650,1,8,0:0:0:0:
240,72,294865,1,0,0:0:0:0:
328,72,294972,1,0,0:0:0:0:
240,72,295186,1,8,0:0:0:0:
328,72,295293,1,0,0:0:0:0:
240,72,295508,1,8,0:0:0:0:
240,72,295722,1,0,0:0:0:0:
375,240,295936,1,8,0:0:0:0:
240,72,296150,1,8,0:0:0:0:
208,224,296579,1,8,0:0:0:0:
328,72,296686,1,0,0:0:0:0:
88,99,296900,1,0,0:0:0:0:
208,224,297008,1,8,0:0:0:0:
328,72,297222,1,0,0:0:0:0:
208,224,297436,1,8,0:0:0:0:
208,224,297650,1,0,0:0:0:0:
208,224,297865,1,0,0:0:0:0:
208,224,298079,1,0,0:0:0:0:
208,224,298293,1,8,0:0:0:0:
208,224,298400,1,0,0:0:0:0:
328,72,298615,1,0,0:0:0:0:
136,248,298722,1,8,0:0:0:0:
328,72,298936,1,0,0:0:0:0:
136,248,299150,1,8,0:0:0:0:
172,140,299365,1,8,0:0:0:0:
136,248,299579,1,0,0:0:0:0:
136,248,300008,1,8,0:0:0:0:
136,248,300115,1,0,0:0:0:0:
328,72,300329,1,0,0:0:0:0:
136,248,300436,1,0,0:0:0:0:
328,72,300650,1,0,0:0:0:0:
136,248,300865,1,8,0:0:0:0:
136,248,301079,1,8,0:0:0:0:
136,248,301293,1,0,0:0:0:0:
136,248,301508,1,0,0:0:0:0:
136,248,301722,1,8,0:0:0:0:
136,248,301829,1,0,0:0:0:0:
328,72,302043,1,0,0:0:0:0:
136,248,302150,1,8,0:0:0:0:
328,72,302365,1,0,0:0:0:0:
136,248,302579,1,8,0:0:0:0:
136,248,302793,1,8,0:0:0:0:
375,240,303008,1,8,0:0:0:0:
136,248,303436,1,8,0:0:0:0:
136,248,303543,1,0,0:0:0:0:
328,72,303758,1,0,0:0:0:0:
136,248,303865,1,8,0:0:0:0:
328,72,304079,1,0,0:0:0:0:
136,248,304293,1,8,0:0:0:0:
136,248,304508,1,0,0:0:0:0:
136,248,304722,1,0,0:0:0:0:
136,248,304936,1,0,0:0:0:0:
136,248,305150,1,8,0:0:0:0:
208,224,305258,1,0,0:0:0:0:
328,72,305472,1,0,0:0:0:0:
136,248,305579,1,8,0:0:0:0:
328,72,305793,1,0,0:0:0:0:
136,248,306008,1,8,0:0:0:0:
117,154,306222,1,8,0:0:0:0:
136,248,306436,1,8,0:0:0:0:
136,248,306865,1,8,0:0:0:0:
328,72,306972,1,0,0:0:0:0:
136,248,307186,1,0,0:0:0:0:
328,72,307293,1,0,0:0:0:0:
136,248,307508,1,8,0:0:0:0:
136,248,307722,1,8,0:0:0:0:
136,248,307936,1,0,0:0:0:0:
136,248,308150,1,0,0:0:0:0:
136,248,308365,1,8,0:0:0:0:
136,248,308579,1,0,0:0:0:0:
328,72,308686,1,0,0:0:0:0:
136,248,308900,1,8,0:0:0:0:
328,72,309008,1,0,0:0:0:0:
136,248,309222,1,8,0:0:0:0:
136,248,309436,1,0,0:0:0:0:
375,240,309650,1,8,0:0:0:0:
136,248,309865,1,8,0:0:0:0:
136,248,310293,1,8,0:0:0:0:
328,72,310400,1,0,0:0:0:0:
328,72,310615,1,0,0:0:0:0:
136,248,310722,1,0,0:0:0:0:
136,248,310936,1,8,0:0:0:0:
136,248,311150,1,0,0:0:0:0:
136,248,311365,1,0,0:0:0:0:
136,248,311579,1,0,0:0:0:0:
136,248,311793,1,8,0:0:0:0:
208,224,312008,1,0,0:0:0:0:
328,72,312115,1,0,0:0:0:0:
136,248,312329,1,8,0:0:0:0:
328,72,312436,1,0,0:0:0:0:
136,248,312650,1,8,0:0:0:0:
136,248,312865,1,0,0:0:0:0:
375,240,313079,1,8,0:0:0:0:
136,248,313293,1,8,0:0:0:0:
136,248,313722,1,8,0:0:0:0:
328,72,313829,1,0,0:0:0:0:
136,248,314043,1,0,0:0:0:0:
328,72,314150,1,8,0:0:0:0:
136,248,314365,1,8,0:0:0:0:
136,248,314579,1,8,0:0:0:0:
136,248,314793,1,0,0:0:0:0:
136,248,315008,1,0,0:0:0:0:
136,248,315222,1,8,0:0:0:0:
136,248,315436,1,0,0:0:0:0:
328,72,315543,1,8,0:0:0:0:
136,248,315758,1,8,0:0:0:0:
328,72,315865,1,0,0:0:0:0:
136,248,316079,1,8,0:0:0:0:
136,248,316293,1,0,0:0:0:0:
154,163,316508,1,8,0:0:0:0:
136,248,316722,1,8,0:0:0:0:
136,248,317150,1,8,0:0:0:0:
328,72,317258,1,0,0:0:0:0:
136,248,317472,1,0,0:0:0:0:
328,72,317579,1,8,0:0:0:0:
136,248,317793,1,8,0:0:0:0:
136,248,317997,1,0,0:0:0:0:
256,126,318079,1,0,0:0:0:0:
303,122,318150,1,0,0:0:0:0:
136,248,318222,1,8,0:0:0:0:
136,248,318436,1,0,0:0:0:0:
202,194,318508,1,0,0:0:0:0:
202,194,318579,1,0,0:0:0:0:
136,248,318650,1,8,0:0:0:0:
136,248,318865,1,0,0:0:0:0:
