osu file format v14

[General]
AudioFilename: audio.mp3
AudioLeadIn: 0
PreviewTime: 55759
Countdown: 0
SampleSet: Soft
StackLeniency: 0.5
Mode: 0
LetterboxInBreaks: 0
WidescreenStoryboard: 0

[Editor]
DistanceSpacing: 1.2
BeatDivisor: 4
GridSize: 16
TimelineZoom: 1.800004

[Metadata]
Title:Good Night Mare
TitleUnicode:Good Night Mare
Artist:LOZAREENA
ArtistUnicode:ロザリーナ
Creator:Dubturt
Version:Insane
Source:妖怪アパートの幽雅な日常
Tags:akitoshi corinn elegant yokai apartment life youkai apartment no yuuga na nichijou opening
BeatmapID:1434065
BeatmapSetID:678193

[Difficulty]
HPDrainRate:6
CircleSize:4
OverallDifficulty:7.5
ApproachRate:8.2
SliderMultiplier:1.6
SliderTickRate:1

[Events]
//Background and Video events
0,0,"Youkai-Apartment-no-Yuuga-na-Nichijou-TV-720p-Eng-Sub.jpg",0,0
//Break Periods
//Storyboard Layer 0 (Background)
//Storyboard Layer 1 (Fail)
//Storyboard Layer 2 (Pass)
//Storyboard Layer 3 (Foreground)
//Storyboard Sound Samples

[TimingPoints]
2571,1153.84615384615,4,2,0,50,1,0
12752,468.75,4,2,1,55,1,0
27752,-111.111111111111,4,2,2,50,0,0
42048,-111.111111111111,4,2,1,50,0,0
42752,-111.111111111111,4,2,2,50,0,0
49548,-111.111111111111,4,2,1,50,0,0
50252,-111.111111111111,4,2,2,50,0,0
55877,-76.9230769230769,4,2,1,65,0,1
78377,-100,4,2,1,62,0,0
84002,-76.9230769230769,4,2,1,65,0,0

[Colours]
Combo1 : 167,84,84
Combo2 : 255,128,64
Combo3 : 255,128,0
Combo4 : 255,60,60

[HitObjects]
140,52,2571,6,0,P|186:69|226:119,1,80,2|0,0:0|0:0,0:0:0:0:
374,52,3724,2,0,P|328:69|288:119,1,80,2|0,0:0|0:0,0:0:0:0:
140,211,4878,6,0,P|186:194|226:144,1,80,2|0,0:0|0:0,0:0:0:0:
374,211,6032,2,0,P|328:194|288:144,1,80,2|0,0:0|0:0,0:0:0:0:
256,17,7186,6,0,L|256:130,1,80,2|0,0:0|0:0,0:0:0:0:
256,316,8340,2,0,L|256:196,1,120,2|0,0:0|0:0,0:0:0:0:
256,192,9494,12,0,11801,0:0:0:0:
64,321,12752,6,0,P|121:312|163:273,1,80,4|0,0:0|0:0,0:0:0:0:
189,240,13103,1,2,0:0:0:0:
189,240,13220,1,8,0:0:0:0:
90,125,13455,2,0,P|78:181|101:234,1,80,2|8,0:0|0:0,0:0:0:0:
192,137,13923,1,2,0:0:0:0:
192,137,14041,1,2,0:0:0:0:
192,137,14158,1,8,0:0:0:0:
280,69,14392,1,2,0:0:0:0:
329,181,14627,6,0,P|337:234|363:270,1,80,8|0,0:0|0:0,0:0:0:0:
424,287,14978,1,2,0:0:0:0:
424,287,15095,1,8,0:0:0:0:
469,127,15330,2,0,P|416:115|373:127,1,80,2|8,0:0|0:0,0:0:0:0:
229,123,15798,1,2,0:0:0:0:
229,123,15916,1,2,0:0:0:0:
229,123,16033,2,0,L|266:225,1,80,8|2,0:0|0:0,0:0:0:0:
352,321,16502,6,0,P|340:274|349:226,1,80,8|0,0:0|0:0,0:0:0:0:
378,173,16853,1,2,0:0:0:0:
378,173,16970,1,8,0:0:0:0:
256,198,17205,2,0,P|216:204|177:197,1,80,2|8,0:0|0:0,0:0:0:0:
280,101,17673,1,2,0:0:0:0:
280,101,17791,1,2,0:0:0:0:
280,101,17908,1,8,0:0:0:0:
172,17,18142,1,2,0:0:0:0:
75,93,18377,6,0,P|58:144|59:195,1,80,8|2,0:0|0:0,0:0:0:0:
98,237,18728,1,2,0:0:0:0:
98,237,18845,1,8,0:0:0:0:
213,211,19080,2,0,P|255:226|298:262,1,80,2|8,0:0|0:0,0:0:0:0:
379,302,19548,1,8,0:0:0:0:
405,271,19666,1,8,0:0:0:0:
421,234,19783,1,8,0:0:0:0:
424,194,19900,1,8,0:0:0:0:
415,154,20017,1,8,0:0:0:0:
395,119,20134,1,8,0:0:0:0:
369,87,20252,6,0,P|308:98|260:84,1,80,4|0,0:0|0:0,0:0:0:0:
223,69,20603,1,2,0:0:0:0:
223,69,20720,1,8,0:0:0:0:
89,109,20955,2,0,L|103:7,1,80,2|8,0:0|0:0,0:0:0:0:
17,182,21423,1,2,0:0:0:0:
17,182,21541,1,2,0:0:0:0:
17,182,21658,1,8,0:0:0:0:
150,171,21892,1,2,0:0:0:0:
64,306,22127,6,0,P|45:353|53:392,1,80,8|2,0:0|0:0,0:0:0:0:
125,358,22478,1,2,0:0:0:0:
125,358,22595,1,8,0:0:0:0:
150,248,22830,2,0,P|157:204|142:158,1,80,2|10,0:0|0:0,0:0:0:0:
130,16,23298,1,2,0:0:0:0:
130,16,23416,1,2,0:0:0:0:
130,16,23533,2,0,L|169:103,1,80,8|2,0:0|0:0,0:0:0:0:
249,161,24002,6,0,P|298:138|329:108,1,80,8|0,0:0|0:0,0:0:0:0:
326,47,24353,1,2,0:0:0:0:
326,47,24470,1,8,0:0:0:0:
466,136,24705,2,0,L|473:217,1,80,2|8,0:0|0:0,0:0:0:0:
395,98,25173,1,2,0:0:0:0:
395,98,25291,1,2,0:0:0:0:
395,98,25408,1,8,0:0:0:0:
319,240,25642,1,2,0:0:0:0:
271,72,25877,6,0,P|231:74|193:61,1,80,8|2,0:0|0:0,0:0:0:0:
122,32,26228,1,2,0:0:0:0:
122,32,26345,1,8,0:0:0:0:
65,159,26580,2,0,P|65:217|91:259,1,80,2|8,0:0|0:0,0:0:0:0:
168,296,27048,1,8,0:0:0:0:
206,307,27166,1,8,0:0:0:0:
245,313,27283,1,8,0:0:0:0:
284,317,27400,1,8,0:0:0:0:
323,317,27517,1,8,0:0:0:0:
362,312,27634,1,8,0:0:0:0:
397,304,27752,6,0,P|398:247|397:199,1,71.9999978027344,4|0,0:0|0:0,0:0:0:0:
314,120,28220,2,0,P|312:176|313:224,1,71.9999978027344,8|0,0:0|0:0,0:0:0:0:
429,65,28689,1,8,0:0:0:0:
429,65,29158,1,8,0:0:0:0:
318,12,29392,1,0,0:0:0:0:
253,85,29627,6,0,P|256:121|247:155,1,71.9999978027344,8|0,0:0|0:0,0:0:0:0:
112,113,30095,1,8,0:0:0:0:
199,23,30330,1,0,0:0:0:0:
183,204,30564,1,8,0:0:0:0:
70,292,30798,1,2,0:0:0:0:
70,292,30916,1,2,0:0:0:0:
70,292,31033,2,0,P|61:237|61:203,1,71.9999978027344,8|8,0:0|0:0,0:0:0:0:
70,149,31502,6,0,P|61:204|61:238,1,71.9999978027344,8|0,0:0|0:0,0:0:0:0:
159,129,31970,2,0,P|165:78|162:45,1,71.9999978027344,8|0,0:0|0:0,0:0:0:0:
70,149,32439,1,8,0:0:0:0:
70,149,32908,1,8,0:0:0:0:
177,215,33142,1,2,0:0:0:0:
177,215,33259,1,2,0:0:0:0:
177,215,33377,6,0,P|231:221|280:200,1,107.999996704102,8|0,0:0|0:0,0:0:0:0:
328,145,33845,1,8,0:0:0:0:
232,28,34080,1,0,0:0:0:0:
349,171,34314,1,8,0:0:0:0:
406,29,34548,1,2,0:0:0:0:
420,62,34666,1,2,0:0:0:0:
428,96,34783,1,10,0:0:0:0:
430,131,34900,1,2,0:0:0:0:
428,166,35017,1,2,0:0:0:0:
421,201,35134,1,2,0:0:0:0:
414,236,35252,6,0,L|508:205,2,71.9999978027344,8|0|8,0:0|0:0|0:0,0:0:0:0:
286,256,35955,1,0,0:0:0:0:
267,122,36189,1,8,0:0:0:0:
267,122,36658,1,8,0:0:0:0:
184,215,36892,1,2,0:0:0:0:
184,215,37009,1,2,0:0:0:0:
184,215,37127,6,0,P|121:228|63:219,1,107.999996704102,8|2,0:0|0:0,0:0:0:0:
22,177,37595,1,0,0:0:0:0:
128,20,37830,1,0,0:0:0:0:
43,155,38064,1,8,0:0:0:0:
168,125,38298,1,2,0:0:0:0:
201,110,38416,1,2,0:0:0:0:
235,100,38533,1,10,0:0:0:0:
271,100,38650,1,2,0:0:0:0:
306,104,38767,2,0,P|362:126|369:128,1,35.9999989013672,2|2,0:0|0:0,0:0:0:0:
405,153,39002,5,10,0:0:0:0:
436,324,39236,1,10,0:0:0:0:
275,293,39470,1,10,0:0:0:0:
445,98,39939,5,10,0:0:0:0:
364,246,40173,1,10,0:0:0:0:
276,103,40407,1,10,0:0:0:0:
364,246,40642,2,0,L|304:257,1,35.9999989013672,2|2,0:0|0:0,0:0:0:0:
294,265,40877,6,0,L|190:282,1,71.9999978027344,8|2,0:0|0:0,0:0:0:0:
94,249,41345,2,0,L|17:263,2,71.9999978027344,8|0|8,0:0|0:0|0:0,0:0:0:0:
161,166,42048,1,8,0:0:0:0:
170,131,42166,1,8,0:0:0:0:
166,95,42283,1,8,0:0:0:0:
154,61,42400,1,8,0:0:0:0:
131,32,42517,1,8,0:0:0:0:
131,32,42752,6,0,P|189:35|217:31,1,71.9999978027344,4|0,0:0|0:0,0:0:0:0:
304,96,43220,2,0,P|315:146|312:188,1,71.9999978027344,8|0,0:0|0:0,0:0:0:0:
228,271,43689,1,8,0:0:0:0:
172,153,43923,1,0,0:0:0:0:
310,270,44158,2,0,L|401:268,1,71.9999978027344,8|0,0:0|0:0,0:0:0:0:
228,271,44627,6,0,L|137:273,1,71.9999978027344,8|0,0:0|0:0,0:0:0:0:
70,176,45095,2,0,P|83:223|82:269,1,71.9999978027344,8|0,0:0|0:0,0:0:0:0:
12,347,45564,1,8,0:0:0:0:
0,227,45798,1,0,0:0:0:0:
121,333,46033,2,0,L|204:348,1,71.9999978027344,8|2,0:0|0:0,0:0:0:0:
263,320,46384,1,2,0:0:0:0:
263,320,46502,5,10,0:0:0:0:
393,197,46736,1,10,0:0:0:0:
222,145,46970,1,10,0:0:0:0:
112,176,47439,5,10,0:0:0:0:
282,230,47673,1,10,0:0:0:0:
244,55,47907,1,10,0:0:0:0:
282,230,48142,2,0,L|332:231,1,35.9999989013672,2|2,0:0|0:0,0:0:0:0:
353,221,48377,6,0,P|363:178|359:141,1,71.9999978027344,8|0,0:0|0:0,0:0:0:0:
293,23,48845,2,0,L|269:113,1,71.9999978027344,8|0,0:0|0:0,0:0:0:0:
397,23,49314,1,8,0:0:0:0:
449,163,49548,1,8,0:0:0:0:
415,176,49666,1,8,0:0:0:0:
380,184,49783,1,8,0:0:0:0:
344,186,49900,1,8,0:0:0:0:
308,181,50017,2,0,P|266:169|246:152,1,35.9999989013672,8|8,0:0|0:0,0:0:0:0:
211,129,50252,5,4,0:0:0:0:
69,53,50486,1,8,0:0:0:0:
118,287,50720,1,8,0:0:0:0:
67,19,50955,1,8,0:0:0:0:
113,259,51189,1,8,0:0:0:0:
276,110,51423,1,8,0:0:0:0:
70,117,51658,1,8,0:0:0:0:
240,261,51892,1,8,0:0:0:0:
256,192,52127,12,0,54002,0:0:0:0:
256,189,54939,5,4,1:0:0:0:
163,117,55173,1,0,0:0:0:0:
343,252,55408,1,8,3:0:0:0:
343,216,55525,1,8,3:0:0:0:
343,180,55642,1,8,3:0:0:0:
343,144,55759,1,8,3:0:0:0:
340,103,55877,6,0,P|270:96|230:110,1,103.999995239258,4|0,0:0|0:0,0:0:0:0:
75,186,56345,2,0,P|150:189|194:172,1,103.999995239258,8|0,0:0|0:0,0:0:0:0:
137,37,56814,1,2,0:0:0:0:
137,37,56931,1,2,0:0:0:0:
137,37,57048,1,2,0:0:0:0:
46,170,57283,1,8,0:0:0:0:
255,203,57517,1,0,0:0:0:0:
137,69,57752,6,0,L|137:177,1,103.999995239258,2|0,0:0|0:0,0:0:0:0:
198,358,58220,2,0,L|199:244,1,103.999995239258,8|0,0:0|0:0,0:0:0:0:
98,343,58689,1,2,0:0:0:0:
307,316,58923,1,0,0:0:0:0:
193,148,59158,1,8,0:0:0:0:
207,262,59392,1,2,0:0:0:0:
207,262,59509,1,2,0:0:0:0:
207,262,59627,6,0,L|297:180,1,103.999995239258,2|0,0:0|0:0,0:0:0:0:
378,106,60095,1,8,0:0:0:0:
324,318,60330,1,0,0:0:0:0:
396,220,60564,2,0,L|519:208,2,103.999995239258,2|0|8,0:0|0:0|0:0,0:0:0:0:
269,269,61267,1,0,0:0:0:0:
185,210,61502,6,0,P|253:251|284:293,1,103.999995239258,2|0,0:0|0:0,0:0:0:0:
177,308,61970,1,8,0:0:0:0:
92,109,62205,1,0,0:0:0:0:
257,168,62439,1,2,0:0:0:0:
257,168,62556,1,2,0:0:0:0:
257,168,62673,1,2,0:0:0:0:
82,264,62908,1,8,0:0:0:0:
167,59,63142,1,2,0:0:0:0:
167,59,63259,1,2,0:0:0:0:
167,59,63377,6,0,P|230:51|281:62,1,103.999995239258,2|0,0:0|0:0,0:0:0:0:
402,126,63845,1,8,0:0:0:0:
269,58,64080,1,0,0:0:0:0:
436,147,64314,2,0,L|440:253,1,103.999995239258,2|0,0:0|0:0,0:0:0:0:
318,142,64783,1,8,0:0:0:0:
358,325,65017,1,0,0:0:0:0:
281,236,65252,6,0,P|226:214|155:202,1,103.999995239258,2|0,0:0|0:0,0:0:0:0:
23,242,65720,1,8,0:0:0:0:
139,332,65955,1,0,0:0:0:0:
92,143,66189,2,0,L|194:120,1,103.999995239258,2|0,0:0|0:0,0:0:0:0:
294,95,66658,1,8,0:0:0:0:
402,70,66892,1,0,0:0:0:0:
193,120,67127,6,0,L|183:237,1,103.999995239258,4|0,0:0|0:0,0:0:0:0:
210,300,67478,1,2,0:0:0:0:
283,257,67595,2,0,P|343:260|399:274,1,103.999995239258,8|2,0:0|0:0,0:0:0:0:
210,300,68064,2,0,P|150:297|94:283,1,103.999995239258,2|0,0:0|0:0,0:0:0:0:
53,235,68416,1,2,0:0:0:0:
53,235,68533,1,8,0:0:0:0:
92,47,68767,1,2,0:0:0:0:
166,218,69002,6,0,L|270:164,1,103.999995239258,4|0,0:0|0:0,0:0:0:0:
330,137,69353,1,2,0:0:0:0:
381,197,69470,2,0,P|385:261|379:307,1,103.999995239258,8|2,0:0|0:0,0:0:0:0:
330,137,69939,2,0,P|325:72|331:26,1,103.999995239258,0|8,0:0|0:0,0:0:0:0:
414,16,70291,1,8,0:0:0:0:
434,63,70408,1,8,0:0:0:0:
440,114,70525,1,8,0:0:0:0:
436,165,70642,1,8,0:0:0:0:
427,216,70759,1,8,0:0:0:0:
400,261,70877,6,0,P|326:267|279:260,1,103.999995239258,4|0,0:0|0:0,0:0:0:0:
109,190,71345,2,0,P|183:184|230:191,1,103.999995239258,8|0,0:0|0:0,0:0:0:0:
111,304,71814,1,2,0:0:0:0:
111,304,71931,1,2,0:0:0:0:
111,304,72048,1,2,0:0:0:0:
56,88,72283,1,8,0:0:0:0:
0,274,72517,1,0,0:0:0:0:
160,123,72752,6,0,P|235:115|300:125,1,103.999995239258,2|0,0:0|0:0,0:0:0:0:
375,245,73220,2,0,L|390:133,1,103.999995239258,8|0,0:0|0:0,0:0:0:0:
286,218,73689,1,2,0:0:0:0:
286,218,73806,1,2,0:0:0:0:
286,218,73923,1,2,0:0:0:0:
392,353,74158,1,8,0:0:0:0:
476,197,74392,1,2,0:0:0:0:
476,197,74509,1,2,0:0:0:0:
476,197,74627,6,0,L|488:81,1,103.999995239258,2|0,0:0|0:0,0:0:0:0:
430,31,74978,1,0,0:0:0:0:
352,53,75095,2,0,P|281:57|237:47,1,103.999995239258,8|0,0:0|0:0,0:0:0:0:
90,14,75564,1,2,0:0:0:0:
249,50,75798,1,0,0:0:0:0:
267,98,75916,1,0,0:0:0:0:
274,149,76033,1,8,0:0:0:0:
263,199,76150,1,8,0:0:0:0:
255,250,76267,1,8,0:0:0:0:
263,301,76384,1,8,0:0:0:0:
276,351,76502,5,10,0:0:0:0:
411,52,76970,5,10,0:0:0:0:
53,230,77439,5,10,0:0:0:0:
505,215,77908,5,10,0:0:0:0:
88,16,78377,6,0,P|50:82|98:171,1,160,4|8,0:0|0:0,0:0:0:0:
189,230,79080,1,2,0:0:0:0:
329,176,79314,2,0,L|287:94,1,80,2|0,0:0|0:0,0:0:0:0:
133,83,79783,1,8,0:0:0:0:
189,230,80017,1,2,0:0:0:0:
189,230,80134,1,2,0:0:0:0:
189,230,80252,6,0,L|304:230,1,80,2|0,0:0|0:0,0:0:0:0:
341,217,80603,1,2,0:0:0:0:
341,217,80720,1,8,0:0:0:0:
386,121,80955,2,0,P|369:70|246:38,1,160,2|2,0:0|0:0,0:0:0:0:
130,75,81658,1,8,0:0:0:0:
130,75,82127,6,0,P|110:155|192:144,1,160,2|2,0:0|0:0,0:0:0:0:
264,81,82830,1,8,0:0:0:0:
233,190,84002,6,0,P|279:145|323:144,1,103.999995239258,4|0,0:0|0:0,0:0:0:0:
406,181,84470,2,0,P|360:226|316:227,1,103.999995239258,8|0,0:0|0:0,0:0:0:0:
406,56,84939,1,2,0:0:0:0:
406,181,85173,1,0,0:0:0:0:
406,316,85408,1,8,0:0:0:0:
277,119,85642,1,2,0:0:0:0:
277,119,85759,1,2,0:0:0:0:
277,119,85877,6,0,L|164:147,1,103.999995239258,2|0,0:0|0:0,0:0:0:0:
60,162,86345,1,8,0:0:0:0:
208,353,86580,1,0,0:0:0:0:
225,61,86814,5,10,0:0:0:0:
75,298,87048,1,10,0:0:0:0:
350,303,87283,1,10,0:0:0:0:
121,85,87517,1,10,0:0:0:0:
