osu file format v14

[General]
AudioFilename: audio.mp3
AudioLeadIn: 0
PreviewTime: 55759
Countdown: 0
SampleSet: Soft
StackLeniency: 0.8
Mode: 0
LetterboxInBreaks: 0
WidescreenStoryboard: 1

[Editor]
DistanceSpacing: 1.2
BeatDivisor: 4
GridSize: 16
TimelineZoom: 1.300004

[Metadata]
Title:Good Night Mare
TitleUnicode:Good Night Mare
Artist:LOZAREENA
ArtistUnicode:ロザリーナ
Creator:Dubturt
Version:Easy
Source:妖怪アパートの幽雅な日常
Tags:akitoshi corinn elegant yokai apartment life youkai apartment no yuuga na nichijou opening
BeatmapID:1434063
BeatmapSetID:678193

[Difficulty]
HPDrainRate:3
CircleSize:3
OverallDifficulty:3
ApproachRate:3
SliderMultiplier:1
SliderTickRate:1

[Events]
//Background and Video events
0,0,"Youkai-Apartment-no-Yuuga-na-Nichijou-TV-720p-Eng-Sub.jpg",0,0
//Break Periods
2,7385,11312
//Storyboard Layer 0 (Background)
//Storyboard Layer 1 (Fail)
//Storyboard Layer 2 (Pass)
//Storyboard Layer 3 (Foreground)
//Storyboard Sound Samples

[TimingPoints]
2571,1153.84615384615,4,2,0,50,1,0
12752,468.75,4,2,1,55,1,0
27752,-100,4,2,2,50,0,0
42048,-100,4,2,1,50,0,0
42752,-100,4,2,2,50,0,0
49548,-100,4,2,1,50,0,0
50252,-100,4,2,2,50,0,0
55877,-100,4,2,1,65,0,1
78377,-100,4,2,1,62,0,0
84002,-100,4,2,1,65,0,0

[Colours]
Combo1 : 167,84,84
Combo2 : 255,128,64
Combo3 : 255,128,0
Combo4 : 255,60,60

[HitObjects]
218,65,2571,6,0,L|337:65,2,100,2|2|2,0:0|0:0|0:0,0:0:0:0:
264,153,6032,2,0,L|377:153,1,100,2|2,0:0|0:0,0:0:0:0:
340,257,12752,6,0,P|338:313|273:346,2,100,4|8|8,0:0|0:0|0:0,0:0:0:0:
240,268,14158,1,8,0:0:0:0:
171,340,14627,2,0,P|137:304|138:255,1,100,8|8,0:0|0:0,0:0:0:0:
130,156,15564,2,0,P|128:107|162:71,1,100,8|8,0:0|0:0,0:0:0:0:
256,85,16502,6,0,L|256:201,2,100,8|8|8,0:0|0:0|0:0,0:0:0:0:
346,43,17908,1,8,0:0:0:0:
436,85,18377,2,0,L|436:194,1,100,8|8,0:0|0:0,0:0:0:0:
436,285,19314,2,0,L|328:285,1,100,8|8,0:0|0:0,0:0:0:0:
237,265,20252,6,0,P|203:312|144:323,2,100,4|8|8,0:0|0:0|0:0,0:0:0:0:
192,175,21658,1,8,0:0:0:0:
275,120,22127,2,0,L|388:120,1,100,8|8,0:0|0:0,0:0:0:0:
456,62,23064,2,0,P|403:31|345:33,1,100,10|8,0:0|0:0,0:0:0:0:
265,28,24002,6,0,P|207:37|148:14,2,100,8|8|8,0:0|0:0|0:0,0:0:0:0:
365,28,25408,1,8,0:0:0:0:
410,116,25877,2,0,P|419:165|410:226,1,100,8|8,0:0|0:0,0:0:0:0:
326,263,26814,2,0,L|209:262,1,100,8|8,0:0|0:0,0:0:0:0:
127,235,27752,5,4,0:0:0:0:
50,171,28220,2,0,P|44:105|53:64,1,100,8|8,0:0|0:0,0:0:0:0:
138,120,29158,1,8,0:0:0:0:
208,49,29627,2,0,P|263:37|307:52,1,100,8|8,0:0|0:0,0:0:0:0:
384,108,30564,2,0,L|384:226,1,100,8|8,0:0|0:0,0:0:0:0:
342,299,31502,5,8,0:0:0:0:
248,334,31970,2,0,L|141:334,1,100,8|8,0:0|0:0,0:0:0:0:
63,279,32908,1,8,0:0:0:0:
157,245,33377,2,0,P|213:216|237:167,2,100,8|8|8,0:0|0:0|0:0,0:0:0:0:
67,200,34783,1,10,0:0:0:0:
20,111,35252,6,0,P|75:96|130:124,1,100,8|8,0:0|0:0,0:0:0:0:
198,163,36189,1,8,0:0:0:0:
285,113,36658,1,8,0:0:0:0:
370,165,37127,2,0,L|370:279,2,100,8|8|8,0:0|0:0|0:0,0:0:0:0:
437,91,38533,1,10,0:0:0:0:
362,23,39002,6,0,L|254:23,1,100,10|10,0:0|0:0,0:0:0:0:
220,115,39939,2,0,L|326:115,1,100,10|10,0:0|0:0,0:0:0:0:
402,171,40877,1,8,0:0:0:0:
431,266,41345,1,8,0:0:0:0:
355,331,41814,2,0,P|304:342|240:325,1,100,8|8,0:0|0:0,0:0:0:0:
163,297,42752,5,4,0:0:0:0:
68,330,43220,2,0,P|51:273|68:222,1,100,8|8,0:0|0:0,0:0:0:0:
130,162,44158,1,8,0:0:0:0:
71,80,44627,1,8,0:0:0:0:
156,28,45095,2,0,L|282:28,2,100,8|8|8,0:0|0:0|0:0,0:0:0:0:
71,80,46502,6,0,L|71:189,1,100,10|10,0:0|0:0,0:0:0:0:
159,225,47439,2,0,L|159:101,1,100,10|10,0:0|0:0,0:0:0:0:
235,60,48377,2,0,P|302:63|424:170,1,200,8|8,0:0|0:0,0:0:0:0:
366,229,49783,1,8,0:0:0:0:
402,322,50252,6,0,L|285:322,2,100,4|8|8,0:0|0:0|0:0,0:0:0:0:
455,237,51658,1,8,0:0:0:0:
256,192,52127,12,0,54002,0:0:0:0:
125,55,55877,6,0,P|175:42|233:66,2,100,4|8|2,0:0|0:0|0:0,0:0:0:0:
55,127,57283,1,8,0:0:0:0:
125,197,57752,2,0,P|175:210|233:186,2,100,4|8|2,0:0|0:0|0:0,0:0:0:0:
174,110,59158,1,8,0:0:0:0:
273,96,59627,6,0,L|414:96,1,100,2|8,0:0|0:0,0:0:0:0:
450,159,60564,2,0,P|454:247|446:275,1,100,2|8,0:0|0:0,0:0:0:0:
355,285,61502,2,0,P|300:277|249:286,1,100,2|8,0:0|0:0,0:0:0:0:
163,320,62439,1,2,0:0:0:0:
69,283,62908,1,8,0:0:0:0:
22,194,63377,6,0,P|8:124|30:67,1,100,2|8,0:0|0:0,0:0:0:0:
91,33,64314,1,2,0:0:0:0:
175,86,64783,1,8,0:0:0:0:
265,42,65252,2,0,P|261:92|270:158,1,100,2|8,0:0|0:0,0:0:0:0:
344,202,66189,1,2,0:0:0:0:
437,166,66658,1,8,0:0:0:0:
425,265,67127,6,0,P|408:315|345:365,2,100,4|8|2,0:0|0:0|0:0,0:0:0:0:
344,202,68533,1,8,0:0:0:0:
247,176,69002,2,0,P|189:155|159:105,2,100,4|8|0,0:0|0:0|0:0,0:0:0:0:
344,202,70408,1,8,0:0:0:0:
397,286,70877,5,4,0:0:0:0:
305,325,71345,2,0,L|199:325,2,100,8|2|8,0:0|0:0|0:0,0:0:0:0:
397,286,72752,1,2,0:0:0:0:
440,196,73220,2,0,L|440:73,1,100,8|2,0:0|0:0,0:0:0:0:
353,46,74158,1,8,0:0:0:0:
287,121,74627,6,0,P|210:134|85:83,1,200,2|2,0:0|0:0,0:0:0:0:
13,39,76033,1,8,0:0:0:0:
12,139,76502,2,0,L|12:261,1,100,10|10,0:0|0:0,0:0:0:0:
97,290,77439,2,0,L|97:168,1,100,10|10,0:0|0:0,0:0:0:0:
178,130,78377,6,0,P|258:131|319:256,1,200,4|2,0:0|0:0,0:0:0:0:
222,216,79783,1,8,0:0:0:0:
237,314,80252,2,0,P|331:340|423:307,1,200,2|2,0:0|0:0,0:0:0:0:
484,227,81658,1,8,0:0:0:0:
420,149,82127,6,0,L|263:149,1,150,2|8,0:0|0:0,0:0:0:0:
22,115,84002,6,0,P|43:52|111:35,2,100,4|8|2,0:0|0:0|0:0,0:0:0:0:
85,192,85408,1,8,0:0:0:0:
169,138,85877,2,0,L|298:138,1,100,2|8,0:0|0:0,0:0:0:0:
361,174,86814,6,0,L|361:327,1,150,10|10,0:0|0:0,0:0:0:0:
