osu file format v14

[General]
AudioFilename: audio.mp3
AudioLeadIn: 0
PreviewTime: 55759
Countdown: 0
SampleSet: Soft
StackLeniency: 0.7
Mode: 0
LetterboxInBreaks: 0
WidescreenStoryboard: 1

[Editor]
DistanceSpacing: 1.2
BeatDivisor: 4
GridSize: 16
TimelineZoom: 1.000004

[Metadata]
Title:Good Night Mare
TitleUnicode:Good Night Mare
Artist:LOZAREENA
ArtistUnicode:ロザリーナ
Creator:Dubturt
Version:Normal
Source:妖怪アパートの幽雅な日常
Tags:akitoshi corinn elegant yokai apartment life youkai apartment no yuuga na nichijou opening
BeatmapID:1434066
BeatmapSetID:678193

[Difficulty]
HPDrainRate:4
CircleSize:3.2
OverallDifficulty:4
ApproachRate:5
SliderMultiplier:1.2
SliderTickRate:1

[Events]
//Background and Video events
0,0,"Youkai-Apartment-no-Yuuga-na-Nichijou-TV-720p-Eng-Sub.jpg",0,0
//Break Periods
2,6897,11552
//Storyboard Layer 0 (Background)
//Storyboard Layer 1 (Fail)
//Storyboard Layer 2 (Pass)
//Storyboard Layer 3 (Foreground)
//Storyboard Sound Samples

[TimingPoints]
2571,1153.84615384615,4,2,0,50,1,0
12752,468.75,4,2,1,55,1,0
27752,-100,4,2,2,50,0,0
42048,-100,4,2,1,50,0,0
42752,-100,4,2,2,50,0,0
49548,-100,4,2,1,50,0,0
50252,-100,4,2,2,50,0,0
55877,-100,4,2,1,65,0,1
78377,-100,4,2,1,62,0,0
84002,-100,4,2,1,65,0,0

[Colours]
Combo1 : 167,84,84
Combo2 : 255,128,64
Combo3 : 255,128,0
Combo4 : 255,60,60

[HitObjects]
295,300,2571,6,0,P|349:252|415:242,1,120,2|2,0:0|0:0,0:0:0:0:
440,202,4301,1,0,0:0:0:0:
408,150,4878,2,0,P|335:145|282:106,1,120,2|2,0:0|0:0,0:0:0:0:
253,79,6608,1,0,0:0:0:0:
57,36,12752,6,0,L|57:166,1,120,4|8,0:0|0:0,0:0:0:0:
73,213,13455,2,0,P|130:215|148:208,1,60,2|8,0:0|0:0,0:0:0:0:
185,187,13923,2,0,L|185:108,2,60,2|8|2,0:0|0:0|0:0,0:0:0:0:
239,213,14627,2,0,P|299:211|347:245,1,120,8|8,0:0|0:0,0:0:0:0:
458,286,15564,2,0,P|431:232|443:174,1,120,8|8,0:0|0:0,0:0:0:0:
505,72,16502,6,0,L|373:72,1,120,8|8,0:0|0:0,0:0:0:0:
331,99,17205,2,0,P|284:105|259:94,1,60,2|8,0:0|0:0,0:0:0:0:
216,81,17673,2,0,L|217:8,2,60,2|8|2,0:0|0:0|0:0,0:0:0:0:
157,94,18377,2,0,P|124:118|103:211,1,120,8|8,0:0|0:0,0:0:0:0:
17,278,19314,2,0,P|57:277|130:338,1,120,8|8,0:0|0:0,0:0:0:0:
174,348,20017,1,8,0:0:0:0:
231,364,20252,6,0,L|378:365,1,120,4|8,0:0|0:0,0:0:0:0:
400,330,20955,2,0,P|402:291|398:249,1,60,2|8,0:0|0:0,0:0:0:0:
350,238,21423,2,0,L|273:238,2,60,2|8|2,0:0|0:0|0:0,0:0:0:0:
375,183,22127,2,0,P|380:144|349:66,1,120,8|8,0:0|0:0,0:0:0:0:
237,34,23064,2,0,P|232:73|263:151,1,120,10|8,0:0|0:0,0:0:0:0:
359,213,24002,6,0,L|359:341,1,120,8|8,0:0|0:0,0:0:0:0:
300,345,24705,2,0,P|267:352|229:341,1,60,2|8,0:0|0:0,0:0:0:0:
188,319,25173,2,0,L|188:236,2,60,2|8|2,0:0|0:0|0:0,0:0:0:0:
131,339,25877,2,0,P|92:312|61:226,1,120,8|8,0:0|0:0,0:0:0:0:
14,137,26814,2,0,P|58:127|84:114,1,60,8|8,0:0|0:0,0:0:0:0:
117,82,27283,2,0,P|150:68|183:68,1,60,8|8,0:0|0:0,0:0:0:0:
232,78,27752,6,0,L|232:219,1,120,4|8,0:0|0:0,0:0:0:0:
247,256,28455,1,0,0:0:0:0:
302,279,28689,2,0,L|374:280,1,60,8|0,0:0|0:0,0:0:0:0:
420,267,29158,2,0,P|430:234|434:192,1,60,8|0,0:0|0:0,0:0:0:0:
413,151,29627,2,0,P|360:167|279:137,1,120,8|8,0:0|0:0,0:0:0:0:
216,63,30564,1,8,0:0:0:0:
156,60,30798,2,0,L|86:60,2,60,2|8|8,0:0|0:0|0:0,0:0:0:0:
216,63,31502,5,8,0:0:0:0:
146,160,31970,2,0,P|139:199|149:234,1,60,8|0,0:0|0:0,0:0:0:0:
174,269,32439,2,0,P|226:254|292:274,1,120,8|8,0:0|0:0,0:0:0:0:
337,305,33142,1,2,0:0:0:0:
394,286,33377,2,0,P|419:248|402:168,1,120,8|8,0:0|0:0,0:0:0:0:
311,107,34314,1,8,0:0:0:0:
253,91,34548,2,0,L|253:19,2,60,2|10|2,0:0|0:0|0:0,0:0:0:0:
213,137,35252,5,8,0:0:0:0:
282,234,35720,2,0,L|282:307,1,60,8|0,0:0|0:0,0:0:0:0:
238,335,36189,2,0,P|188:351|104:323,1,120,8|8,0:0|0:0,0:0:0:0:
72,304,36892,1,2,0:0:0:0:
21,270,37127,2,0,L|21:142,1,120,8|8,0:0|0:0,0:0:0:0:
43,94,37830,2,0,P|83:76|121:72,1,60,0|8,0:0|0:0,0:0:0:0:
158,68,38298,2,0,L|158:3,2,60,2|10|2,0:0|0:0|0:0,0:0:0:0:
208,101,39002,6,0,L|295:101,2,60,10|10|10,0:0|0:0|0:0,0:0:0:0:
121,184,39939,6,0,L|61:184,2,60,10|10|10,0:0|0:0|0:0,0:0:0:0:
140,302,40877,6,0,P|184:292|228:223,1,120,8|8,0:0|0:0,0:0:0:0:
212,175,41580,2,0,P|202:136|220:115,1,60,0|8,0:0|0:0,0:0:0:0:
253,79,42048,2,0,L|253:13,2,60,8|8|8,0:0|0:0|0:0,0:0:0:0:
296,120,42752,6,0,P|335:120|413:56,1,120,4|8,0:0|0:0,0:0:0:0:
498,7,43689,2,0,L|498:130,1,120,8|8,0:0|0:0,0:0:0:0:
468,243,44627,2,0,P|419:200|354:187,1,120,8|8,0:0|0:0,0:0:0:0:
274,263,45564,2,0,L|274:122,1,120,8|8,0:0|0:0,0:0:0:0:
179,68,46502,6,0,L|97:68,2,60,10|10|10,0:0|0:0|0:0,0:0:0:0:
274,143,47439,6,0,L|357:143,2,60,10|10|10,0:0|0:0|0:0,0:0:0:0:
213,146,48142,1,2,0:0:0:0:
162,178,48377,6,0,P|154:219|206:296,1,120,8|8,0:0|0:0,0:0:0:0:
293,344,49314,1,8,0:0:0:0:
343,312,49548,2,0,L|423:312,2,60,8|8|8,0:0|0:0|0:0,0:0:0:0:
294,275,50252,6,0,P|276:219|289:145,1,120,4|8,0:0|0:0,0:0:0:0:
313,107,50955,1,8,0:0:0:0:
291,50,51189,2,0,L|147:50,1,120,8|8,0:0|0:0,0:0:0:0:
256,192,52127,12,0,54002,0:0:0:0:
199,58,55877,6,0,P|170:90|213:170,1,120,4|8,0:0|0:0,0:0:0:0:
245,177,56580,2,0,P|253:214|239:309,1,120,0|2,0:0|0:0,0:0:0:0:
237,354,57283,2,0,L|313:354,1,60,8|0,0:0|0:0,0:0:0:0:
355,342,57752,2,0,P|382:293|343:232,1,120,2|8,0:0|0:0,0:0:0:0:
311,199,58455,2,0,P|306:158|320:73,1,120,0|2,0:0|0:0,0:0:0:0:
332,22,59158,2,0,L|252:22,1,60,8|2,0:0|0:0,0:0:0:0:
219,51,59627,6,0,P|159:53|96:27,2,120,2|8|2,0:0|0:0|0:0,0:0:0:0:
331,92,61033,2,0,L|331:160,1,60,8|0,0:0|0:0,0:0:0:0:
282,188,61502,2,0,P|218:184|160:189,1,120,2|8,0:0|0:0,0:0:0:0:
130,239,62205,1,0,0:0:0:0:
162,289,62439,2,0,P|226:293|284:288,1,120,2|8,0:0|0:0,0:0:0:0:
401,275,63377,6,0,L|401:142,1,120,2|8,0:0|0:0,0:0:0:0:
423,99,64080,2,0,P|464:106|488:100,2,60,0|2|0,0:0|0:0|0:0,0:0:0:0:
368,72,64783,1,8,0:0:0:0:
312,49,65017,2,0,P|264:44|229:60,1,60,0|2,0:0|0:0,0:0:0:0:
194,58,65486,2,0,P|197:122|188:196,1,120
180,236,66189,1,2,0:0:0:0:
208,352,66658,2,0,P|163:319|141:314,1,60,8|0,0:0|0:0,0:0:0:0:
99,312,67127,6,0,P|51:316|1:262,1,120,4|8,0:0|0:0,0:0:0:0:
1,148,68064,2,0,P|29:112|114:112,1,120,2|8,0:0|0:0,0:0:0:0:
158,115,68767,1,2,0:0:0:0:
216,127,69002,2,8,P|269:144|333:131,1,120,12|8,0:0|0:0,0:0:0:0:
423,55,69939,2,0,P|438:99|420:187,1,120,2|8,0:0|0:0,0:0:0:0:
405,226,70642,1,8,0:0:0:0:
375,278,70877,6,0,L|240:278,1,120,4|8,0:0|0:0,0:0:0:0:
194,280,71580,2,0,P|143:279|124:265,1,60,0|2,0:0|0:0,0:0:0:0:
100,227,72048,1,2,0:0:0:0:
130,175,72283,2,0,P|136:139|120:97,1,60,8|0,0:0|0:0,0:0:0:0:
169,70,72752,2,0,L|303:70,1,120,2|8,0:0|0:0,0:0:0:0:
348,81,73455,2,0,P|370:135|361:194,1,120,0|2,0:0|0:0,0:0:0:0:
333,248,74158,2,0,P|330:286|331:309,1,60,8|0,0:0|0:0,0:0:0:0:
289,351,74627,6,0,P|233:368|171:353,1,120,2|8,0:0|0:0,0:0:0:0:
123,322,75330,2,0,P|120:285|130:245,1,60,0|2,0:0|0:0,0:0:0:0:
133,203,75798,1,0,0:0:0:0:
175,160,76033,2,0,L|256:160,1,60,8|8,0:0|0:0,0:0:0:0:
293,172,76502,2,0,L|293:302,1,120,10|10,0:0|0:0,0:0:0:0:
393,357,77439,2,0,L|393:237,1,120,10|10,0:0|0:0,0:0:0:0:
410,117,78377,6,0,P|351:110|307:147,1,120,4|8,0:0|0:0,0:0:0:0:
278,199,79080,1,2,0:0:0:0:
223,224,79314,2,0,P|220:168|224:96,1,120,2|8,0:0|0:0,0:0:0:0:
313,24,80252,6,0,L|393:24,2,60,2|0|8,0:0|0:0|0:0,0:0:0:0:
252,28,80955,2,0,L|129:28,1,120
87,68,81658,1,8,0:0:0:0:
41,178,82127,2,0,L|41:302,1,120,2|2,0:0|0:0,0:0:0:0:
63,353,82830,1,8,0:0:0:0:
371,339,84002,6,0,P|315:358|260:337,1,120,4|8,0:0|0:0,0:0:0:0:
239,280,84705,1,0,0:0:0:0:
280,236,84939,2,0,L|344:236,2,60,2|0|8,0:0|0:0|0:0,0:0:0:0:
242,188,85642,1,2,0:0:0:0:
210,136,85877,2,0,P|180:125|85:137,1,120,2|8,0:0|0:0,0:0:0:0:
7,217,86814,6,0,L|7:283,1,60,10|10,0:0|0:0,0:0:0:0:
49,319,87283,2,0,L|115:318,1,60,10|10,0:0|0:0,0:0:0:0:
