osu file format v14

[General]
AudioFilename: audio.mp3
AudioLeadIn: 0
PreviewTime: 55759
Countdown: 0
SampleSet: Soft
StackLeniency: 0.6
Mode: 0
LetterboxInBreaks: 0
WidescreenStoryboard: 1

[Editor]
DistanceSpacing: 1.2
BeatDivisor: 4
GridSize: 4
TimelineZoom: 1.000004

[Metadata]
Title:Good Night Mare
TitleUnicode:Good Night Mare
Artist:LOZAREENA
ArtistUnicode:ロザリーナ
Creator:Dubturt
Version:Hard
Source:妖怪アパートの幽雅な日常
Tags:akitoshi corinn elegant yokai apartment life youkai apartment no yuuga na nichijou opening
BeatmapID:1434064
BeatmapSetID:678193

[Difficulty]
HPDrainRate:4
CircleSize:3.6
OverallDifficulty:5
ApproachRate:7.3
SliderMultiplier:1.4
SliderTickRate:1

[Events]
//Background and Video events
0,0,"Youkai-Apartment-no-Yuuga-na-Nichijou-TV-720p-Eng-Sub.jpg",0,0
//Break Periods
//Storyboard Layer 0 (Background)
//Storyboard Layer 1 (Fail)
//Storyboard Layer 2 (Pass)
//Storyboard Layer 3 (Foreground)
//Storyboard Sound Samples

[TimingPoints]
2571,1153.84615384615,4,2,0,50,1,0
12752,468.75,4,2,1,55,1,0
27752,-111.111111111111,4,2,2,50,0,0
42048,-111.111111111111,4,2,1,50,0,0
42752,-111.111111111111,4,2,2,50,0,0
49548,-111.111111111111,4,2,1,50,0,0
50252,-111.111111111111,4,2,2,50,0,0
55877,-76.9230769230769,4,2,1,65,0,1
78377,-100,4,2,1,62,0,0
84002,-76.9230769230769,4,2,1,65,0,0

[Colours]
Combo1 : 167,84,84
Combo2 : 255,128,64
Combo3 : 255,128,0
Combo4 : 255,60,60

[HitObjects]
299,53,2571,6,0,L|397:53,1,70,2|0,0:0|0:0,0:0:0:0:
462,130,3724,2,0,L|364:130,1,70,2|0,0:0|0:0,0:0:0:0:
232,131,4878,6,0,L|330:131,1,70,2|0,0:0|0:0,0:0:0:0:
380,209,6032,2,0,L|310:209,1,70,2|0,0:0|0:0,0:0:0:0:
256,334,7186,6,0,L|256:253,1,70,2|0,0:0|0:0,0:0:0:0:
256,186,8340,2,0,L|256:64,1,105,2|0,0:0|0:0,0:0:0:0:
256,192,9494,12,0,11800,0:0:0:0:
148,26,12752,6,0,P|113:82|115:126,1,105,4|2,0:0|0:0,0:0:0:0:
125,160,13220,1,8,0:0:0:0:
191,226,13455,2,0,L|283:226,1,70,2|8,0:0|0:0,0:0:0:0:
335,171,13923,2,0,L|390:171,2,35,2|2|8,0:0|0:0|0:0,0:0:0:0:
257,113,14392,1,2,0:0:0:0:
331,27,14627,6,0,P|384:34|430:71,1,105,8|2,0:0|0:0,0:0:0:0:
445,100,15095,1,8,0:0:0:0:
370,171,15330,2,0,P|368:211|380:250,1,70,2|8,0:0|0:0,0:0:0:0:
430,309,15798,2,0,L|475:310,2,35,2|2|8,0:0|0:0|0:0,0:0:0:0:
337,354,16267,1,2,0:0:0:0:
276,282,16502,6,0,L|276:154,1,105,8|2,0:0|0:0,0:0:0:0:
259,138,16970,1,8,0:0:0:0:
200,52,17205,2,0,P|182:96|178:137,1,70,2|8,0:0|0:0,0:0:0:0:
113,183,17673,2,0,L|59:165,2,35,2|2|8,0:0|0:0|0:0,0:0:0:0:
167,265,18142,1,2,0:0:0:0:
233,326,18377,6,0,L|343:326,1,105,8|2,0:0|0:0,0:0:0:0:
379,326,18845,1,8,0:0:0:0:
433,240,19080,2,0,P|381:229|353:203,1,70,2|8,0:0|0:0,0:0:0:0:
310,138,19548,1,8,0:0:0:0:
310,138,19666,1,8,0:0:0:0:
310,138,19783,2,0,L|247:157,1,35,8|8,0:0|0:0,0:0:0:0:
235,157,20017,2,0,L|171:162,1,35,8|8,0:0|0:0,0:0:0:0:
159,171,20252,6,0,P|100:155|72:108,1,105,4|2,0:0|0:0,0:0:0:0:
63,81,20720,1,8,0:0:0:0:
136,19,20955,2,0,L|232:19,1,70,2|8,0:0|0:0,0:0:0:0:
291,67,21423,2,0,L|354:66,2,35,2|2|8,0:0|0:0|0:0,0:0:0:0:
212,129,21892,1,2,0:0:0:0:
292,186,22127,6,0,L|292:301,1,105,8|2,0:0|0:0,0:0:0:0:
281,331,22595,1,8,0:0:0:0:
200,354,22830,2,0,P|150:360|105:348,1,70,2|10,0:0|0:0,0:0:0:0:
70,298,23298,2,0,L|15:319,2,35,2|2|8,0:0|0:0|0:0,0:0:0:0:
127,224,23767,1,2,0:0:0:0:
46,161,24002,6,0,P|39:120|81:36,1,105,8|2,0:0|0:0,0:0:0:0:
94,39,24470,1,8,0:0:0:0:
152,119,24705,2,0,L|243:119,1,70,2|8,0:0|0:0,0:0:0:0:
303,73,25173,2,0,L|304:27,2,35,2|2|8,0:0|0:0|0:0,0:0:0:0:
382,120,25642,1,2,0:0:0:0:
476,60,25877,6,0,L|476:186,1,105,8|2,0:0|0:0,0:0:0:0:
473,206,26345,1,8,0:0:0:0:
416,272,26580,2,0,P|344:280|321:274,1,70,2|8,0:0|0:0,0:0:0:0:
274,219,27048,1,8,0:0:0:0:
274,219,27166,1,8,0:0:0:0:
274,219,27283,2,0,L|226:220,1,35,8|8,0:0|0:0,0:0:0:0:
206,246,27517,2,0,L|152:249,1,35,8|8,0:0|0:0,0:0:0:0:
138,271,27752,6,0,L|52:271,1,62.9999980773926,4|0,0:0|0:0,0:0:0:0:
148,353,28220,2,0,L|226:353,1,62.9999980773926,8|0,0:0|0:0,0:0:0:0:
292,307,28689,2,0,P|314:267|294:185,1,125.999996154785,8|8,0:0|0:0,0:0:0:0:
208,149,29392,1,0,0:0:0:0:
208,149,29627,6,0,P|239:103|319:92,1,125.999996154785,8|8,0:0|0:0,0:0:0:0:
386,149,30330,1,0,0:0:0:0:
386,149,30564,2,0,L|386:235,1,62.9999980773926,8|2,0:0|0:0,0:0:0:0:
386,250,30916,1,2,0:0:0:0:
377,286,31033,2,0,P|336:316|298:327,1,62.9999980773926,8|8,0:0|0:0,0:0:0:0:
225,344,31502,6,0,L|225:264,1,62.9999980773926,8|0,0:0|0:0,0:0:0:0:
145,185,31970,2,0,L|145:259,1,62.9999980773926,8|0,0:0|0:0,0:0:0:0:
52,295,32439,2,0,P|34:252|51:174,1,125.999996154785,8|8,0:0|0:0,0:0:0:0:
119,110,33142,1,2,0:0:0:0:
119,110,33377,6,0,P|195:97|241:53,1,125.999996154785,8|8,0:0|0:0,0:0:0:0:
317,19,34080,2,0,L|317:100,1,62.9999980773926,0|8,0:0|0:0,0:0:0:0:
391,145,34548,1,2,0:0:0:0:
391,145,34666,1,2,0:0:0:0:
391,145,34783,2,0,L|398:206,1,31.4999990386963,10|2,0:0|0:0,0:0:0:0:
412,209,35017,2,0,L|424:263,1,31.4999990386963,2|2,0:0|0:0,0:0:0:0:
427,276,35252,6,0,P|396:306|366:317,1,62.9999980773926,8|0,0:0|0:0,0:0:0:0:
265,289,35720,2,0,P|294:327|287:367,1,62.9999980773926,8|0,0:0|0:0,0:0:0:0:
203,350,36189,2,0,L|70:350,1,125.999996154785,8|8,0:0|0:0,0:0:0:0:
28,269,36892,1,2,0:0:0:0:
28,269,37009,1,2,0:0:0:0:
28,269,37127,6,0,P|56:241|94:151,1,125.999996154785,8|8,0:0|0:0,0:0:0:0:
31,82,37830,2,0,L|118:82,1,62.9999980773926,0|8,0:0|0:0,0:0:0:0:
176,56,38298,1,2,0:0:0:0:
176,56,38416,1,2,0:0:0:0:
176,56,38533,2,0,L|223:82,1,31.4999990386963,10|2,0:0|0:0,0:0:0:0:
228,99,38767,2,0,L|278:130,1,31.4999990386963,2|2,0:0|0:0,0:0:0:0:
287,134,39002,5,10,0:0:0:0:
363,180,39236,1,10,0:0:0:0:
310,252,39470,1,10,0:0:0:0:
211,339,39939,5,10,0:0:0:0:
135,293,40173,1,10,0:0:0:0:
188,221,40407,1,10,0:0:0:0:
313,84,40877,6,0,P|267:62|193:92,1,125.999996154785,8|8,0:0|0:0,0:0:0:0:
259,150,41580,2,0,P|300:174|338:161,1,62.9999980773926,0|8,0:0|0:0,0:0:0:0:
397,133,42048,1,8,0:0:0:0:
397,133,42166,1,8,0:0:0:0:
397,133,42283,2,0,L|397:184,1,31.4999990386963,8|8,0:0|0:0,0:0:0:0:
411,199,42517,2,0,L|414:242,1,31.4999990386963,8|8,0:0|0:0,0:0:0:0:
399,265,42752,6,0,L|307:265,1,62.9999980773926,4|0,0:0|0:0,0:0:0:0:
230,342,43220,2,0,L|319:342,1,62.9999980773926,8|0,0:0|0:0,0:0:0:0:
183,265,43689,1,8,0:0:0:0:
98,341,43923,1,0,0:0:0:0:
98,341,44158,2,0,L|97:251,1,62.9999980773926,8|0,0:0|0:0,0:0:0:0:
33,211,44627,6,0,P|80:200|118:185,1,62.9999980773926,8|0,0:0|0:0,0:0:0:0:
218,146,45095,2,0,P|170:138|141:144,1,62.9999980773926,8|0,0:0|0:0,0:0:0:0:
177,232,45564,1,8,0:0:0:0:
221,321,45798,1,0,0:0:0:0:
316,357,46033,2,0,P|316:297|302:276,1,62.9999980773926,8|2,0:0|0:0,0:0:0:0:
259,215,46502,5,10,0:0:0:0:
205,137,46736,1,10,0:0:0:0:
266,64,46970,1,10,0:0:0:0:
384,186,47439,5,10,0:0:0:0:
438,264,47673,1,10,0:0:0:0:
377,337,47908,2,0,P|335:339|268:325,1,94.499997116089,10|2,0:0|0:0,0:0:0:0:
251,309,48377,6,0,P|193:301|168:307,1,62.9999980773926,8|0,0:0|0:0,0:0:0:0:
63,355,48845,2,0,L|63:279,1,62.9999980773926,8|0,0:0|0:0,0:0:0:0:
21,215,49314,1,8,0:0:0:0:
67,137,49548,1,8,0:0:0:0:
67,137,49666,1,8,0:0:0:0:
67,137,49783,2,0,L|114:142,1,31.4999990386963,8|8,0:0|0:0,0:0:0:0:
132,155,50017,2,0,L|184:158,1,31.4999990386963,8|8,0:0|0:0,0:0:0:0:
200,165,50252,6,0,P|248:156|277:129,2,62.9999980773926,4|8|8,0:0|0:0|0:0,0:0:0:0:
204,83,50955,1,8,0:0:0:0:
287,69,51189,2,0,P|327:91|342:110,1,62.9999980773926,8|8,0:0|0:0,0:0:0:0:
339,191,51658,1,8,0:0:0:0:
282,264,51892,1,8,0:0:0:0:
256,192,52127,12,0,54002,0:0:0:0:
257,15,54939,6,0,L|257:101,1,62.9999980773926,4|0,1:0|0:0,0:0:0:0:
256,176,55408,2,0,L|256:207,3,31.4999990386963,8|8|8|8,3:0|3:0|3:0|3:0,0:0:0:0:
237,259,55877,6,0,P|186:275|142:277,1,90.9999958343508,4|0,0:0|0:0,0:0:0:0:
60,238,56345,2,0,L|60:135,1,90.9999958343508,8|0,0:0|0:0,0:0:0:0:
117,77,56814,1,2,0:0:0:0:
190,133,57048,1,2,0:0:0:0:
252,70,57283,2,0,P|296:65|352:72,1,90.9999958343508,8|0,0:0|0:0,0:0:0:0:
423,134,57752,6,0,L|422:31,1,90.9999958343508,2|0,0:0|0:0,0:0:0:0:
341,147,58220,2,0,L|341:237,1,90.9999958343508,8|0,0:0|0:0,0:0:0:0:
290,313,58689,2,0,P|231:313|213:288,1,90.9999958343508,2|0,0:0|0:0,0:0:0:0:
195,206,59158,1,8,0:0:0:0:
250,132,59392,1,2,0:0:0:0:
170,68,59627,6,0,P|110:77|84:188,1,181.999991668702,2|8,0:0|0:0,0:0:0:0:
161,153,60330,1,0,0:0:0:0:
250,132,60564,2,0,L|250:36,2,90.9999958343508,2|0|8,0:0|0:0|0:0,0:0:0:0:
310,198,61267,1,0,0:0:0:0:
381,114,61502,6,0,P|438:103|495:206,1,181.999991668702,2|8,0:0|0:0,0:0:0:0:
415,190,62205,1,0,0:0:0:0:
306,166,62439,2,0,L|306:58,1,90.9999958343508,2|2,0:0|0:0,0:0:0:0:
223,157,62908,2,0,L|223:260,1,90.9999958343508,8|2,0:0|0:0,0:0:0:0:
287,326,63377,5,2,0:0:0:0:
287,326,63845,2,0,L|183:325,1,90.9999958343508,8|0,0:0|0:0,0:0:0:0:
112,343,64314,1,2,0:0:0:0:
51,279,64548,1,0,0:0:0:0:
106,214,64783,2,0,P|110:161|102:111,1,90.9999958343508,8|0,0:0|0:0,0:0:0:0:
49,47,65252,6,0,L|157:47,1,90.9999958343508,2|0,0:0|0:0,0:0:0:0:
204,118,65720,1,8,0:0:0:0:
275,51,65954,1,0,0:0:0:0:
342,118,66189,2,0,P|343:173|339:220,1,90.9999958343508,2|0,0:0|0:0,0:0:0:0:
246,188,66658,1,8,0:0:0:0:
280,286,66892,1,0,0:0:0:0:
280,286,67009,1,0,0:0:0:0:
280,286,67127,6,0,P|212:303|135:285,1,136.499993751526,4|2,0:0|0:0,0:0:0:0:
95,275,67595,2,0,L|95:155,1,90.9999958343508,8|2,0:0|0:0,0:0:0:0:
179,71,68064,2,0,L|179:228,1,136.499993751526,2|2,0:0|0:0,0:0:0:0:
190,260,68533,2,0,P|246:267|305:257,1,90.9999958343508,8|2,0:0|0:0,0:0:0:0:
353,165,69002,6,0,P|365:220|367:322,1,136.499993751526,4|2,0:0|0:0,0:0:0:0:
357,353,69470,2,0,L|231:352,1,90.9999958343508,8|2,0:0|0:0,0:0:0:0:
131,353,69939,2,0,P|94:311|64:204,1,136.499993751526,0|8,0:0|0:0,0:0:0:0:
67,181,70408,1,8,0:0:0:0:
67,181,70525,1,8,0:0:0:0:
67,181,70642,2,0,L|65:125,1,45.4999979171754,8|8,0:0|0:0,0:0:0:0:
68,80,70877,6,0,P|128:63|168:68,1,90.9999958343508,4|0,0:0|0:0,0:0:0:0:
241,126,71345,2,0,P|195:149|147:149,1,90.9999958343508,8|0,0:0|0:0,0:0:0:0:
239,42,71814,2,0,P|291:59|323:90,1,90.9999958343508,2|2,0:0|0:0,0:0:0:0:
365,168,72283,1,8,0:0:0:0:
327,250,72517,1,0,0:0:0:0:
244,176,72752,6,0,L|245:285,1,90.9999958343508,2|0,0:0|0:0,0:0:0:0:
204,347,73220,1,8,0:0:0:0:
307,339,73455,2,0,P|352:332|433:225,1,181.999991668702,0|2,0:0|0:0,0:0:0:0:
412,147,74158,1,8,0:0:0:0:
350,80,74392,1,2,0:0:0:0:
350,80,74509,1,2,0:0:0:0:
350,80,74627,6,0,P|283:56|214:141,1,181.999991668702,2|8,0:0|0:0,0:0:0:0:
297,150,75330,1,0,0:0:0:0:
211,211,75564,1,2,0:0:0:0:
125,142,75798,1,0,0:0:0:0:
125,142,75916,1,0,0:0:0:0:
125,142,76033,2,0,L|126:193,1,45.4999979171754,8|8,0:0|0:0,0:0:0:0:
137,239,76267,2,0,L|139:286,1,45.4999979171754,8|8,0:0|0:0,0:0:0:0:
155,336,76502,5,10,0:0:0:0:
274,294,76970,5,10,0:0:0:0:
390,241,77439,5,10,0:0:0:0:
498,186,77908,5,10,0:0:0:0:
498,186,78377,6,0,P|414:186|344:138,1,140,4|8,0:0|0:0,0:0:0:0:
319,89,79080,1,2,0:0:0:0:
319,89,79314,2,0,P|318:145|285:231,1,140,2|8,0:0|0:0,0:0:0:0:
206,263,80017,1,2,0:0:0:0:
206,263,80134,1,2,0:0:0:0:
206,263,80252,6,0,L|88:262,1,105,2|2,0:0|0:0,0:0:0:0:
67,236,80720,2,0,P|32:184|34:149,1,70,8|0,0:0|0:0,0:0:0:0:
102,68,81189,2,0,L|102:151,1,70,2|0,0:0|0:0,0:0:0:0:
181,194,81658,1,8,0:0:0:0:
181,194,82127,6,0,P|225:150|271:217,1,140,2|2,0:0|0:0,0:0:0:0:
325,280,82830,1,8,0:0:0:0:
444,148,84002,6,0,P|372:153|256:98,1,181.999991668702,4|8,0:0|0:0,0:0:0:0:
199,67,84705,1,0,0:0:0:0:
199,67,84939,2,0,P|211:113|201:197,2,90.9999958343508,2|0|8,0:0|0:0|0:0,0:0:0:0:
121,129,85642,1,2,0:0:0:0:
148,223,85877,6,0,P|199:247|249:245,1,90.9999958343508,2|0,0:0|0:0,0:0:0:0:
336,277,86345,2,0,L|336:184,1,90.9999958343508,8|0,0:0|0:0,0:0:0:0:
247,129,86814,5,10,0:0:0:0:
154,36,87048,1,10,0:0:0:0:
60,129,87283,1,10,0:0:0:0:
154,223,87517,1,10,0:0:0:0:
