osu file format v14

[General]
AudioFilename: audio.mp3
AudioLeadIn: 0
PreviewTime: -1
Countdown: 0
SampleSet: Normal
StackLeniency: 0
Mode: 0
LetterboxInBreaks: 0
WidescreenStoryboard: 0

[Editor]
DistanceSpacing: 0.5
BeatDivisor: 4
GridSize: 16
TimelineZoom: 1.5

[Metadata]
Title:Holodom po spine ( Cold on the back)
TitleUnicode:Holodom po spine ( Cold on the back)
Artist:LOVV66, MARTIN
ArtistUnicode:LOVV66, MARTIN
Creator:1untik
Version:Normal
Source:Za toboy po vesne
Tags:
BeatmapID:4536924
BeatmapSetID:2153190

[Difficulty]
HPDrainRate:4
CircleSize:3.7
OverallDifficulty:8
ApproachRate:9.3
SliderMultiplier:1.7
SliderTickRate:1

[Events]
//Background and Video events
0,0,"a8e0921e1744a17d4a8e8db563a0fbce.jpg",0,0
//Break Periods
2,38593,41679
2,84433,99519
2,120673,122319
//Storyboard Layer 0 (Background)
//Storyboard Layer 1 (Fail)
//Storyboard Layer 2 (Pass)
//Storyboard Layer 3 (Foreground)
//Storyboard Layer 4 (Overlay)
//Storyboard Sound Samples

[TimingPoints]
7673.46683317001,480,4,1,0,100,1,0

[Colours]
Combo1 : 0,0,160
Combo2 : 0,128,255
Combo3 : 128,128,255

[HitObjects]
400,96,7673,5,0,0:0:0:0:
384,112,7793,1,0,0:0:0:0:
112,112,8153,1,0,0:0:0:0:
128,128,8273,1,0,0:0:0:0:
432,224,8633,2,0,P|384:304|384:304,1,85
320,304,9113,1,0,0:0:0:0:
96,96,9593,5,0,0:0:0:0:
112,128,9713,2,0,P|160:128|160:128,1,42.5
208,192,10073,1,0,0:0:0:0:
192,224,10193,2,0,P|144:224|144:224,1,42.5
112,288,10553,1,0,0:0:0:0:
124,297,10673,1,0,0:0:0:0:
139,303,10793,1,0,0:0:0:0:
152,306,10913,1,0,0:0:0:0:
163,307,11033,6,0,P|261:307|261:307,1,85
464,64,11513,1,0,0:0:0:0:
144,336,11753,1,0,0:0:0:0:
48,48,11993,1,0,0:0:0:0:
432,336,12233,1,0,0:0:0:0:
432,336,12473,2,0,P|320:336|320:336,1,85
288,336,12953,1,0,0:0:0:0:
272,320,13193,1,0,0:0:0:0:
240,224,13433,5,0,0:0:0:0:
224,208,13553,1,0,0:0:0:0:
192,208,13673,1,0,0:0:0:0:
112,272,13913,1,0,0:0:0:0:
80,208,14153,2,0,P|80:112|80:112,1,85
144,64,14633,1,0,0:0:0:0:
224,32,14873,1,0,0:0:0:0:
288,96,15113,1,0,0:0:0:0:
448,272,15353,6,0,P|368:320|368:320,3,85
288,336,16313,1,0,0:0:0:0:
276,335,16433,1,0,0:0:0:0:
266,333,16553,1,0,0:0:0:0:
192,288,16793,1,0,0:0:0:0:
64,352,17033,1,0,0:0:0:0:
144,48,17273,5,0,0:0:0:0:
144,48,17393,2,0,P|192:48|192:48,1,42.5
224,128,17753,1,0,0:0:0:0:
237,135,17873,1,0,0:0:0:0:
251,142,17993,1,0,0:0:0:0:
304,208,18233,2,0,P|240:272|240:272,1,85
352,336,18713,1,0,0:0:0:0:
432,240,19193,5,0,0:0:0:0:
224,32,19673,1,0,0:0:0:0:
48,336,20153,1,0,0:0:0:0:
384,320,20633,1,0,0:0:0:0:
240,64,21113,1,0,0:0:0:0:
96,192,21353,1,0,0:0:0:0:
240,320,21593,5,0,0:0:0:0:
368,192,21833,1,0,0:0:0:0:
224,96,22073,1,0,0:0:0:0:
128,176,22313,1,0,0:0:0:0:
130,185,22433,1,0,0:0:0:0:
132,194,22553,1,0,0:0:0:0:
138,202,22673,1,0,0:0:0:0:
145,209,22793,1,0,0:0:0:0:
368,272,23033,5,0,0:0:0:0:
368,272,23153,2,0,P|320:288|320:288,1,42.5
208,352,23513,1,0,0:0:0:0:
160,240,23633,1,0,0:0:0:0:
128,224,23753,2,0,P|48:208|48:208,1,42.5
48,192,23993,5,0,0:0:0:0:
43,180,24113,1,0,0:0:0:0:
42,164,24233,1,0,0:0:0:0:
45,153,24353,1,0,0:0:0:0:
48,143,24473,2,0,B|64:96|96:80|96:80,1,85
208,80,24953,5,0,0:0:0:0:
208,80,25073,2,0,P|256:80|256:80,1,42.5
288,160,25313,2,0,L|240:192,1,42.5
208,240,25553,1,0,0:0:0:0:
192,256,25673,1,0,0:0:0:0:
256,336,25913,5,0,0:0:0:0:
268,339,26033,1,0,0:0:0:0:
282,342,26153,1,0,0:0:0:0:
294,345,26273,1,0,0:0:0:0:
308,343,26393,1,0,0:0:0:0:
318,344,26513,1,0,0:0:0:0:
329,343,26633,1,0,0:0:0:0:
160,48,26873,5,0,0:0:0:0:
368,320,27113,2,0,P|320:320|320:320,1,42.5
256,288,27353,1,0,0:0:0:0:
416,64,27593,1,0,0:0:0:0:
80,240,27833,5,0,0:0:0:0:
64,224,27953,2,0,L|80:176,1,42.5
96,144,28193,1,0,0:0:0:0:
107,136,28313,1,0,0:0:0:0:
240,80,28553,1,0,0:0:0:0:
320,336,28793,1,0,0:0:0:0:
368,144,29033,5,0,0:0:0:0:
336,160,29153,2,0,P|304:192|304:192,1,42.5
256,256,29513,1,0,0:0:0:0:
249,267,29633,1,0,0:0:0:0:
242,278,29753,1,0,0:0:0:0:
144,336,29993,1,0,0:0:0:0:
64,288,30233,1,0,0:0:0:0:
32,208,30473,1,0,0:0:0:0:
144,64,30713,5,0,0:0:0:0:
144,64,30833,2,0,P|192:96|192:96,1,42.5
256,256,31193,1,0,0:0:0:0:
176,224,31313,1,0,0:0:0:0:
96,192,31433,1,0,0:0:0:0:
112,128,31673,2,0,L|208:128,1,85
304,224,32153,5,0,0:0:0:0:
384,336,32393,1,0,0:0:0:0:
352,336,32513,1,0,0:0:0:0:
320,336,32633,1,0,0:0:0:0:
416,240,32873,1,0,0:0:0:0:
400,96,33113,6,0,P|304:112|304:112,1,85
320,192,33593,1,0,0:0:0:0:
301,209,33713,1,0,0:0:0:0:
278,226,33833,1,0,0:0:0:0:
261,234,33953,1,0,0:0:0:0:
240,242,34073,1,0,0:0:0:0:
228,246,34193,2,0,P|182:261|182:261,1,42.5
160,336,34553,5,0,0:0:0:0:
352,256,34793,1,0,0:0:0:0:
304,352,35033,1,0,0:0:0:0:
144,160,35273,1,0,0:0:0:0:
128,144,35513,2,0,P|80:112|80:112,1,42.5
112,48,35753,1,0,0:0:0:0:
128,48,35873,1,0,0:0:0:0:
144,48,35993,1,0,0:0:0:0:
256,208,36233,5,0,0:0:0:0:
336,64,36473,1,0,0:0:0:0:
336,64,36713,2,0,P|432:128|432:128,1,85
272,144,37193,1,0,0:0:0:0:
272,144,37433,2,0,P|192:208|192:208,1,85
336,224,37913,1,0,0:0:0:0:
336,224,38153,2,0,P|416:288|416:288,1,85
172,88,42233,5,0,0:0:0:0:
112,128,42473,2,0,L|16:192,1,85
219,148,42953,1,0,0:0:0:0:
162,190,43193,2,0,P|77:246|77:246,1,85
96,288,43553,1,0,0:0:0:0:
128,320,43673,1,0,0:0:0:0:
224,320,43913,6,0,P|320:288|320:288,1,85
352,240,44393,1,0,0:0:0:0:
352,240,44633,2,0,P|464:208|464:208,1,85
320,192,45113,1,0,0:0:0:0:
320,192,45353,2,0,P|320:80|320:80,1,85
240,64,45833,1,0,0:0:0:0:
240,64,46073,2,0,P|176:80|176:80,1,42.5
144,96,46313,5,0,0:0:0:0:
48,48,46553,1,0,0:0:0:0:
96,224,46793,1,0,0:0:0:0:
176,144,47033,1,0,0:0:0:0:
208,240,47153,2,0,P|128:320|128:320,1,85
176,336,47513,1,0,0:0:0:0:
193,343,47633,1,0,0:0:0:0:
215,343,47753,1,0,0:0:0:0:
352,304,47993,5,0,0:0:0:0:
112,48,48233,1,0,0:0:0:0:
224,336,48473,1,0,0:0:0:0:
384,64,48713,1,0,0:0:0:0:
80,224,48953,1,0,0:0:0:0:
448,352,49193,1,0,0:0:0:0:
256,80,49433,1,0,0:0:0:0:
448,208,49673,5,0,0:0:0:0:
368,304,49913,1,0,0:0:0:0:
320,208,50153,2,0,P|224:224|224:224,1,85
165,179,50633,1,0,0:0:0:0:
172,159,50753,1,0,0:0:0:0:
183,138,50873,1,0,0:0:0:0:
193,123,50993,2,0,P|226:89|226:89,1,42.5
251,69,51233,5,0,0:0:0:0:
264,58,51353,1,0,0:0:0:0:
279,49,51473,1,0,0:0:0:0:
294,43,51593,1,0,0:0:0:0:
368,128,51833,1,0,0:0:0:0:
352,144,51953,2,0,P|304:160|304:160,1,42.5
224,176,52313,5,0,0:0:0:0:
112,96,52553,1,0,0:0:0:0:
48,176,52793,1,0,0:0:0:0:
48,272,53033,1,0,0:0:0:0:
128,320,53273,2,0,L|224:320,1,85
112,112,53993,5,0,0:0:0:0:
128,96,54113,1,0,0:0:0:0:
145,85,54233,2,0,B|192:64|224:64|224:64,1,85
224,176,54713,1,0,0:0:0:0:
256,192,54833,2,0,P|304:192|304:192,1,42.5
352,192,54953,1,0,0:0:0:0:
448,352,55433,5,0,0:0:0:0:
64,256,55913,2,0,B|64:208|96:160|96:160,1,85
112,128,56393,1,0,0:0:0:0:
122,116,56513,1,0,0:0:0:0:
134,105,56633,1,0,0:0:0:0:
224,80,56873,2,0,P|288:144|288:144,1,85
368,320,57353,2,0,P|272:352|272:352,1,85
400,80,57833,5,0,0:0:0:0:
384,112,57953,2,0,P|336:144|336:144,1,42.5
317,153,58193,1,0,0:0:0:0:
280,171,58313,2,0,P|232:171|232:171,1,42.5
192,160,58553,5,0,0:0:0:0:
64,48,58793,1,0,0:0:0:0:
192,336,59033,1,0,0:0:0:0:
224,336,59153,2,0,P|272:320|272:320,1,42.5
416,368,59513,1,0,0:0:0:0:
384,128,59753,1,0,0:0:0:0:
373,116,59873,1,0,0:0:0:0:
358,107,59993,1,0,0:0:0:0:
208,64,60233,6,0,L|112:96,1,85
128,208,60713,1,0,0:0:0:0:
224,320,60953,1,0,0:0:0:0:
262,325,61073,2,0,L|312:322,1,42.5
338,311,61313,2,0,P|369:276|369:276,1,42.5
192,192,61673,5,0,0:0:0:0:
169,162,61793,1,0,0:0:0:0:
134,148,61913,1,0,0:0:0:0:
64,240,62153,2,0,L|32:176,1,42.5
35,159,62393,1,0,0:0:0:0:
64,64,62633,2,0,L|176:48,1,85
352,352,63113,1,0,0:0:0:0:
400,144,63593,5,0,0:0:0:0:
400,144,63833,2,0,L|352:144,1,42.5
324,145,64073,1,0,0:0:0:0:
256,208,64193,1,0,0:0:0:0:
242,219,64313,1,0,0:0:0:0:
229,228,64433,1,0,0:0:0:0:
218,236,64553,2,0,P|128:268|128:268,1,85
103,254,64913,5,0,0:0:0:0:
75,230,65033,2,0,B|45:195|37:149|37:141,1,85
240,96,65513,1,0,0:0:0:0:
264,104,65633,1,0,0:0:0:0:
282,119,65753,1,0,0:0:0:0:
112,176,65993,1,0,0:0:0:0:
416,160,66233,2,0,P|416:208|400:240,1,85
320,289,66713,5,0,0:0:0:0:
300,291,66833,1,0,0:0:0:0:
283,288,66953,1,0,0:0:0:0:
268,281,67073,1,0,0:0:0:0:
256,269,67193,1,0,0:0:0:0:
240,192,67433,2,0,B|240:144|192:128|192:128,1,85
80,336,67913,5,0,0:0:0:0:
160,192,68153,1,0,0:0:0:0:
0,272,68393,1,0,0:0:0:0:
240,304,68633,1,0,0:0:0:0:
240,304,68873,2,0,B|288:304|304:288|304:224,1,85
336,96,69353,5,0,0:0:0:0:
272,208,69593,1,0,0:0:0:0:
259,216,69713,1,0,0:0:0:0:
230,219,69833,1,0,0:0:0:0:
256,336,70073,2,0,P|304:336|336:320,1,85
384,224,70553,1,0,0:0:0:0:
112,80,70793,1,0,0:0:0:0:
64,176,71033,6,0,B|64:224|96:256|112:256,3,85
368,96,71993,2,0,P|368:144|336:176,2,85
272,48,72713,1,0,0:0:0:0:
258,48,72833,2,0,L|208:69,1,42.5
144,192,73193,1,0,0:0:0:0:
144,192,73433,2,0,P|240:224|240:224,1,85
384,176,73913,5,0,0:0:0:0:
378,193,74033,1,0,0:0:0:0:
371,211,74153,1,0,0:0:0:0:
288,288,74393,1,0,0:0:0:0:
288,288,74513,2,0,L|240:272,1,42.5
160,160,74873,1,0,0:0:0:0:
160,160,74993,2,0,L|128:208,1,42.5
240,288,75353,5,0,0:0:0:0:
260,183,75593,1,0,0:0:0:0:
328,100,75833,1,0,0:0:0:0:
427,67,76073,1,0,0:0:0:0:
240,48,76313,2,0,B|176:48|128:80|128:64,1,85
192,176,77033,5,0,0:0:0:0:
288,320,77273,1,0,0:0:0:0:
323,330,77393,1,0,0:0:0:0:
368,325,77513,1,0,0:0:0:0:
432,240,77753,2,0,B|432:192|416:176|400:160,1,85
288,144,78233,1,0,0:0:0:0:
160,304,78473,5,0,0:0:0:0:
160,96,78713,1,0,0:0:0:0:
320,272,78953,1,0,0:0:0:0:
80,208,79193,2,0,P|64:144|64:112,1,85
80,80,79553,1,0,0:0:0:0:
112,64,79673,2,0,P|160:32|208:32,1,85
224,32,80033,1,0,0:0:0:0:
261,36,80153,2,0,B|306:35|344:58|342:58,1,85
480,192,80633,5,0,0:0:0:0:
352,320,80873,1,0,0:0:0:0:
336,320,80993,2,0,L|272:320,1,42.5
160,304,81353,1,0,0:0:0:0:
139,295,81473,2,0,L|98:265,1,42.5
48,192,81833,5,0,0:0:0:0:
48,164,81953,2,0,L|61:118,1,42.5
128,64,82313,1,0,0:0:0:0:
150,52,82433,2,0,L|195:34,1,42.5
240,96,82793,5,0,0:0:0:0:
336,320,83033,1,0,0:0:0:0:
96,128,83273,1,0,0:0:0:0:
368,144,83513,1,0,0:0:0:0:
304,240,83753,1,0,0:0:0:0:
284,259,83873,1,0,0:0:0:0:
269,271,83993,2,0,L|214:281,1,42.5
176,288,84233,1,0,0:0:0:0:
128,64,100073,5,0,0:0:0:0:
128,64,100313,1,0,0:0:0:0:
352,224,100553,1,0,0:0:0:0:
352,224,100793,1,0,0:0:0:0:
112,304,101033,1,0,0:0:0:0:
112,304,101273,1,0,0:0:0:0:
176,192,101513,5,0,0:0:0:0:
192,160,101753,2,0,L|240:160,1,42.5
400,304,101993,1,0,0:0:0:0:
368,336,102233,2,0,L|320:336,1,42.5
256,304,102473,1,0,0:0:0:0:
176,48,102713,1,0,0:0:0:0:
368,208,102953,1,0,0:0:0:0:
80,208,103193,1,0,0:0:0:0:
320,96,103433,1,0,0:0:0:0:
240,304,103673,5,0,0:0:0:0:
219,312,103793,1,0,0:0:0:0:
187,314,103913,1,0,0:0:0:0:
167,311,104033,1,0,0:0:0:0:
147,302,104153,1,0,0:0:0:0:
130,290,104273,1,0,0:0:0:0:
116,274,104393,1,0,0:0:0:0:
192,64,104633,5,0,0:0:0:0:
368,320,104873,1,0,0:0:0:0:
80,144,105113,2,0,L|48:224,1,85
96,304,105593,1,0,0:0:0:0:
208,128,105833,1,0,0:0:0:0:
304,320,106073,5,0,0:0:0:0:
64,96,106313,1,0,0:0:0:0:
336,64,106553,2,0,L|384:144,1,85
272,224,107033,1,0,0:0:0:0:
257,236,107153,1,0,0:0:0:0:
228,241,107273,1,0,0:0:0:0:
112,80,107513,5,0,0:0:0:0:
96,112,107633,2,0,L|80:160,1,42.5
368,128,107993,2,0,L|384:176,2,42.5
192,288,108473,2,0,L|128:304,2,42.5
208,48,108953,2,0,L|272:64,2,42.5
320,272,109433,5,0,0:0:0:0:
272,320,109673,2,0,L|224:336,1,42.5
192,336,109913,1,0,0:0:0:0:
96,64,110153,1,0,0:0:0:0:
384,320,110393,1,0,0:0:0:0:
240,48,110633,1,0,0:0:0:0:
128,288,110873,1,0,0:0:0:0:
368,80,111113,1,0,0:0:0:0:
96,112,111353,6,0,L|48:208,1,85
464,336,111833,2,0,L|464:240,1,85
464,48,112313,2,0,L|368:48,1,85
48,32,112793,2,0,L|48:128,1,85
128,336,113273,1,0,0:0:0:0:
336,64,113513,1,0,0:0:0:0:
352,336,113753,6,0,L|272:288,1,85
32,32,114233,1,0,0:0:0:0:
368,192,114473,1,0,0:0:0:0:
224,240,114713,2,0,L|160:176,1,85
224,48,115193,1,0,0:0:0:0:
352,272,115433,1,0,0:0:0:0:
224,48,115673,1,0,0:0:0:0:
48,176,115913,1,0,0:0:0:0:
400,160,116153,1,0,0:0:0:0:
160,352,116393,5,0,0:0:0:0:
128,64,116633,1,0,0:0:0:0:
336,64,116873,2,0,L|368:112,1,42.5
384,128,117113,1,0,0:0:0:0:
384,192,117353,2,0,L|352:240,1,42.5
336,256,117593,1,0,0:0:0:0:
288,288,117833,6,0,L|240:304,1,42.5
208,304,118073,1,0,0:0:0:0:
144,288,118313,2,0,L|112:256,1,42.5
93,221,118553,1,0,0:0:0:0:
80,128,118793,1,0,0:0:0:0:
88,110,118913,1,0,0:0:0:0:
104,88,119033,1,0,0:0:0:0:
121,76,119153,1,0,0:0:0:0:
139,73,119273,5,0,0:0:0:0:
158,74,119393,1,0,0:0:0:0:
173,83,119513,1,0,0:0:0:0:
189,96,119633,1,0,0:0:0:0:
200,106,119753,1,0,0:0:0:0:
213,114,119873,1,0,0:0:0:0:
224,124,119993,1,0,0:0:0:0:
234,132,120113,1,0,0:0:0:0:
250,131,120233,1,0,0:0:0:0:
266,124,120353,1,0,0:0:0:0:
276,114,120473,1,0,0:0:0:0:
368,128,122873,5,0,0:0:0:0:
304,128,123113,2,0,L|256:128,1,42.5
256,208,123353,1,0,0:0:0:0:
336,208,123593,2,0,L|384:208,1,42.5
400,288,123833,1,0,0:0:0:0:
320,288,124073,2,0,B|272:288|272:288|256:288,1,42.5
208,240,124313,1,0,0:0:0:0:
160,80,124553,5,0,0:0:0:0:
48,240,124793,2,0,L|96:320,1,85
224,304,125273,1,0,0:0:0:0:
256,32,125513,1,0,0:0:0:0:
416,336,125753,1,0,0:0:0:0:
64,64,125993,1,0,0:0:0:0:
432,96,126233,1,0,0:0:0:0:
128,336,126473,5,0,0:0:0:0:
96,128,126713,2,0,L|176:80,1,85
400,320,127193,2,0,P|320:352|320:352,1,85
384,176,127673,1,0,0:0:0:0:
381,152,127793,1,0,0:0:0:0:
368,125,127913,1,0,0:0:0:0:
176,272,128153,1,0,0:0:0:0:
169,281,128273,1,0,0:0:0:0:
153,291,128393,1,0,0:0:0:0:
128,64,128633,5,0,0:0:0:0:
288,304,128873,1,0,0:0:0:0:
288,80,129113,2,0,B|208:128|208:128|192:128,2,85
80,96,129833,2,0,P|80:144|112:176,1,85
224,80,130553,1,0,0:0:0:0:
304,336,130793,1,0,0:0:0:0:
32,176,131033,2,0,L|64:256,1,85
400,64,131513,5,0,0:0:0:0:
96,96,131753,1,0,0:0:0:0:
336,272,131993,2,0,L|240:272,1,85
176,272,132473,1,0,0:0:0:0:
80,368,132713,1,0,0:0:0:0:
80,192,132953,1,0,0:0:0:0:
160,112,133193,2,0,P|224:112|224:112,1,42.5
240,112,133433,5,0,0:0:0:0:
253,119,133553,1,0,0:0:0:0:
268,127,133673,1,0,0:0:0:0:
281,139,133793,1,0,0:0:0:0:
289,151,133913,1,0,0:0:0:0:
293,164,134033,1,0,0:0:0:0:
294,177,134153,1,0,0:0:0:0:
295,192,134273,1,0,0:0:0:0:
297,205,134393,1,0,0:0:0:0:
