osu file format v14

[General]
AudioFilename: audio.mp3
AudioLeadIn: 0
PreviewTime: -1
Countdown: 0
SampleSet: None
StackLeniency: 0.7
Mode: 0
LetterboxInBreaks: 0
WidescreenStoryboard: 1

[Editor]
DistanceSpacing: 2.4
BeatDivisor: 16
GridSize: 32
TimelineZoom: 2.2

[Metadata]
Title:MODO LERDO
TitleUnicode:MODO LERDO
Artist:LOUD Coringa e Toduro feat. LOUD Yayah e GL
ArtistUnicode:LOUD Coringa e Toduro feat. LOUD Yayah e GL
Creator:oManinho
Version:PLAY WITH DT
Source:
Tags:loud coringa toduro brasil brazil yayah ptbr portugues portuguese piseiro forro pisadinha batida sofrencia
BeatmapID:4537604
BeatmapSetID:2150683

[Difficulty]
HPDrainRate:5
CircleSize:4
OverallDifficulty:7
ApproachRate:8.5
SliderMultiplier:1.4
SliderTickRate:1

[Events]
//Background and Video events
0,0,"loud map.png",0,0
//Break Periods
2,24915,36306
//Storyboard Layer 0 (Background)
//Storyboard Layer 1 (Fail)
//Storyboard Layer 2 (Pass)
//Storyboard Layer 3 (Foreground)
//Storyboard Layer 4 (Overlay)
//Storyboard Sound Samples

[TimingPoints]
886.847392977582,340.715502555366,4,1,0,70,1,0

[Colours]
Combo1 : 0,0,255
Combo2 : 0,255,0
Combo3 : 0,0,0
Combo4 : 255,255,255
Combo5 : 255,0,0

[HitObjects]
256,188,141,5,0,0:0:0:0:
256,188,354,1,0,0:0:0:0:
111,231,695,2,0,B|99:212|90:186|94:168,1,58.3333333333333
184,71,1184,1,0,0:0:0:0:
351,38,1355,1,0,0:0:0:0:
433,225,1525,2,0,B|420:241|403:261|374:260|373:260,1,70
233,245,1866,1,0,0:0:0:0:
169,84,2036,1,0,0:0:0:0:
348,119,2207,1,0,0:0:0:0:
178,226,2377,1,0,0:0:0:0:
214,32,2547,1,0,0:0:0:0:
336,171,2888,5,0,0:0:0:0:
123,59,3229,2,0,P|96:62|77:98,1,70
197,234,3740,1,0,0:0:0:0:
389,142,4081,1,0,0:0:0:0:
197,234,4251,1,0,0:0:0:0:
148,45,4592,1,0,0:0:0:0:
197,234,4762,1,0,0:0:0:0:
47,339,5103,1,0,0:0:0:0:
197,234,5273,1,0,0:0:0:0:
266,51,5614,6,0,P|300:31|328:42,1,70
417,117,5954,2,0,P|374:136|361:154,1,70
380,259,6295,2,0,P|391:234|426:211,1,70
475,310,6636,2,0,P|441:332|416:353,1,70
266,339,6977,1,0,0:0:0:0:
75,239,7147,1,0,0:0:0:0:
187,41,7317,1,0,0:0:0:0:
267,209,7488,1,0,0:0:0:0:
92,207,7658,5,0,0:0:0:0:
114,235,7828,1,0,0:0:0:0:
140,258,7999,1,0,0:0:0:0:
167,274,8169,1,0,0:0:0:0:
200,284,8339,1,0,0:0:0:0:
418,78,8510,6,0,P|374:83|361:108,1,70
373,259,8851,1,0,0:0:0:0:
240,323,9021,2,0,P|199:316|172:305,1,70
51,194,9362,1,0,0:0:0:0:
126,62,9532,2,0,P|157:37|186:54,1,70
221,172,9873,1,0,0:0:0:0:
260,301,10043,2,0,P|267:310|325:324,1,70
448,291,10384,1,0,0:0:0:0:
445,163,10554,2,0,B|419:128|387:119|388:119,1,70
225,59,10895,5,0,0:0:0:0:
180,267,11065,1,0,0:0:0:0:
72,135,11236,1,0,0:0:0:0:
289,168,11406,1,0,0:0:0:0:
145,34,11575,1,0,0:0:0:0:
159,215,11746,1,0,0:0:0:0:
304,304,11916,2,0,P|365:293|373:283,1,70
431,60,12257,2,0,P|394:54|359:64,1,70
256,192,12769,1,0,0:0:0:0:
256,192,13110,1,0,0:0:0:0:
162,154,13450,1,0,0:0:0:0:
135,127,13621,1,0,0:0:0:0:
137,92,13791,1,0,0:0:0:0:
378,92,15154,5,0,0:0:0:0:
378,92,15239,1,0,0:0:0:0:
378,92,15324,1,0,0:0:0:0:
378,92,15409,1,0,0:0:0:0:
378,92,15495,1,0,0:0:0:0:
380,260,15665,6,0,B|380:288|350:322|351:322,1,70
143,319,16006,2,0,P|114:303|120:269,1,70
201,56,16346,2,0,P|240:69|254:92,1,70
310,201,16687,5,0,0:0:0:0:
258,320,16857,1,0,0:0:0:0:
100,158,17028,1,0,0:0:0:0:
94,329,17198,1,0,0:0:0:0:
260,201,17368,1,0,0:0:0:0:
132,39,17539,1,0,0:0:0:0:
77,237,17709,1,0,0:0:0:0:
270,106,17880,1,0,0:0:0:0:
291,306,18050,1,0,0:0:0:0:
124,128,18220,1,0,0:0:0:0:
108,324,18391,5,0,0:0:0:0:
323,188,18561,1,0,0:0:0:0:
162,46,18731,1,0,0:0:0:0:
423,46,18901,1,0,0:0:0:0:
235,170,19072,1,0,0:0:0:0:
423,256,19242,1,0,0:0:0:0:
251,341,19434,5,0,0:0:0:0:
337,99,19602,1,0,0:0:0:0:
102,108,19772,1,0,0:0:0:0:
297,256,19942,1,0,0:0:0:0:
76,281,20113,1,0,0:0:0:0:
208,99,20283,1,0,0:0:0:0:
294,294,20453,1,0,0:0:0:0:
53,164,20624,1,0,0:0:0:0:
138,354,20794,1,0,0:0:0:0:
285,160,20965,1,0,0:0:0:0:
66,73,21135,5,0,0:0:0:0:
152,280,21305,1,0,0:0:0:0:
252,88,21475,1,0,0:0:0:0:
340,272,21646,1,0,0:0:0:0:
83,169,21816,1,0,0:0:0:0:
294,69,21986,1,0,0:0:0:0:
215,307,22157,1,0,0:0:0:0:
115,71,22327,1,0,0:0:0:0:
349,133,22498,1,0,0:0:0:0:
132,287,22669,5,0,0:0:0:0:
50,108,22839,1,0,0:0:0:0:
251,106,23010,1,0,0:0:0:0:
166,294,23180,1,0,0:0:0:0:
388,228,23351,1,0,0:0:0:0:
64,64,23693,1,0,0:0:0:0:
416,64,24034,1,0,0:0:0:0:
416,320,24374,1,0,0:0:0:0:
96,320,24715,1,0,0:0:0:0:
253,194,36981,5,0,0:0:0:0:
253,194,37066,1,0,0:0:0:0:
253,194,37151,1,0,0:0:0:0:
253,194,37236,1,0,0:0:0:0:
253,194,37322,1,0,0:0:0:0:
263,337,37492,6,0,P|219:343|191:330,1,70
46,174,37833,2,0,P|32:128|46:108,1,70
401,81,38173,2,0,P|371:75|335:101,1,70
360,256,38514,5,0,0:0:0:0:
159,122,38684,1,0,0:0:0:0:
179,320,38855,1,0,0:0:0:0:
321,134,39025,1,0,0:0:0:0:
365,337,39195,1,0,0:0:0:0:
138,193,39366,1,0,0:0:0:0:
382,212,39536,1,0,0:0:0:0:
242,346,39707,1,0,0:0:0:0:
244,104,39877,1,0,0:0:0:0:
97,212,40047,1,0,0:0:0:0:
320,269,40218,1,0,0:0:0:0:
238,178,40388,5,0,0:0:0:0:
202,151,40558,1,0,0:0:0:0:
162,142,40729,1,0,0:0:0:0:
118,155,40899,1,0,0:0:0:0:
98,189,41069,1,0,0:0:0:0:
196,322,41240,6,0,B|233:318|240:307|265:321,1,70
431,249,41581,2,0,P|400:231|365:240,1,70
229,265,41921,2,0,B|192:257|159:234|162:239|161:241,1,70
70,160,42262,5,0,0:0:0:0:
195,50,42432,1,0,0:0:0:0:
250,246,42603,1,0,0:0:0:0:
71,98,42773,1,0,0:0:0:0:
123,299,42943,1,0,0:0:0:0:
231,97,43114,1,0,0:0:0:0:
54,169,43284,1,0,0:0:0:0:
266,287,43455,1,0,0:0:0:0:
75,340,43625,1,0,0:0:0:0:
143,138,43795,1,0,0:0:0:0:
208,338,43966,5,0,0:0:0:0:
32,215,44136,1,0,0:0:0:0:
262,189,44306,1,0,0:0:0:0:
120,43,44477,1,0,0:0:0:0:
151,243,44647,1,0,0:0:0:0:
182,263,44817,1,0,0:0:0:0:
218,267,44988,1,0,0:0:0:0:
258,259,45158,5,0,0:0:0:0:
416,64,45520,1,0,0:0:0:0:
96,64,45861,1,0,0:0:0:0:
256,192,46202,12,0,46691,0:0:0:0:
355,84,47053,5,0,0:0:0:0:
267,280,47223,1,0,0:0:0:0:
154,83,47393,1,0,0:0:0:0:
366,173,47564,1,0,0:0:0:0:
155,251,47734,1,0,0:0:0:0:
265,69,47904,1,0,0:0:0:0:
295,295,48075,1,0,0:0:0:0:
72,155,48245,1,0,0:0:0:0:
175,259,48416,6,0,P|194:298|222:301,1,70
400,207,48757,2,0,B|402:239|414:262|393:279|393:278,1,70
233,71,49098,2,0,P|197:80|171:62,1,70
42,145,49438,1,0,0:0:0:0:
164,311,49608,1,0,0:0:0:0:
290,134,49778,1,0,0:0:0:0:
61,200,49949,1,0,0:0:0:0:
185,58,50119,1,0,0:0:0:0:
250,257,50290,1,0,0:0:0:0:
65,106,50460,1,0,0:0:0:0:
101,319,50631,5,0,0:0:0:0:
245,115,50801,1,0,0:0:0:0:
267,310,50971,1,0,0:0:0:0:
87,177,51141,1,0,0:0:0:0:
288,99,51312,1,0,0:0:0:0:
164,302,51482,1,0,0:0:0:0:
65,168,51652,1,0,0:0:0:0:
56,137,51823,1,0,0:0:0:0:
72,107,51994,1,0,0:0:0:0:
98,266,52164,6,0,P|109:293|148:298,1,70
308,237,52505,2,0,P|296:269|263:292,1,70
106,259,52845,2,0,B|100:219|96:197|91:187,1,70
210,84,53186,2,0,P|229:45|255:36,1,70
405,113,53527,2,0,B|400:145|373:162|360:167,1,70
230,310,53868,2,0,P|180:293|164:285,1,70
56,167,54208,5,0,0:0:0:0:
238,61,54379,1,0,0:0:0:0:
275,286,54549,1,0,0:0:0:0:
102,128,54719,1,0,0:0:0:0:
111,327,54889,1,0,0:0:0:0:
257,177,55060,1,0,0:0:0:0:
349,328,55230,1,0,0:0:0:0:
458,175,55400,1,0,0:0:0:0:
221,281,55571,5,0,0:0:0:0:
337,110,55741,1,0,0:0:0:0:
120,95,55912,1,0,0:0:0:0:
268,277,56082,1,0,0:0:0:0:
74,229,56253,1,0,0:0:0:0:
257,117,56424,1,0,0:0:0:0:
187,330,56594,1,0,0:0:0:0:
367,205,56764,1,0,0:0:0:0:
123,134,56935,1,0,0:0:0:0:
141,321,57105,1,0,0:0:0:0:
346,208,57275,1,0,0:0:0:0:
154,175,57446,1,0,0:0:0:0:
313,57,57786,6,0,B|337:48|370:62|376:81|375:81,1,70
374,78,58297,1,0,0:0:0:0:
177,321,58638,2,0,P|124:297|120:289,1,70
256,192,59149,1,0,0:0:0:0:
256,192,59319,1,0,0:0:0:0:
191,34,59489,5,0,0:0:0:0:
151,37,59575,1,0,0:0:0:0:
118,47,59660,2,0,P|85:63|64:92,1,70
90,236,60171,5,0,0:0:0:0:
295,294,60341,1,0,0:0:0:0:
215,111,60512,1,0,0:0:0:0:
137,327,60682,1,0,0:0:0:0:
356,204,60852,1,0,0:0:0:0:
194,70,61023,1,0,0:0:0:0:
222,306,61193,1,0,0:0:0:0:
394,148,61363,1,0,0:0:0:0:
152,98,61534,1,0,0:0:0:0:
195,310,61704,1,0,0:0:0:0:
377,139,61875,1,0,0:0:0:0:
387,329,62045,1,0,0:0:0:0:
179,276,62215,5,0,0:0:0:0:
160,240,62385,1,0,0:0:0:0:
161,204,62555,1,0,0:0:0:0:
177,169,62726,1,0,0:0:0:0:
210,145,62896,1,0,0:0:0:0:
340,63,63067,6,0,P|383:53|394:71,1,70
391,154,63408,2,0,P|356:163|337:136,1,70
144,62,63748,2,0,P|119:98|116:129,1,70
165,286,64089,1,0,0:0:0:0:
381,216,64259,1,0,0:0:0:0:
214,117,64430,1,0,0:0:0:0:
273,325,64601,1,0,0:0:0:0:
83,232,64771,1,0,0:0:0:0:
276,147,64942,1,0,0:0:0:0:
180,317,65112,5,0,0:0:0:0:
114,102,65282,1,0,0:0:0:0:
326,176,65453,1,0,0:0:0:0:
98,262,65623,1,0,0:0:0:0:
208,95,65793,1,0,0:0:0:0:
251,305,65964,1,0,0:0:0:0:
85,165,66134,1,0,0:0:0:0:
265,74,66305,1,0,0:0:0:0:
303,275,66475,1,0,0:0:0:0:
83,197,66644,5,0,0:0:0:0:
255,54,66815,1,0,0:0:0:0:
349,224,66985,2,0,B|310:250|266:218|214:266,1,140
217,262,67496,1,0,0:0:0:0:
69,207,67667,2,0,P|65:160|80:136,1,70
326,61,68007,2,0,P|318:59|279:101,1,70
278,95,68348,1,0,0:0:0:0:
291,277,68689,5,0,0:0:0:0:
110,270,68859,1,0,0:0:0:0:
197,91,69030,1,0,0:0:0:0:
405,169,69200,1,0,0:0:0:0:
239,274,69371,1,0,0:0:0:0:
290,99,69541,1,0,0:0:0:0:
85,158,69711,1,0,0:0:0:0:
300,207,69882,1,0,0:0:0:0:
149,46,70052,1,0,0:0:0:0:
129,264,70222,1,0,0:0:0:0:
277,111,70393,5,0,0:0:0:0:
57,123,70563,1,0,0:0:0:0:
255,271,70734,1,0,0:0:0:0:
394,138,70904,1,0,0:0:0:0:
429,324,71074,1,0,0:0:0:0:
228,204,71244,1,0,0:0:0:0:
360,60,71414,1,0,0:0:0:0:
432,239,71585,1,0,0:0:0:0:
217,312,71755,1,0,0:0:0:0:
261,104,71925,1,0,0:0:0:0:
391,258,72096,5,0,0:0:0:0:
136,207,72266,1,0,0:0:0:0:
247,358,72436,1,0,0:0:0:0:
376,189,72607,1,0,0:0:0:0:
152,116,72777,1,0,0:0:0:0:
124,297,72948,1,0,0:0:0:0:
290,160,73118,1,0,0:0:0:0:
68,130,73288,1,0,0:0:0:0:
247,294,73459,1,0,0:0:0:0:
230,87,73629,1,0,0:0:0:0:
94,212,73800,1,0,0:0:0:0:
347,181,73970,5,0,0:0:0:0:
261,344,74140,1,0,0:0:0:0:
175,118,74311,1,0,0:0:0:0:
87,287,74481,1,0,0:0:0:0:
344,181,74651,1,0,0:0:0:0:
145,102,74822,1,0,0:0:0:0:
214,313,74992,1,0,0:0:0:0:
333,165,75163,1,0,0:0:0:0:
77,175,75333,1,0,0:0:0:0:
232,332,75503,1,0,0:0:0:0:
272,109,75673,5,0,0:0:0:0:
79,257,75843,1,0,0:0:0:0:
330,236,76014,1,0,0:0:0:0:
129,93,76184,1,0,0:0:0:0:
232,313,76354,1,0,0:0:0:0:
355,134,76525,1,0,0:0:0:0:
104,229,76695,1,0,0:0:0:0:
320,307,76865,1,0,0:0:0:0:
202,119,77036,1,0,0:0:0:0:
204,329,77206,1,0,0:0:0:0:
362,182,77377,1,0,0:0:0:0:
126,158,77547,1,0,0:0:0:0:
170,312,77718,6,0,P|198:335|221:317,1,70
361,267,78058,2,0,P|387:242|398:204,1,70
394,72,78399,2,0,P|395:70|353:36,1,70
272,129,78740,2,0,P|227:143|206:130,1,70
96,98,79081,2,0,P|78:114|70:163,1,70
256,192,79592,5,0,0:0:0:0:
352,96,79783,1,0,0:0:0:0:
256,192,80102,1,0,0:0:0:0:
160,288,80443,1,0,0:0:0:0:
256,192,80614,1,0,0:0:0:0:
94,79,80954,5,0,0:0:0:0:
80,267,81125,1,0,0:0:0:0:
288,128,81295,1,0,0:0:0:0:
102,94,81465,1,0,0:0:0:0:
267,291,81635,1,0,0:0:0:0:
351,133,81806,1,0,0:0:0:0:
122,231,81976,1,0,0:0:0:0:
348,249,82147,1,0,0:0:0:0:
182,88,82317,1,0,0:0:0:0:
208,311,82487,1,0,0:0:0:0:
345,145,82658,1,0,0:0:0:0:
87,169,82828,1,0,0:0:0:0:
221,78,82999,6,0,P|256:71|294:69,1,70
439,283,83339,2,0,P|427:264|414:216,1,70
209,142,83680,2,0,P|187:172|179:210,1,70
460,165,84021,2,0,P|456:113|461:96,1,70
129,66,84362,2,0,B|102:85|83:120|84:120,1,70
303,353,84702,2,0,P|278:345|247:307,1,70
121,231,85043,5,0,0:0:0:0:
192,36,85213,1,0,0:0:0:0:
296,191,85384,1,0,0:0:0:0:
80,94,85554,1,0,0:0:0:0:
334,71,85724,1,0,0:0:0:0:
206,264,85895,1,0,0:0:0:0:
188,42,86065,1,0,0:0:0:0:
54,172,86236,1,0,0:0:0:0:
297,177,86406,1,0,0:0:0:0:
187,319,86576,1,0,0:0:0:0:
147,92,86747,1,0,0:0:0:0:
373,110,86917,5,0,0:0:0:0:
282,302,87088,1,0,0:0:0:0:
162,127,87258,1,0,0:0:0:0:
387,157,87428,1,0,0:0:0:0:
215,325,87599,1,0,0:0:0:0:
248,89,87769,1,0,0:0:0:0:
363,291,87939,1,0,0:0:0:0:
104,165,88110,5,0,0:0:0:0:
129,198,88280,1,0,0:0:0:0:
169,218,88451,1,0,0:0:0:0:
213,224,88621,1,0,0:0:0:0:
251,214,88791,1,0,0:0:0:0:
416,64,89132,1,0,0:0:0:0:
64,320,89472,1,0,0:0:0:0:
448,320,89813,1,0,0:0:0:0:
64,64,90154,1,0,0:0:0:0:
