osu file format v14

[General]
AudioFilename: audio.mp3
AudioLeadIn: 0
PreviewTime: 61657
Countdown: 0
SampleSet: None
StackLeniency: 0.7
Mode: 0
LetterboxInBreaks: 0
WidescreenStoryboard: 0

[Editor]
DistanceSpacing: 1
BeatDivisor: 3
GridSize: 8
TimelineZoom: 1

[Metadata]
Title:Kiss Later
TitleUnicode:키스는 다음에
Artist:LOONA/YeoJin
ArtistUnicode:LOOΠΔ/여진
Creator:X4D
Version:Just hug me
Source:
Tags:이달의 소녀 single korean kiseuneun daeume kpop short cut edit version
BeatmapID:1991998
BeatmapSetID:954115

[Difficulty]
HPDrainRate:5.4
CircleSize:3.9
OverallDifficulty:8.5
ApproachRate:9.3
SliderMultiplier:1.7
SliderTickRate:1

[Events]
//Background and Video events
0,0,"stan loona.jpg",0,0
//Break Periods
//Storyboard Layer 0 (Background)
//Storyboard Layer 1 (Fail)
//Storyboard Layer 2 (Pass)
//Storyboard Layer 3 (Foreground)
//Storyboard Sound Samples

[TimingPoints]
1153,576.923076923077,4,2,1,90,1,0
28701,-100,4,2,1,5,0,0
28845,288.461538461538,4,2,1,90,1,0
28845,-66.6666666666667,4,2,1,90,0,0
28989,-66.6666666666667,4,2,1,5,0,0
29133,-133.333333333333,4,2,1,90,0,0
30719,-66.6666666666667,4,2,1,90,0,0
30864,-66.6666666666667,4,2,1,5,0,0
31008,-66.6666666666667,4,2,1,90,0,0
31152,-133.333333333333,4,2,1,5,0,0
31296,-133.333333333333,4,2,1,90,0,0
33075,-66.6666666666667,4,2,1,90,0,0
33364,-66.6666666666667,4,2,1,5,0,0
33460,-66.6666666666667,4,2,1,90,0,0
33604,-66.6666666666667,4,2,1,5,0,0
33748,-133.333333333333,4,2,1,90,0,0
35335,-66.6666666666667,4,2,1,90,0,0
35623,-133.333333333333,4,2,1,90,0,0
37426,-133.333333333333,4,2,1,5,0,0
37498,-133.333333333333,4,2,1,90,0,0
37931,-100,4,2,1,90,0,0
39085,-90.9090909090909,4,2,1,90,0,0
40239,-83.3333333333333,4,2,1,90,0,0
43844,-133.333333333333,4,2,1,90,0,0
45359,-133.333333333333,4,2,1,5,0,0
45431,-133.333333333333,4,2,1,90,0,0
47667,-133.333333333333,4,2,1,5,0,0
47739,-133.333333333333,4,2,1,90,0,0
49974,-133.333333333333,4,2,1,5,0,0
50046,-133.333333333333,4,2,1,90,0,0
50768,-166.666666666667,4,2,1,90,0,0
52210,-133.333333333333,4,2,1,90,0,0
52282,-133.333333333333,4,2,1,5,0,0
52354,-133.333333333333,4,2,1,90,0,0
53075,-200,4,2,1,90,0,0
59566,-100,4,2,1,90,0,0
59998,-250,4,2,1,90,0,0
60215,-250,4,2,1,5,0,0
60287,-66.6666666666667,4,2,1,90,0,0
61152,-80,4,2,1,90,0,0
61729,-66.6666666666667,4,2,1,90,0,0
62306,-100,4,2,1,90,0,0
62594,-76.9230769230769,4,2,1,90,0,0
62883,-100,4,2,1,90,0,0
63171,-76.9230769230769,4,2,1,90,0,0
64325,-76.9230769230769,4,2,1,90,0,0
64614,-100,4,2,1,90,0,0
64902,-76.9230769230769,4,2,1,90,0,0
66248,-133.333333333333,4,2,1,90,0,0
66537,-76.9230769230769,4,2,1,90,0,0
66921,-100,4,2,1,90,0,0
67209,-76.9230769230769,4,2,1,90,0,0
67498,-100,4,2,1,90,0,0
67786,-76.9230769230769,4,2,1,90,0,0
68940,-76.9230769230769,4,2,1,90,0,0
69229,-100,4,2,1,90,0,0
69517,-76.9230769230769,4,2,1,90,0,0
70863,-133.333333333333,4,2,1,90,0,0
71152,-76.9230769230769,4,2,1,90,0,0
71248,-133.333333333333,4,2,1,90,0,0
71537,-71.4285714285714,4,2,1,90,0,0
71825,-76.9230769230769,4,2,1,90,0,0
72114,-83.3333333333333,4,2,1,90,0,0
72402,-45.4545454545455,4,2,1,90,0,0
72594,-100,4,2,1,90,0,0
73844,-71.4285714285714,4,2,1,90,0,0
74132,-76.9230769230769,4,2,1,90,0,0
74421,-83.3333333333333,4,2,1,90,0,0
74709,-45.4545454545455,4,2,1,90,0,0
74901,-100,4,2,1,90,0,0
76152,-100,4,2,1,90,0,0
76440,-76.9230769230769,4,2,1,90,0,0
76729,-100,4,2,1,90,0,0
77017,-76.9230769230769,4,2,1,90,0,0
78171,-76.9230769230769,4,2,1,90,0,0
78460,-76.9230769230769,4,2,1,90,0,0
79806,-133.333333333333,4,2,1,90,0,0
80768,-100,4,2,1,90,0,0
81056,-76.9230769230769,4,2,1,90,0,0
81344,-100,4,2,1,90,0,0
81632,-76.9230769230769,4,2,1,90,0,0
83075,-100,4,2,1,90,0,0
83363,-76.9230769230769,4,2,1,90,0,0
83651,-100,4,2,1,90,0,0
83939,-76.9230769230769,4,2,1,90,0,0
85671,-66.6666666666667,4,2,1,90,0,0
85960,-76.9230769230769,4,2,1,90,0,0
86248,-76.9230769230769,4,2,1,90,0,0
86441,-60.6060606060606,4,2,1,90,0,0
87691,-76.9230769230769,4,2,1,90,0,0
87979,-66.6666666666667,4,2,1,90,0,0
88268,-76.9230769230769,4,2,1,90,0,0
88556,-76.9230769230769,4,2,1,90,0,0
88749,-60.6060606060606,4,2,1,90,0,0

[Colours]
Combo1 : 63,205,27
Combo2 : 241,91,41
Combo3 : 35,220,179
Combo4 : 141,53,238

[HitObjects]
115,35,10383,5,0,0:0:0:0:
115,35,10672,2,0,P|73:30|23:27,2,85
170,115,11537,2,0,P|212:112|254:107,1,85
280,75,11970,1,0,0:0:0:0:
280,75,12114,2,0,P|322:77|364:82,1,85
472,98,12691,6,0,P|483:147|463:201,1,85
441,204,13124,1,0,0:0:0:0:
441,204,13268,2,0,P|398:198|356:196,1,85
241,269,13845,2,0,P|233:227|244:186,1,85
135,148,14422,2,0,P|145:232|150:317,1,170
39,286,15287,5,0,0:0:0:0:
39,286,15576,2,0,P|41:243|46:201,1,85
135,148,16153,2,0,P|132:105|127:63,1,85
108,30,16585,1,0,0:0:0:0:
108,30,16729,2,0,P|150:24|192:22,1,85
325,32,17306,6,0,P|334:85|289:142,1,127.5
274,170,17883,2,0,P|316:164|358:162,1,85
452,205,18460,2,0,P|463:245|455:287,1,85
334,337,19037,2,0,P|326:295|337:254,1,85
358,162,19614,5,0,0:0:0:0:
358,162,19903,2,0,P|363:119|365:77,2,85
278,200,20768,2,0,P|236:207|195:196,1,85
174,162,21201,1,0,0:0:0:0:
174,162,21345,2,0,P|168:119|166:77,1,85
68,24,21922,5,0,0:0:0:0:
68,24,22210,2,0,P|65:66|60:108,2,85
166,77,23076,2,0,P|168:119|173:161,1,85
195,196,23508,2,0,P|223:196|261:203,2,42.5
136,249,23941,1,0,0:0:0:0:
282,272,24229,6,0,P|271:187|266:102,1,170
277,79,25383,2,0,P|317:67|359:75,1,85
393,99,25816,2,0,P|393:71|400:33,2,42.5
473,81,26249,1,0,0:0:0:0:
457,248,26537,6,0,P|454:205|449:163,1,85
349,289,27114,2,0,P|351:246|356:204,1,85
442,341,27691,1,0,0:0:0:0:
442,341,28268,2,0,B|371:351|406:295|325:304,1,127.5
304,321,28845,6,0,P|308:248|317:175,1,127.500004863739
376,137,29133,5,0,0:0:0:0:
267,105,29325,1,0,0:0:0:0:
267,105,29421,1,0,0:0:0:0:
338,54,29710,5,0,0:0:0:0:
314,194,29902,1,0,0:0:0:0:
314,194,29998,1,0,0:0:0:0:
213,206,30287,5,0,0:0:0:0:
189,66,30431,2,0,P|189:49|192:19,2,31.8750012159348
189,66,30719,6,0,P|125:62|62:55,1,127.500004863739
26,302,31008,2,0,P|89:295|152:291,1,127.500004863739
152,290,31921,5,0,0:0:0:0:
152,290,32018,2,0,P|185:252|230:264,1,85.0000032424928
299,352,32306,1,0,0:0:0:0:
316,329,32594,2,0,P|319:278|324:227,1,85.0000032424928
374,182,32883,2,0,P|393:179|436:192,1,42.5000016212464
508,283,33075,6,0,B|483:297|484:336|484:336|467:299|476:256|476:256|494:218|494:218|510:176|485:111,1,255.000009727478
414,37,33460,6,0,P|350:33|287:26,1,127.500004863739
116,118,33748,5,0,0:0:0:0:
240,96,33941,1,0,0:0:0:0:
240,96,34037,1,0,0:0:0:0:
163,50,34325,5,0,0:0:0:0:
196,185,34518,1,0,0:0:0:0:
196,185,34614,1,0,0:0:0:0:
261,253,34902,5,0,0:0:0:0:
122,223,35046,2,0,P|105:223|75:220,2,31.8750012159348
122,223,35335,6,0,P|114:286|111:349,1,127.500004863739
388,81,35623,6,0,B|232:35|306:192|125:131,1,286.875010943413
127,131,36344,2,0,P|106:102|114:68,2,42.5000016212464
54,179,36633,2,0,P|24:200|-9:192,2,42.5000016212464
110,247,36921,6,0,P|221:234|333:227,1,223.125008511544
332,227,37498,1,0,0:0:0:0:
193,58,37643,1,0,0:0:0:0:
193,58,37931,6,0,B|302:25|250:135|377:93,1,170
345,101,38292,2,0,P|343:73|346:45,3,42.5
447,160,38652,1,0,0:0:0:0:
468,142,38844,2,0,P|467:113|464:85,1,56.6666666666667
419,291,39085,6,0,P|371:310|256:234,1,187.000005706787
137,175,39518,2,0,P|140:224|139:274,1,93.5000028533936
211,342,39806,1,0,0:0:0:0:
343,194,39950,2,0,P|341:145|345:97,1,93.5000028533936
96,31,40239,6,0,B|63:12|29:29|29:29|85:98|51:185,1,203.999993774414
43,173,40599,1,0,0:0:0:0:
43,173,40671,1,0,0:0:0:0:
164,93,40816,1,0,0:0:0:0:
84,247,40960,1,0,0:0:0:0:
273,273,41104,2,0,P|323:270|374:271,1,101.999996887207
232,365,41393,6,0,P|235:263|229:161,1,203.999993774414
164,93,41825,1,0,0:0:0:0:
399,6,42114,5,0,0:0:0:0:
314,107,42306,1,0,0:0:0:0:
314,107,42402,1,0,0:0:0:0:
405,95,42594,1,0,0:0:0:0:
405,95,42691,1,0,0:0:0:0:
226,22,42979,5,0,0:0:0:0:
164,93,43171,1,0,0:0:0:0:
164,93,43268,1,0,0:0:0:0:
85,44,43460,1,0,0:0:0:0:
85,44,43556,1,0,0:0:0:0:
126,256,43844,5,0,0:0:0:0:
126,256,44133,2,0,P|189:248|252:245,2,127.500004863739
42,203,44998,1,0,0:0:0:0:
114,110,45287,2,0,P|116:132|117:155,1,31.8750012159348
248,38,45575,1,0,0:0:0:0:
231,28,45719,2,0,P|223:91|220:154,1,127.500004863739
335,241,46152,6,0,P|383:253|450:213,1,127.500004863739
366,45,46633,2,0,P|373:108|376:171,1,127.500004863739
335,241,47018,1,0,0:0:0:0:
250,193,47306,2,0,P|243:250|240:307,1,85.0000032424928
260,302,47594,2,0,P|262:324|263:347,1,31.8750012159348
147,218,47883,1,0,0:0:0:0:
161,234,48027,2,0,P|153:297|150:360,1,127.500004863739
50,296,48460,5,0,0:0:0:0:
50,296,48748,2,0,P|46:232|39:169,2,127.500004863739
149,360,49614,1,0,0:0:0:0:
227,272,49902,2,0,P|228:256|229:240,1,31.8750012159348
308,350,50191,1,0,0:0:0:0:
304,324,50335,2,0,P|352:312|419:352,1,127.500004863739
416,348,50768,6,0,P|419:293|425:239,1,101.999996887207
495,196,51200,2,0,P|491:141|485:87,1,101.999996887207
420,39,51633,1,0,0:0:0:0:
369,144,51921,1,0,0:0:0:0:
288,13,52210,2,0,P|286:28|285:44,1,31.8750012159348
196,122,52498,1,0,0:0:0:0:
186,103,52643,2,0,P|138:91|71:131,1,127.500004863739
86,219,53075,5,0,0:0:0:0:
86,219,53364,2,0,P|43:221|1:226,2,85
143,299,54229,2,0,P|193:302|243:307,1,85
316,283,54662,2,0,P|333:245|284:165,1,127.5
249,86,55383,5,0,0:0:0:0:
249,86,55672,2,0,P|291:88|333:93,2,85
350,7,56537,2,0,P|392:4|434:0,1,85
503,60,56970,2,0,P|520:98|471:178,1,127.5
385,243,57691,6,0,P|427:245|469:249,1,85
388,338,58171,1,0,0:0:0:0:
388,338,58268,2,0,P|430:335|472:331,1,85
315,283,58700,1,0,0:0:0:0:
239,336,58844,2,0,P|236:293|232:251,1,85
280,180,59277,2,0,P|282:158|283:137,1,42.5
214,64,59566,6,0,P|163:63|126:185,1,170
112,157,59998,2,0,P|80:158|48:162,1,51
29,131,60287,6,0,P|25:197|18:264,1,127.500004863739
87,335,60575,1,0,0:0:0:0:
269,168,60719,6,0,P|272:234|279:301,1,127.500004863739
211,372,61007,1,0,0:0:0:0:
222,92,61152,6,0,B|288:65|338:110|338:110|378:90|426:107,1,212.5
423,106,61729,6,0,B|448:73|489:76|489:76|460:137|488:194|488:194|414:213|394:318|478:363,1,382.500014591218
509,278,62306,6,0,P|442:281|375:288,1,113.333333333333
328,349,62594,2,0,P|305:289|349:207,1,147.333326588949
275,145,62883,2,0,P|225:142|174:137,1,56.6666666666667
151,91,63075,1,0,0:0:0:0:
151,91,63171,2,0,P|170:141|133:211,1,73.6666632944744
80,256,63364,5,0,0:0:0:0:
231,294,63652,1,0,0:0:0:0:
231,294,63748,2,0,B|154:282|181:348|89:338,1,147.333326588949
7,358,64037,2,0,P|4:320|2:283,1,73.6666632944744
38,185,64229,1,0,0:0:0:0:
80,256,64325,2,0,B|163:265|136:199|213:211,1,147.333326588949
311,293,64614,6,0,P|367:287|424:284,1,113.333333333333
424,284,64902,2,0,P|401:224|445:142,1,147.333326588949
476,72,65191,2,0,P|435:68|395:66,1,73.6666632944744
322,121,65383,1,0,0:0:0:0:
322,121,65479,2,0,P|281:124|241:126,1,73.6666632944744
124,53,65671,6,0,B|106:165|207:124|192:251,1,220.999989883423
147,332,66056,1,0,0:0:0:0:
67,235,66248,2,0,P|63:275|61:315,1,42.5000016212464
317,215,66537,1,0,0:0:0:0:
279,281,66633,2,0,P|273:181|263:83,1,147.333326588949
311,46,66921,6,0,P|371:23|453:67,1,113.333333333333
481,114,67210,2,0,P|471:199|467:286,1,147.333326588949
423,338,67498,2,0,P|386:340|349:343,1,56.6666666666667
261,350,67691,1,0,0:0:0:0:
261,350,67787,2,0,P|280:300|243:230,1,73.6666632944744
180,182,67979,5,0,0:0:0:0:
303,106,68268,1,0,0:0:0:0:
303,106,68364,2,0,B|220:115|247:49|170:61,1,147.333326588949
101,120,68652,2,0,P|64:122|27:125,1,73.6666632944744
99,208,68844,1,0,0:0:0:0:
21,242,68941,2,0,B|104:233|77:299|154:287,1,147.333326588949
333,216,69229,6,0,P|277:222|220:225,1,113.333333333333
220,225,69517,2,0,P|243:285|199:367,1,147.333326588949
153,287,69806,6,0,P|248:292|343:302,1,147.333326588949
357,356,70094,1,0,0:0:0:0:
77,336,70287,6,0,B|50:270|95:220|95:220|75:180|92:132,1,212.5
142,60,70671,6,0,P|208:19|286:44,1,147.333326588949
383,4,70960,2,0,P|379:40|377:77,1,42.5000016212464
387,180,71152,1,0,0:0:0:0:
463,155,71248,2,0,P|404:148|346:145,1,85.0000032424928
266,212,71537,6,0,P|257:285|316:352,1,158.666661824544
424,307,71825,2,0,P|432:238|376:175,1,147.333326588949
281,216,72114,6,0,P|273:281|315:333,1,135.99999584961
405,303,72402,2,0,P|411:241|372:193,1,124.666670471192
317,107,72594,6,0,P|403:98|510:85,1,170
467,171,72979,1,0,0:0:0:0:
281,25,73268,2,0,P|238:19|196:15,1,56.6666666666667
120,115,73460,1,0,0:0:0:0:
202,97,73556,2,0,P|210:163|216:230,1,113.333333333333
119,228,73844,6,0,B|75:218|63:170|63:170|39:213|-12:211,1,158.666661824544
45,318,74133,2,0,B|84:326|95:370|95:370|116:331|163:332,1,147.333326588949
109,237,74421,6,0,B|73:229|64:190|64:190|45:225|4:223,1,135.99999584961
54,308,74710,2,0,B|85:315|93:349|93:349|110:318|147:319,1,124.666670471192
270,326,74902,6,0,P|258:237|329:167,1,170
354,269,75287,1,0,0:0:0:0:
466,160,75479,1,0,0:0:0:0:
466,160,75575,2,0,P|423:154|381:150,1,56.6666666666667
291,93,75768,1,0,0:0:0:0:
371,26,75864,2,0,P|376:82|383:138,1,113.333333333333
335,250,76152,6,0,P|280:260|228:237,1,113.333333333333
208,139,76441,2,0,P|203:212|194:285,1,147.333326588949
82,354,76729,2,0,P|109:359|135:347,1,56.6666666666667
85,261,76921,1,0,0:0:0:0:
85,261,77018,2,0,P|80:224|78:187,1,73.6666632944744
152,69,77210,5,0,0:0:0:0:
5,45,77498,1,0,0:0:0:0:
5,45,77594,2,0,P|78:40|151:31,1,147.333326588949
251,60,77883,2,0,P|270:110|233:180,1,73.6666632944744
214,200,78075,1,0,0:0:0:0:
279,251,78171,2,0,P|205:242|132:237,1,147.333326588949
363,297,78460,6,0,B|391:228|344:176|344:176|365:134|347:84,1,220.999989883423
101,352,79037,2,0,B|72:283|119:231|119:231|98:189|116:139,1,220.999989883423
301,360,79518,1,0,0:0:0:0:
206,286,79806,5,0,0:0:0:0:
206,286,79902,2,0,P|211:323|218:385,1,85.0000032424928
290,275,80191,2,0,P|293:242|298:209,1,42.5000016212464
253,170,80383,1,0,0:0:0:0:
237,147,80479,2,0,P|233:114|228:81,2,42.5000016212464
312,111,80768,6,0,P|364:86|437:123,1,113.333333333333
450,175,81056,2,0,P|440:91|429:7,1,147.333326588949
357,181,81344,2,0,P|303:194|253:170,1,113.333333333333
237,147,81633,1,0,0:0:0:0:
436,270,81825,2,0,P|304:285|172:302,1,220.999989883423
129,368,82210,1,0,0:0:0:0:
183,273,82354,1,0,0:0:0:0:
89,220,82498,1,0,0:0:0:0:
266,105,82787,1,0,0:0:0:0:
29,27,83075,6,0,P|38:100|47:173,1,113.333333333333
89,220,83364,2,0,P|147:191|230:233,1,147.333326588949
343,325,83652,2,0,P|349:268|357:212,1,113.333333333333
373,119,83941,1,0,0:0:0:0:
426,372,84133,2,0,B|291:379|376:293|214:299,1,220.999989883423
117,340,84518,1,0,0:0:0:0:
250,214,84662,1,0,0:0:0:0:
91,366,84806,1,0,0:0:0:0:
163,107,85094,1,0,0:0:0:0:
320,283,85383,6,0,P|378:311|461:269,1,147.333326588949
409,128,85671,2,0,B|406:108|387:95|387:95|390:167|386:231,1,170.000006484986
273,357,85960,2,0,P|214:385|131:343,1,147.333326588949
187,234,86248,2,0,P|206:272|204:324,1,73.6666632944744
61,194,86441,6,0,B|44:155|66:108|66:108|154:179|259:110,1,280.500002675057
366,33,86825,1,0,0:0:0:0:
187,234,86969,1,0,0:0:0:0:
376,360,87114,1,0,0:0:0:0:
386,7,87402,1,0,0:0:0:0:
130,340,87691,6,0,B|127:358|109:370|109:370|112:303|108:244,1,147.333326588949
143,96,87979,2,0,P|210:63|307:112,1,170.000006484986
430,298,88268,2,0,B|432:316|450:328|450:328|447:261|451:202,1,147.333326588949
412,44,88556,2,0,P|412:73|415:127,1,73.6666632944744
255,374,88748,6,0,B|253:330|228:283|139:280|68:182|253:88|275:213|275:213|315:187|386:207|371:320|290:299,1,515.666643061321
