osu file format v14

[General]
AudioFilename: audio.mp3
AudioLeadIn: 0
PreviewTime: 36576
Countdown: 0
SampleSet: Soft
StackLeniency: 0.7
Mode: 3
LetterboxInBreaks: 0
SpecialStyle: 0
WidescreenStoryboard: 1

[Editor]
DistanceSpacing: 1.35
BeatDivisor: 16
GridSize: 4
TimelineZoom: 1.7

[Metadata]
Title:Everyday I Need You (feat. JinSoul)
TitleUnicode:Everyday I Need You (feat. 진솔)
Artist:LOONA/ViVi
ArtistUnicode:이달의 소녀/비비
Creator:fvrex
Version:Hard
Source:
Tags:LOOΠΔ/ love girl of the month indoroid tigerinity ucitysm xtrippin 블록베리크리에이티브 blockberry creative bbc 일광폴라리스 polaris entertainment wong kahei 黃珈熙 Viian Hwang A-Ra 황아라 黃雅蓏 jeong jin-sol jinsol 정진솔 korean pop k-pop kpop ballad edily ediny ln long notes
BeatmapID:3889508
BeatmapSetID:1888584

[Difficulty]
HPDrainRate:7.5
CircleSize:4
OverallDifficulty:7.5
ApproachRate:5
SliderMultiplier:1.4
SliderTickRate:1

[Events]
//Background and Video events
0,0,"bg.jpg",0,0
//Break Periods
//Storyboard Layer 0 (Background)
//Storyboard Layer 1 (Fail)
//Storyboard Layer 2 (Pass)
//Storyboard Layer 3 (Foreground)
//Storyboard Layer 4 (Overlay)
//Storyboard Sound Samples

[TimingPoints]
546,618.556701030928,4,2,1,70,1,0
37659,-100,4,2,1,70,0,1
37968,-100,4,2,1,70,0,0
40133,-100,4,2,1,70,0,1
59927,-100,4,2,1,70,0,0
97040,-100,4,2,1,70,0,1
97350,-100,4,2,1,70,0,0
99515,-100,4,2,1,70,0,1
119308,-100,4,2,1,70,0,0
148999,-100,4,2,1,70,0,1
156422,-100,4,2,1,70,0,0
158896,-100,4,2,1,70,0,1
178690,-100,4,2,1,70,0,0

[HitObjects]
448,192,546,128,0,700:0:0:0:0:
64,192,1473,1,0,0:0:0:0:
192,192,1628,1,0,0:0:0:0:
320,192,1783,128,0,2092:0:0:0:0:
64,192,2092,128,0,2401:0:0:0:0:
448,192,2401,128,0,2556:0:0:0:0:
448,192,2710,128,0,3020:0:0:0:0:
192,192,3020,128,0,3638:0:0:0:0:
320,192,3329,1,0,0:0:0:0:
64,192,3948,1,0,0:0:0:0:
320,192,4102,1,0,0:0:0:0:
448,192,4257,128,0,4721:0:0:0:0:
192,192,4566,128,0,4721:0:0:0:0:
192,192,4875,128,0,5185:0:0:0:0:
448,192,5185,128,0,5494:0:0:0:0:
64,192,5494,128,0,5803:0:0:0:0:
320,192,5494,128,0,5649:0:0:0:0:
320,192,6422,128,0,6731:0:0:0:0:
192,192,7350,128,0,7659:0:0:0:0:
448,192,7659,128,0,7968:0:0:0:0:
64,192,7968,1,0,0:0:0:0:
448,192,8277,128,0,8587:0:0:0:0:
64,192,8896,128,0,9205:0:0:0:0:
320,192,9205,128,0,9360:0:0:0:0:
64,192,9515,128,0,9824:0:0:0:0:
320,192,9824,128,0,10442:0:0:0:0:
64,192,10133,128,0,10442:0:0:0:0:
192,192,10442,1,0,0:0:0:0:
448,192,10442,128,0,10597:0:0:0:0:
192,192,11370,1,0,0:0:0:0:
320,192,11525,1,0,0:0:0:0:
64,192,11680,128,0,11989:0:0:0:0:
448,192,11989,128,0,12143:0:0:0:0:
448,192,12298,128,0,12607:0:0:0:0:
192,192,12607,128,0,12917:0:0:0:0:
320,192,12917,128,0,13226:0:0:0:0:
64,192,13226,128,0,13381:0:0:0:0:
192,192,13844,1,0,0:0:0:0:
320,192,13999,1,0,0:0:0:0:
64,192,14154,128,0,14463:0:0:0:0:
448,192,14463,128,0,14618:0:0:0:0:
448,192,14772,128,0,15082:0:0:0:0:
192,192,15082,128,0,15391:0:0:0:0:
320,192,15391,128,0,16009:0:0:0:0:
64,192,15391,128,0,15700:0:0:0:0:
320,192,16319,128,0,16628:0:0:0:0:
192,192,17247,128,0,17556:0:0:0:0:
448,192,17556,128,0,17865:0:0:0:0:
64,192,17865,1,0,0:0:0:0:
320,192,18174,128,0,18484:0:0:0:0:
192,192,18329,128,0,18484:0:0:0:0:
64,192,18793,128,0,19102:0:0:0:0:
320,192,19102,128,0,19411:0:0:0:0:
64,192,19411,128,0,20030:0:0:0:0:
320,192,19721,128,0,20030:0:0:0:0:
448,192,19721,1,0,0:0:0:0:
192,192,20030,128,0,20339:0:0:0:0:
448,192,20339,128,0,20958:0:0:0:0:
64,192,20339,128,0,20649:0:0:0:0:
320,192,20649,1,0,0:0:0:0:
192,192,20958,1,0,0:0:0:0:
64,192,20958,1,0,0:0:0:0:
448,192,21267,128,0,21886:0:0:0:0:
320,192,21576,1,0,0:0:0:0:
64,192,21576,1,0,0:0:0:0:
192,192,21886,128,0,22504:0:0:0:0:
448,192,22195,1,0,0:0:0:0:
320,192,22195,1,0,0:0:0:0:
64,192,22504,128,0,22814:0:0:0:0:
192,192,22814,1,0,0:0:0:0:
320,192,22814,1,0,0:0:0:0:
448,192,23123,1,0,0:0:0:0:
320,192,23432,1,0,0:0:0:0:
64,192,23432,1,0,0:0:0:0:
448,192,23587,1,0,0:0:0:0:
192,192,23741,128,0,24360:0:0:0:0:
320,192,24051,1,0,0:0:0:0:
448,192,24051,1,0,0:0:0:0:
64,192,24360,128,0,24978:0:0:0:0:
448,192,24360,1,0,0:0:0:0:
320,192,24669,1,0,0:0:0:0:
192,192,24669,1,0,0:0:0:0:
448,192,24978,128,0,25288:0:0:0:0:
192,192,25288,1,0,0:0:0:0:
64,192,25288,1,0,0:0:0:0:
320,192,25597,1,0,0:0:0:0:
64,192,25906,1,0,0:0:0:0:
448,192,25906,1,0,0:0:0:0:
192,192,26216,1,0,0:0:0:0:
320,192,26525,1,0,0:0:0:0:
448,192,26525,1,0,0:0:0:0:
192,192,26834,128,0,27453:0:0:0:0:
320,192,27143,128,0,27453:0:0:0:0:
448,192,27143,1,0,0:0:0:0:
64,192,27453,128,0,27762:0:0:0:0:
448,192,27762,128,0,28381:0:0:0:0:
320,192,27762,128,0,28071:0:0:0:0:
192,192,28071,128,0,28226:0:0:0:0:
320,192,28381,128,0,28999:0:0:0:0:
192,192,28381,128,0,28690:0:0:0:0:
448,192,28690,128,0,28999:0:0:0:0:
192,192,28999,128,0,29927:0:0:0:0:
64,192,28999,128,0,29308:0:0:0:0:
320,192,29308,128,0,29463:0:0:0:0:
320,192,29618,128,0,29927:0:0:0:0:
448,192,29618,128,0,29927:0:0:0:0:
64,192,29927,128,0,30236:0:0:0:0:
448,192,30236,1,0,0:0:0:0:
192,192,30236,1,0,0:0:0:0:
320,192,30546,1,0,0:0:0:0:
192,192,30855,1,0,0:0:0:0:
64,192,30855,1,0,0:0:0:0:
320,192,31164,128,0,31783:0:0:0:0:
64,192,31473,1,0,0:0:0:0:
448,192,31473,1,0,0:0:0:0:
64,192,31783,128,0,32401:0:0:0:0:
320,192,32092,1,0,0:0:0:0:
192,192,32092,1,0,0:0:0:0:
448,192,32401,128,0,32710:0:0:0:0:
320,192,32710,1,0,0:0:0:0:
64,192,32710,1,0,0:0:0:0:
192,192,33020,1,0,0:0:0:0:
320,192,33329,1,0,0:0:0:0:
448,192,33329,1,0,0:0:0:0:
192,192,33638,128,0,34257:0:0:0:0:
64,192,33948,1,0,0:0:0:0:
448,192,33948,1,0,0:0:0:0:
320,192,34102,1,0,0:0:0:0:
448,192,34257,128,0,34875:0:0:0:0:
64,192,34257,1,0,0:0:0:0:
320,192,34566,1,0,0:0:0:0:
192,192,34566,1,0,0:0:0:0:
64,192,34875,128,0,35185:0:0:0:0:
320,192,35185,1,0,0:0:0:0:
448,192,35185,1,0,0:0:0:0:
64,192,35494,1,0,0:0:0:0:
192,192,35803,1,0,0:0:0:0:
320,192,35803,1,0,0:0:0:0:
448,192,36113,1,0,0:0:0:0:
320,192,36422,1,0,0:0:0:0:
64,192,36422,1,0,0:0:0:0:
192,192,36731,128,0,37350:0:0:0:0:
320,192,37040,128,0,37350:0:0:0:0:
448,192,37040,1,0,0:0:0:0:
64,192,37350,128,0,37659:0:0:0:0:
448,192,37659,128,0,38277:0:0:0:0:
320,192,37659,128,0,37968:0:0:0:0:
64,192,37968,128,0,38277:0:0:0:0:
320,192,38277,128,0,38587:0:0:0:0:
192,192,38587,1,0,0:0:0:0:
320,192,39205,128,0,39824:0:0:0:0:
448,192,39515,128,0,39824:0:0:0:0:
64,192,39515,1,0,0:0:0:0:
192,192,39824,128,0,39978:0:0:0:0:
320,192,39978,128,0,40133:0:0:0:0:
448,192,40133,128,0,40288:0:0:0:0:
64,192,40133,128,0,40752:0:0:0:0:
192,192,40597,1,0,0:0:0:0:
320,192,40752,128,0,40906:0:0:0:0:
448,192,40752,1,0,0:0:0:0:
64,192,41061,128,0,41680:0:0:0:0:
320,192,41061,128,0,41370:0:0:0:0:
192,192,41370,128,0,41680:0:0:0:0:
448,192,41370,128,0,41989:0:0:0:0:
320,192,41680,128,0,41989:0:0:0:0:
192,192,41989,128,0,42143:0:0:0:0:
64,192,41989,128,0,42143:0:0:0:0:
192,192,42298,128,0,42607:0:0:0:0:
320,192,42607,128,0,42762:0:0:0:0:
448,192,42607,128,0,42917:0:0:0:0:
192,192,43071,1,0,0:0:0:0:
64,192,43226,128,0,43381:0:0:0:0:
320,192,43226,1,0,0:0:0:0:
64,192,43535,128,0,43844:0:0:0:0:
448,192,43535,128,0,44154:0:0:0:0:
192,192,43690,128,0,43844:0:0:0:0:
320,192,43844,128,0,43999:0:0:0:0:
320,192,44154,128,0,44463:0:0:0:0:
192,192,44463,128,0,44618:0:0:0:0:
448,192,44463,128,0,44618:0:0:0:0:
320,192,44772,128,0,45082:0:0:0:0:
448,192,44927,128,0,45082:0:0:0:0:
64,192,45082,128,0,45236:0:0:0:0:
192,192,45082,128,0,45546:0:0:0:0:
320,192,45236,128,0,45391:0:0:0:0:
448,192,45391,128,0,45546:0:0:0:0:
448,192,45700,1,0,0:0:0:0:
320,192,45700,128,0,45855:0:0:0:0:
64,192,46009,128,0,46628:0:0:0:0:
192,192,46319,128,0,46628:0:0:0:0:
448,192,46319,128,0,46937:0:0:0:0:
320,192,46628,128,0,46937:0:0:0:0:
192,192,46937,128,0,47092:0:0:0:0:
64,192,46937,128,0,47092:0:0:0:0:
320,192,47247,128,0,47401:0:0:0:0:
192,192,47401,128,0,47556:0:0:0:0:
448,192,47556,128,0,47865:0:0:0:0:
64,192,47556,128,0,47710:0:0:0:0:
192,192,48020,1,0,0:0:0:0:
320,192,48174,128,0,48329:0:0:0:0:
448,192,48174,1,0,0:0:0:0:
64,192,48484,128,0,49102:0:0:0:0:
192,192,48638,128,0,48793:0:0:0:0:
448,192,48793,128,0,49411:0:0:0:0:
320,192,48793,1,0,0:0:0:0:
192,192,49102,128,0,49411:0:0:0:0:
320,192,49411,128,0,49566:0:0:0:0:
64,192,49411,128,0,49566:0:0:0:0:
192,192,49721,128,0,50030:0:0:0:0:
64,192,49875,128,0,50030:0:0:0:0:
320,192,50030,128,0,50494:0:0:0:0:
448,192,50030,128,0,50185:0:0:0:0:
192,192,50185,128,0,50339:0:0:0:0:
64,192,50339,128,0,50494:0:0:0:0:
192,192,50649,128,0,50803:0:0:0:0:
64,192,50649,1,0,0:0:0:0:
448,192,50958,128,0,51886:0:0:0:0:
192,192,50958,128,0,51267:0:0:0:0:
320,192,51113,128,0,51267:0:0:0:0:
64,192,51267,1,0,0:0:0:0:
192,192,51576,128,0,51886:0:0:0:0:
64,192,51886,128,0,52040:0:0:0:0:
320,192,51886,128,0,52040:0:0:0:0:
320,192,52195,128,0,52504:0:0:0:0:
64,192,52195,128,0,52350:0:0:0:0:
448,192,52504,1,0,0:0:0:0:
64,192,52504,1,0,0:0:0:0:
320,192,52659,1,0,0:0:0:0:
192,192,52814,1,0,0:0:0:0:
448,192,53123,1,0,0:0:0:0:
320,192,53123,128,0,53277:0:0:0:0:
192,192,53432,128,0,53741:0:0:0:0:
64,192,53432,128,0,54360:0:0:0:0:
320,192,53587,128,0,53741:0:0:0:0:
448,192,53741,1,0,0:0:0:0:
448,192,54051,128,0,54669:0:0:0:0:
320,192,54360,128,0,54515:0:0:0:0:
192,192,54360,128,0,54515:0:0:0:0:
320,192,54669,128,0,54824:0:0:0:0:
192,192,54669,128,0,54978:0:0:0:0:
320,192,54978,1,0,0:0:0:0:
448,192,54978,1,0,0:0:0:0:
192,192,55288,1,0,0:0:0:0:
64,192,55597,1,0,0:0:0:0:
448,192,55597,1,0,0:0:0:0:
320,192,55906,128,0,56061:0:0:0:0:
192,192,56061,128,0,56216:0:0:0:0:
320,192,56216,128,0,56834:0:0:0:0:
448,192,56216,1,0,0:0:0:0:
192,192,56525,128,0,56834:0:0:0:0:
448,192,56834,1,0,0:0:0:0:
64,192,56834,1,0,0:0:0:0:
192,192,57143,128,0,57453:0:0:0:0:
448,192,57453,128,0,58071:0:0:0:0:
64,192,57453,128,0,57762:0:0:0:0:
320,192,57762,128,0,58071:0:0:0:0:
192,192,58071,128,0,58226:0:0:0:0:
64,192,58071,1,0,0:0:0:0:
192,192,58381,128,0,58690:0:0:0:0:
320,192,58535,128,0,58690:0:0:0:0:
448,192,58690,1,0,0:0:0:0:
64,192,58690,1,0,0:0:0:0:
320,192,58999,128,0,59308:0:0:0:0:
64,192,59308,128,0,59927:0:0:0:0:
448,192,59618,128,0,59927:0:0:0:0:
320,192,59927,1,0,0:0:0:0:
192,192,59927,1,0,0:0:0:0:
448,192,60546,1,0,0:0:0:0:
64,192,60546,1,0,0:0:0:0:
448,192,60855,128,0,61009:0:0:0:0:
320,192,61009,128,0,61164:0:0:0:0:
192,192,61164,128,0,61783:0:0:0:0:
64,192,61164,1,0,0:0:0:0:
448,192,61473,128,0,61783:0:0:0:0:
64,192,61783,128,0,61937:0:0:0:0:
320,192,61783,1,0,0:0:0:0:
64,192,62092,128,0,62401:0:0:0:0:
320,192,62401,128,0,63020:0:0:0:0:
448,192,62401,1,0,0:0:0:0:
192,192,62710,1,0,0:0:0:0:
448,192,63020,1,0,0:0:0:0:
64,192,63020,1,0,0:0:0:0:
320,192,63329,128,0,63484:0:0:0:0:
192,192,63484,128,0,63638:0:0:0:0:
64,192,63638,128,0,64102:0:0:0:0:
448,192,63638,1,0,0:0:0:0:
320,192,63948,128,0,64102:0:0:0:0:
320,192,64257,128,0,64566:0:0:0:0:
192,192,64257,1,0,0:0:0:0:
64,192,64566,128,0,64875:0:0:0:0:
448,192,64875,128,0,65185:0:0:0:0:
192,192,64875,128,0,65030:0:0:0:0:
320,192,65185,1,0,0:0:0:0:
448,192,65494,1,0,0:0:0:0:
64,192,65494,1,0,0:0:0:0:
192,192,65803,128,0,66113:0:0:0:0:
320,192,66113,1,0,0:0:0:0:
448,192,66113,1,0,0:0:0:0:
320,192,66731,128,0,67040:0:0:0:0:
192,192,66731,1,0,0:0:0:0:
64,192,67040,128,0,67350:0:0:0:0:
448,192,67350,1,0,0:0:0:0:
320,192,67350,1,0,0:0:0:0:
64,192,67659,128,0,67968:0:0:0:0:
448,192,68277,128,0,68587:0:0:0:0:
192,192,68587,128,0,68741:0:0:0:0:
320,192,68587,1,0,0:0:0:0:
448,192,68896,128,0,69205:0:0:0:0:
192,192,69205,128,0,69824:0:0:0:0:
64,192,69205,1,0,0:0:0:0:
448,192,69515,128,0,69824:0:0:0:0:
320,192,69824,1,0,0:0:0:0:
64,192,69824,128,0,69978:0:0:0:0:
448,192,70133,1,0,0:0:0:0:
64,192,70442,1,0,0:0:0:0:
192,192,70442,1,0,0:0:0:0:
320,192,70752,128,0,70906:0:0:0:0:
192,192,70906,128,0,71061:0:0:0:0:
448,192,71061,128,0,71370:0:0:0:0:
64,192,71061,1,0,0:0:0:0:
64,192,71370,128,0,71525:0:0:0:0:
64,192,71680,128,0,71989:0:0:0:0:
192,192,71680,1,0,0:0:0:0:
320,192,71989,128,0,72298:0:0:0:0:
192,192,72298,128,0,72607:0:0:0:0:
448,192,72298,1,0,0:0:0:0:
448,192,72607,128,0,72762:0:0:0:0:
64,192,72917,1,0,0:0:0:0:
192,192,72917,1,0,0:0:0:0:
320,192,73226,128,0,73381:0:0:0:0:
192,192,73381,128,0,73535:0:0:0:0:
448,192,73535,128,0,73844:0:0:0:0:
64,192,73535,1,0,0:0:0:0:
64,192,73844,128,0,73999:0:0:0:0:
64,192,74154,128,0,74463:0:0:0:0:
448,192,74154,1,0,0:0:0:0:
320,192,74463,128,0,74772:0:0:0:0:
192,192,74772,128,0,75391:0:0:0:0:
448,192,74772,128,0,75082:0:0:0:0:
64,192,75082,1,0,0:0:0:0:
320,192,75391,1,0,0:0:0:0:
448,192,75391,1,0,0:0:0:0:
192,192,75700,128,0,76009:0:0:0:0:
448,192,76009,1,0,0:0:0:0:
64,192,76009,1,0,0:0:0:0:
320,192,76628,128,0,76937:0:0:0:0:
192,192,76628,1,0,0:0:0:0:
64,192,76937,128,0,77247:0:0:0:0:
448,192,77247,1,0,0:0:0:0:
320,192,77247,1,0,0:0:0:0:
192,192,77556,128,0,77865:0:0:0:0:
320,192,77710,128,0,77865:0:0:0:0:
448,192,78174,128,0,78484:0:0:0:0:
192,192,78484,128,0,78793:0:0:0:0:
448,192,78793,128,0,79411:0:0:0:0:
192,192,79102,128,0,79411:0:0:0:0:
64,192,79102,1,0,0:0:0:0:
320,192,79411,128,0,79721:0:0:0:0:
64,192,79721,128,0,80339:0:0:0:0:
448,192,79721,128,0,80030:0:0:0:0:
192,192,80030,1,0,0:0:0:0:
320,192,80339,1,0,0:0:0:0:
448,192,80339,1,0,0:0:0:0:
64,192,80649,128,0,81267:0:0:0:0:
192,192,80958,1,0,0:0:0:0:
448,192,80958,1,0,0:0:0:0:
320,192,81267,128,0,81886:0:0:0:0:
64,192,81576,1,0,0:0:0:0:
192,192,81576,1,0,0:0:0:0:
448,192,81886,128,0,82195:0:0:0:0:
320,192,82195,1,0,0:0:0:0:
192,192,82195,1,0,0:0:0:0:
64,192,82504,128,0,82814:0:0:0:0:
192,192,82814,1,0,0:0:0:0:
448,192,82814,1,0,0:0:0:0:
64,192,82968,1,0,0:0:0:0:
320,192,83123,128,0,83741:0:0:0:0:
192,192,83432,1,0,0:0:0:0:
64,192,83432,1,0,0:0:0:0:
448,192,83741,128,0,84360:0:0:0:0:
64,192,83741,1,0,0:0:0:0:
192,192,84051,1,0,0:0:0:0:
320,192,84051,1,0,0:0:0:0:
64,192,84360,128,0,84669:0:0:0:0:
320,192,84669,1,0,0:0:0:0:
448,192,84669,1,0,0:0:0:0:
192,192,84978,128,0,85288:0:0:0:0:
448,192,85288,1,0,0:0:0:0:
64,192,85288,1,0,0:0:0:0:
320,192,85597,128,0,85906:0:0:0:0:
192,192,85906,1,0,0:0:0:0:
64,192,85906,1,0,0:0:0:0:
320,192,86216,128,0,86834:0:0:0:0:
192,192,86525,128,0,86834:0:0:0:0:
64,192,86525,1,0,0:0:0:0:
448,192,86834,128,0,87143:0:0:0:0:
64,192,87143,128,0,87762:0:0:0:0:
192,192,87143,128,0,87453:0:0:0:0:
320,192,87453,128,0,87607:0:0:0:0:
192,192,87762,128,0,88381:0:0:0:0:
320,192,87762,128,0,88071:0:0:0:0:
64,192,88071,128,0,88381:0:0:0:0:
320,192,88381,128,0,89308:0:0:0:0:
448,192,88381,128,0,88690:0:0:0:0:
192,192,88690,128,0,88844:0:0:0:0:
192,192,88999,128,0,89308:0:0:0:0:
64,192,88999,128,0,89308:0:0:0:0:
448,192,89308,128,0,89618:0:0:0:0:
64,192,89618,1,0,0:0:0:0:
320,192,89618,1,0,0:0:0:0:
192,192,89927,1,0,0:0:0:0:
320,192,90236,1,0,0:0:0:0:
448,192,90236,1,0,0:0:0:0:
192,192,90546,128,0,91164:0:0:0:0:
448,192,90855,1,0,0:0:0:0:
64,192,90855,1,0,0:0:0:0:
448,192,91164,128,0,91783:0:0:0:0:
192,192,91473,1,0,0:0:0:0:
320,192,91473,1,0,0:0:0:0:
64,192,91783,128,0,92092:0:0:0:0:
192,192,92092,1,0,0:0:0:0:
448,192,92092,1,0,0:0:0:0:
320,192,92401,128,0,92710:0:0:0:0:
192,192,92710,1,0,0:0:0:0:
64,192,92710,1,0,0:0:0:0:
320,192,93020,128,0,93638:0:0:0:0:
448,192,93329,1,0,0:0:0:0:
64,192,93329,1,0,0:0:0:0:
192,192,93484,1,0,0:0:0:0:
64,192,93638,128,0,94257:0:0:0:0:
448,192,93638,1,0,0:0:0:0:
192,192,93948,1,0,0:0:0:0:
320,192,93948,1,0,0:0:0:0:
448,192,94257,128,0,94566:0:0:0:0:
192,192,94566,1,0,0:0:0:0:
64,192,94566,1,0,0:0:0:0:
320,192,94875,128,0,95185:0:0:0:0:
448,192,95185,5,0,0:0:0:0:
192,192,95185,1,0,0:0:0:0:
64,192,95494,128,0,95803:0:0:0:0:
192,192,95803,1,0,0:0:0:0:
448,192,95803,1,0,0:0:0:0:
320,192,96113,128,0,96731:0:0:0:0:
192,192,96422,128,0,96731:0:0:0:0:
64,192,96422,1,0,0:0:0:0:
448,192,96731,128,0,97040:0:0:0:0:
64,192,97040,128,0,97659:0:0:0:0:
192,192,97040,128,0,97350:0:0:0:0:
448,192,97350,128,0,97659:0:0:0:0:
192,192,97659,128,0,97968:0:0:0:0:
320,192,97968,1,0,0:0:0:0:
192,192,98587,128,0,99205:0:0:0:0:
64,192,98896,128,0,99205:0:0:0:0:
448,192,98896,1,0,0:0:0:0:
320,192,99205,128,0,99360:0:0:0:0:
192,192,99360,128,0,99515:0:0:0:0:
64,192,99515,128,0,99669:0:0:0:0:
448,192,99515,128,0,100133:0:0:0:0:
320,192,99978,1,0,0:0:0:0:
192,192,100133,128,0,100288:0:0:0:0:
64,192,100133,1,0,0:0:0:0:
448,192,100442,128,0,101061:0:0:0:0:
192,192,100442,128,0,100752:0:0:0:0:
320,192,100752,128,0,101061:0:0:0:0:
64,192,100752,128,0,101370:0:0:0:0:
192,192,101061,128,0,101370:0:0:0:0:
320,192,101370,128,0,101525:0:0:0:0:
448,192,101370,128,0,101525:0:0:0:0:
320,192,101680,128,0,101989:0:0:0:0:
192,192,101989,128,0,102143:0:0:0:0:
64,192,101989,128,0,102298:0:0:0:0:
320,192,102453,1,0,0:0:0:0:
448,192,102607,128,0,102762:0:0:0:0:
192,192,102607,1,0,0:0:0:0:
448,192,102917,128,0,103226:0:0:0:0:
64,192,102917,128,0,103535:0:0:0:0:
320,192,103071,128,0,103226:0:0:0:0:
192,192,103226,128,0,103381:0:0:0:0:
192,192,103535,128,0,103844:0:0:0:0:
320,192,103844,128,0,103999:0:0:0:0:
64,192,103844,128,0,103999:0:0:0:0:
192,192,104154,128,0,104463:0:0:0:0:
64,192,104308,128,0,104463:0:0:0:0:
448,192,104463,128,0,104618:0:0:0:0:
320,192,104463,128,0,104927:0:0:0:0:
192,192,104618,128,0,104772:0:0:0:0:
64,192,104772,128,0,104927:0:0:0:0:
64,192,105082,1,0,0:0:0:0:
192,192,105082,128,0,105236:0:0:0:0:
448,192,105391,128,0,106009:0:0:0:0:
320,192,105700,128,0,106009:0:0:0:0:
64,192,105700,128,0,106319:0:0:0:0:
192,192,106009,128,0,106319:0:0:0:0:
320,192,106319,128,0,106473:0:0:0:0:
448,192,106319,128,0,106473:0:0:0:0:
192,192,106628,128,0,106783:0:0:0:0:
320,192,106783,128,0,106937:0:0:0:0:
64,192,106937,128,0,107247:0:0:0:0:
448,192,106937,128,0,107092:0:0:0:0:
320,192,107401,1,0,0:0:0:0:
192,192,107556,128,0,107710:0:0:0:0:
64,192,107556,1,0,0:0:0:0:
448,192,107865,128,0,108484:0:0:0:0:
320,192,108020,128,0,108174:0:0:0:0:
64,192,108174,128,0,108793:0:0:0:0:
192,192,108174,1,0,0:0:0:0:
320,192,108484,128,0,108793:0:0:0:0:
192,192,108793,128,0,108948:0:0:0:0:
448,192,108793,128,0,108948:0:0:0:0:
320,192,109102,128,0,109411:0:0:0:0:
448,192,109257,128,0,109411:0:0:0:0:
192,192,109411,128,0,109875:0:0:0:0:
64,192,109411,128,0,109566:0:0:0:0:
320,192,109566,128,0,109721:0:0:0:0:
448,192,109721,128,0,109875:0:0:0:0:
320,192,110030,128,0,110185:0:0:0:0:
448,192,110030,1,0,0:0:0:0:
64,192,110339,128,0,111267:0:0:0:0:
320,192,110339,128,0,110649:0:0:0:0:
192,192,110494,128,0,110649:0:0:0:0:
448,192,110649,1,0,0:0:0:0:
320,192,110958,128,0,111267:0:0:0:0:
448,192,111267,128,0,111422:0:0:0:0:
192,192,111267,128,0,111422:0:0:0:0:
192,192,111576,128,0,111886:0:0:0:0:
448,192,111576,128,0,111731:0:0:0:0:
64,192,111886,1,0,0:0:0:0:
448,192,111886,1,0,0:0:0:0:
192,192,112040,1,0,0:0:0:0:
320,192,112195,1,0,0:0:0:0:
64,192,112504,1,0,0:0:0:0:
192,192,112504,128,0,112659:0:0:0:0:
320,192,112814,128,0,113123:0:0:0:0:
448,192,112814,128,0,113741:0:0:0:0:
192,192,112968,128,0,113123:0:0:0:0:
64,192,113123,1,0,0:0:0:0:
64,192,113432,128,0,114051:0:0:0:0:
192,192,113741,128,0,113896:0:0:0:0:
320,192,113741,128,0,113896:0:0:0:0:
192,192,114051,128,0,114205:0:0:0:0:
320,192,114051,128,0,114360:0:0:0:0:
192,192,114360,1,0,0:0:0:0:
64,192,114360,1,0,0:0:0:0:
320,192,114669,1,0,0:0:0:0:
448,192,114978,1,0,0:0:0:0:
64,192,114978,1,0,0:0:0:0:
192,192,115288,128,0,115442:0:0:0:0:
320,192,115442,128,0,115597:0:0:0:0:
192,192,115597,128,0,116216:0:0:0:0:
64,192,115597,1,0,0:0:0:0:
320,192,115906,128,0,116216:0:0:0:0:
64,192,116216,1,0,0:0:0:0:
448,192,116216,1,0,0:0:0:0:
320,192,116525,128,0,116834:0:0:0:0:
64,192,116834,128,0,117453:0:0:0:0:
448,192,116834,128,0,117143:0:0:0:0:
192,192,117143,128,0,117453:0:0:0:0:
320,192,117453,128,0,117607:0:0:0:0:
448,192,117453,1,0,0:0:0:0:
320,192,117762,128,0,118071:0:0:0:0:
192,192,117917,128,0,118071:0:0:0:0:
64,192,118071,1,0,0:0:0:0:
448,192,118071,1,0,0:0:0:0:
192,192,118381,128,0,118690:0:0:0:0:
448,192,118690,128,0,119308:0:0:0:0:
64,192,118999,128,0,119308:0:0:0:0:
192,192,119308,1,0,0:0:0:0:
320,192,119308,1,0,0:0:0:0:
64,192,119618,128,0,119927:0:0:0:0:
320,192,119927,128,0,120391:0:0:0:0:
448,192,119927,128,0,120236:0:0:0:0:
64,192,120236,1,0,0:0:0:0:
192,192,120391,128,0,120546:0:0:0:0:
448,192,120546,1,0,0:0:0:0:
64,192,120546,1,0,0:0:0:0:
320,192,120700,1,0,0:0:0:0:
192,192,120855,1,0,0:0:0:0:
64,192,121009,1,0,0:0:0:0:
448,192,121164,1,0,0:0:0:0:
320,192,121164,128,0,121319:0:0:0:0:
64,192,121319,128,0,121473:0:0:0:0:
320,192,121473,128,0,121783:0:0:0:0:
64,192,121628,128,0,121783:0:0:0:0:
192,192,121783,1,0,0:0:0:0:
448,192,121783,1,0,0:0:0:0:
320,192,122092,128,0,122401:0:0:0:0:
192,192,122401,128,0,122710:0:0:0:0:
64,192,122401,128,0,122865:0:0:0:0:
448,192,122710,1,0,0:0:0:0:
320,192,122865,128,0,123020:0:0:0:0:
64,192,123020,1,0,0:0:0:0:
448,192,123020,1,0,0:0:0:0:
192,192,123174,1,0,0:0:0:0:
320,192,123329,1,0,0:0:0:0:
448,192,123484,1,0,0:0:0:0:
64,192,123638,128,0,123793:0:0:0:0:
192,192,123638,1,0,0:0:0:0:
320,192,123793,128,0,123948:0:0:0:0:
64,192,123948,128,0,124257:0:0:0:0:
320,192,124102,128,0,124257:0:0:0:0:
192,192,124257,1,0,0:0:0:0:
448,192,124257,1,0,0:0:0:0:
64,192,124566,128,0,124875:0:0:0:0:
320,192,124875,128,0,125339:0:0:0:0:
192,192,124875,128,0,125185:0:0:0:0:
64,192,125185,1,0,0:0:0:0:
448,192,125339,128,0,125494:0:0:0:0:
192,192,125494,1,0,0:0:0:0:
64,192,125494,1,0,0:0:0:0:
320,192,125649,1,0,0:0:0:0:
448,192,125803,1,0,0:0:0:0:
64,192,125958,1,0,0:0:0:0:
192,192,126113,128,0,126267:0:0:0:0:
448,192,126113,1,0,0:0:0:0:
320,192,126267,128,0,126422:0:0:0:0:
192,192,126422,128,0,126731:0:0:0:0:
320,192,126576,128,0,126731:0:0:0:0:
448,192,126731,1,0,0:0:0:0:
64,192,126731,1,0,0:0:0:0:
192,192,127968,1,0,0:0:0:0:
320,192,128123,1,0,0:0:0:0:
448,192,128587,1,0,0:0:0:0:
192,192,128587,128,0,129205:0:0:0:0:
320,192,128896,128,0,129205:0:0:0:0:
448,192,129205,128,0,129515:0:0:0:0:
64,192,129205,128,0,129515:0:0:0:0:
192,192,129515,1,0,0:0:0:0:
320,192,129669,1,0,0:0:0:0:
64,192,129824,1,0,0:0:0:0:
448,192,129824,1,0,0:0:0:0:
192,192,129978,1,0,0:0:0:0:
320,192,130133,1,0,0:0:0:0:
64,192,130288,1,0,0:0:0:0:
192,192,130442,1,0,0:0:0:0:
448,192,130442,1,0,0:0:0:0:
320,192,130597,1,0,0:0:0:0:
192,192,130752,1,0,0:0:0:0:
64,192,130906,1,0,0:0:0:0:
448,192,131061,128,0,131216:0:0:0:0:
320,192,131061,1,0,0:0:0:0:
192,192,131216,128,0,131370:0:0:0:0:
448,192,131370,128,0,131680:0:0:0:0:
192,192,131525,128,0,131680:0:0:0:0:
320,192,131680,1,0,0:0:0:0:
64,192,131680,1,0,0:0:0:0:
192,192,131886,1,0,0:0:0:0:
448,192,131989,1,0,0:0:0:0:
64,192,132143,1,0,0:0:0:0:
320,192,132298,1,0,0:0:0:0:
192,192,132298,1,0,0:0:0:0:
448,192,132453,1,0,0:0:0:0:
192,192,132607,1,0,0:0:0:0:
64,192,132762,1,0,0:0:0:0:
320,192,132917,1,0,0:0:0:0:
448,192,132917,1,0,0:0:0:0:
192,192,133071,1,0,0:0:0:0:
320,192,133226,1,0,0:0:0:0:
448,192,133381,1,0,0:0:0:0:
192,192,133535,128,0,133690:0:0:0:0:
64,192,133535,1,0,0:0:0:0:
448,192,133690,128,0,133844:0:0:0:0:
192,192,133844,128,0,134154:0:0:0:0:
448,192,133999,128,0,134154:0:0:0:0:
320,192,134154,1,0,0:0:0:0:
64,192,134154,1,0,0:0:0:0:
192,192,134463,128,0,134772:0:0:0:0:
448,192,134463,128,0,135082:0:0:0:0:
320,192,134772,128,0,135082:0:0:0:0:
64,192,134772,128,0,135391:0:0:0:0:
192,192,135082,128,0,135391:0:0:0:0:
320,192,135391,128,0,135700:0:0:0:0:
448,192,135391,128,0,136009:0:0:0:0:
64,192,135700,128,0,136009:0:0:0:0:
192,192,135855,128,0,136009:0:0:0:0:
320,192,136009,1,0,0:0:0:0:
448,192,136164,1,0,0:0:0:0:
192,192,136319,1,0,0:0:0:0:
320,192,136473,1,0,0:0:0:0:
448,192,136628,1,0,0:0:0:0:
64,192,136628,128,0,136937:0:0:0:0:
192,192,137865,1,0,0:0:0:0:
320,192,137865,1,0,0:0:0:0:
64,192,138484,1,0,0:0:0:0:
448,192,138484,1,0,0:0:0:0:
64,192,139102,128,0,141035:0:0:0:0:
320,192,139102,128,0,139450:0:0:0:0:
448,192,139450,128,0,140069:0:0:0:0:
192,192,139759,128,0,140069:0:0:0:0:
320,192,140069,128,0,141035:0:0:0:0:
448,192,140726,128,0,141035:0:0:0:0:
192,192,141035,128,0,141344:0:0:0:0:
448,192,141344,128,0,141615:0:0:0:0:
320,192,141615,128,0,142504:0:0:0:0:
192,192,141615,128,0,141886:0:0:0:0:
64,192,142195,128,0,142504:0:0:0:0:
192,192,142504,128,0,143432:0:0:0:0:
448,192,142504,128,0,142814:0:0:0:0:
320,192,143123,128,0,143432:0:0:0:0:
448,192,143432,128,0,144051:0:0:0:0:
64,192,143432,128,0,143741:0:0:0:0:
320,192,143741,128,0,144051:0:0:0:0:
64,192,144051,128,0,145906:0:0:0:0:
192,192,144051,128,0,144360:0:0:0:0:
320,192,144669,128,0,144978:0:0:0:0:
448,192,144978,128,0,145906:0:0:0:0:
192,192,145597,128,0,145906:0:0:0:0:
320,192,145906,128,0,146216:0:0:0:0:
192,192,146216,128,0,146525:0:0:0:0:
448,192,146525,128,0,147143:0:0:0:0:
64,192,146525,128,0,146834:0:0:0:0:
192,192,147143,128,0,147762:0:0:0:0:
320,192,147143,128,0,147453:0:0:0:0:
448,192,147453,128,0,147762:0:0:0:0:
320,192,147762,128,0,148381:0:0:0:0:
64,192,147762,128,0,148071:0:0:0:0:
192,192,148071,128,0,148381:0:0:0:0:
64,192,148381,128,0,148999:0:0:0:0:
448,192,148381,128,0,148690:0:0:0:0:
192,192,148690,128,0,149308:0:0:0:0:
320,192,148999,1,0,0:0:0:0:
448,192,148999,128,0,149618:0:0:0:0:
64,192,149308,1,0,0:0:0:0:
192,192,149618,1,0,0:0:0:0:
320,192,149618,1,0,0:0:0:0:
64,192,149927,128,0,150546:0:0:0:0:
448,192,150236,128,0,150855:0:0:0:0:
320,192,150236,128,0,150546:0:0:0:0:
192,192,150546,128,0,150855:0:0:0:0:
64,192,150855,128,0,151473:0:0:0:0:
320,192,150855,128,0,151164:0:0:0:0:
448,192,151164,1,0,0:0:0:0:
448,192,151473,128,0,152092:0:0:0:0:
320,192,151473,128,0,151783:0:0:0:0:
192,192,151783,1,0,0:0:0:0:
64,192,152092,1,0,0:0:0:0:
320,192,152092,1,0,0:0:0:0:
448,192,152401,128,0,153020:0:0:0:0:
64,192,152710,128,0,153329:0:0:0:0:
192,192,152710,128,0,153020:0:0:0:0:
320,192,153020,128,0,153329:0:0:0:0:
448,192,153329,128,0,153948:0:0:0:0:
192,192,153329,128,0,153638:0:0:0:0:
64,192,153638,1,0,0:0:0:0:
192,192,153948,128,0,154566:0:0:0:0:
320,192,153948,128,0,154257:0:0:0:0:
64,192,154257,1,0,0:0:0:0:
320,192,154566,1,0,0:0:0:0:
448,192,154566,1,0,0:0:0:0:
64,192,154875,1,0,0:0:0:0:
192,192,155185,1,0,0:0:0:0:
320,192,155185,1,0,0:0:0:0:
448,192,155494,1,0,0:0:0:0:
192,192,155803,1,0,0:0:0:0:
64,192,155803,1,0,0:0:0:0:
320,192,156113,128,0,156422:0:0:0:0:
64,192,156422,128,0,156731:0:0:0:0:
448,192,156422,128,0,157040:0:0:0:0:
192,192,156731,128,0,157040:0:0:0:0:
320,192,157040,128,0,157195:0:0:0:0:
64,192,157040,128,0,157195:0:0:0:0:
448,192,157350,128,0,157659:0:0:0:0:
320,192,157504,128,0,157659:0:0:0:0:
64,192,157659,1,0,0:0:0:0:
192,192,157659,1,0,0:0:0:0:
64,192,157968,128,0,158587:0:0:0:0:
448,192,158277,128,0,158587:0:0:0:0:
192,192,158587,128,0,158896:0:0:0:0:
320,192,158741,128,0,158896:0:0:0:0:
64,192,158896,128,0,159515:0:0:0:0:
448,192,158896,128,0,159205:0:0:0:0:
192,192,159360,1,0,0:0:0:0:
320,192,159515,128,0,159669:0:0:0:0:
448,192,159515,1,0,0:0:0:0:
64,192,159824,128,0,160442:0:0:0:0:
320,192,159824,128,0,160133:0:0:0:0:
192,192,160133,128,0,160442:0:0:0:0:
448,192,160133,128,0,160752:0:0:0:0:
320,192,160442,128,0,160752:0:0:0:0:
192,192,160752,128,0,160906:0:0:0:0:
64,192,160752,128,0,160906:0:0:0:0:
192,192,161061,128,0,161216:0:0:0:0:
320,192,161061,128,0,161216:0:0:0:0:
320,192,161370,128,0,161525:0:0:0:0:
448,192,161370,128,0,161680:0:0:0:0:
192,192,161834,1,0,0:0:0:0:
64,192,161989,128,0,162143:0:0:0:0:
320,192,161989,1,0,0:0:0:0:
64,192,162298,128,0,162607:0:0:0:0:
448,192,162298,128,0,162917:0:0:0:0:
192,192,162453,128,0,162607:0:0:0:0:
320,192,162607,128,0,162762:0:0:0:0:
320,192,162917,128,0,163226:0:0:0:0:
64,192,162917,128,0,163226:0:0:0:0:
192,192,163226,128,0,163381:0:0:0:0:
448,192,163226,128,0,163381:0:0:0:0:
320,192,163535,128,0,163690:0:0:0:0:
64,192,163535,128,0,163690:0:0:0:0:
448,192,163690,128,0,163844:0:0:0:0:
64,192,163844,128,0,163999:0:0:0:0:
192,192,163844,128,0,164308:0:0:0:0:
320,192,163999,128,0,164154:0:0:0:0:
448,192,164154,128,0,164308:0:0:0:0:
64,192,164308,1,0,0:0:0:0:
448,192,164463,1,0,0:0:0:0:
320,192,164463,128,0,164618:0:0:0:0:
320,192,164772,128,0,165082:0:0:0:0:
64,192,164772,128,0,165391:0:0:0:0:
192,192,165082,128,0,165391:0:0:0:0:
448,192,165082,128,0,165700:0:0:0:0:
320,192,165391,128,0,165700:0:0:0:0:
192,192,165700,128,0,165855:0:0:0:0:
64,192,165700,128,0,165855:0:0:0:0:
320,192,166009,128,0,166164:0:0:0:0:
448,192,166009,128,0,166164:0:0:0:0:
192,192,166164,128,0,166319:0:0:0:0:
448,192,166319,128,0,166628:0:0:0:0:
64,192,166319,128,0,166473:0:0:0:0:
192,192,166783,1,0,0:0:0:0:
320,192,166937,128,0,167092:0:0:0:0:
448,192,166937,1,0,0:0:0:0:
64,192,167247,128,0,167865:0:0:0:0:
320,192,167247,128,0,167556:0:0:0:0:
192,192,167401,128,0,167556:0:0:0:0:
448,192,167556,128,0,168174:0:0:0:0:
192,192,167865,128,0,168174:0:0:0:0:
320,192,168174,128,0,168329:0:0:0:0:
64,192,168174,128,0,168329:0:0:0:0:
64,192,168484,128,0,168638:0:0:0:0:
448,192,168484,128,0,168638:0:0:0:0:
192,192,168638,128,0,168793:0:0:0:0:
320,192,168793,128,0,169257:0:0:0:0:
448,192,168793,128,0,168948:0:0:0:0:
192,192,168948,128,0,169102:0:0:0:0:
64,192,169102,128,0,169257:0:0:0:0:
448,192,169257,1,0,0:0:0:0:
192,192,169411,128,0,169566:0:0:0:0:
64,192,169411,1,0,0:0:0:0:
192,192,169721,128,0,170030:0:0:0:0:
448,192,169721,128,0,170649:0:0:0:0:
320,192,169875,128,0,170030:0:0:0:0:
64,192,170030,1,0,0:0:0:0:
320,192,170339,128,0,170649:0:0:0:0:
192,192,170339,128,0,170958:0:0:0:0:
64,192,170649,128,0,170958:0:0:0:0:
320,192,170958,128,0,171267:0:0:0:0:
448,192,171267,1,0,0:0:0:0:
64,192,171267,1,0,0:0:0:0:
320,192,171422,1,0,0:0:0:0:
192,192,171576,1,0,0:0:0:0:
448,192,171886,1,0,0:0:0:0:
320,192,171886,128,0,172040:0:0:0:0:
192,192,172195,128,0,172504:0:0:0:0:
64,192,172195,128,0,173123:0:0:0:0:
320,192,172350,128,0,172504:0:0:0:0:
448,192,172504,1,0,0:0:0:0:
320,192,172814,128,0,173123:0:0:0:0:
448,192,172814,128,0,173432:0:0:0:0:
192,192,173123,128,0,173432:0:0:0:0:
64,192,173432,128,0,173741:0:0:0:0:
320,192,173741,1,0,0:0:0:0:
448,192,173741,1,0,0:0:0:0:
192,192,174051,1,0,0:0:0:0:
64,192,174360,1,0,0:0:0:0:
448,192,174360,1,0,0:0:0:0:
320,192,174669,128,0,174824:0:0:0:0:
192,192,174824,128,0,174978:0:0:0:0:
320,192,174978,128,0,175597:0:0:0:0:
448,192,174978,1,0,0:0:0:0:
192,192,175288,128,0,175597:0:0:0:0:
448,192,175597,1,0,0:0:0:0:
64,192,175597,1,0,0:0:0:0:
192,192,175906,128,0,176216:0:0:0:0:
448,192,176216,128,0,176834:0:0:0:0:
64,192,176216,128,0,176525:0:0:0:0:
320,192,176525,128,0,176834:0:0:0:0:
192,192,176834,128,0,176989:0:0:0:0:
64,192,176834,1,0,0:0:0:0:
192,192,177143,128,0,177453:0:0:0:0:
320,192,177298,128,0,177453:0:0:0:0:
448,192,177453,1,0,0:0:0:0:
64,192,177453,1,0,0:0:0:0:
320,192,177762,128,0,178071:0:0:0:0:
64,192,178071,128,0,178741:0:0:0:0:
448,192,178381,128,0,179205:0:0:0:0:
192,192,178741,128,0,180546:0:0:0:0:
320,192,179205,128,0,182401:0:0:0:0:
