osu file format v14

[General]
AudioFilename: audio.mp3
AudioLeadIn: 0
PreviewTime: 150851
Countdown: 0
SampleSet: Soft
StackLeniency: 0.7
Mode: 0
LetterboxInBreaks: 0
WidescreenStoryboard: 1

[Editor]
Bookmarks: 3251,16051,28851,38451,41651,48051,54451,60851,67251,70451,83251,92851,96051,108851,121651,128051,134451,147251,150451,153651,176051
DistanceSpacing: 1.5
BeatDivisor: 4
GridSize: 4
TimelineZoom: 3.199999

[Metadata]
Title:Loonatic
TitleUnicode:Loonatic
Artist:LOONA/Odd Eye Circle
ArtistUnicode:LOOΠΔ/Odd Eye Circle
Creator:Everything Dust
Version:Not Insane
Source:
Tags:LOONA Odd Eye Circle Kim Lip Kimlip Choerry Jin Soul Jinsoul LOOΠΔ
BeatmapID:2137014
BeatmapSetID:952411

[Difficulty]
HPDrainRate:4
CircleSize:3.5
OverallDifficulty:8
ApproachRate:8.7
SliderMultiplier:2.69999990463257
SliderTickRate:1

[Events]
//Background and Video events
0,0,"loonatic.png",0,0
//Break Periods
2,147451,150206
//Storyboard Layer 0 (Background)
//Storyboard Layer 1 (Fail)
//Storyboard Layer 2 (Pass)
//Storyboard Layer 3 (Foreground)
//Storyboard Layer 4 (Overlay)
//Storyboard Sound Samples

[TimingPoints]
51,400,4,2,1,60,1,0
51,-303.030303030303,4,2,1,60,0,0
251,-303.030303030303,4,2,1,5,0,0
451,-303.030303030303,4,2,1,60,0,0
651,-303.030303030303,4,2,1,5,0,0
851,-303.030303030303,4,2,1,60,0,0
1051,-303.030303030303,4,2,1,5,0,0
1251,-303.030303030303,4,2,1,60,0,0
1451,-303.030303030303,4,2,1,5,0,0
1651,-303.030303030303,4,2,1,60,0,0
1851,-303.030303030303,4,2,1,5,0,0
1951,-100,4,2,1,60,0,0
2451,-151.515151515152,4,2,1,60,0,0
2851,-100,4,2,1,60,0,0
9651,-303.030303030303,4,2,1,60,0,0
12451,-100,4,2,1,60,0,0
22451,-303.030303030303,4,2,1,60,0,0
25651,-100,4,2,1,60,0,0
30851,-100,4,2,1,60,0,0
31251,-100,4,2,1,60,0,0
31651,-100,4,2,1,60,0,0
34851,-80,4,2,1,60,0,0
35151,-100,4,2,1,5,0,0
35251,-303.030303030303,4,2,1,60,0,0
35451,-303.030303030303,4,2,1,5,0,0
35651,-303.030303030303,4,2,1,60,0,0
35851,-303.030303030303,4,2,1,5,0,0
36051,-303.030303030303,4,2,1,60,0,0
36251,-303.030303030303,4,2,1,5,0,0
36451,-303.030303030303,4,2,1,60,0,0
36651,-303.030303030303,4,2,1,60,0,0
36851,-303.030303030303,4,2,1,5,0,0
37051,-303.030303030303,4,2,1,60,0,0
37251,-303.030303030303,4,2,1,60,0,0
37451,-303.030303030303,4,2,1,5,0,0
37651,-303.030303030303,4,2,1,60,0,0
37851,-303.030303030303,4,2,1,5,0,0
38051,-303.030303030303,4,2,1,60,0,0
38251,-100,4,2,1,60,0,0
39851,-25,4,2,1,60,0,0
40251,-25,4,2,1,60,0,0
40351,-25,4,2,1,5,0,0
40451,-25,4,2,1,60,0,0
40551,-25,4,2,1,5,0,0
40651,-25,4,2,1,60,0,0
40751,-25,4,2,1,5,0,0
40851,-100,4,2,1,60,0,0
41251,-100,4,2,1,60,0,0
41651,-100,4,2,1,60,0,1
52651,-25,4,2,1,60,0,1
53151,-25,4,2,1,5,0,1
53251,-25,4,2,1,60,0,1
53351,-25,4,2,1,5,0,1
53451,-25,4,2,1,60,0,1
53551,-25,4,2,1,5,0,1
53651,-100,4,2,1,60,0,1
65451,-25,4,2,1,60,0,1
65851,-25,4,2,1,60,0,1
65951,-25,4,2,1,5,0,1
66051,-25,4,2,1,60,0,1
66151,-25,4,2,1,5,0,1
66251,-25,4,2,1,60,0,1
66351,-100,4,2,1,5,0,1
66451,-100,4,2,1,60,0,1
67251,-800,4,2,1,60,0,0
68851,-303.030303030303,4,2,1,60,0,0
69051,-303.030303030303,4,2,1,5,0,0
69151,-303.030303030303,4,2,1,60,0,0
69651,-151.515151515152,4,2,1,60,0,0
70051,-100,4,2,1,60,0,0
70451,-100,4,2,1,60,0,0
76851,-303.030303030303,4,2,1,60,0,0
80051,-100,4,2,1,60,0,0
89651,-40,4,2,1,60,0,0
89851,-40,4,2,1,5,0,0
90051,-33.3333333333333,4,2,1,60,0,0
90251,-40,4,2,1,5,0,0
90451,-40,4,2,1,60,0,0
90651,-40,4,2,1,5,0,0
90851,-40,4,2,1,60,0,0
91051,-40,4,2,1,60,0,0
91251,-40,4,2,1,5,0,0
91451,-40,4,2,1,60,0,0
91651,-100,4,2,1,60,0,0
91851,-303.030303030303,4,2,1,5,0,0
92051,-303.030303030303,4,2,1,60,0,0
92251,-303.030303030303,4,2,1,5,0,0
92451,-303.030303030303,4,2,1,60,0,0
92651,-100,4,2,1,60,0,0
94251,-25,4,2,1,60,0,0
94651,-25,4,2,1,60,0,0
94751,-25,4,2,1,5,0,0
94851,-25,4,2,1,60,0,0
94951,-25,4,2,1,5,0,0
95051,-25,4,2,1,60,0,0
95151,-25,4,2,1,5,0,0
95251,-100,4,2,1,60,0,0
95651,-100,4,2,1,60,0,0
96051,-100,4,2,1,60,0,1
107051,-25,4,2,1,60,0,1
107551,-25,4,2,1,5,0,1
107651,-25,4,2,1,60,0,1
107751,-25,4,2,1,5,0,1
107851,-25,4,2,1,60,0,1
107951,-25,4,2,1,5,0,1
108051,-100,4,2,1,60,0,1
119851,-25,4,2,1,60,0,1
120251,-25,4,2,1,60,0,1
120351,-25,4,2,1,5,0,1
120451,-25,4,2,1,60,0,1
120551,-25,4,2,1,5,0,1
120651,-25,4,2,1,60,0,1
120751,-100,4,2,1,5,0,1
120851,-100,4,2,1,60,0,1
121651,-200,4,2,1,60,0,0
123151,-200,4,2,1,5,0,0
123251,-200,4,2,1,60,0,0
123551,-200,4,2,1,5,0,0
123651,-200,4,2,1,60,0,0
123951,-200,4,2,1,5,0,0
124051,-200,4,2,1,60,0,0
124351,-200,4,2,1,5,0,0
124451,-200,4,2,1,60,0,0
126351,-200,4,2,1,5,0,0
126451,-200,4,2,1,60,0,0
126751,-200,4,2,1,5,0,0
126851,-200,4,2,1,60,0,0
127151,-200,4,2,1,5,0,0
127251,-200,4,2,1,60,0,0
128051,-303.030303030303,4,2,1,60,0,0
128851,-200,4,2,1,60,0,0
129151,-200,4,2,1,5,0,0
129251,-200,4,2,1,60,0,0
129451,-303.030303030303,4,2,1,60,0,0
131051,-200,4,2,1,5,0,0
131251,-303.030303030303,4,2,1,60,0,0
132051,-200,4,2,1,60,0,0
132351,-200,4,2,1,5,0,0
132451,-303.030303030303,4,2,1,60,0,0
134051,-200,4,2,1,60,0,0
134651,-133.333333333333,4,2,1,60,0,0
138851,-153.846153846154,4,2,1,60,0,0
139051,-153.846153846154,4,2,1,60,0,0
139251,-117.647058823529,4,2,1,60,0,0
139851,-95.2380952380952,4,2,1,60,0,0
140651,-133.333333333333,4,2,1,60,0,0
140851,-133.333333333333,4,2,1,60,0,0
142251,-200,4,2,1,60,0,0
142851,-133.333333333333,4,2,1,60,0,0
145451,-25,4,2,1,60,0,0
145851,-25,4,2,1,60,0,0
145951,-25,4,2,1,5,0,0
146051,-25,4,2,1,60,0,0
146151,-25,4,2,1,5,0,0
146251,-25,4,2,1,60,0,0
146351,-25,4,2,1,5,0,0
146451,-100,4,2,1,60,0,0
150451,-303.030303030303,4,2,1,60,0,0
150651,-303.030303030303,4,2,1,5,0,0
150851,-100,4,2,1,60,0,0
151151,-100,4,2,1,5,0,0
151251,-100,4,2,1,60,0,0
151551,-100,4,2,1,5,0,0
151651,-100,4,2,1,60,0,0
151851,-133.333333333333,4,2,1,60,0,0
152251,-133.333333333333,4,2,1,5,0,0
152451,-100,4,2,1,60,0,0
152751,-100,4,2,1,5,0,0
152851,-100,4,2,1,60,0,0
153651,-100,4,2,1,60,0,1
155351,-100,4,2,1,5,0,1
155451,-100,4,2,1,60,0,1
155551,-100,4,2,1,5,0,1
155651,-100,4,2,1,60,0,1
157551,-100,4,2,1,5,0,1
157651,-100,4,2,1,60,0,1
157951,-100,4,2,1,5,0,1
158051,-100,4,2,1,60,0,1
158551,-100,4,2,1,5,0,1
158651,-100,4,2,1,60,0,1
159151,-100,4,2,1,5,0,1
159251,-100,4,2,1,60,0,1
159751,-100,4,2,1,5,0,1
159851,-100,4,2,1,60,0,1
161451,-25,4,2,1,60,0,1
161951,-25,4,2,1,5,0,1
162051,-25,4,2,1,60,0,1
162151,-25,4,2,1,5,0,1
162251,-25,4,2,1,60,0,1
162351,-25,4,2,1,5,0,1
162451,-100,4,2,1,60,0,1
163251,-303.030303030303,4,2,1,60,0,1
163651,-66.6666666666667,4,2,1,60,0,1
164251,-100,4,2,1,60,0,1
166851,-80,4,2,1,60,0,1
167451,-100,4,2,1,60,0,1
172851,-25,4,2,1,60,0,1
173451,-25,4,2,1,60,0,1
174251,-25,4,2,1,60,0,1
174751,-25,4,2,1,5,0,1
174851,-25,4,2,1,60,0,1
174951,-25,4,2,1,5,0,1
175051,-25,4,2,1,60,0,1
175151,-25,4,2,1,5,0,1
175251,-100,4,2,1,60,0,1
175651,-25,4,2,1,60,0,1
176051,-100,4,2,1,60,0,0

[Colours]
Combo1 : 236,0,0
Combo2 : 87,85,231
Combo3 : 178,72,234

[HitObjects]
96,256,51,6,0,L|110:210,1,44.5499982904816
416,256,451,2,0,L|402:210,1,44.5499982904816
156,332,851,6,0,L|143:286,1,44.5499982904816
425,158,1251,2,0,L|388:127,1,44.5499982904816
88,152,1651,6,0,L|126:123,1,44.5499982904816
357,260,1951,1,0,0:0:0:0:
357,260,2051,1,0,0:0:0:0:
230,300,2251,1,0,0:0:0:0:
205,93,2451,6,0,L|184:132,3,44.5499982904816
240,150,2851,5,0,0:0:0:0:
274,152,2951,1,0,0:0:0:0:
306,144,3051,1,0,0:0:0:0:
335,127,3151,1,0,0:0:0:0:
358,103,3251,1,0,0:0:0:0:
271,58,3451,5,0,0:0:0:0:
168,108,3651,1,0,0:0:0:0:
54,79,3851,1,0,0:0:0:0:
136,9,4051,1,0,0:0:0:0:
47,162,4251,1,0,0:0:0:0:
217,147,4451,6,0,P|165:163|109:280,1,134.999995231628
55,377,4851,2,0,P|88:334|67:206,1,134.999995231628
33,105,5251,2,0,P|30:159|121:251,1,134.999995231628
157,300,5651,1,0,0:0:0:0:
250,246,5851,5,0,0:0:0:0:
346,297,6051,1,0,0:0:0:0:
466,210,6251,1,0,0:0:0:0:
487,354,6451,1,0,0:0:0:0:
377,367,6651,5,0,0:0:0:0:
451,278,6851,1,0,0:0:0:0:
277,318,7051,1,0,0:0:0:0:
490,210,7251,1,0,0:0:0:0:
206,279,7451,1,0,0:0:0:0:
512,130,7651,2,0,P|496:78|379:22,1,134.999995231628
133,319,8051,6,0,P|95:279|105:149,1,134.999995231628
425,110,8451,2,0,P|432:163|350:264,1,134.999995231628
0,197,8851,2,0,P|24:148|149:113,1,134.999995231628
135,220,9151,5,0,0:0:0:0:
135,220,9251,2,0,L|92:77,1,134.999995231628
169,57,9651,6,0,L|185:111,1,44.5499982904816
99,357,10051,2,0,L|116:303,1,44.5499982904816
435,182,10451,2,0,L|389:148,1,44.5499982904816
171,199,10851,5,0,0:0:0:0:
438,278,11051,2,0,L|444:222,1,44.5499982904816
355,305,11451,5,0,0:0:0:0:
434,38,11651,2,0,L|378:31,1,44.5499982904816
223,360,12051,2,0,L|212:308,1,44.5499982904816
157,79,12451,1,0,0:0:0:0:
157,79,12651,5,0,0:0:0:0:
170,247,12851,2,0,P|197:146|164:80,1,134.999995231628
137,25,13251,1,0,0:0:0:0:
137,25,13451,5,0,0:0:0:0:
136,338,13651,2,0,P|229:293|259:227,1,134.999995231628
484,46,14051,2,0,P|379:45|323:94,1,134.999995231628
92,224,14451,5,0,0:0:0:0:
183,60,14651,1,0,0:0:0:0:
326,232,14851,5,0,0:0:0:0:
195,304,15051,1,0,0:0:0:0:
253,358,15251,5,0,0:0:0:0:
241,311,15351,1,0,0:0:0:0:
241,263,15451,1,0,0:0:0:0:
252,216,15551,1,0,0:0:0:0:
269,171,15651,1,0,0:0:0:0:
280,124,15751,1,0,0:0:0:0:
276,76,15851,1,0,0:0:0:0:
261,30,15951,1,0,0:0:0:0:
178,96,16051,5,0,0:0:0:0:
308,23,16251,1,0,0:0:0:0:
324,265,16451,5,0,0:0:0:0:
414,101,16651,1,0,0:0:0:0:
97,135,16851,2,0,P|132:36|196:7,1,134.999995231628
166,180,17251,2,0,L|185:355,1,134.999995231628
143,379,17651,2,0,L|124:204,1,134.999995231628
104,134,18051,2,0,P|139:233|203:262,1,134.999995231628
418,160,18451,1,0,0:0:0:0:
216,118,18651,5,0,0:0:0:0:
335,312,18851,1,0,0:0:0:0:
418,160,19051,1,0,0:0:0:0:
241,186,19251,1,0,0:0:0:0:
335,312,19451,5,0,0:0:0:0:
257,384,19651,2,0,P|248:293|299:213,1,134.999995231628
512,279,20051,2,0,P|454:208|361:187,1,134.999995231628
262,384,20451,2,0,P|308:305|296:211,1,134.999995231628
1,3,20851,2,0,P|7:94|72:164,1,134.999995231628
285,206,21251,1,0,0:0:0:0:
153,310,21451,5,0,0:0:0:0:
195,331,21551,1,0,0:0:0:0:
238,314,21651,2,0,P|214:265|89:230,1,134.999995231628
103,337,21951,5,0,0:0:0:0:
103,337,22051,2,0,L|146:194,1,134.999995231628
81,150,22451,6,0,L|63:212,1,44.5499982904816
343,374,22851,2,0,L|371:321,1,44.5499982904816
380,11,23251,2,0,L|352:64,1,44.5499982904816
445,76,23651,5,0,0:0:0:0:
175,141,23851,2,0,L|197:193,1,44.5499982904816
233,76,24251,5,0,0:0:0:0:
298,347,24451,2,0,L|350:325,1,44.5499982904816
405,304,24851,5,0,0:0:0:0:
512,96,25051,1,0,0:0:0:0:
297,247,25251,5,0,0:0:0:0:
190,39,25451,1,0,0:0:0:0:
295,323,25651,5,0,0:0:0:0:
430,220,25851,1,0,0:0:0:0:
31,134,26051,6,0,P|54:70|105:22,1,134.999995231628
274,336,26451,2,0,P|210:313|162:262,1,134.999995231628
473,97,26851,2,0,P|450:161|399:209,1,134.999995231628
245,143,27251,5,0,0:0:0:0:
294,9,27451,1,0,0:0:0:0:
308,215,27651,5,0,0:0:0:0:
444,100,27851,1,0,0:0:0:0:
464,272,28051,5,0,0:0:0:0:
411,313,28151,1,0,0:0:0:0:
348,337,28251,1,0,0:0:0:0:
281,340,28351,1,0,0:0:0:0:
201,370,28451,5,0,0:0:0:0:
184,305,28551,1,0,0:0:0:0:
214,246,28651,1,0,0:0:0:0:
95,320,28851,6,0,L|90:120,1,134.999995231628
59,299,29251,1,0,0:0:0:0:
184,207,29451,1,0,0:0:0:0:
309,114,29651,2,0,L|245:303,1,134.999995231628
269,123,30051,1,0,0:0:0:0:
95,320,30251,5,0,0:0:0:0:
477,258,30451,2,0,P|462:170|401:117,1,134.999995231628
257,354,30851,2,0,P|241:295|287:188,1,134.999995231628
255,30,31251,2,0,P|271:89|225:196,1,134.999995231628
11,279,31651,2,0,P|32:220|130:160,1,134.999995231628
417,64,32051,6,0,L|422:264,1,134.999995231628
453,85,32451,1,0,0:0:0:0:
328,177,32651,1,0,0:0:0:0:
203,270,32851,2,0,L|267:81,1,134.999995231628
244,261,33251,1,0,0:0:0:0:
417,64,33451,5,0,0:0:0:0:
34,126,33651,2,0,P|39:192|77:246,1,134.999995231628
477,258,34051,2,0,P|462:170|401:117,1,134.999995231628
238,383,34451,2,0,P|289:311|283:230,1,134.999995231628
81,1,34851,2,0,P|95:89|247:150,1,253.124991059303
315,17,35251,6,0,L|293:65,1,44.5499982904816
55,254,35651,2,0,L|36:213,1,44.5499982904816
367,345,36051,2,0,L|389:297,1,44.5499982904816
278,359,36451,5,0,0:0:0:0:
357,92,36651,2,0,L|301:86,1,44.5499982904816
229,144,37051,5,0,0:0:0:0:
496,223,37251,2,0,L|503:167,1,44.5499982904816
210,367,37651,2,0,L|203:311,1,44.5499982904816
162,56,38051,5,0,0:0:0:0:
210,367,38251,1,0,0:0:0:0:
210,367,39251,5,0,0:0:0:0:
162,56,39451,1,0,0:0:0:0:
185,212,39651,1,0,0:0:0:0:
320,344,39851,6,0,B|320:312|320:312|320:336|320:336|320:304|320:304|320:328|320:328|320:288|320:288|320:320|320:320|320:264|320:264|320:312|320:312|320:232|320:232|320:304|320:304|320:200|320:200|320:296|320:296,1,539.999980926514
245,273,40251,6,0,B|253:259|253:259|247:270|247:270|255:256|255:256|249:266|249:266|259:249|259:249|251:263|251:263|265:239|265:239|253:259|253:259|273:225|273:225|255:256|255:256|281:211|281:211|257:253|257:253,1,269.999990463257
180,224,40451,6,0,B|195:224|195:224|184:224|184:224|199:224|199:224|188:224|188:224|208:224|208:224|192:224|192:224|220:224|220:224|195:224|195:224|235:224|235:224|199:224|199:224|252:224|252:224|203:224|203:224,1,269.999990463257
224,116,40651,6,0,B|223:132|223:132|223:120|223:120|224:135|224:135|224:124|224:124|224:145|224:145|224:128|224:128|224:156|224:156|223:132|223:132|224:171|224:171|224:135|224:135|224:188|224:188|224:139|224:139,1,269.999990463257
37,379,40851,2,0,P|33:323|79:253,1,134.999995231628
475,5,41251,2,0,P|479:61|433:131,1,134.999995231628
225,153,41651,5,0,0:0:0:0:
136,88,41851,1,0,0:0:0:0:
480,128,42051,2,0,L|366:241,1,134.999995231628
32,256,42451,2,0,L|145:142,1,134.999995231628
37,58,42851,5,0,0:0:0:0:
133,153,43051,1,0,0:0:0:0:
228,248,43251,1,0,0:0:0:0:
324,344,43451,1,0,0:0:0:0:
298,350,43651,6,0,L|190:234,1,134.999995231628
396,46,44051,2,0,L|288:162,1,134.999995231628
425,303,44451,5,0,0:0:0:0:
443,194,44651,1,0,0:0:0:0:
185,265,44851,5,0,0:0:0:0:
115,181,45051,1,0,0:0:0:0:
354,109,45251,5,0,0:0:0:0:
284,24,45451,1,0,0:0:0:0:
261,357,45651,5,0,0:0:0:0:
331,272,45851,1,0,0:0:0:0:
42,206,46051,1,0,0:0:0:0:
118,20,46251,6,0,L|95:249,1,202.499992847443
88,307,46651,1,0,0:0:0:0:
257,319,46851,2,0,L|123:341,1,134.999995231628
367,258,47251,5,0,0:0:0:0:
325,205,47351,1,0,0:0:0:0:
266,175,47451,1,0,0:0:0:0:
199,173,47551,1,0,0:0:0:0:
201,268,47651,2,0,L|262:99,1,134.999995231628
0,325,48051,5,0,0:0:0:0:
94,256,48251,1,0,0:0:0:0:
456,348,48451,2,0,L|386:181,1,134.999995231628
93,113,48851,1,0,0:0:0:0:
41,238,49051,1,0,0:0:0:0:
361,126,49251,1,0,0:0:0:0:
361,126,49451,6,0,L|268:224,1,134.999995231628
150,349,49851,1,0,0:0:0:0:
68,76,50051,6,0,L|161:174,1,134.999995231628
355,356,50451,1,0,0:0:0:0:
1,348,50651,2,0,L|127:213,1,134.999995231628
210,124,51051,1,0,0:0:0:0:
18,136,51251,5,0,0:0:0:0:
0,27,51451,1,0,0:0:0:0:
220,137,51651,5,0,0:0:0:0:
290,51,51851,1,0,0:0:0:0:
195,327,52051,5,0,0:0:0:0:
111,256,52251,1,0,0:0:0:0:
434,190,52451,1,0,0:0:0:0:
374,161,52651,6,0,B|349:252|374:160|374:160|347:260|347:260|365:191|365:191|345:268|345:268|357:221|357:221|342:276|342:276|351:245|351:245|340:283|340:283|347:260|347:260|338:291|338:291|345:268|345:268|336:299,1,539.999980926514
245,273,53051,6,0,B|253:259|253:259|247:270|247:270|255:256|255:256|249:266|249:266|259:249|259:249|251:263|251:263|265:239|265:239|253:259|253:259|273:225|273:225|255:256|255:256|281:211|281:211|257:253|257:253,1,269.999990463257
180,224,53251,6,0,B|195:224|195:224|184:224|184:224|199:224|199:224|188:224|188:224|208:224|208:224|192:224|192:224|220:223|220:223|195:224|195:224|235:224|235:224|199:224|199:224|252:224|252:224|203:223|203:223,1,269.999990463257
224,116,53451,6,0,B|223:132|223:132|223:120|223:120|224:135|224:135|224:124|224:124|223:144|223:144|224:128|224:128|224:156|224:156|223:132|223:132|224:171|224:171|224:135|224:135|224:188|224:188|224:139|224:139,1,269.999990463257
85,320,53651,5,0,0:0:0:0:
148,307,53751,1,0,0:0:0:0:
213,326,53851,1,0,0:0:0:0:
279,329,53951,1,0,0:0:0:0:
289,221,54051,5,0,0:0:0:0:
226,233,54151,1,0,0:0:0:0:
161,215,54251,1,0,0:0:0:0:
94,212,54351,1,0,0:0:0:0:
19,303,54451,2,0,L|47:171,1,134.999995231628
46,34,54851,6,0,L|81:222,1,134.999995231628
104,341,55251,1,0,0:0:0:0:
370,314,55451,6,0,L|189:250,1,134.999995231628
436,154,55851,2,0,L|481:27,1,134.999995231628
481,27,56251,5,0,0:0:0:0:
452,321,56451,1,0,0:0:0:0:
468,174,56651,5,0,0:0:0:0:
319,52,56851,1,0,0:0:0:0:
270,251,57051,1,0,0:0:0:0:
468,174,57251,1,0,0:0:0:0:
142,300,57451,1,0,0:0:0:0:
501,324,57651,6,0,L|341:311,1,134.999995231628
12,132,58051,2,0,L|172:119,1,134.999995231628
157,90,58451,5,0,0:0:0:0:
192,352,58651,2,0,L|173:213,1,134.999995231628
157,90,59051,5,0,0:0:0:0:
512,215,59251,2,0,P|466:117|423:95,1,134.999995231628
3,314,59651,2,0,P|101:268|123:225,1,134.999995231628
321,30,60051,1,0,0:0:0:0:
289,69,60151,1,0,0:0:0:0:
279,117,60251,1,0,0:0:0:0:
292,166,60351,1,0,0:0:0:0:
359,139,60451,6,0,L|246:280,1,134.999995231628
53,278,60851,2,0,L|237:270,1,134.999995231628
431,237,61251,6,0,L|304:332,1,134.999995231628
478,297,61651,2,0,L|382:171,1,134.999995231628
192,45,62051,1,0,0:0:0:0:
257,139,62251,6,0,L|280:6,1,134.999995231628
326,154,62651,2,0,L|134:122,1,134.999995231628
69,301,63051,1,0,0:0:0:0:
350,226,63251,1,0,0:0:0:0:
280,325,63451,5,0,0:0:0:0:
19,8,63651,2,0,L|32:160,1,134.999995231628
67,331,64051,5,0,0:0:0:0:
105,228,64251,1,0,0:0:0:0:
386,210,64451,5,0,0:0:0:0:
345,123,64651,1,0,0:0:0:0:
201,212,64851,5,0,0:0:0:0:
105,158,65051,1,0,0:0:0:0:
377,40,65251,1,0,0:0:0:0:
324,250,65451,6,0,B|332:219|332:219|326:242|326:242|334:211|334:211|328:234|328:234|338:195|338:195|330:226|330:226|344:172|344:172|332:219|332:219|352:143|352:143|334:211|334:211|361:110|361:110|336:203|336:203,1,539.999980926514
281,203,65851,6,0,B|267:195|267:195|278:201|278:201|264:193|264:193|274:199|274:199|257:189|257:189|271:197|271:197|247:183|247:183|267:195|267:195|233:175|233:175|264:193|264:193|219:167|219:167|261:191|261:191,1,269.999990463257
232,268,66051,6,0,B|232:253|232:253|232:264|232:264|232:249|232:249|232:260|232:260|232:240|232:240|232:256|232:256|232:228|232:228|232:253|232:253|232:213|232:213|232:249|232:249|232:196|232:196|232:244|232:244,1,269.999990463257
124,224,66251,6,0,B|139:225|139:225|128:225|128:225|143:224|143:224|132:224|132:224|152:225|152:225|135:224|135:224|164:224|164:224|139:225|139:225|179:224|179:224|143:224|143:224|196:224|196:224|147:224|147:224,1,269.999990463257
281,203,66451,5,0,0:0:0:0:
294,268,66551,1,0,0:0:0:0:
275,331,66651,1,0,0:0:0:0:
229,380,66751,1,0,0:0:0:0:
141,351,66851,2,0,L|274:330,1,134.999995231628
416,368,67251,6,0,L|405:331,3,33.7499988079071
96,368,68851,6,0,L|109:323,1,44.5499982904816
367,384,69151,1,0,0:0:0:0:
367,384,69251,1,0,0:0:0:0:
453,263,69451,1,0,0:0:0:0:
260,384,69651,5,0,0:0:0:0:
225,376,69751,1,0,0:0:0:0:
197,361,69851,1,0,0:0:0:0:
172,336,69951,1,0,0:0:0:0:
136,384,70051,5,0,0:0:0:0:
117,355,70151,1,0,0:0:0:0:
108,324,70251,1,0,0:0:0:0:
108,290,70351,1,0,0:0:0:0:
117,258,70451,1,0,0:0:0:0:
191,331,70651,5,0,0:0:0:0:
71,368,70851,1,0,0:0:0:0:
0,264,71051,1,0,0:0:0:0:
233,181,71251,2,0,P|245:234|171:341,1,134.999995231628
1,382,71651,2,0,P|21:331|143:286,1,134.999995231628
239,333,72051,5,0,0:0:0:0:
512,250,72251,1,0,0:0:0:0:
491,376,72451,5,0,0:0:0:0:
260,205,72651,1,0,0:0:0:0:
96,319,72851,5,0,0:0:0:0:
325,148,73051,1,0,0:0:0:0:
348,274,73251,5,0,0:0:0:0:
73,192,73451,1,0,0:0:0:0:
149,358,73651,5,0,0:0:0:0:
149,358,73851,1,0,0:0:0:0:
17,70,74051,2,0,L|96:242,1,134.999995231628
201,266,74451,2,0,L|122:94,1,134.999995231628
179,1,74851,2,0,L|258:173,1,134.999995231628
509,0,75251,6,0,P|460:24|425:149,1,134.999995231628
331,384,75651,2,0,P|334:329|243:236,1,134.999995231628
7,145,76051,2,0,P|52:175|178:143,1,134.999995231628
112,57,76351,5,0,0:0:0:0:
112,57,76451,2,0,L|146:202,1,134.999995231628
190,374,76851,6,0,L|183:330,1,44.5499982904816
432,210,77251,2,0,L|395:183,1,44.5499982904816
0,221,77651,2,0,L|7:177,1,44.5499982904816
282,237,78051,5,0,0:0:0:0:
54,31,78251,2,0,L|90:5,1,44.5499982904816
178,0,78651,5,0,0:0:0:0:
194,306,78851,2,0,L|150:299,1,44.5499982904816
0,92,79251,5,0,0:0:0:0:
65,316,79451,1,0,0:0:0:0:
254,282,79651,5,0,0:0:0:0:
33,205,79851,1,0,0:0:0:0:
218,363,80051,5,0,0:0:0:0:
374,220,80251,1,0,0:0:0:0:
470,329,80451,6,0,P|499:268|502:202,1,134.999995231628
218,363,80851,2,0,P|150:369|86:349,1,134.999995231628
259,17,81251,2,0,P|305:66|327:130,1,134.999995231628
218,375,81651,5,0,0:0:0:0:
267,241,81851,1,0,0:0:0:0:
68,284,82051,5,0,0:0:0:0:
204,169,82251,1,0,0:0:0:0:
48,112,82451,5,0,0:0:0:0:
101,71,82551,1,0,0:0:0:0:
164,47,82651,1,0,0:0:0:0:
232,52,82751,1,0,0:0:0:0:
216,129,82851,5,0,0:0:0:0:
167,84,82951,1,0,0:0:0:0:
171,17,83051,1,0,0:0:0:0:
400,21,83251,6,0,L|360:213,1,134.999995231628
342,298,83651,1,0,0:0:0:0:
243,339,83851,5,0,0:0:0:0:
389,369,84051,2,0,L|429:177,1,134.999995231628
447,92,84451,1,0,0:0:0:0:
301,62,84651,5,0,0:0:0:0:
499,290,84851,2,0,P|509:229|459:142,1,134.999995231628
135,68,85251,2,0,P|161:123|252:166,1,134.999995231628
419,9,85651,6,0,L|413:144,1,134.999995231628
92,374,86051,2,0,L|85:239,1,134.999995231628
283,221,86451,6,0,P|217:226|163:264,1,134.999995231628
343,328,86851,1,0,0:0:0:0:
416,222,87051,1,0,0:0:0:0:
122,353,87251,6,0,P|78:302|67:237,1,134.999995231628
170,120,87651,1,0,0:0:0:0:
51,69,87851,1,0,0:0:0:0:
276,40,88051,6,0,P|205:44|117:146,1,202.499992847443
328,309,88451,2,0,P|324:238|222:149,1,202.499992847443
108,347,88851,6,0,P|28:287|12:190,1,202.499992847443
164,27,89251,2,0,P|194:120|152:210,1,202.499992847443
12,191,89651,6,0,B|-12:55|-12:55|22:36|117:39|101:107|28:146|2:125|24:77,1,337.499988079071
210,171,90051,6,0,B|203:112|155:91|155:91|162:28|162:28|260:33|242:110|155:92|155:92|143:163,1,405.000001144409
138,346,90451,6,0,B|85:361|85:361|67:295|67:295|109:281|109:281|67:296|67:296|46:228|46:228|118:207,1,337.499988079071
163,30,90851,6,0,B|269:57|269:57|215:43|215:43|186:137|186:137|236:147|236:147|243:121|243:121|288:132|288:132|243:121|243:121|227:176|227:176|266:185|266:185|227:176|227:176|214:237|214:237|279:249|279:249,1,674.999976158142
364,363,91451,6,0,B|335:269|335:269|436:332|436:332|404:222|404:222|404:221|404:221|463:338|463:338|581:283|521:185|429:212|411:220,1,674.999976158142
169,262,92051,2,0,L|203:291,1,44.5499982904816
494,102,92451,5,0,0:0:0:0:
169,262,92651,1,0,0:0:0:0:
87,314,93651,5,0,0:0:0:0:
398,362,93851,1,0,0:0:0:0:
243,337,94051,1,0,0:0:0:0:
125,358,94251,6,0,B|42:310|125:358|125:358|35:306|35:306|97:342|97:342|28:302|28:302|70:326|70:326|21:298|21:298|49:314|49:314|14:294|14:294|35:306|35:306|7:290|7:290|28:302|28:302|0:286,1,539.999980926514
197,275,94651,6,0,B|181:275|181:275|193:275|193:275|177:275|177:275|189:275|189:275|169:275|169:275|185:275|185:275|157:275|157:275|181:275|181:275|141:275|141:275|177:275|177:275|125:275|125:275|173:275|173:275,1,269.999990463257
229,147,94851,6,0,B|196:179|230:145|230:145|193:182|193:182|219:156|219:156|190:185|190:185|207:168|207:168|187:188|187:188|199:176|199:176|185:190|185:190|193:182|193:182|182:193|182:193|190:185|190:185|179:196,1,269.999990463257
176,37,95051,6,0,B|176:82|176:34|176:34|176:86|176:86|176:50|176:50|176:90|176:90|176:66|176:66|176:94|176:94|176:78|176:78|176:98|176:98|176:86|176:86|176:102|176:102|176:90|176:90|176:106,1,269.999990463257
284,225,95251,5,0,0:0:0:0:
312,163,95351,1,0,0:0:0:0:
297,98,95451,1,0,0:0:0:0:
331,39,95551,1,0,0:0:0:0:
236,41,95651,5,0,0:0:0:0:
241,107,95751,1,0,0:0:0:0:
286,157,95851,1,0,0:0:0:0:
287,224,95951,5,0,0:0:0:0:
175,229,96051,2,0,P|191:177|308:121,1,134.999995231628
467,32,96451,6,0,L|439:191,1,134.999995231628
207,339,96851,2,0,L|235:180,1,134.999995231628
295,236,97251,5,0,0:0:0:0:
382,134,97451,1,0,0:0:0:0:
467,32,97651,1,0,0:0:0:0:
208,340,97851,1,0,0:0:0:0:
453,346,98051,6,0,P|456:292|368:196,1,134.999995231628
0,215,98451,2,0,P|39:253|167:245,1,134.999995231628
444,194,98851,5,0,0:0:0:0:
372,105,99051,1,0,0:0:0:0:
198,206,99251,5,0,0:0:0:0:
90,168,99451,1,0,0:0:0:0:
308,295,99651,5,0,0:0:0:0:
381,206,99851,1,0,0:0:0:0:
58,245,100051,5,0,0:0:0:0:
0,146,100251,1,0,0:0:0:0:
119,346,100451,1,0,0:0:0:0:
0,0,100651,6,0,L|117:192,1,202.499992847443
232,348,101051,5,0,0:0:0:0:
105,172,101251,2,0,L|249:84,1,134.999995231628
424,35,101651,5,0,0:0:0:0:
432,103,101751,1,0,0:0:0:0:
412,166,101851,1,0,0:0:0:0:
366,214,101951,1,0,0:0:0:0:
259,228,102051,2,0,L|396:112,1,134.999995231628
409,375,102451,5,0,0:0:0:0:
492,282,102651,1,0,0:0:0:0:
218,311,102851,2,0,L|85:329,1,134.999995231628
288,234,103251,2,0,L|421:216,1,134.999995231628
209,183,103651,1,0,0:0:0:0:
275,114,103851,6,0,L|408:131,1,134.999995231628
174,101,104251,1,0,0:0:0:0:
64,18,104451,6,0,L|46:151,1,134.999995231628
20,367,104851,1,0,0:0:0:0:
46,151,105051,6,0,L|64:18,1,134.999995231628
34,251,105451,1,0,0:0:0:0:
406,74,105651,5,0,0:0:0:0:
308,121,105851,1,0,0:0:0:0:
219,60,106051,5,0,0:0:0:0:
300,229,106251,1,0,0:0:0:0:
308,121,106451,5,0,0:0:0:0:
219,60,106651,1,0,0:0:0:0:
456,218,106851,1,0,0:0:0:0:
272,167,107051,6,0,B|297:258|272:166|272:166|299:266|299:266|281:197|281:197|301:274|301:274|289:227|289:227|304:282|304:282|295:251|295:251|306:289|306:289|299:266|299:266|308:297|308:297|301:274|301:274|310:305,1,539.999980926514
229,295,107451,6,0,B|221:281|221:281|227:292|227:292|219:278|219:278|225:288|225:288|215:271|215:271|223:285|223:285|209:261|209:261|221:281|221:281|201:247|201:247|219:278|219:278|193:233|193:233|217:275|217:275,1,269.999990463257
110,167,107651,6,0,B|114:182|114:182|110:170|110:170|114:186|114:186|112:174|112:174|117:193|117:193|112:178|112:178|119:205|119:205|114:182|114:182|124:220|124:220|114:186|114:186|128:236|128:236|115:189|115:189,1,269.999990463257
13,221,107851,6,0,B|17:205|17:205|13:217|13:217|17:201|17:201|15:213|15:213|20:194|20:194|15:209|15:209|22:182|22:182|17:205|17:205|27:167|27:167|17:201|17:201|31:151|31:151|18:198|18:198,1,269.999990463257
42,71,108051,5,0,0:0:0:0:
105,58,108151,1,0,0:0:0:0:
170,77,108251,1,0,0:0:0:0:
216,130,108351,1,0,0:0:0:0:
263,183,108451,5,0,0:0:0:0:
210,202,108551,1,0,0:0:0:0:
169,185,108651,1,0,0:0:0:0:
153,158,108751,1,0,0:0:0:0:
272,106,108851,6,0,L|310:283,1,134.999995231628
115,380,109251,2,0,L|153:203,1,134.999995231628
412,314,109651,1,0,0:0:0:0:
43,274,109851,6,0,L|5:97,1,134.999995231628
308,6,110251,2,0,L|270:183,1,134.999995231628
0,331,110651,6,0,L|131:359,1,134.999995231628
412,314,111051,5,0,0:0:0:0:
131,359,111251,1,0,0:0:0:0:
412,314,111451,5,0,0:0:0:0:
0,202,111651,1,0,0:0:0:0:
412,313,111851,1,0,0:0:0:0:
280,342,112051,6,0,L|412:314,1,134.999995231628
488,0,112451,6,0,L|459:131,1,134.999995231628
412,313,112851,1,0,0:0:0:0:
436,222,113051,6,0,L|305:193,1,134.999995231628
256,384,113451,1,0,0:0:0:0:
256,0,113651,6,0,P|192:92|200:162,1,134.999995231628
256,384,114051,2,0,P|255:271|208:219,1,134.999995231628
173,326,114451,5,0,0:0:0:0:
111,298,114551,1,0,0:0:0:0:
84,242,114651,1,0,0:0:0:0:
92,187,114751,5,0,0:0:0:0:
163,243,114851,2,0,P|162:130|115:78,1,134.999995231628
2,0,115251,6,0,L|37:159,1,134.999995231628
256,192,115651,2,0,L|183:305,1,134.999995231628
0,297,116051,2,0,P|77:344|176:325,1,134.999995231628
418,276,116451,1,0,0:0:0:0:
292,127,116651,2,0,P|301:194|341:247,1,134.999995231628
512,218,117051,6,0,P|458:177|392:168,1,134.999995231628
137,278,117451,5,0,0:0:0:0:
48,232,117651,1,0,0:0:0:0:
214,226,117851,5,0,0:0:0:0:
287,158,118051,1,0,0:0:0:0:
48,232,118251,1,0,0:0:0:0:
305,309,118451,5,0,0:0:0:0:
207,356,118651,1,0,0:0:0:0:
386,335,118851,5,0,0:0:0:0:
375,226,119051,1,0,0:0:0:0:
200,268,119251,5,0,0:0:0:0:
306,294,119451,1,0,0:0:0:0:
48,232,119651,1,0,0:0:0:0:
70,104,119851,6,0,B|162:129|69:104|69:104|170:131|170:131|102:113|102:113|178:133|178:133|131:121|131:121|185:135|185:135|154:127|154:127|193:137|193:137|170:131|170:131|201:139|201:139|178:133|178:133|209:141,1,539.999980926514
219,233,120251,6,0,B|233:225|233:225|222:231|222:231|236:223|236:223|226:229|226:229|243:219|243:219|229:227|229:227|253:213|253:213|233:225|233:225|267:205|267:205|236:223|236:223|281:197|281:197|239:221|239:221,1,269.999990463257
390,153,120451,6,0,B|365:194|390:152|390:152|364:197|364:197|382:166|382:166|362:200|362:200|374:180|374:180|360:204|360:204|368:190|368:190|358:207|358:207|364:197|364:197|356:211|356:211|362:200|362:200|354:214,1,269.999990463257
467,285,120651,6,0,B|464:272|464:272|467:284|467:284|462:269|462:269|466:280|466:280|460:261|460:261|464:277|464:277|457:250|457:250|464:272|464:272|453:234|453:234|462:269|462:269|449:219|449:219|461:265|449:219,1,269.999990463257
384,13,120851,5,0,0:0:0:0:
351,52,120951,1,0,0:0:0:0:
371,101,121051,1,0,0:0:0:0:
415,117,121151,1,0,0:0:0:0:
459,85,121251,5,0,0:0:0:0:
496,88,121351,1,0,0:0:0:0:
512,119,121451,2,0,L|507:218,1,67.4999976158142
500,384,121651,1,0,0:0:0:0:
423,245,121851,5,0,0:0:0:0:
344,312,122051,1,0,0:0:0:0:
303,292,122251,1,0,0:0:0:0:
219,269,122451,1,0,0:0:0:0:
242,227,122651,1,0,0:0:0:0:
79,337,122851,2,0,P|76:288|120:225,1,101.249996423721
242,226,123251,2,0,P|214:269|170:292,1,101.249996423721
74,58,123651,6,0,P|122:50|189:89,1,101.249996423721
76,239,124051,2,0,P|68:190|107:123,1,101.249996423721
120,104,124451,1,0,0:0:0:0:
120,104,124651,5,0,0:0:0:0:
149,262,124851,1,0,0:0:0:0:
271,354,125051,5,0,0:0:0:0:
318,270,125251,1,0,0:0:0:0:
323,225,125451,1,0,0:0:0:0:
292,135,125651,1,0,0:0:0:0:
325,107,125851,1,0,0:0:0:0:
486,162,126051,2,0,P|453:125|377:111,1,101.249996423721
131,313,126451,6,0,P|99:276|100:199,1,101.249996423721
270,62,126851,2,0,P|297:102|291:179,1,101.249996423721
194,350,127251,5,0,0:0:0:0:
124,261,127451,1,0,0:0:0:0:
138,213,127651,1,0,0:0:0:0:
72,101,127851,1,0,0:0:0:0:
205,42,128051,6,0,L|196:89,1,44.5499982904816
54,323,128451,2,0,L|62:276,1,44.5499982904816
272,365,128851,2,0,P|299:324|292:247,1,101.249996423721
228,299,129251,5,0,0:0:0:0:
458,346,129451,2,0,L|466:299,1,44.5499982904816
311,287,129851,5,0,0:0:0:0:
507,158,130051,2,0,L|480:119,1,44.5499982904816
157,133,130451,2,0,L|132:97,1,44.5499982904816
507,158,130851,1,0,0:0:0:0:
200,288,131251,6,0,L|208:241,1,44.5499982904816
239,14,131651,2,0,L|285:22,1,44.5499982904816
158,222,132051,2,0,P|110:211|61:151,1,101.249996423721
146,145,132451,5,0,0:0:0:0:
374,176,132651,2,0,L|365:129,1,44.5499982904816
358,62,133051,5,0,0:0:0:0:
20,212,133251,2,0,L|28:165,1,44.5499982904816
41,80,133651,5,0,0:0:0:0:
41,80,133851,1,0,0:0:0:0:
138,167,134051,5,0,0:0:0:0:
225,193,134184,5,0,0:0:0:0:
314,176,134317,5,0,0:0:0:0:
385,116,134451,5,0,0:0:0:0:
457,0,134651,5,0,0:0:0:0:
445,189,134851,1,0,0:0:0:0:
504,98,135051,1,0,0:0:0:0:
281,206,135251,2,0,P|322:232|399:225,1,101.249996423721
225,21,135651,2,0,P|198:62|205:139,1,101.249996423721
270,379,136051,2,0,P|268:329|136:245,1,202.500000572205
30,281,136651,5,0,0:0:0:0:
395,370,136851,2,0,P|421:329|414:252,1,101.249996423721
296,141,137251,6,0,P|337:115|414:122,1,101.249996423721
113,302,137651,2,0,P|70:214|106:123,1,202.500000572205
395,295,138251,5,0,0:0:0:0:
29,383,138451,2,0,P|2:341|9:264,1,101.250000286102
398,185,138851,6,0,P|396:234|352:287,1,87.7499928836826
0,290,139251,2,0,P|46:254|237:299,1,229.499996271133
512,317,139851,6,0,P|480:264|146:248,1,425.249972002031
512,384,140651,1,0,0:0:0:0:
144,384,140851,6,0,P|141:334|185:271,1,101.250000286102
399,306,141251,2,0,P|426:264|418:188,1,101.250000286102
57,191,141651,2,0,P|98:218|175:210,1,101.250000286102
345,95,142051,1,0,0:0:0:0:
0,125,142251,2,0,P|-10:60|21:2,1,134.999995231628
182,381,142851,1,0,0:0:0:0:
182,381,143051,5,0,0:0:0:0:
182,381,143251,2,0,L|202:279,1,101.250000286102
257,0,143551,2,0,L|277:102,1,101.250000286102
357,384,143851,1,0,0:0:0:0:
441,88,144051,1,0,0:0:0:0:
441,88,144651,5,0,0:0:0:0:
74,348,144851,1,0,0:0:0:0:
74,348,145251,5,0,0:0:0:0:
320,344,145451,2,0,B|320:312|320:312|320:336|320:336|320:304|320:304|320:328|320:328|320:288|320:288|320:320|320:320|320:264|320:264|320:312|320:312|320:232|320:232|320:304|320:304|320:200|320:200|320:296|320:296,1,539.999980926514
328,117,145851,6,0,B|304:158|328:116|328:116|302:161|302:161|320:130|320:130|300:164|300:164|312:144|312:144|298:168|298:168|306:154|306:154|296:171|296:171|302:161|302:161|294:175|294:175|300:164|300:164|292:178,1,269.999990463257
225,211,146051,6,0,B|248:169|224:211|224:211|250:166|250:166|232:197|232:197|252:163|252:163|240:183|240:183|254:159|254:159|246:173|246:173|256:156|256:156|250:166|250:166|258:152|258:152|252:163|252:163|260:149,1,269.999990463257
248,80,146251,6,0,B|224:121|248:79|248:79|222:124|222:124|240:93|240:93|220:127|220:127|232:107|232:107|218:131|218:131|226:117|226:117|216:134|216:134|222:124|222:124|214:138|214:138|220:127|220:127|212:141,1,269.999990463257
115,291,146451,1,0,0:0:0:0:
115,291,146651,5,0,0:0:0:0:
115,291,146851,5,0,0:0:0:0:
182,297,146951,1,0,0:0:0:0:
249,304,147051,1,0,0:0:0:0:
316,311,147151,1,0,0:0:0:0:
383,318,147251,1,0,0:0:0:0:
443,71,150851,6,0,P|353:78|277:171,1,202.499992847443
97,261,151251,2,0,P|184:309|280:284,1,202.499992847443
200,184,151651,5,0,0:0:0:0:
19,185,151851,2,0,P|49:99|158:50,1,202.499992847443
406,191,152451,2,0,P|347:261|228:270,1,202.499992847443
124,262,152851,5,0,0:0:0:0:
144,200,152951,1,0,0:0:0:0:
193,154,153051,1,0,0:0:0:0:
262,140,153151,1,0,0:0:0:0:
319,188,153251,5,0,0:0:0:0:
360,157,153351,1,0,0:0:0:0:
379,109,153451,1,0,0:0:0:0:
361,60,153551,1,0,0:0:0:0:
234,26,153651,6,0,L|98:106,1,134.999995231628
0,164,154051,2,0,L|136:244,1,134.999995231628
240,305,154451,2,0,L|104:385,1,134.999995231628
319,258,154851,5,0,0:0:0:0:
128,169,155051,2,0,P|218:195|346:133,1,202.499992847443
490,30,155451,1,0,0:0:0:0:
468,115,155651,2,0,L|428:249,1,134.999995231628
187,329,156051,5,0,0:0:0:0:
253,346,156151,1,0,0:0:0:0:
319,364,156251,1,0,0:0:0:0:
386,380,156351,1,0,0:0:0:0:
459,309,156451,5,0,0:0:0:0:
189,377,156651,1,0,0:0:0:0:
117,151,156851,5,0,0:0:0:0:
280,306,157051,1,0,0:0:0:0:
59,327,157251,6,0,P|50:247|156:136,1,202.499992847443
265,221,157651,2,0,P|294:146|220:11,1,202.499992847443
117,151,158051,5,0,0:0:0:0:
441,39,158251,2,0,P|430:137|358:204,1,202.499992847443
327,78,158651,5,0,0:0:0:0:
2,189,158851,2,0,P|71:261|170:268,1,202.499992847443
200,340,159251,5,0,0:0:0:0:
49,31,159451,2,0,P|148:28|223:93,1,202.499992847443
111,129,159851,5,0,0:0:0:0:
297,82,160051,2,0,L|429:51,1,134.999995231628
0,155,160451,2,0,L|39:315,1,134.999995231628
301,314,160851,2,0,L|454:330,1,134.999995231628
210,300,161251,5,0,0:0:0:0:
512,17,161451,2,0,B|487:109|512:16|512:16|485:117|485:117|503:49|503:49|483:125|483:125|495:78|495:78|481:132|481:132|489:101|489:101|479:140|479:140|485:117|485:117|477:148|477:148|483:125|483:125|475:156,1,539.999980926514
313,147,161851,6,0,B|327:139|327:139|316:145|316:145|330:137|330:137|320:143|320:143|337:133|337:133|323:141|323:141|347:127|347:127|327:139|327:139|361:119|361:119|330:137|330:137|375:111|375:111|333:135|333:135,1,269.999990463257
380,222,162051,6,0,B|355:263|380:221|380:221|354:266|354:266|372:235|372:235|352:269|352:269|364:249|364:249|350:273|350:273|358:259|358:259|348:276|348:276|354:266|354:266|346:280|346:280|352:269|352:269|344:283,1,269.999990463257
212,325,162251,6,0,B|215:312|215:312|212:324|212:324|217:309|217:309|213:320|213:320|219:301|219:301|215:317|215:317|222:290|222:290|215:312|215:312|226:274|226:274|217:309|217:309|230:259|230:259|218:305|230:259,1,269.999990463257
116,365,162451,5,0,0:0:0:0:
75,338,162551,1,0,0:0:0:0:
50,294,162651,1,0,0:0:0:0:
54,241,162751,1,0,0:0:0:0:
122,264,162851,5,0,0:0:0:0:
149,248,162951,1,0,0:0:0:0:
166,207,163051,1,0,0:0:0:0:
147,154,163151,1,0,0:0:0:0:
53,115,163251,6,0,L|74:173,1,44.5499982904816
426,36,163651,2,0,B|501:4|588:177|321:162|361:390,1,405.000001144409
145,369,164251,2,0,P|57:323|22:231,1,202.499992847443
236,359,164651,1,0,0:0:0:0:
478,312,164851,5,0,0:0:0:0:
344,296,165051,1,0,0:0:0:0:
494,178,165251,1,0,0:0:0:0:
11,102,165451,5,0,0:0:0:0:
278,69,165651,1,0,0:0:0:0:
43,369,165851,1,0,0:0:0:0:
311,337,166051,1,0,0:0:0:0:
11,102,166251,1,0,0:0:0:0:
135,68,166451,6,0,P|124:165|44:223,1,202.499992847443
206,11,166851,6,0,B|210:95|334:106|379:32|471:74|514:154,1,337.499988079071
337,355,167451,6,0,P|348:257|429:201,1,202.499992847443
462,322,167851,5,0,0:0:0:0:
65,372,168051,2,0,P|163:360|220:280,1,202.499992847443
348,303,168451,2,0,P|336:205|256:148,1,202.499992847443
174,264,168851,5,0,0:0:0:0:
132,234,168951,1,0,0:0:0:0:
110,190,169051,1,0,0:0:0:0:
110,139,169151,1,0,0:0:0:0:
53,262,169251,6,0,L|115:129,1,134.999995231628
265,125,169651,2,0,L|322:2,1,134.999995231628
176,318,170051,6,0,P|117:242|118:110,1,202.499992847443
279,188,170451,2,0,P|378:181|458:121,1,202.499992847443
339,80,170851,5,0,0:0:0:0:
339,80,171051,1,0,0:0:0:0:
449,319,171251,5,0,0:0:0:0:
504,223,171451,1,0,0:0:0:0:
334,355,171651,5,0,0:0:0:0:
224,336,171851,1,0,0:0:0:0:
433,262,172051,2,0,L|240:332,1,134.999995231628
90,384,172451,5,0,0:0:0:0:
200,365,172651,1,0,0:0:0:0:
0,317,172851,2,0,B|9:296|9:296|1:317|1:317|11:288|11:288|3:310|3:310|17:272|17:272|6:302|6:302|25:250|25:250|9:296|9:296|35:222|35:222|11:288|11:288|52:175|52:175|14:280|52:175,1,539.999980926514
178,219,173251,5,0,0:0:0:0:
49,0,173451,2,0,B|40:21|40:21|48:0|48:0|38:29|38:29|46:7|46:7|32:45|32:45|43:15|43:15|24:67|24:67|40:21|40:21|14:95|14:95|38:29|38:29|-3:142|-3:142|35:37|-3:142,1,539.999980926514
292,364,173851,5,0,0:0:0:0:
131,297,174051,1,0,0:0:0:0:
461,260,174251,2,0,B|452:238|452:238|460:260|460:260|450:230|450:230|458:252|458:252|444:214|444:214|455:244|455:244|436:192|436:192|452:238|452:238|426:164|426:164|450:230|450:230|409:118|409:118|447:222|408:117,1,539.999980926514
215,257,174651,6,0,B|190:298|215:256|215:256|189:301|189:301|207:270|207:270|187:304|187:304|199:284|199:284|185:308|185:308|193:294|193:294|183:311|183:311|189:301|189:301|181:315|181:315|187:304|187:304|179:318,1,269.999990463257
330,330,174851,6,0,B|333:317|333:317|330:329|330:329|335:314|335:314|331:325|331:325|337:306|337:306|333:322|333:322|340:295|340:295|333:317|333:317|344:279|344:279|335:314|335:314|348:264|348:264|336:310|348:264,1,269.999990463257
135,221,175051,6,0,B|131:209|131:209|135:221|135:221|129:205|129:205|133:217|133:217|127:197|127:197|131:213|131:213|124:186|124:186|131:209|131:209|120:170|120:170|129:205|129:205|116:155|116:155|128:201|116:155,1,269.999990463257
231,121,175251,5,0,0:0:0:0:
240,102,175351,1,0,0:0:0:0:
249,89,175451,1,0,0:0:0:0:
257,74,175551,1,0,0:0:0:0:
208,35,175651,2,0,B|217:57|217:57|209:35|209:35|219:65|219:65|211:42|211:42|225:81|225:81|214:51|214:51|233:103|233:103|217:57|217:57|243:131|243:131|219:65|219:65|260:177|260:177|222:72|261:178,1,539.999980926514
