osu file format v14

[General]
AudioFilename: audio.mp3
AudioLeadIn: 0
PreviewTime: 150233
Countdown: 0
SampleSet: Soft
StackLeniency: 0.7
Mode: 0
LetterboxInBreaks: 0
WidescreenStoryboard: 0

[Editor]
DistanceSpacing: 0.6
BeatDivisor: 4
GridSize: 8
TimelineZoom: 1

[Metadata]
Title:LOONATIC
TitleUnicode:LOONATIC
Artist:LOONA/ODD EYE CIRCLE
ArtistUnicode:이달의 소녀 오드아이써클
Creator:X4D
Version:ETHEREAL
Source:
Tags:mix & and match LOOΠΔ Kim Lip 김립 JinSoul 진솔 Choerry 최리 subunit sub-unit kpop k-pop
BeatmapID:2120996
BeatmapSetID:1013327

[Difficulty]
HPDrainRate:5
CircleSize:4
OverallDifficulty:8.5
ApproachRate:9.3
SliderMultiplier:1.4
SliderTickRate:1

[Events]
//Background and Video events
0,0,"352497.jpg",0,0
//Break Periods
//Storyboard Layer 0 (Background)
//Storyboard Layer 1 (Fail)
//Storyboard Layer 2 (Pass)
//Storyboard Layer 3 (Foreground)
//Storyboard Sound Samples

[TimingPoints]
233,400,4,2,1,90,1,0
233,-200,4,2,1,90,0,0
533,-200,4,2,1,5,0,0
633,-200,4,2,1,90,0,0
933,-200,4,2,1,5,0,0
1033,-200,4,2,1,90,0,0
1333,-200,4,2,1,5,0,0
1433,-200,4,2,1,90,0,0
1733,-200,4,2,1,5,0,0
1833,-200,4,2,1,90,0,0
2933,-200,4,2,1,40,0,0
3033,-200,4,2,1,90,0,0
3433,-90.9090909090909,4,2,1,90,0,0
16233,-83.3333333333333,4,2,1,90,0,0
29033,-100,4,2,1,90,0,0
40033,-71.4285714285714,4,2,1,90,0,0
41833,-133.333333333333,4,2,1,90,0,1
42233,-71.4285714285714,4,2,1,90,0,1
67433,-200,4,2,1,90,0,0
67733,-200,4,2,1,5,0,0
67833,-200,4,2,1,90,0,0
68133,-200,4,2,1,5,0,0
68233,-200,4,2,1,90,0,0
68533,-200,4,2,1,5,0,0
68633,-200,4,2,1,90,0,0
68933,-200,4,2,1,5,0,0
69033,-200,4,2,1,90,0,0
70133,-200,4,2,1,40,0,0
70233,-200,4,2,1,90,0,0
70633,-90.9090909090909,4,2,1,90,0,0

[Colours]
Combo1 : 228,186,194
Combo2 : 243,160,237
Combo3 : 194,173,199
Combo4 : 208,128,89

[HitObjects]
90,327,233,6,0,P|116:305|150:309,1,52.5000020027161
133,303,633,2,0,P|107:325|73:321,1,52.5000020027161
90,327,1033,2,0,P|116:305|150:309,1,52.5000020027161
133,303,1433,2,0,P|107:325|73:321,1,52.5000020027161
90,327,1833,2,0,P|116:305|150:309,1,52.5000020027161
216,343,2233,5,0,0:0:0:0:
216,343,2433,1,0,0:0:0:0:
332,371,2633,5,0,0:0:0:0:
306,217,2733,1,0,0:0:0:0:
280,63,2833,1,0,0:0:0:0:
281,73,2933,1,0,0:0:0:0:
244,146,3033,5,0,0:0:0:0:
233,146,3133,1,0,0:0:0:0:
224,139,3233,1,0,0:0:0:0:
220,129,3333,1,0,0:0:0:0:
166,22,3433,6,0,P|179:94|188:177,1,154.000004699707
187,174,4433,1,0,0:0:0:0:
24,262,4633,2,0,P|79:266|92:285,1,77.0000023498536
236,333,5033,6,0,B|298:329|298:329|305:324|305:324|392:320,1,154.000004699707
482,227,5833,2,0,B|398:230|398:230|391:235|391:235|329:239,1,154.000004699707
329,239,6433,1,0,0:0:0:0:
287,137,6633,6,0,B|323:69|323:69|372:140,1,154.000004699707
367,133,7633,1,0,0:0:0:0:
487,41,7833,2,0,P|458:64|421:59,1,77.0000023498536
137,25,8233,5,0,0:0:0:0:
474,160,8633,1,0,0:0:0:0:
228,355,9033,5,0,0:0:0:0:
221,161,9333,1,0,0:0:0:0:
221,161,9433,1,0,0:0:0:0:
335,245,9633,6,0,L|264:228,1,38.5000011749268
101,193,9833,6,0,B|115:200|115:200|111:268,1,77.0000023498536
330,142,10233,2,0,B|326:80|326:80|340:73,1,77.0000023498536
147,57,10633,6,0,B|114:61|114:61|112:58|112:58|72:62,1,77.0000023498536
147,57,11033,1,0,0:0:0:0:
364,57,11233,2,0,B|398:61|398:61|400:58|400:58|440:62,1,77.0000023498536
364,57,11633,1,0,0:0:0:0:
147,57,11833,2,0,B|114:61|114:61|112:58|112:58|72:62,1,77.0000023498536
232,231,12233,6,0,B|278:225|294:163|259:129|259:129|241:151|208:149,1,154.000004699707
241,143,12833,1,0,0:0:0:0:
309,289,13033,6,0,B|342:270|352:229|352:229|378:266|417:263,1,154.000004699707
379,350,13633,1,0,0:0:0:0:
186,326,13833,6,0,B|146:324|120:361|120:361|110:320|78:301,1,154.000004699707
37,73,14633,5,0,0:0:0:0:
39,84,14833,1,0,0:0:0:0:
50,81,15033,1,0,0:0:0:0:
48,70,15233,1,0,0:0:0:0:
0,191,15433,5,0,0:0:0:0:
3,188,15533,1,0,0:0:0:0:
6,189,15633,1,0,0:0:0:0:
8,186,15733,1,0,0:0:0:0:
94,257,15833,5,0,0:0:0:0:
53,205,15933,1,0,0:0:0:0:
85,139,16033,1,0,0:0:0:0:
165,144,16133,1,0,0:0:0:0:
179,231,16233,6,0,P|246:222|309:217,1,125.999996154785
397,262,16633,2,0,P|434:220|434:183,1,83.9999974365235
403,43,17033,1,0,0:0:0:0:
361,127,17233,1,0,0:0:0:0:
401,354,17433,2,0,P|447:347|492:344,1,83.9999974365235
203,291,17833,5,0,0:0:0:0:
151,208,18033,1,0,0:0:0:0:
297,251,18233,1,0,0:0:0:0:
170,368,18433,1,0,0:0:0:0:
10,300,18633,6,0,B|35:302|35:302|41:300|41:300|106:307,1,83.9999974365235
327,154,19033,2,0,B|274:148|274:148|268:150|268:150|243:148,1,83.9999974365235
26,129,19433,1,0,0:0:0:0:
119,40,19633,5,0,0:0:0:0:
117,48,19833,1,0,0:0:0:0:
118,56,20033,1,0,0:0:0:0:
89,192,20233,2,0,P|139:188|167:148,1,83.9999974365235
26,129,20633,1,0,0:0:0:0:
132,267,20833,1,0,0:0:0:0:
44,360,21033,6,0,B|38:307|38:307|40:301|40:301|38:276,1,83.9999974365235
44,360,21433,1,0,0:0:0:0:
267,290,21633,2,0,B|272:237|272:237|270:231|270:231|272:206,1,83.9999974365235
323,73,22033,1,0,0:0:0:0:
328,88,22133,1,0,0:0:0:0:
323,104,22233,6,0,B|298:106|298:106|292:104|292:104|239:109,1,83.9999974365235
23,47,22633,6,0,P|74:16|111:30,1,83.9999974365235
65,192,23033,2,0,P|12:163|6:124,1,83.9999974365235
170,84,23433,2,0,P|171:143|140:168,1,83.9999974365235
246,194,23833,1,0,0:0:0:0:
189,315,24033,2,0,P|240:284|277:298,1,83.9999974365235,0|0,0:0|0:0,0:0:0:0:
246,194,24433,1,0,0:0:0:0:
379,184,24633,2,0,P|340:171|320:135,1,83.9999974365235
485,76,25033,2,0,P|486:135|455:160,1,83.9999974365235
338,39,25433,2,0,P|389:8|426:22,1,83.9999974365235
454,259,25833,5,0,0:0:0:0:
454,259,26233,2,0,P|395:246|311:231,1,125.999996154785
301,308,26633,2,0,P|254:322|190:345,1,83.9999974365235
57,301,27033,1,0,0:0:0:0:
85,314,27433,6,0,B|76:226|17:253|13:161,1,167.999994873047
88,116,28033,1,0,0:0:0:0:
218,211,28233,5,0,0:0:0:0:
234,215,28333,1,0,0:0:0:0:
230,198,28433,1,0,0:0:0:0:
214,194,28533,1,0,0:0:0:0:
218,211,28633,5,0,0:0:0:0:
309,225,28733,1,0,0:0:0:0:
400,239,28833,1,0,0:0:0:0:
104,335,29033,6,0,P|57:309|75:229,1,140
69,233,29633,1,0,0:0:0:0:
104,49,29833,6,0,P|57:75|75:155,1,140
69,150,30433,1,0,0:0:0:0:
300,114,30633,6,0,L|223:109,1,70
230,274,31033,2,0,L|300:270,1,70
344,36,31433,6,0,L|190:26,1,140
408,335,32233,6,0,P|455:309|437:229,1,140
442,233,32833,1,0,0:0:0:0:
408,49,33033,6,0,P|455:75|437:155,1,140
442,150,33633,1,0,0:0:0:0:
212,114,33833,6,0,L|289:109,1,70
281,274,34233,2,0,L|212:270,1,70
75,229,34633,6,0,B|51:199|51:199|79:161,2,70
75,229,35433,6,0,L|152:224,1,70
151,302,35833,2,0,L|81:306,1,70
330,268,36233,6,0,L|253:263,1,70
323,345,36633,1,0,0:0:0:0:
254,341,36833,2,0,L|323:345,1,70
496,275,37233,1,0,0:0:0:0:
414,244,37433,2,0,L|418:313,1,70
418,313,37833,1,0,0:0:0:0:
407,143,38233,6,0,L|402:73,1,70
402,73,38633,1,0,0:0:0:0:
86,53,39433,6,0,L|103:104,1,35
193,146,39633,2,0,L|140:135,1,35
59,191,39833,2,0,L|94:150,1,35
356,195,40033,6,0,B|357:156|336:118|319:99|276:88|167:56|177:155|184:202|195:251|119:253|6:251|-25:180|-47:89|12:8|150:-35|211:86|181:150,1,685.999979064942
468,349,41833,6,0,L|387:344,1,78.7500030040742
314,375,42233,6,0,B|348:356|348:356|333:254,1,97.9999970092774
173,129,42633,2,0,B|139:148|139:148|154:250,1,97.9999970092774
170,338,43033,1,0,0:0:0:0:
101,289,43233,6,0,B|169:294|169:294|176:301|176:301|266:309,1,146.999995513916
244,307,43633,1,0,0:0:0:0:
399,98,43833,6,0,B|392:56|392:56|364:28|323:34,1,97.9999970092774
290,179,44233,2,0,B|297:221|297:221|325:249|366:243,1,97.9999970092774
433,190,44633,1,0,0:0:0:0:
260,89,44833,1,0,0:0:0:0:
68,255,45033,5,0,0:0:0:0:
179,200,45233,2,0,L|118:189,1,48.9999985046387
140,316,45433,2,0,L|236:333,1,97.9999970092774
448,261,45833,5,0,0:0:0:0:
401,336,46033,2,0,P|427:351|457:348,1,48.9999985046387
446,173,46233,2,0,P|421:175|401:188,1,48.9999985046387
328,240,46433,6,0,B|308:219|282:214|253:235|253:235|269:200|266:162|225:136,1,195.999994018555
135,217,47033,1,0,0:0:0:0:
37,93,47233,1,0,0:0:0:0:
0,172,47433,6,0,L|15:300,1,97.9999970092774
14,285,47733,1,0,0:0:0:0:
146,314,47833,2,0,L|134:216,1,97.9999970092774
251,38,48233,5,0,0:0:0:0:
251,38,48433,1,0,0:0:0:0:
408,136,48633,6,0,P|387:93|319:86,1,97.9999970092774
223,247,49033,2,0,P|244:290|312:297,1,97.9999970092774
178,368,49433,1,0,0:0:0:0:
412,286,49633,6,0,P|357:286|319:371,1,146.999995513916
316,359,50033,1,0,0:0:0:0:
105,266,50233,6,0,B|95:255|95:255|-10:282,1,97.9999970092774
34,178,50633,1,0,0:0:0:0:
277,61,50833,6,0,B|287:72|287:72|392:45,1,97.9999970092774
348,149,51233,1,0,0:0:0:0:
89,97,51433,5,0,0:0:0:0:
159,15,51633,2,0,B|188:27|188:27|168:46,1,48.9999985046387
143,259,51833,2,0,B|168:251|168:251|200:148,1,97.9999970092774
63,355,52233,5,0,0:0:0:0:
149,361,52433,2,0,L|85:351,1,48.9999985046387
234,311,52633,1,0,0:0:0:0:
387,375,52833,6,0,B|438:359|448:285|388:254|388:254|370:277|347:279,1,195.999994018555
239,200,53433,1,0,0:0:0:0:
326,75,53633,1,0,0:0:0:0:
488,174,53833,5,0,0:0:0:0:
476,183,53933,1,0,0:0:0:0:
461,184,54033,1,0,0:0:0:0:
447,178,54133,1,0,0:0:0:0:
444,71,54233,5,0,0:0:0:0:
456,62,54333,1,0,0:0:0:0:
471,61,54433,1,0,0:0:0:0:
485,67,54533,1,0,0:0:0:0:
447,178,54633,6,0,L|279:195,1,146.999995513916
192,197,55033,6,0,P|281:194|277:280,1,195.999994018555
17,140,55633,2,0,P|3:94|74:83,1,97.9999970092774
163,377,56033,2,0,B|55:355|132:267|-6:243,1,195.999994018555
25,250,56633,1,0,0:0:0:0:
249,122,56833,6,0,L|228:189,1,48.9999985046387
261,302,57033,1,0,0:0:0:0:
138,188,57233,1,0,0:0:0:0:
410,65,57433,1,0,0:0:0:0:
389,291,57633,5,0,0:0:0:0:
389,291,57733,1,0,0:0:0:0:
389,291,57833,1,0,0:0:0:0:
389,291,58233,6,0,B|352:271|346:222|346:222|306:275|243:253,1,195.999994018555
178,85,58833,2,0,P|241:106|263:150,1,97.9999970092774
178,85,59233,1,0,0:0:0:0:
405,315,59433,5,0,0:0:0:0:
325,346,59633,1,0,0:0:0:0:
267,263,59833,5,0,0:0:0:0:
377,284,60033,1,0,0:0:0:0:
396,171,60233,5,0,0:0:0:0:
171,248,60433,1,0,0:0:0:0:
171,248,60533,1,0,0:0:0:0:
171,248,60633,2,0,L|155:148,1,97.9999970092774
269,20,61033,5,0,0:0:0:0:
269,20,61233,1,0,0:0:0:0:
269,20,61433,6,0,B|302:53|302:53|357:47,1,97.9999970092774
155,151,61833,2,0,B|121:117|121:117|66:123,1,97.9999970092774
156,33,62233,1,0,0:0:0:0:
227,238,62433,6,0,B|333:222|333:222|381:176,1,146.999995513916
361,194,62833,1,0,0:0:0:0:
297,100,63033,2,0,L|291:153,1,48.9999985046387
317,360,63233,5,0,0:0:0:0:
376,297,63433,1,0,0:0:0:0:
297,100,63633,6,0,L|291:153,1,48.9999985046387
228,238,63833,2,0,L|222:291,1,48.9999985046387
92,359,64033,5,0,0:0:0:0:
43,344,64133,1,0,0:0:0:0:
20,262,64233,2,0,P|85:231|132:294,1,146.999995513916
131,277,64633,1,0,0:0:0:0:
182,148,64833,6,0,L|176:99,1,48.9999985046387
89,47,65033,2,0,L|100:145,1,97.9999970092774
89,47,65433,1,0,0:0:0:0:
257,215,65633,6,0,B|288:228|321:193|321:193|357:143|404:128|452:157,1,195.999994018555
459,348,66233,1,0,0:0:0:0:
439,238,66433,1,0,0:0:0:0:
483,1,66633,6,0,L|494:99,1,97.9999970092774
497,115,66933,1,0,0:0:0:0:
374,120,67033,2,0,L|362:21,1,97.9999970092774
248,193,67433,6,0,B|220:201|220:201|199:189,1,52.5
199,189,67833,2,0,B|227:181|227:181|247:192,1,52.5
248,193,68233,2,0,B|220:201|220:201|199:189,1,52.5
199,189,68633,2,0,B|227:181|227:181|247:192,1,52.5
248,193,69033,2,0,B|220:201|220:201|199:189,1,52.5
234,93,69433,5,0,0:0:0:0:
234,93,69633,1,0,0:0:0:0:
402,167,69833,5,0,0:0:0:0:
248,193,69933,1,0,0:0:0:0:
94,219,70033,1,0,0:0:0:0:
83,221,70133,1,0,0:0:0:0:
23,170,70233,5,0,0:0:0:0:
27,160,70333,1,0,0:0:0:0:
36,153,70433,1,0,0:0:0:0:
47,153,70533,1,0,0:0:0:0:
